osu file format v14

[General]
AudioFilename: merry_christmas_to_YUUU.ogg
AudioLeadIn: 0
PreviewTime: 47787
Countdown: 0
SampleSet: Drum
StackLeniency: 0.4
Mode: 0
LetterboxInBreaks: 0
WidescreenStoryboard: 1

[Editor]
Bookmarks: 1217,18645,20930,39215,48358,66644,84074,102359,111787,131215,149500,158643,167786,186072,202072,204929
DistanceSpacing: 1.1
BeatDivisor: 4
GridSize: 32
TimelineZoom: 2.6

[Metadata]
Title:A Very Polish Christmas
TitleUnicode:A Very Polish Christmas
Artist:Sabadu
ArtistUnicode:Sabadu
Creator:Dcs
Version:HyperPigeon's Expert
Source:
Tags:nebuwua sh4rq_ sh3rg_ yary shoyeu hyperpigeon shii shiitsuin roupus english tank power metal powermetal tankmetal sabaton poland santa claus merry xmas x-mas to you in 1942 world war 2 ww2 wwii
BeatmapID:4361850
BeatmapSetID:1992471

[Difficulty]
HPDrainRate:5
CircleSize:4
OverallDifficulty:8.7
ApproachRate:9.3
SliderMultiplier:1.6
SliderTickRate:1

[Events]
//Background and Video events
0,0,"christmas_poster_for_bravocompany_by_thuberchs_dbxgs5u_upscale_crop.png",0,0
//Break Periods
2,18845,19948
2,158843,165501
//Storyboard Layer 0 (Background)
//Storyboard Layer 1 (Fail)
//Storyboard Layer 2 (Pass)
//Storyboard Layer 3 (Foreground)
//Storyboard Layer 4 (Overlay)
//Storyboard Sound Samples

[TimingPoints]
75,285.714285714286,4,3,2,60,1,0
146,-100,4,3,11,60,0,0
217,-100,4,3,10,60,0,0
289,-100,4,3,2,60,0,0
431,-100,4,3,12,60,0,0
502,-100,4,3,10,60,0,0
574,-100,4,3,2,60,0,0
717,-100,4,3,12,60,0,0
788,-100,4,3,2,60,0,0
860,-100,4,3,12,60,0,0
932,-100,4,3,2,60,0,0
1003,-100,4,3,13,60,0,0
1074,-100,4,3,12,60,0,0
1146,-100,4,3,11,60,0,0
1217,285.714285714286,4,3,2,65,1,0
1502,-100,4,3,1,65,0,0
8787,-100,4,3,12,65,0,0
8931,-100,4,3,11,65,0,0
9074,-100,4,3,1,65,0,0
9359,-100,4,3,11,65,0,0
9502,-100,4,3,10,65,0,0
9645,-100,4,3,1,65,0,0
10074,-100,4,3,11,65,0,0
10217,-100,4,3,10,65,0,0
10359,-100,4,3,1,65,0,0
14502,-100,4,3,13,65,0,0
14645,-100,4,3,1,65,0,0
14716,-100,4,3,11,65,0,0
14787,-100,4,3,10,65,0,0
14931,-100,4,3,1,65,0,0
16931,-100,4,3,11,65,0,0
17074,-100,4,3,10,65,0,0
17217,285.714285714286,5,3,1,65,1,0
18074,-100,5,3,1,70,0,0
18288,-100,5,3,1,5,0,0
18359,-100,5,3,1,70,0,0
18573,-100,5,3,1,5,0,0
18645,285.714285714286,4,3,1,60,1,0
20502,-100,4,3,10,60,0,0
20645,-100,4,3,1,60,0,0
20930,285.714285714286,4,3,1,60,1,0
21501,-100,4,3,2,60,0,0
38501,-100,4,3,10,60,0,0
38644,-100,4,3,14,60,0,0
38787,-100,4,3,11,60,0,0
38930,-100,4,3,2,60,0,0
39072,-100,4,3,10,60,0,0
39215,-100,4,3,2,65,0,0
39501,-100,4,3,1,65,0,0
45358,-100,4,3,14,65,0,0
45501,-100,4,3,2,65,0,0
45787,-100,4,3,11,65,0,0
45929,-100,4,3,10,65,0,0
46072,-100,4,3,1,80,0,0
48358,-90.9090909090909,4,3,1,75,0,1
48929,-90.9090909090909,4,3,3,75,0,1
50500,-90.9090909090909,4,3,10,75,0,1
50644,-90.9090909090909,4,3,3,75,0,1
52501,-90.9090909090909,4,3,11,75,0,1
52644,-90.9090909090909,4,3,3,75,0,1
52786,-90.9090909090909,4,3,10,75,0,1
52930,-90.9090909090909,4,3,3,75,0,1
56215,-90.9090909090909,4,3,10,75,0,1
56358,-90.9090909090909,4,3,3,75,0,1
57215,-90.9090909090909,4,3,12,75,0,1
57358,-90.9090909090909,4,3,10,75,0,1
57501,-90.9090909090909,4,3,3,75,0,1
59644,-90.9090909090909,4,3,10,75,0,1
59787,-90.9090909090909,4,3,3,75,0,1
64930,-90.9090909090909,4,3,13,75,0,1
65072,-90.9090909090909,4,3,3,75,0,1
65358,-90.9090909090909,4,3,10,75,0,1
65501,-90.9090909090909,4,3,3,75,0,1
66072,-90.9090909090909,4,3,1,75,0,1
66644,-100,4,3,1,65,0,0
75357,-100,4,3,11,65,0,0
75501,-100,4,3,1,65,0,0
75644,-100,4,3,10,65,0,0
75787,-100,4,3,1,65,0,0
82501,-100,4,3,12,65,0,0
82645,285.714285714286,5,3,1,80,1,0
82930,-100,5,3,1,65,0,0
83216,-100,5,3,1,50,0,0
83502,-100,5,3,1,70,0,0
83716,-100,5,3,1,5,0,0
83787,-100,5,3,1,70,0,0
84001,-100,5,3,1,5,0,0
84074,285.714285714286,4,3,1,60,1,0
84359,-100,4,3,2,60,0,0
101216,-100,4,3,12,60,0,0
101359,-100,4,3,11,60,0,0
101502,-100,4,3,2,60,0,0
101788,-100,4,3,10,60,0,0
101931,-100,4,3,2,60,0,0
102074,-100,4,3,10,60,0,0
102288,-100,4,3,13,60,0,0
102359,-100,4,3,2,65,0,0
102645,-100,4,3,1,65,0,0
108074,-100,4,3,13,65,0,0
108216,-100,4,3,11,65,0,0
108359,-100,4,3,1,65,0,0
108502,-100,4,3,10,65,0,0
108645,-100,4,3,1,65,0,0
108788,-100,4,3,12,65,0,0
108931,-100,4,3,11,65,0,0
109073,-100,4,3,10,65,0,0
109216,-100,4,3,1,80,0,0
110359,285.714285714286,5,3,1,60,1,0
111787,285.714285714286,4,3,1,75,1,1
111787,-90.9090909090909,4,3,1,75,0,1
112357,-90.9090909090909,4,3,3,75,0,1
115644,-90.9090909090909,4,3,1,75,0,1
115929,-90.9090909090909,4,3,12,75,0,1
116072,-90.9090909090909,4,3,3,75,0,1
116214,-90.9090909090909,4,3,10,75,0,1
116358,-90.9090909090909,4,3,3,75,0,1
119644,-90.9090909090909,4,3,10,75,0,1
119787,-90.9090909090909,4,3,3,75,0,1
120644,-90.9090909090909,4,3,11,75,0,1
120787,-90.9090909090909,4,3,3,75,0,1
124787,-90.9090909090909,4,3,1,75,0,1
125072,-90.9090909090909,4,3,13,75,0,1
125215,-90.9090909090909,4,3,11,75,0,1
125358,-90.9090909090909,4,3,10,75,0,1
125501,-90.9090909090909,4,3,3,75,0,1
128787,-90.9090909090909,4,3,10,75,0,1
128929,-90.9090909090909,4,3,3,75,0,1
129501,-90.9090909090909,4,3,1,75,0,1
130072,-90.9090909090909,4,3,1,65,0,0
130358,-90.9090909090909,4,3,1,55,0,0
131215,285.714285714286,4,3,1,65,1,0
139215,-100,4,3,10,65,0,0
139357,-100,4,3,11,65,0,0
139500,-100,4,3,2,65,0,0
139714,-100,4,3,13,65,0,0
139786,-100,4,3,12,65,0,0
139929,-100,4,3,11,65,0,0
140072,-100,4,3,10,65,0,0
140215,-100,4,3,1,65,0,0
144500,-100,4,3,11,65,0,0
144643,-100,4,3,10,65,0,0
144786,-100,4,3,1,65,0,0
147643,-100,4,3,2,65,0,0
147714,-100,4,3,11,65,0,0
147786,-100,4,3,2,65,0,0
148000,-100,4,3,11,65,0,0
148072,-100,4,3,2,65,0,0
148357,-100,4,3,12,65,0,0
148500,-100,4,3,11,65,0,0
148643,-100,4,3,10,65,0,0
148785,-100,4,3,2,65,0,0
149000,-100,4,3,13,65,0,0
149072,-100,4,3,2,65,0,0
149215,-100,4,3,11,65,0,0
149357,-100,4,3,10,65,0,0
149500,-90.9090909090909,4,3,1,75,0,1
153929,-90.9090909090909,4,3,10,75,0,1
154072,-90.9090909090909,4,3,1,75,0,1
156215,-90.9090909090909,4,3,10,75,0,1
156357,-90.9090909090909,4,3,1,75,0,1
157429,-90.9090909090909,4,3,13,75,0,1
157500,-90.9090909090909,4,3,1,75,0,1
157643,-90.9090909090909,4,3,10,75,0,1
157786,-90.9090909090909,4,3,1,75,0,1
157929,-90.9090909090909,4,3,14,75,0,1
158072,-90.9090909090909,4,3,13,75,0,1
158215,-90.9090909090909,4,3,12,75,0,1
158357,-90.9090909090909,4,3,11,75,0,1
158500,-90.9090909090909,4,3,10,75,0,1
158643,-90.9090909090909,4,3,1,60,0,0
166357,-90.9090909090909,4,3,1,45,0,0
166500,-125,4,3,10,60,0,0
166643,-125,4,3,1,80,0,0
167786,-83.3333333333333,4,3,1,75,0,1
168357,-83.3333333333333,4,3,3,75,0,1
171643,-83.3333333333333,4,3,11,75,0,1
171786,-83.3333333333333,4,3,10,75,0,1
171929,-83.3333333333333,4,3,12,75,0,1
172072,-83.3333333333333,4,3,10,75,0,1
172215,-83.3333333333333,4,3,3,75,0,1
175500,-83.3333333333333,4,3,13,55,0,1
175643,-83.3333333333333,4,3,10,55,0,1
175786,-83.3333333333333,4,3,3,75,0,1
176643,-83.3333333333333,4,3,12,75,0,1
176786,-83.3333333333333,4,3,11,75,0,1
176929,-83.3333333333333,4,3,3,75,0,1
180500,-83.3333333333333,4,3,11,75,0,1
180643,-83.3333333333333,4,3,3,75,0,1
180929,-83.3333333333333,4,3,10,75,0,1
181072,-83.3333333333333,4,3,3,75,0,1
181215,-83.3333333333333,4,3,10,75,0,1
181500,-83.3333333333333,4,3,3,75,0,1
184500,-83.3333333333333,4,3,10,75,0,1
184643,-83.3333333333333,4,3,1,75,0,1
184786,-83.3333333333333,4,3,10,75,0,1
184929,-83.3333333333333,4,3,3,75,0,1
185500,-83.3333333333333,4,3,1,75,0,1
186072,-90.9090909090909,4,3,1,65,0,0
192500,-90.9090909090909,4,3,12,65,0,0
192643,-90.9090909090909,4,3,1,65,0,0
193642,-90.9090909090909,4,3,12,65,0,0
193786,-90.9090909090909,4,3,1,65,0,0
199215,-90.9090909090909,4,3,13,65,0,0
199357,-90.9090909090909,4,3,12,65,0,0
199500,-90.9090909090909,4,3,11,65,0,0
199642,-90.9090909090909,4,3,10,65,0,0
199786,-90.9090909090909,4,3,1,65,0,0
201643,-90.9090909090909,4,3,10,65,0,0
201786,-90.9090909090909,4,3,10,60,0,0
202072,285.714285714286,5,3,1,80,1,0
202929,-90.9090909090909,5,3,1,70,0,0
203143,-90.9090909090909,5,3,1,5,0,0
203214,-90.9090909090909,5,3,1,70,0,0
203429,-90.9090909090909,5,3,1,5,0,0
203500,-90.9090909090909,5,3,1,80,0,0
204357,-90.9090909090909,5,3,1,70,0,0
204572,-90.9090909090909,5,3,1,5,0,0
204643,-90.9090909090909,5,3,1,70,0,0
204929,-76.9230769230769,5,3,1,70,0,0
205500,-76.9230769230769,5,3,1,5,0,0

[Colours]
Combo1 : 206,9,68
Combo2 : 103,134,68

[HitObjects]
66,268,75,6,0,L|74:338,3,40,10|8|8|10,3:0|3:0|3:0|3:0,3:0:0:0:
147,356,360,2,0,L|155:286,3,40,10|8|8|10,3:0|3:0|3:0|3:0,3:0:0:0:
228,268,646,2,0,L|236:338,3,40,10|8|10|8,3:0|3:0|3:0|3:0,3:0:0:0:
309,356,932,2,1,L|317:286,3,40,10|8|8|8,3:0|3:0|3:0|3:0,3:0:0:0:
383,270,1217,6,0,B|375:196|375:196|379:191|379:191|370:103,2,160,4|10|2,3:0|3:0|3:0,3:0:0:0:
452,214,1931,1,0,3:0:0:0:
452,214,2074,1,10,3:0:0:0:
300,164,2217,2,0,B|261:169|261:169|257:167|257:167|211:173,1,80,0|2,3:0|3:0,3:0:0:0:
317,42,2502,1,0,3:0:0:0:
317,42,2645,2,0,B|356:37|356:37|360:39|360:39|406:33,1,80,10|0,3:0|3:0,3:0:0:0:
293,159,2931,2,0,B|227:166|227:166|206:153|206:153|123:161,1,160,2|10,3:0|3:0,3:0:0:0:
81,91,3359,1,0,3:0:0:0:
52,248,3502,6,0,P|117:252|125:167,2,160,2|10|2,3:0|3:0|3:0,3:0:0:0:
44,160,4217,1,0,3:0:0:0:
147,281,4359,1,10,3:0:0:0:
202,130,4502,2,0,B|195:89|195:89|198:86|198:86|191:38,1,80,0|2,3:0|3:0,3:0:0:0:
298,181,4788,1,0,3:0:0:0:
298,181,4931,2,0,B|291:222|291:222|294:225|294:225|287:273,1,80,10|0,3:0|3:0,3:0:0:0:
147,281,5217,2,1,B|133:319|133:319|156:366,1,80,2|0,3:0|3:0,3:0:0:0:
227,310,5502,1,10,3:0:0:0:
309,172,5645,1,0,3:0:0:0:
309,172,5717,1,0,3:0:0:0:
309,172,5788,6,0,B|381:182|381:182|385:186|385:186|470:198,2,160,4|10|2,3:0|3:0|3:0,3:0:0:0:
365,104,6502,1,0,3:0:0:0:
365,104,6645,1,10,3:0:0:0:
216,160,6788,2,0,B|175:156|175:156|172:152|172:152|121:148,1,80,0|2,3:0|3:0,3:0:0:0:
243,26,7074,1,0,3:0:0:0:
243,26,7217,2,0,B|284:30|284:30|287:34|287:34|338:38,1,80,10|0,3:0|3:0,3:0:0:0:
222,167,7502,1,2,3:0:0:0:
64,136,7645,1,8,3:0:0:0:
64,136,7717,1,8,3:0:0:0:
64,136,7788,1,8,3:0:0:0:
115,321,7931,6,0,B|127:246|127:246|130:243|130:243|146:137,1,160,4|2,3:0|3:0,3:0:0:0:
156,69,8359,1,8,3:0:0:0:
322,127,8502,2,0,P|381:94|349:22,1,160,4|8,3:0|3:0,3:0:0:0:
263,42,8931,1,8,3:0:0:0:
281,217,9074,6,0,B|219:208|219:208|203:189|203:189|128:179,1,160,4|8,3:0|3:0,3:0:0:0:
156,263,9502,1,8,3:0:0:0:
285,357,9645,2,0,B|346:303|346:303|298:216,1,160,4|8,3:0|3:0,3:0:0:0:
292,222,10002,1,8,3:0:0:0:
274,204,10074,1,8,3:0:0:0:
265,181,10145,1,8,3:0:0:0:
269,157,10217,1,8,3:0:0:0:
283,137,10288,1,8,3:0:0:0:
304,127,10359,6,0,B|385:137|385:137|391:134|391:134|480:144,2,160,4|10|2,3:2|3:0|3:0,3:0:0:0:
367,59,11074,1,0,3:0:0:0:
367,59,11217,1,10,3:0:0:0:
416,211,11359,2,0,B|411:253|411:253|413:256|413:256|407:305,1,80,0|2,3:0|3:0,3:0:0:0:
279,356,11645,1,0,3:0:0:0:
279,356,11788,2,0,B|273:315|273:315|275:312|275:312|269:268,1,80,10|0,3:0|3:0,3:0:0:0:
203,167,12074,2,0,B|165:145|123:174|146:193|103:223|58:200,1,160,2|10,3:0|3:0,3:0:0:0:
114,67,12502,1,0,3:0:0:0:
114,67,12574,1,0,3:0:0:0:
114,67,12645,6,0,B|128:144|128:144|126:148|126:148|142:228,2,160,2|10|2,3:0|3:0|3:0,3:0:0:0:
200,85,13359,1,0,3:0:0:0:
43,119,13502,1,10,3:0:0:0:
151,237,13645,2,0,B|193:228|193:228|197:230|197:230|243:222,1,80,0|2,3:0|3:0,3:0:0:0:
338,171,13931,1,0,3:0:0:0:
338,171,14074,2,0,B|379:178|379:178|382:175|382:175|430:182,1,80,10|0,3:0|3:0,3:0:0:0:
478,291,14359,2,0,L|472:341,1,40,4|0,3:2|3:0,3:0:0:0:
395,379,14502,1,8,3:0:0:0:
395,379,14574,1,8,3:0:0:0:
395,379,14645,2,1,L|391:340,3,40,10|8|8|8,3:0|3:0|3:0|3:0,3:0:0:0:
294,322,14931,6,0,B|217:332|217:332|211:328|211:328|124:339,2,160,4|10|2,3:0|3:0|3:0,3:0:0:0:
240,252,15645,1,0,3:0:0:0:
240,252,15788,1,10,3:0:0:0:
125,339,15931,2,0,B|120:300|120:300|122:296|122:296|114:246,1,80,0|2,3:0|3:0,3:0:0:0:
8,206,16217,1,0,3:0:0:0:
8,206,16359,2,0,B|13:167|13:167|11:163|11:163|19:113,1,80,10|0,3:0|3:0,3:0:0:0:
111,51,16645,1,2,3:0:0:0:
177,178,16788,5,8,3:0:0:0:
165,198,16859,1,8,3:0:0:0:
143,208,16931,1,8,3:0:0:0:
119,205,17002,1,8,3:0:0:0:
100,189,17074,2,0,L|104:150,1,40,8|8,3:0|3:0,3:0:0:0:
227,66,17217,5,8,3:0:0:0:
222,86,17359,1,8,3:0:0:0:
329,127,17502,5,8,3:0:0:0:
306,33,17645,1,8,3:0:0:0:
416,80,17788,5,8,3:0:0:0:
369,216,17931,1,8,3:0:0:0:
236,158,18074,6,0,P|218:110|151:124,1,120,4|0,3:0|3:0,3:0:0:0:
146,131,18359,6,0,P|127:192|77:179,1,120,4|0,3:0|3:0,3:0:0:0:
55,105,18645,5,4,3:0:0:0:
409,322,20502,5,8,3:0:0:0:
409,322,20573,1,8,3:0:0:0:
409,322,20645,2,1,B|432:287|432:287|422:243,1,80,8|0,3:0|3:0,3:0:0:0:
263,261,20930,6,0,B|185:247|185:247|180:249|180:249|97:233,2,160,4|8|2,3:0|3:0|3:0,3:0:0:0:
350,274,21644,1,0,3:0:0:0:
350,274,21787,2,0,B|344:237|344:237|347:233|347:233|340:185,1,80,10|0,3:0|3:0,3:0:0:0:
272,96,22072,2,0,B|258:57|258:57|280:21,1,80,2|0,3:0|3:0,3:0:0:0:
353,71,22358,1,10,3:0:0:0:
254,178,22501,2,0,B|176:164|176:164|171:166|171:166|88:150,1,160,0|0,3:0|3:0,3:0:0:0:
9,138,22930,1,10,3:0:0:0:
9,138,23215,6,0,B|12:180|12:180|15:183|15:183|22:238,1,80,2|0,3:0|3:0,3:0:0:0:
124,276,23501,2,0,B|127:233|127:233|130:231|130:231|137:176,1,80,10|0,3:0|3:0,3:0:0:0:
254,178,23787,2,1,B|257:220|257:220|260:223|260:223|267:278,1,80,2|0,3:0|3:0,3:0:0:0:
359,331,24072,1,10,3:0:0:0:
359,331,24215,2,0,B|407:292|407:292|390:175,1,160,0|0,3:0|3:0,3:0:0:0:
322,96,24644,1,10,3:0:0:0:
322,96,24787,2,0,B|311:55|311:55|336:12,1,80,0|2,3:0|3:0,3:0:0:0:
396,68,25072,1,0,3:0:0:0:
237,43,25215,5,10,3:0:0:0:
234,49,25501,5,2,3:0:0:0:
304,174,25644,2,0,B|295:253|295:253|289:259|289:259|278:355,1,160,0|0,3:0|3:0,3:0:0:0:
146,276,26072,2,1,B|134:236|134:236|155:200,1,80,2|0,3:0|3:0,3:0:0:0:
218,248,26358,1,10,3:0:0:0:
70,309,26501,2,1,B|46:229|46:229|88:157,1,160,0|0,3:0|3:0,3:0:0:0:
171,143,26930,1,10,3:0:0:0:
118,34,27072,2,0,B|80:28|80:28|77:25|77:25|22:19,1,80,0|2,3:0|3:0,3:0:0:0:
179,134,27358,1,0,3:0:0:0:
179,134,27430,1,0,3:0:0:0:
179,134,27501,2,0,B|217:128|217:128|220:125|220:125|275:119,1,80,10|0,3:0|3:0,3:0:0:0:
369,33,27787,6,0,B|403:7|403:7|484:24|484:24|496:60,1,160,2|10,3:0|3:0,3:0:0:0:
423,94,28215,1,0,3:0:0:0:
460,233,28358,1,2,3:0:0:0:
322,190,28501,2,1,B|363:182|363:182|366:184|366:184|419:172,2,80,0|10|0,3:0|3:0|3:0,3:0:0:0:
236,208,28930,1,2,3:0:0:0:
336,274,29072,1,0,3:0:0:0:
234,337,29215,2,0,B|196:333|196:333|193:330|193:330|149:326,1,80,10|0,3:0|3:0,3:0:0:0:
121,244,29501,1,2,3:0:0:0:
236,208,29644,1,2,3:0:0:0:
236,208,29715,1,2,3:0:0:0:
236,208,29787,1,8,3:0:0:0:
336,274,29930,1,2,3:0:0:0:
316,131,30072,6,0,B|246:88|246:88|161:121,2,160,4|8|2,3:2|3:0|3:0,3:0:0:0:
387,183,30787,1,0,3:0:0:0:
387,183,30930,2,0,B|407:146|407:146|390:88,1,80,10|0,3:0|3:0,3:0:0:0:
316,131,31215,1,2,3:0:0:0:
395,269,31358,2,1,B|356:266|356:266|353:262|353:262|315:259,1,80,0|10,3:0|3:0,3:0:0:0:
217,328,31644,2,0,B|170:297|170:297|191:178,1,160,0|0,3:0|3:0,3:0:0:0:
230,117,32072,1,10,3:0:0:0:
224,110,32358,5,2,3:0:0:0:
99,37,32501,2,0,B|88:107|88:107|75:119|75:119|66:190,1,160,0|0,3:0|3:0,3:0:0:0:
148,159,32930,1,2,3:0:0:0:
32,269,33072,2,1,B|16:313|16:313|40:354,1,80,0|10,3:0|3:0,3:0:0:0:
170,295,33358,2,0,B|241:287|241:287|260:293|260:293|331:285,1,160,0|0,3:0|3:0,3:0:0:0:
445,315,33787,1,10,3:0:0:0:
445,315,33930,2,0,B|458:274|458:274|434:235,1,80,0|2,3:0|3:0,3:0:0:0:
325,151,34215,1,0,3:0:0:0:
325,151,34287,1,0,3:0:0:0:
325,151,34358,5,10,3:0:0:0:
317,158,34644,6,0,B|285:127|285:127|301:45|301:45|336:32,1,160,2|10,3:0|3:0,3:0:0:0:
378,103,35072,1,0,3:0:0:0:
328,238,35215,2,1,B|321:281|321:281|318:284|318:284|311:333,1,80,2|0,3:0|3:0,3:0:0:0:
204,197,35501,2,0,B|201:163|201:163|197:160|197:160|194:119,1,80,10|0,3:0|3:0,3:0:0:0:
249,51,35787,1,2,3:0:0:0:
104,120,35930,1,0,3:0:0:0:
177,264,36072,2,0,B|222:292|266:266|243:241|291:210|331:241,1,160,10|2,3:0|3:0,3:0:0:0:
405,320,36501,1,0,3:0:0:0:
405,320,36572,1,0,3:0:0:0:
405,320,36644,2,0,B|379:355|379:355|362:312,1,80,10|0,3:0|3:0,3:0:0:0:
426,199,36930,6,0,B|432:158|432:158|429:154|429:154|436:106,1,80,2|0,3:0|3:0,3:0:0:0:
510,166,37215,1,10,3:0:0:0:
443,38,37358,2,0,P|361:39|366:112,1,160,0|0,3:0|3:0,3:0:0:0:
426,199,37787,1,10,3:0:0:0:
432,206,38072,5,2,3:0:0:0:
293,164,38215,1,8,3:0:0:0:
293,164,38287,1,8,3:0:0:0:
293,164,38358,1,8,3:0:0:0:
215,285,38501,1,8,3:0:0:0:
75,247,38644,1,8,3:0:0:0:
42,244,38715,1,0,3:0:0:0:
14,259,38787,1,8,3:0:0:0:
2,289,38858,1,8,3:0:0:0:
9,319,38930,2,1,L|61:322,3,40,8|8|8|8,3:0|3:0|3:0|3:0,3:0:0:0:
155,227,39215,6,0,P|181:199|234:208,1,80,4|0,3:0|3:0,3:0:0:0:
201,359,39501,2,0,P|163:350|145:300,1,80,10|0,3:0|3:0,3:0:0:0:
293,254,39787,2,0,P|304:290|269:331,1,80,2|0,3:0|3:0,3:0:0:0:
215,285,40072,1,10,3:0:0:0:
350,369,40215,2,0,P|382:288|352:199,1,160,0|0,3:0|3:0,3:0:0:0:
288,96,40644,2,0,P|281:59|309:24,1,80,10|0,3:0|3:0,3:0:0:0:
445,55,40930,2,0,P|452:92|424:127,1,80,2|0,3:0|3:0,3:0:0:0:
368,74,41215,1,10,3:0:0:0:
340,215,41358,1,0,3:0:0:0:
340,215,41430,1,0,3:0:0:0:
340,215,41501,6,0,B|335:197|335:197|349:180|349:180|356:200|356:200|345:214,1,80,2|0,3:0|3:0,3:0:0:0:
396,350,41787,2,0,B|413:354|413:354|420:375|420:375|400:371|400:371|393:355,1,80,10|0,3:0|3:0,3:0:0:0:
251,330,42072,2,0,B|237:342|237:342|216:338|216:338|230:323|230:323|247:324,1,80,2|0,3:0|3:0,3:0:0:0:
331,294,42358,1,10,3:0:0:0:
209,251,42501,6,1,B|154:242|154:242|118:263|118:263|46:248,1,160,0|0,3:0|3:0,3:0:0:0:
8,176,42930,1,10,3:0:0:0:
8,176,43072,2,0,B|14:134|14:134|17:130|17:130|25:76,1,80,0|2,3:0|3:0,3:0:0:0:
115,21,43358,1,0,3:0:0:0:
115,21,43501,2,0,B|158:26|158:26|162:24|162:24|221:32,1,80,10|0,3:0|3:0,3:0:0:0:
214,29,43715,1,0,3:0:0:0:
214,29,43787,6,0,P|212:105|282:101,1,160,4|10,3:0|3:0,3:0:0:0:
299,17,44215,1,0,3:0:0:0:
351,151,44358,2,0,B|347:192|347:192|345:196|345:196|342:235,1,80,2|0,3:0|3:0,3:0:0:0:
197,226,44644,2,0,P|231:191|280:207,1,80,10|0,3:0|3:0,3:0:0:0:
300,347,44930,6,0,B|256:371|208:340|239:318|196:286|151:308,1,160,2|10,3:0|3:0,3:0:0:0:
164,384,45358,1,8,3:0:0:0:
86,262,45501,5,8,3:0:0:0:
47,272,45572,1,8,3:0:0:0:
25,306,45644,1,8,3:0:0:0:
26,345,45715,1,8,3:0:0:0:
53,373,45787,2,1,L|105:363,3,40,8|8|8|8,3:0|3:0|3:0|3:0,3:0:0:0:
180,281,46072,6,1,P|197:249|176:200,1,80,8|8,3:0|3:0,3:0:0:0:
36,147,46358,2,1,P|55:177|108:184,1,80,8|8,3:0|3:0,3:0:0:0:
224,89,46644,1,8,3:0:0:0:
312,221,46787,1,8,3:0:0:0:
382,58,46930,1,8,3:0:0:0:
305,217,47072,1,8,3:0:0:0:
130,118,47215,5,12,3:0:0:0:
119,117,48358,6,0,B|76:126|76:126|71:123|71:123|13:135,1,88,4|0,3:0|3:0,3:0:0:0:
165,40,48644,2,0,B|209:85|209:85|183:206,1,176,8|2,3:0|3:0,3:0:0:0:
99,241,49072,1,2,3:0:0:0:
274,221,49215,1,8,3:0:0:0:
162,379,49358,2,0,P|146:301|223:319,1,176,4|0,3:0|3:0,3:0:0:0:
355,282,49787,2,0,B|359:244|359:244|363:240|363:240|369:184,1,88,10|0,3:0|3:0,3:0:0:0:
280,227,50072,1,2,3:0:0:0:
447,281,50215,1,0,3:0:0:0:
409,108,50358,2,1,B|405:70|405:70|401:66|401:66|395:10,1,88,10|8,3:0|3:0,3:0:0:0:
221,52,50644,6,0,P|211:105|266:133,1,88,4|0,3:0|3:0,3:0:0:0:
60,85,50930,2,0,P|109:64|106:2,1,88,8|0,3:0|3:0,3:0:0:0:
170,204,51215,2,1,P|127:167|75:202,1,88,2|2,3:0|3:0,3:0:0:0:
111,269,51501,1,8,3:0:0:0:
282,226,51644,2,0,B|327:197|378:240|350:258|405:295|447:275,1,176,4|2,3:0|3:0,3:0:0:0:
307,310,52072,1,8,3:0:0:0:
434,188,52215,1,0,3:0:0:0:
246,143,52358,5,2,3:0:0:0:
219,144,52430,1,0,3:0:0:0:
192,145,52501,1,8,3:0:0:0:
176,124,52572,1,8,3:0:0:0:
158,100,52644,2,1,L|164:43,3,44,8|8|8|8,3:0|3:0|3:0|3:0,3:0:0:0:
270,13,52930,5,4,3:0:0:0:
251,151,53072,2,0,B|244:196|244:196|245:199|245:199|239:248,1,88,0|8,3:0|3:0,3:0:0:0:
158,100,53358,2,0,B|149:188|149:188|146:192|146:192|135:307,1,176,0|2,3:0|3:0,3:0:0:0:
216,330,53787,1,8,3:0:0:0:
57,347,53930,2,0,P|57:270|140:277,1,176,2|2,3:0|3:0,3:0:0:0:
295,293,54358,2,0,B|299:248|299:248|303:246|303:246|309:189,1,88,8|2,3:0|3:0,3:0:0:0:
411,87,54644,2,1,B|369:74|349:22|349:22|312:61|267:57,1,176,2|10,3:0|3:0,3:0:0:0:
325,131,55072,1,0,3:0:0:0:
187,20,55215,6,0,B|193:68|193:68|191:72|191:72|198:126,1,88,2|0,3:0|3:0,3:0:0:0:
151,194,55501,1,8,3:0:0:0:
66,39,55644,2,0,B|71:82|71:82|69:86|69:86|74:125,1,88,0|2,3:0|3:0,3:0:0:0:
34,214,55930,1,2,3:0:0:0:
182,309,56072,5,8,3:0:0:0:
200,278,56144,1,8,3:0:0:0:
200,243,56215,1,8,3:0:0:0:
182,212,56287,1,8,3:0:0:0:
151,194,56358,5,4,3:0:0:0:
33,369,56644,1,4,3:0:0:0:
247,384,56930,1,4,3:0:0:0:
295,262,57215,5,8,3:0:0:0:
295,262,57287,1,8,3:0:0:0:
295,262,57358,2,0,L|301:323,1,44,8|8,3:0|3:0,3:0:0:0:
258,168,57501,6,0,B|254:124|254:124|257:120|257:120|253:76,1,88,4|0,3:0|3:0,3:0:0:0:
430,63,57787,2,0,B|468:98|468:98|406:105|406:105|403:108|403:108|342:114,1,176,8|2,3:0|3:0,3:0:0:0:
253,81,58215,1,2,3:0:0:0:
382,200,58358,1,8,3:0:0:0:
307,21,58501,2,0,B|269:61|269:61|140:37,1,176,4|0,3:0|3:0,3:0:0:0:
11,11,58930,2,0,B|18:58|18:58|16:62|16:62|23:108,1,88,10|0,3:0|3:0,3:0:0:0:
2,193,59215,1,2,3:0:0:0:
122,64,59358,1,0,3:0:0:0:
10,198,59501,1,10,3:0:0:0:
187,276,59644,1,8,3:0:0:0:
331,146,59787,6,0,B|296:110|296:110|247:114,1,88,4|0,3:0|3:0,3:0:0:0:
282,286,60072,2,0,B|329:273|329:273|350:229,1,88,8|0,3:0|3:0,3:0:0:0:
185,173,60358,2,1,B|172:220|172:220|199:261,1,88,2|2,3:0|3:0,3:0:0:0:
268,204,60644,1,8,3:0:0:0:
106,142,60787,2,0,B|82:229|82:229|132:302,1,176,4|2,3:0|3:0,3:0:0:0:
191,363,61215,1,10,3:0:0:0:
268,204,61358,1,0,3:0:0:0:
405,314,61501,2,0,B|359:306|359:306|355:308|355:308|303:299,1,88,2|0,3:0|3:0,3:0:0:0:
346,127,61787,2,0,B|392:135|392:135|395:132|395:132|448:142,1,88,8|0,3:0|3:0,3:0:0:0:
453,144,62001,1,0,3:0:0:0:
453,144,62072,6,0,P|502:107|420:60,2,176,4|10|0,3:0|3:0|3:0,3:0:0:0:
342,121,62787,1,2,3:0:0:0:
463,248,62930,1,8,3:0:0:0:
252,248,63072,2,0,B|235:167|235:167|224:162|224:162|205:63,1,176,2|2,3:0|3:0,3:0:0:0:
333,210,63501,2,0,B|342:252|342:252|341:258|341:258|350:301,1,88,8|0,3:0|3:0,3:0:0:0:
176,320,63787,2,1,B|166:277|166:277|168:272|168:272|159:229,1,88,2|0,3:0|3:0,3:0:0:0:
220,67,64072,2,1,B|227:105|227:105|226:110|226:110|235:153,1,88,10|0,3:0|3:0,3:0:0:0:
409,65,64358,6,0,P|376:31|322:44,1,88,4|0,3:0|3:0,3:0:0:0:
142,15,64644,1,8,3:0:0:0:
107,17,64715,1,0,3:0:0:0:
80,39,64787,1,0,3:0:0:0:
78,74,64858,1,0,3:0:0:0:
97,103,64930,2,1,L|153:93,3,44,10|8|8|8,3:0|3:0|3:0|3:0,3:0:0:0:
235,153,65215,5,8,3:0:0:0:
266,182,65287,1,8,3:0:0:0:
272,225,65358,1,8,3:0:0:0:
251,263,65430,1,8,3:0:0:0:
210,280,65501,5,12,3:0:0:0:
210,280,66072,6,0,B|163:291|163:291|127:267,1,88,4|0,3:2|3:0,3:0:0:0:
152,137,66358,2,0,B|199:126|199:126|235:150,1,88,4|0,3:0|3:0,3:0:0:0:
363,240,66644,6,0,B|404:198|404:198|378:91,2,160,4|10|2,3:2|3:0|3:0,3:0:0:0:
315,165,67358,1,0,3:0:0:0:
315,165,67501,1,10,3:0:0:0:
467,120,67644,2,0,B|477:156|477:156|477:163|477:163|487:198,1,80,0|2,3:0|3:0,3:0:0:0:
409,321,67930,1,0,3:0:0:0:
409,321,68072,2,0,B|372:333|372:333|367:332|367:332|332:342,1,80,10|0,3:0|3:0,3:0:0:0:
208,240,68358,2,0,B|246:266|246:266|190:278|190:278|185:278|185:278|125:293,1,160,2|10,3:0|3:0,3:0:0:0:
49,312,68787,1,0,3:0:0:0:
126,172,68930,6,0,B|112:97|112:97|114:91|114:91|98:2,2,160,2|10|2,3:0|3:0|3:0,3:0:0:0:
44,139,69644,1,0,3:0:0:0:
182,58,69787,1,10,3:0:0:0:
203,216,69930,2,0,B|244:209|244:209|248:210|248:210|294:203,1,80,0|2,3:0|3:0,3:0:0:0:
312,87,70215,1,0,3:0:0:0:
312,87,70358,2,0,B|338:119|338:119|339:122|339:122|368:159,1,80,10|0,3:0|3:0,3:0:0:0:
480,129,70644,2,1,B|465:168|465:168|462:170|462:170|445:214,1,80,2|0,3:0|3:0,3:0:0:0:
480,310,70930,1,10,3:0:0:0:
332,360,71072,1,0,3:0:0:0:
332,360,71144,1,0,3:0:0:0:
332,360,71215,6,0,B|322:288|322:288|318:284|318:284|306:199,2,160,4|10|2,3:0|3:0|3:0,3:0:0:0:
399,302,71930,1,0,3:0:0:0:
399,302,72072,1,10,3:0:0:0:
243,268,72215,2,0,B|202:272|202:272|199:276|199:276|148:280,1,80,0|2,3:0|3:0,3:0:0:0:
26,196,72501,1,0,3:0:0:0:
26,196,72644,2,0,B|67:192|67:192|70:188|70:188|121:184,1,80,10|0,3:0|3:0,3:0:0:0:
199,175,72930,1,2,3:0:0:0:
51,113,73072,1,8,3:0:0:0:
77,287,73215,1,8,3:0:0:0:
152,92,73358,6,0,B|191:87|220:56|220:56|239:97|277:120,1,160,4|8,3:0|3:0,3:0:0:0:
199,175,73787,1,8,3:0:0:0:
174,349,73930,2,0,B|186:272|186:272|184:269|184:269|197:187,1,160,4|8,3:0|3:0,3:0:0:0:
111,217,74358,1,8,3:0:0:0:
270,236,74501,6,0,B|312:259|354:230|331:211|374:180|419:203,1,160,4|8,3:0|3:0,3:0:0:0:
424,279,74930,1,8,3:0:0:0:
498,155,75072,2,0,P|497:85|428:104,1,160,4|8,3:0|3:0,3:0:0:0:
413,118,75430,1,8,3:0:0:0:
388,117,75501,1,8,3:0:0:0:
364,112,75572,1,8,3:0:0:0:
340,111,75644,1,8,3:0:0:0:
316,105,75715,1,8,3:0:0:0:
292,105,75787,6,0,B|264:62|264:62|136:50,2,160,4|10|2,3:2|3:0|3:0,3:0:0:0:
209,138,76501,1,0,3:0:0:0:
209,138,76644,1,10,3:0:0:0:
350,166,76787,2,0,B|345:208|345:208|347:211|347:211|339:261,1,80,0|2,3:0|3:0,3:0:0:0:
243,351,77072,1,0,3:0:0:0:
243,351,77215,2,0,B|237:310|237:310|239:307|239:307|233:263,1,80,10|0,3:0|3:0,3:0:0:0:
200,131,77501,2,1,B|162:109|120:138|143:157|100:187|55:164,1,160,2|10,3:0|3:0,3:0:0:0:
199,213,77930,1,0,3:0:0:0:
199,213,78001,1,0,3:0:0:0:
199,213,78072,6,0,P|280:212|268:137,2,160,2|10|2,3:0|3:0|3:0,3:0:0:0:
198,128,78787,1,0,3:0:0:0:
291,258,78930,1,10,3:0:0:0:
130,257,79072,2,0,B|112:218|112:218|127:169,1,80,0|2,3:0|3:0,3:0:0:0:
190,53,79358,1,0,3:0:0:0:
190,53,79501,2,0,B|208:94|208:94|193:141,1,80,10|0,3:0|3:0,3:0:0:0:
46,106,79787,2,1,B|90:100|90:100|94:102|94:102|147:94,1,80,2|0,3:0|3:0,3:0:0:0:
207,130,80072,1,10,3:0:0:0:
334,30,80215,1,0,3:0:0:0:
334,30,80287,1,0,3:0:0:0:
334,30,80358,6,0,B|376:-1|416:34|397:49|436:85|479:56,2,160,4|10|2,3:0|3:0|3:0,3:0:0:0:
361,118,81072,1,0,3:0:0:0:
361,118,81215,1,10,3:0:0:0:
227,28,81358,2,0,B|223:68|223:68|219:71|219:71|214:116,1,80,0|2,3:0|3:0,3:0:0:0:
125,186,81644,1,0,3:0:0:0:
125,186,81787,2,0,B|156:209|156:209|160:210|160:210|200:242,1,80,10|0,3:0|3:0,3:0:0:0:
209,352,82072,2,1,B|245:335|245:335|250:337|250:337|291:319,1,80,2|0,3:0|3:0,3:0:0:0:
363,234,82358,1,10,3:0:0:0:
438,368,82501,1,8,3:0:0:0:
438,368,82572,1,8,3:0:0:0:
438,368,82645,5,8,3:0:0:0:
509,242,82787,1,8,3:0:0:0:
420,161,82930,5,8,3:0:0:0:
367,241,83073,1,8,3:0:0:0:
433,285,83216,5,8,3:0:0:0:
440,271,83359,1,8,3:0:0:0:
339,167,83502,6,0,B|284:140|284:140|233:186,1,120,4|0,3:0|3:0,3:0:0:0:
234,198,83787,6,0,B|190:237|190:237|135:210,1,120,4|0,3:0|3:0,3:0:0:0:
135,133,84074,6,0,P|93:105|61:187,2,160,4|10|2,3:2|3:0|3:0,3:0:0:0:
145,225,84788,1,0,3:0:0:0:
145,225,84931,2,0,B|139:262|139:262|142:266|142:266|135:314,1,80,10|0,3:0|3:0,3:0:0:0:
258,379,85216,2,1,B|264:342|264:342|261:338|261:338|268:290,1,80,2|0,3:0|3:0,3:0:0:0:
240,181,85502,1,10,3:0:0:0:
352,271,85645,2,0,B|366:193|366:193|364:188|364:188|378:113,1,160,0|0,3:0|3:0,3:0:0:0:
395,27,86074,1,10,3:0:0:0:
402,19,86359,5,2,3:0:0:0:
293,114,86502,2,0,B|248:119|227:80|227:80|181:60|154:98,1,160,0|0,3:0|3:0,3:0:0:0:
51,158,86931,2,1,B|42:122|42:122|38:119|38:119|32:82,1,80,2|0,3:0|3:0,3:0:0:0:
158,7,87216,1,10,3:0:0:0:
158,7,87359,2,0,B|174:82|174:82|179:83|179:83|202:176,1,160,0|0,3:0|3:0,3:0:0:0:
269,263,87788,1,10,3:0:0:0:
269,263,87931,2,0,B|231:273|231:273|226:272|226:272|190:283,1,80,0|2,3:0|3:0,3:0:0:0:
104,299,88216,1,0,3:0:0:0:
255,348,88359,5,10,3:0:0:0:
261,355,88645,6,0,B|299:345|299:345|304:346|304:346|340:335,1,80,2|0,3:0|3:0,3:0:0:0:
278,270,88931,1,10,3:0:0:0:
430,318,89074,2,0,P|450:246|383:200,1,160,0|0,3:0|3:0,3:0:0:0:
299,188,89502,1,10,3:0:0:0:
292,180,89788,2,1,P|267:148|283:94,1,80,2|0,3:0|3:0,3:0:0:0:
357,127,90074,1,10,3:0:0:0:
202,168,90216,2,0,B|164:174|164:174|160:178|160:178|108:186,1,80,0|2,3:0|3:0,3:0:0:0:
13,108,90502,1,0,3:0:0:0:
13,108,90574,1,0,3:0:0:0:
13,108,90645,2,0,P|9:63|46:31,1,80,10|0,3:0|3:0,3:0:0:0:
189,30,90931,6,0,B|230:65|230:65|196:187,2,160,2|10|2,3:0|3:0|3:0,3:0:0:0:
140,103,91645,1,0,3:0:0:0:
283,174,91788,2,0,B|292:136|292:136|296:132|296:132|309:83,1,80,10|0,3:0|3:0,3:0:0:0:
410,37,92074,5,2,3:0:0:0:
503,168,92216,1,0,3:0:0:0:
503,168,92288,1,0,3:0:0:0:
503,168,92359,2,1,B|465:159|465:159|461:155|461:155|412:142,1,80,10|2,3:0|3:0,3:0:0:0:
283,174,92645,1,0,3:0:0:0:
321,322,92788,1,10,3:0:0:0:
321,322,92931,1,10,3:0:0:0:
184,274,93074,1,2,3:0:0:0:
340,240,93216,6,0,P|419:260|390:335,2,160,4|10|2,3:2|3:0|3:0,3:0:0:0:
315,329,93931,1,0,3:0:0:0:
184,274,94074,2,0,B|178:231|178:231|179:226|179:226|174:181,1,80,10|0,3:0|3:0,3:0:0:0:
91,77,94359,2,1,B|48:64|48:64|7:88,1,80,2|0,3:0|3:0,3:0:0:0:
58,153,94645,1,10,3:0:0:0:
181,76,94788,2,0,B|228:49|228:49|350:77,1,160,0|0,3:0|3:0,3:0:0:0:
418,98,95216,1,10,3:0:0:0:
425,105,95502,5,2,3:0:0:0:
293,163,95645,2,0,P|291:236|369:248,1,160,0|0,3:0|3:0,3:0:0:0:
491,184,96074,2,1,B|486:229|486:229|483:232|483:232|479:295,1,80,2|0,3:0|3:0,3:0:0:0:
439,375,96359,1,10,3:0:0:0:
363,251,96502,2,0,B|287:263|287:263|281:261|281:261|201:274,1,160,0|0,3:0|3:0,3:0:0:0:
87,358,96931,1,10,3:0:0:0:
87,358,97074,2,0,B|80:320|80:320|82:316|82:316|76:278,1,80,0|2,3:0|3:0,3:0:0:0:
61,135,97359,1,0,3:0:0:0:
61,135,97431,1,0,3:0:0:0:
61,135,97502,5,10,3:0:0:0:
53,142,97788,6,0,P|42:180|88:211,1,80,2|0,3:0|3:0,3:0:0:0:
209,184,98074,2,0,P|220:146|174:115,1,80,10|0,3:0|3:0,3:0:0:0:
144,223,98359,1,2,3:0:0:0:
113,68,98502,2,1,B|127:145|127:145|130:147|130:147|147:237,1,160,0|0,3:0|3:0,3:0:0:0:
130,343,98931,2,1,B|175:350|175:350|224:318,1,80,2|0,3:0|3:0,3:0:0:0:
319,220,99216,2,0,B|284:200|284:200|297:258|297:258|299:260|299:260|313:317,1,160,10|2,3:0|3:0,3:0:0:0:
388,362,99645,1,0,3:0:0:0:
472,225,99788,2,0,B|442:192|442:192|403:201,1,80,10|0,3:0|3:0,3:0:0:0:
263,130,100074,6,0,B|256:86|256:86|290:47,1,80,2|0,3:0|3:0,3:0:0:0:
349,113,100359,1,10,3:0:0:0:
184,50,100502,2,0,P|103:43|125:126,1,160,0|0,3:0|3:0,3:0:0:0:
163,163,100931,1,10,3:0:0:0:
319,198,101074,1,0,3:0:0:0:
319,198,101145,1,0,3:0:0:0:
319,198,101216,6,1,L|312:245,1,40,8|8,3:0|3:0,3:0:0:0:
236,307,101359,1,8,3:0:0:0:
256,331,101431,1,8,3:0:0:0:
285,344,101502,1,8,3:0:0:0:
316,347,101574,1,8,3:0:0:0:
347,341,101645,2,1,L|357:291,1,40,8|8,3:0|3:0,3:0:0:0:
453,240,101788,1,8,3:0:0:0:
485,263,101859,1,0,3:0:0:0:
497,300,101931,1,8,3:0:0:0:
489,339,102002,1,8,3:0:0:0:
459,366,102074,2,0,L|411:361,3,40,8|8|8|8,3:0|3:0|3:0|3:0,3:0:0:0:
369,267,102359,6,0,P|357:226|382:191,1,80,4|0,3:0|3:0,3:0:0:0:
241,105,102645,2,1,P|282:115|300:154,1,80,10|0,3:0|3:0,3:0:0:0:
445,76,102931,2,0,P|415:106|372:102,1,80,2|0,3:0|3:0,3:0:0:0:
385,26,103216,1,10,3:0:0:0:
508,127,103359,2,1,P|448:188|363:180,1,160,0|0,3:0|3:0,3:0:0:0:
240,236,103788,6,0,P|206:240|191:199,1,80,10|0,3:0|3:0,3:0:0:0:
82,151,104074,2,1,P|77:117|119:102,1,80,2|0,3:0|3:0,3:0:0:0:
181,0,104359,1,10,3:0:0:0:
277,107,104502,1,0,3:0:0:0:
277,107,104574,1,0,3:0:0:0:
277,107,104645,6,0,B|259:102|259:102|242:116|242:116|262:123|262:123|276:112,1,80,2|0,3:0|3:0,3:0:0:0:
419,87,104931,2,0,B|437:92|437:92|454:78|454:78|434:71|434:71|420:82,1,80,10|0,3:0|3:0,3:0:0:0:
330,2,105216,1,2,3:0:0:0:
357,143,105359,2,0,B|352:185|352:185|374:218|374:218|382:180|382:180|360:142,1,160,0|0,3:0|3:0,3:0:0:0:
427,278,105788,2,0,B|391:302|391:302|341:291,1,80,2|0,3:0|3:0,3:0:0:0:
256,224,106074,1,10,3:0:0:0:
256,224,106216,2,0,B|220:216|220:216|184:240,1,80,0|2,3:0|3:0,3:0:0:0:
107,335,106502,1,0,3:0:0:0:
107,335,106645,2,1,B|102:292|102:292|104:288|104:288|96:229,1,80,10|0,3:0|3:0,3:0:0:0:
98,235,106859,1,0,3:0:0:0:
98,235,106931,6,0,P|101:190|136:175,1,80,4|0,3:0|3:0,3:0:0:0:
259,83,107216,2,0,P|218:102|188:80,1,80,10|0,3:0|3:0,3:0:0:0:
46,19,107502,2,0,P|83:44|78:81,1,80,2|0,3:0|3:0,3:0:0:0:
24,142,107788,1,10,3:0:0:0:
24,142,107931,1,0,3:0:0:0:
178,174,108074,5,8,3:0:0:0:
178,174,108145,1,8,3:0:0:0:
178,174,108216,2,1,L|172:224,1,40,8|8,3:0|3:0,3:0:0:0:
269,82,108359,1,8,3:0:0:0:
269,82,108431,1,8,3:0:0:0:
269,82,108502,2,1,L|262:33,1,40,8|8,3:0|3:0,3:0:0:0:
378,174,108645,5,8,3:0:0:0:
413,193,108716,1,8,3:0:0:0:
453,192,108788,1,8,3:0:0:0:
487,172,108859,1,8,3:0:0:0:
497,133,108931,2,1,L|485:89,3,40,8|8|8|8,3:0|3:0|3:0|3:0,3:0:0:0:
404,22,109216,6,1,B|398:64|398:64|401:69|401:69|390:123,1,80,8|8,3:0|3:0,3:0:0:0:
278,185,109502,2,1,B|284:227|284:227|281:232|281:232|292:286,1,80,8|8,3:0|3:0,3:0:0:0:
415,334,109788,1,8,3:0:0:0:
371,179,109931,1,8,3:0:0:0:
207,243,110074,1,8,3:0:0:0:
367,170,110216,1,8,3:0:0:0:
286,353,110359,5,8,3:0:0:0:
126,179,111787,6,0,B|117:136|117:136|120:131|120:131|108:73,1,88,4|0,3:0|3:0,3:0:0:0:
66,246,112072,2,0,B|114:246|146:284|146:284|165:233|220:218,1,176,8|2,3:0|3:0,3:0:0:0:
126,179,112501,1,2,3:0:0:0:
244,309,112644,1,8,3:0:0:0:
313,128,112787,2,0,B|366:87|366:87|478:107,1,176,4|0,3:0|3:0,3:0:0:0:
364,244,113215,2,0,B|320:236|320:236|317:233|317:233|268:222,1,88,8|0,3:0|3:0,3:0:0:0:
219,153,113501,1,2,3:0:0:0:
65,238,113644,1,0,3:0:0:0:
218,356,113787,2,1,B|211:317|211:317|208:314|208:314|199:258,1,88,10|0,3:0|3:0,3:0:0:0:
144,85,114072,6,0,P|94:57|75:109,1,88,4|0,3:0|3:0,3:0:0:0:
216,159,114358,2,0,P|263:129|227:86,1,88,8|0,3:0|3:0,3:0:0:0:
117,184,114644,2,1,P|117:239|162:242,1,88,2|2,3:0|3:0,3:0:0:0:
211,165,114929,1,8,3:0:0:0:
139,325,115072,2,0,B|214:338|214:338|236:325|236:325|327:341,1,176,4|2,3:0|3:0,3:0:0:0:
405,354,115501,1,8,3:0:0:0:
268,242,115644,1,4,3:2:0:0:
446,161,115787,5,4,3:2:0:0:
469,150,115858,1,0,3:0:0:0:
494,157,115929,1,8,3:0:0:0:
507,179,116001,1,8,3:0:0:0:
507,205,116072,2,1,L|497:258,3,44,8|8|8|8,3:0|3:0|3:0|3:0,3:0:0:0:
421,278,116358,5,4,3:0:0:0:
442,151,116501,2,0,B|406:126|406:126|358:143,1,88,0|8,3:0|3:0,3:0:0:0:
253,255,116787,2,0,B|202:216|202:216|222:90,1,176,0|2,3:0|3:0,3:0:0:0:
298,161,117215,1,8,3:0:0:0:
339,331,117358,2,0,P|409:356|400:265,1,176,2|2,3:0|3:0,3:0:0:0:
261,261,117787,2,0,B|255:305|255:305|250:309|250:309|243:361,1,88,8|2,3:0|3:0,3:0:0:0:
183,199,118072,2,1,P|113:174|122:265,1,176,2|10,3:0|3:0,3:0:0:0:
153,335,118501,1,2,3:0:0:0:
1,286,118644,6,0,B|7:238|7:238|5:234|5:234|12:180,1,88,4|0,3:0|3:0,3:0:0:0:
101,252,118929,1,8,3:0:0:0:
195,123,119072,2,0,B|190:166|190:166|192:170|192:170|187:209,1,88,0|2,3:0|3:0,3:0:0:0:
98,151,119358,1,2,3:0:0:0:
210,15,119501,1,8,3:0:0:0:
228,45,119572,1,8,3:0:0:0:
245,75,119644,1,8,3:0:0:0:
220,100,119715,1,8,3:0:0:0:
195,123,119787,5,4,3:0:0:0:
457,108,120072,1,4,3:0:0:0:
210,15,120358,1,4,3:0:0:0:
301,89,120644,5,8,3:0:0:0:
301,89,120715,1,8,3:0:0:0:
301,89,120787,2,0,L|307:32,1,44,8|8,3:0|3:0,3:0:0:0:
276,182,120929,6,0,B|272:226|272:226|275:230|275:230|271:274,1,88,4|0,3:0|3:0,3:0:0:0:
425,180,121215,2,0,B|470:162|470:162|488:78|488:78|457:46,1,176,8|2,3:0|3:0,3:0:0:0:
382,107,121644,1,2,3:0:0:0:
458,265,121787,1,8,3:0:0:0:
280,190,121929,2,0,B|212:178|212:178|186:202|186:202|110:187,1,176,4|2,3:0|3:0,3:0:0:0:
153,14,122358,2,1,B|173:50|173:50|156:93,1,88,8|2,3:0|3:0,3:0:0:0:
79,58,122644,1,2,3:0:0:0:
200,185,122787,1,0,3:0:0:0:
74,63,122929,1,10,3:0:0:0:
261,15,123072,1,0,3:0:0:0:
441,86,123215,6,0,B|427:112|393:113|393:113|411:98|415:68,1,88,4|0,3:0|3:0,3:0:0:0:
268,19,123501,2,0,B|298:17|315:46|315:46|293:38|285:44,1,88,8|0,3:0|3:0,3:0:0:0:
296,200,123787,2,1,B|279:174|296:145|296:145|300:168|308:172,1,88,0|2,3:0|3:0,3:0:0:0:
403,195,124072,1,8,3:0:0:0:
292,306,124215,2,0,B|249:331|204:298|229:270|185:237|137:265,1,176,4|2,3:0|3:0,3:0:0:0:
95,339,124644,1,8,3:0:0:0:
23,177,124787,2,1,B|61:147|61:147|124:161,1,88,4|0,3:2|3:0,3:0:0:0:
255,130,125072,1,8,3:0:0:0:
282,107,125144,1,8,3:0:0:0:
292,73,125215,1,8,3:0:0:0:
281,39,125287,1,8,3:0:0:0:
251,19,125358,2,0,L|189:28,1,44,8|8,3:0|3:0,3:0:0:0:
103,145,125501,6,0,B|84:88|84:88|85:83|85:83|70:24|70:24|41:72,2,176,4|10|0,3:0|3:0|3:0,3:0:0:0:
173,91,126215,1,2,3:0:0:0:
81,241,126358,1,8,3:0:0:0:
287,195,126501,2,0,P|261:170|226:262,1,176,2|2,3:0|3:0,3:0:0:0:
308,379,126929,2,0,P|338:355|307:312,1,88,8|0,3:0|3:0,3:0:0:0:
478,315,127215,2,1,P|472:277|419:282,1,88,2|0,3:0|3:0,3:0:0:0:
505,132,127501,2,1,P|469:118|447:166,1,88,10|0,3:0|3:0,3:0:0:0:
346,4,127787,6,0,B|342:50|342:50|340:53|340:53|336:121,1,88,4|0,3:0|3:0,3:0:0:0:
190,190,128072,1,8,3:0:0:0:
167,217,128144,1,0,3:0:0:0:
164,251,128215,1,0,3:0:0:0:
180,282,128287,1,0,3:0:0:0:
210,298,128358,2,1,L|266:291,3,44,2|0|0|0,3:0|3:0|3:0|3:0,3:0:0:0:
367,284,128644,5,8,3:0:0:0:
408,271,128715,1,8,3:0:0:0:
451,281,128787,1,8,3:0:0:0:
478,314,128858,1,8,3:0:0:0:
486,357,128929,5,12,3:0:0:0:
486,357,129501,6,0,B|448:355|448:355|444:350|444:350|377:345,1,88,4|0,3:2|3:0,3:0:0:0:
308,250,129787,2,0,B|270:252|270:252|266:257|266:257|199:262,1,88,4|0,3:0|3:0,3:0:0:0:
135,361,130072,5,4,3:2:0:0:
129,355,130358,5,0,2:0:0:0:
124,336,130501,1,0,2:0:0:0:
28,299,130644,5,0,2:0:0:0:
38,261,130787,1,0,2:0:0:0:
168,181,130929,5,0,2:0:0:0:
189,254,131072,1,0,2:0:0:0:
97,142,131215,6,0,P|153:76|204:109,2,160,4|8|2,3:0|3:0|3:0,3:0:0:0:
168,181,131929,1,0,3:0:0:0:
213,335,132072,2,0,B|202:301|202:301|203:297|203:297|189:249,1,80,10|0,3:0|3:0,3:0:0:0:
279,142,132357,5,2,3:0:0:0:
407,206,132500,2,0,B|377:242|377:242|250:224,1,160,0|0,3:0|3:0,3:0:0:0:
275,138,132929,5,2,3:0:0:0:
134,105,133072,2,0,B|94:131|94:131|82:206|82:206|111:242,1,160,0|0,3:0|3:0,3:0:0:0:
213,335,133500,6,0,B|216:291|216:291|219:286|219:286|221:251,1,80,2|0,3:0|3:0,3:0:0:0:
345,182,133786,2,1,B|367:148|367:148|354:104,1,80,10|0,3:0|3:0,3:0:0:0:
275,138,134072,1,2,3:0:0:0:
335,268,134215,1,0,3:0:0:0:
270,129,134357,2,0,B|266:90|266:90|268:86|268:86|263:33,1,80,10|0,3:0|3:0,3:0:0:0:
127,2,134643,6,1,L|73:8,3,40,2|0|0|0,3:0|3:0|3:0|3:0,3:0:0:0:
15,93,134929,2,1,L|54:88,3,40,10|0|0|0,3:0|3:0|3:0|3:0,3:0:0:0:
146,161,135215,2,1,L|98:165,3,40,2|0|0|0,3:0|3:0|3:0|3:0,3:0:0:0:
34,252,135500,2,1,L|82:248,3,40,10|0|0|0,3:0|3:0|3:0|3:0,3:0:0:0:
151,323,135786,5,2,3:0:0:0:
168,339,135857,1,0,3:0:0:0:
191,345,135929,1,0,3:0:0:0:
214,341,136000,1,0,3:0:0:0:
235,330,136072,2,0,L|226:271,3,40,10|0|0|0,3:0|3:0|3:0|3:0,3:0:0:0:
278,211,136357,5,2,3:0:0:0:
305,195,136429,1,0,3:0:0:0:
336,195,136500,1,0,3:0:0:0:
365,208,136572,1,0,3:0:0:0:
382,234,136643,2,0,L|375:297,3,40,10|0|0|0,3:0|3:0|3:0|3:0,3:0:0:0:
481,285,136929,6,0,L|486:244,3,40,2|0|0|0,3:0|3:0|3:0|3:0,3:0:0:0:
460,167,137215,1,10,3:0:0:0:
455,125,137286,1,0,3:0:0:0:
475,91,137357,1,0,3:0:0:0:
469,51,137429,1,0,3:0:0:0:
488,15,137500,2,1,L|428:7,3,40,2|0|0|0,3:0|3:0|3:0|3:0,3:0:0:0:
384,84,137786,2,0,L|326:93,3,40,10|0|0|0,3:0|3:0|3:0|3:0,3:0:0:0:
282,25,138072,5,2,3:0:0:0:
263,119,138215,1,0,3:0:0:0:
160,56,138357,1,10,3:0:0:0:
188,197,138500,1,0,3:0:0:0:
44,125,138643,2,0,B|15:173|15:173|51:284,1,160,2|10,3:0|3:0,3:0:0:0:
161,329,139072,1,0,3:0:0:0:
161,329,139143,1,0,3:0:0:0:
161,329,139215,6,1,L|165:276,3,40,8|8|8|8,3:0|3:0|3:0|3:0,3:0:0:0:
278,258,139500,1,8,3:0:0:0:
278,258,139572,1,8,3:0:0:0:
278,258,139643,2,0,L|283:196,1,40,2|8,3:0|3:0,3:0:0:0:
392,350,139786,5,8,3:0:0:0:
388,310,139857,1,8,3:0:0:0:
408,275,139929,1,8,3:0:0:0:
393,237,140000,1,8,3:0:0:0:
408,200,140072,2,1,L|414:142,1,40,8|8,3:0|3:0,3:0:0:0:
444,87,140215,2,0,L|438:41,1,40,8|8,3:0|3:0,3:0:0:0:
355,4,140357,5,4,3:0:0:0:
437,91,140500,1,0,3:0:0:0:
349,9,140643,1,10,3:0:0:0:
286,139,140786,1,0,3:0:0:0:
189,32,140929,2,0,B|231:25|231:25|235:28|235:28|283:20,2,80,2|0|10,3:0|3:0|3:0,3:0:0:0:
44,14,141357,1,0,3:0:0:0:
44,14,141429,1,0,3:0:0:0:
44,14,141500,6,0,B|30:57|30:57|56:111,1,80,2|0,3:0|3:0,3:0:0:0:
116,52,141786,1,10,3:0:0:0:
33,168,141929,1,0,3:0:0:0:
159,236,142072,1,2,3:0:0:0:
175,218,142143,1,0,3:0:0:0:
180,194,142215,1,0,3:0:0:0:
173,170,142286,1,0,3:0:0:0:
158,151,142357,2,0,L|97:141,3,40,10|0|0|0,3:0|3:0|3:0|3:0,3:0:0:0:
28,176,142643,5,2,3:0:0:0:
28,176,142715,1,0,3:0:0:0:
28,176,142786,1,0,3:0:0:0:
91,276,142929,1,10,3:0:0:0:
209,294,143072,1,0,3:0:0:0:
294,210,143215,6,0,L|302:146,3,40,2|0|0|0,3:0|3:0|3:0|3:0,3:0:0:0:
224,86,143500,2,0,L|230:144,3,40,10|0|0|0,3:0|3:0|3:0|3:0,3:0:0:0:
331,22,143786,5,2,3:0:0:0:
331,22,143857,1,0,3:0:0:0:
331,22,143929,1,0,3:0:0:0:
389,126,144072,1,10,3:0:0:0:
460,0,144215,1,0,3:0:0:0:
395,132,144357,6,0,L|401:172,1,40,2|0,3:0|3:0,3:0:0:0:
464,239,144500,1,8,3:0:0:0:
464,239,144572,1,8,3:0:0:0:
464,239,144643,2,0,L|454:311,1,40,8|8,3:0|3:0,3:0:0:0:
381,343,144786,2,0,L|374:286,1,40,8|8,3:0|3:0,3:0:0:0:
316,232,144929,5,4,3:0:0:0:
297,216,145000,1,0,3:0:0:0:
273,214,145072,1,0,3:0:0:0:
249,220,145143,1,0,3:0:0:0:
234,238,145215,2,1,L|242:288,3,40,10|0|0|0,3:0|3:0|3:0|3:0,3:0:0:0:
182,348,145500,5,2,3:0:0:0:
159,370,145572,1,0,3:0:0:0:
129,382,145643,1,0,3:0:0:0:
97,378,145715,1,0,3:0:0:0:
70,360,145786,2,0,L|74:306,3,40,10|0|0|0,3:0|3:0|3:0|3:0,3:0:0:0:
128,209,146072,6,0,L|133:268,3,40,2|0|0|0,3:0|3:0|3:0|3:0,3:0:0:0:
34,144,146357,2,1,L|26:198,3,40,10|0|0|0,3:0|3:0|3:0|3:0,3:0:0:0:
137,94,146643,5,2,3:0:0:0:
133,70,146786,1,0,3:0:0:0:
212,159,146929,1,10,3:0:0:0:
234,16,147072,1,0,3:0:0:0:
365,107,147215,6,0,L|309:101,1,40,2|0,3:0|3:0,3:0:0:0:
443,40,147357,1,8,3:0:0:0:
460,75,147429,1,8,3:0:0:0:
476,112,147500,1,8,3:0:0:0:
459,148,147572,1,8,3:0:0:0:
436,181,147643,2,1,L|428:238,1,40,10|8,3:0|3:0,3:0:0:0:
355,273,147786,2,1,L|362:326,3,40,8|8|8|8,3:0|3:0|3:0|3:0,3:0:0:0:
255,206,148072,2,0,L|248:263,3,40,10|8|8|8,3:0|3:0|3:0|3:0,3:0:0:0:
174,298,148357,5,8,3:0:0:0:
139,317,148429,1,8,3:0:0:0:
98,319,148500,1,8,3:0:0:0:
60,305,148572,1,8,3:0:0:0:
40,269,148643,2,1,L|47:222,3,40,8|8|10|10,3:0|3:0|3:0|3:0,3:0:0:0:
135,174,148929,1,0,3:0:0:0:
135,174,149000,1,8,3:0:0:0:
135,174,149072,2,0,L|127:121,1,40,10|0,3:0|3:0,3:0:0:0:
63,58,149215,1,8,3:0:0:0:
66,46,149286,1,8,3:0:0:0:
68,34,149357,1,8,3:0:0:0:
71,22,149429,1,8,3:0:0:0:
64,10,149500,6,0,B|57:52|57:52|54:56|54:56|49:107,1,88,12|0,3:0|3:0,3:0:0:0:
106,245,149786,2,0,B|152:256|152:256|202:219,1,88,10|0,3:0|3:0,3:0:0:0:
135,174,150072,1,10,3:0:0:0:
168,346,150215,1,0,3:0:0:0:
262,200,150357,2,1,B|257:157|257:157|259:153|259:153|252:96,1,88,10|0,3:0|3:0,3:0:0:0:
253,90,150572,1,0,3:0:0:0:
253,90,150643,6,0,B|291:67|291:67|334:81,1,88,10|0,3:0|3:0,3:0:0:0:
431,198,150929,2,1,B|476:212|476:212|516:189,1,88,10|0,3:0|3:0,3:0:0:0:
465,117,151215,1,10,3:0:0:0:
345,246,151357,1,0,3:0:0:0:
460,113,151500,1,10,3:0:0:0:
478,288,151643,1,0,3:0:0:0:
478,288,151715,1,0,3:0:0:0:
478,288,151786,6,0,P|458:318|396:297,1,88,12|0,3:0|3:0,3:0:0:0:
286,189,152072,2,0,P|266:159|204:180,1,88,10|0,3:0|3:0,3:0:0:0:
227,249,152357,1,10,3:0:0:0:
291,85,152500,1,0,3:0:0:0:
135,167,152643,2,1,P|96:182|65:151,1,88,10|0,3:0|3:0,3:0:0:0:
65,131,152857,1,0,3:0:0:0:
65,131,152929,6,0,B|71:88|71:88|74:85|74:85|83:29,1,88,12|0,3:0|3:0,3:0:0:0:
222,114,153215,2,1,P|267:121|287:84,1,88,10|0,3:0|3:0,3:0:0:0:
224,26,153500,1,10,3:0:0:0:
291,188,153643,1,0,3:0:0:0:
399,56,153786,1,8,3:0:0:0:
399,56,153857,1,8,3:0:0:0:
399,56,153929,1,8,3:0:0:0:
399,56,154000,1,8,3:0:0:0:
399,56,154072,6,0,B|392:100|392:100|395:105|395:105|386:164,1,88,12|0,3:0|3:0,3:0:0:0:
326,289,154357,2,0,B|365:316|365:316|416:303,1,88,10|0,3:0|3:0,3:0:0:0:
378,221,154643,1,10,3:0:0:0:
280,368,154786,1,0,3:0:0:0:
142,260,154929,2,1,B|100:233|100:233|42:251,1,88,10|0,3:0|3:0,3:0:0:0:
43,254,155143,1,0,3:0:0:0:
43,254,155215,6,1,B|49:301|49:301|47:304|47:304|54:354,1,88,12|0,3:0|3:0,3:0:0:0:
209,314,155500,2,1,B|231:274|231:274|220:217,1,88,10|0,3:0|3:0,3:0:0:0:
137,264,155786,1,10,3:0:0:0:
178,112,155929,1,0,3:0:0:0:
311,197,156072,1,8,3:0:0:0:
311,197,156143,1,8,3:0:0:0:
311,197,156215,1,8,3:0:0:0:
311,197,156286,1,8,3:0:0:0:
311,197,156357,6,0,P|360:201|387:160,1,88,12|0,3:0|3:0,3:0:0:0:
318,109,156643,1,8,3:0:0:0:
378,274,156786,1,4,3:0:0:0:
378,274,156857,1,0,3:0:0:0:
378,274,156929,2,1,L|374:331,3,44,0|0|0|0,3:0|3:0|3:0|3:0,3:0:0:0:
475,170,157215,2,0,P|487:103|424:99,1,132,12|8,3:0|3:0,3:0:0:0:
416,98,157500,5,8,3:0:0:0:
416,98,157572,1,8,3:0:0:0:
416,98,157643,2,0,L|411:152,1,44,10|8,3:0|3:0,3:0:0:0:
311,197,157786,1,8,3:0:0:0:
311,197,157857,1,8,3:0:0:0:
311,197,157929,2,0,L|306:145,1,44,8|8,3:0|3:0,3:0:0:0:
223,78,158072,5,8,3:0:0:0:
202,39,158143,1,8,3:0:0:0:
162,17,158215,1,8,3:0:0:0:
118,20,158286,1,8,3:0:0:0:
83,47,158357,1,8,3:0:0:0:
67,88,158429,1,8,3:0:0:0:
76,131,158500,1,8,3:0:0:0:
108,162,158572,1,8,3:0:0:0:
152,172,158643,5,4,3:2:0:0:
188,182,166357,5,8,3:0:0:0:
188,182,166429,1,8,3:0:0:0:
188,182,166500,2,1,L|183:228,1,32,8|8,3:0|3:0,3:0:0:0:
126,298,166643,5,10,3:0:0:0:
104,69,166929,5,10,3:0:0:0:
317,159,167215,5,10,3:0:0:0:
317,159,167786,6,0,B|324:115|324:115|328:111|328:111|338:54,1,96,4|0,3:0|3:0,3:0:0:0:
339,234,168072,2,1,B|299:262|244:224|270:203|217:164|159:201,1,192,8|2,3:0|3:0,3:0:0:0:
201,275,168500,1,2,3:0:0:0:
134,115,168643,5,8,3:0:0:0:
206,272,168786,2,0,B|220:175|220:175|224:170|224:170|240:59,1,192,4|2,3:0|3:0,3:0:0:0:
45,102,169215,2,0,B|92:109|92:109|94:113|94:113|156:122,1,96,8|2,3:0|3:0,3:0:0:0:
110,16,169500,1,2,3:0:0:0:
110,16,169643,1,0,3:0:0:0:
76,205,169786,2,1,B|68:258|68:258|64:262|64:262|58:313,1,96,10|2,3:0|3:0,3:0:0:0:
224,354,170072,6,0,P|269:344|285:300,1,96,4|0,3:0|3:0,3:0:0:0:
177,165,170357,2,0,P|163:208|193:244,1,96,8|0,3:0|3:0,3:0:0:0:
364,218,170643,2,1,P|332:184|286:192,1,96,2|2,3:0|3:0,3:0:0:0:
304,287,170929,1,8,3:0:0:0:
466,226,171072,2,0,B|455:136|455:136|458:130|458:130|445:21,1,192,4|2,3:0|3:0,3:0:0:0:
350,99,171500,1,8,3:0:0:0:
462,230,171643,2,1,L|453:165,1,48,8|8,3:0|3:0,3:0:0:0:
300,292,171786,5,8,3:0:0:0:
271,309,171857,1,8,3:0:0:0:
237,309,171929,1,8,3:0:0:0:
205,295,172000,1,8,3:0:0:0:
188,265,172072,2,1,L|197:196,1,48,8|8,3:0|3:0,3:0:0:0:
248,130,172215,1,8,3:0:0:0:
248,130,172286,1,8,3:0:0:0:
248,130,172357,5,4,3:0:0:0:
106,229,172500,2,1,B|112:185|112:185|116:180|116:180|124:124,1,96,0|10,3:0|3:0,3:0:0:0:
247,14,172786,2,0,B|201:61|201:61|73:36,1,192,0|2,3:0|3:0,3:0:0:0:
126,141,173215,5,8,3:0:0:0:
254,9,173357,2,0,B|347:25|347:25|353:24|353:24|444:40,1,192,2|2,3:0|3:0,3:0:0:0:
289,98,173786,2,0,B|338:108|338:108|342:105|342:105|396:116,1,96,8|2,3:0|3:0,3:0:0:0:
351,318,174072,2,1,B|302:308|302:308|298:311|298:311|257:302,1,96,2|0,3:0|3:0,3:0:0:0:
430,177,174357,2,1,B|420:226|420:226|423:230|423:230|414:270,1,96,10|0,3:0|3:0,3:0:0:0:
210,239,174643,6,0,B|218:198|218:198|215:194|215:194|225:145,1,96,2|0,3:0|3:0,3:0:0:0:
322,208,174929,1,10,3:0:0:0:
219,68,175072,2,0,P|163:47|144:121,1,144,0|0,3:0|3:0,3:0:0:0:
149,127,175357,1,0,3:0:0:0:
182,153,175429,1,0,3:0:0:0:
225,153,175500,1,8,3:0:0:0:
261,128,175572,1,0,3:0:0:0:
303,132,175643,1,8,3:0:0:0:
329,165,175715,1,0,3:0:0:0:
322,208,175786,5,4,3:0:0:0:
45,130,176072,1,4,3:0:0:0:
311,25,176357,1,4,3:0:0:0:
484,108,176643,5,8,3:0:0:0:
481,136,176715,1,8,3:0:0:0:
478,165,176786,1,8,3:0:0:0:
476,194,176857,1,8,3:0:0:0:
460,217,176929,6,0,B|464:170|464:170|468:165|468:165|471:114,1,96,4|0,3:0|3:0,3:0:0:0:
506,294,177215,2,1,B|449:318|449:318|335:257,1,192,10|2,3:0|3:0,3:0:0:0:
369,156,177643,1,2,3:0:0:0:
227,254,177786,5,8,3:0:0:0:
239,62,177929,2,0,P|279:124|175:128,1,192,6|2,3:0|3:0,3:0:0:0:
64,38,178357,2,1,B|68:87|68:87|67:91|67:91|72:139,1,96,8|2,3:0|3:0,3:0:0:0:
110,303,178643,2,1,B|114:253|114:253|113:250|113:250|118:202,1,96,2|0,3:0|3:0,3:0:0:0:
19,246,178929,1,10,3:0:0:0:
186,152,179072,1,2,3:0:0:0:
203,343,179215,6,0,B|251:358|251:358|297:326,1,96,4|0,3:0|3:0,3:0:0:0:
271,140,179500,2,0,B|223:125|223:125|185:151,1,96,8|0,3:0|3:0,3:0:0:0:
338,233,179786,2,1,B|388:227|388:227|393:230|393:230|439:224,1,96,2|2,3:0|3:0,3:0:0:0:
240,246,180072,1,8,3:0:0:0:
303,66,180215,6,0,B|207:36|207:36|131:88,1,192,4|8,3:0|3:0,3:0:0:0:
117,100,180572,1,8,3:0:0:0:
94,90,180643,1,8,3:0:0:0:
72,81,180715,1,8,3:0:0:0:
50,72,180786,1,8,3:0:0:0:
28,63,180857,1,8,3:0:0:0:
5,55,180929,2,1,L|12:112,1,48,8|8,3:0|3:0,3:0:0:0:
77,186,181072,1,8,3:0:0:0:
77,186,181143,1,8,3:0:0:0:
77,186,181215,2,0,L|71:233,3,48,8|8|8|8,3:0|3:0|3:0|3:0,3:0:0:0:
31,311,181500,6,0,B|82:346|132:317|104:289|156:254|219:293,2,192,4|8|2,3:0|3:0|3:0,3:0:0:0:
174,367,182215,1,2,3:0:0:0:
225,201,182357,1,8,3:0:0:0:
371,325,182500,2,0,B|386:238|386:238|382:230|382:230|402:117,1,192,2|2,3:0|3:0,3:0:0:0:
271,17,182929,2,0,B|279:66|279:66|276:71|276:71|288:139,1,96,8|2,3:0|3:0,3:0:0:0:
397,239,183215,2,1,B|405:190|405:190|402:185|402:185|414:116,1,96,2|0,3:0|3:0,3:0:0:0:
225,201,183500,2,1,B|233:250|233:250|230:255|230:255|242:323,1,96,10|0,3:0|3:0,3:0:0:0:
428,323,183786,6,0,B|378:332|378:332|336:304,1,96,2|0,3:0|3:0,3:0:0:0:
151,266,184072,1,10,3:0:0:0:
121,290,184143,1,0,3:0:0:0:
83,294,184215,1,0,3:0:0:0:
46,279,184286,1,0,3:0:0:0:
27,245,184357,1,8,3:0:0:0:
28,206,184429,1,8,3:0:0:0:
51,175,184500,2,1,L|105:167,1,48,8|8,3:0|3:0,3:0:0:0:
175,134,184643,5,8,3:0:0:0:
199,93,184715,1,8,3:0:0:0:
196,44,184786,1,8,3:0:0:0:
160,12,184857,1,8,3:0:0:0:
112,6,184929,5,12,3:0:0:0:
112,6,185500,6,0,B|108:54|108:54|105:58|105:58|100:107,1,96,4|0,3:2|3:0,3:0:0:0:
12,215,185786,2,0,B|8:167|8:167|5:163|5:163|0:114,1,96,4|0,3:0|3:0,3:0:0:0:
194,308,186072,6,0,B|204:226|204:226|210:222|210:222|223:132,2,176,4|10|2,3:2|3:0|3:0,3:0:0:0:
283,268,186786,1,0,3:0:0:0:
133,173,186929,1,10,3:0:0:0:
244,38,187072,6,0,B|290:25|290:25|340:57,1,88,0|2,3:0|3:0,3:0:0:0:
446,110,187357,1,0,3:0:0:0:
446,110,187500,2,0,B|441:149|441:149|443:153|443:153|436:203,1,88,10|0,3:0|3:0,3:0:0:0:
334,351,187786,2,1,P|300:305|394:290,1,176,2|10,3:0|3:0,3:0:0:0:
479,283,188215,1,0,3:0:0:0:
358,154,188357,6,0,B|362:89|362:89|365:85|365:85|368:21|368:21|408:62,2,176,2|10|2,3:0|3:0|3:0,3:0:0:0:
446,110,189072,1,0,3:0:0:0:
294,20,189215,1,10,3:0:0:0:
272,194,189357,2,0,P|230:205|208:167,1,88,0|2,3:0|3:0,3:0:0:0:
156,50,189643,1,0,3:0:0:0:
156,50,189786,2,0,P|131:16|91:28,1,88,10|0,3:0|3:0,3:0:0:0:
22,141,190072,2,1,P|5:178|35:207,1,88,2|0,3:0|3:0,3:0:0:0:
106,154,190357,1,10,3:0:0:0:
171,327,190500,1,0,3:0:0:0:
171,327,190572,1,0,3:0:0:0:
171,327,190643,6,0,B|185:236|185:236|183:231|183:231|195:150,2,176,4|10|2,3:0|3:0|3:0,3:0:0:0:
96,264,191357,1,0,3:0:0:0:
267,219,191500,1,10,3:0:0:0:
147,91,191643,6,0,B|151:49|151:49|148:46|148:46|155:-3,1,88,0|2,3:0|3:0,3:0:0:0:
306,25,191929,1,0,3:0:0:0:
306,25,192072,2,0,B|320:67|320:67|294:105,1,88,10|0,3:0|3:0,3:0:0:0:
223,51,192357,1,2,3:0:0:0:
397,75,192500,2,0,L|467:82,1,44,8|0,3:0|3:0,3:0:0:0:
227,56,192643,1,8,3:0:0:0:
369,187,192786,6,0,B|403:225|403:225|380:307|380:307|331:319,1,176,4|4,3:0|3:2,3:0:0:0:
296,240,193215,1,8,3:0:0:0:
151,341,193357,2,0,P|140:265|46:288,1,176,4|8,3:0|3:0,3:0:0:0:
24,363,193786,1,8,3:0:0:0:
5,205,193929,6,0,B|12:141|12:141|17:137|17:137|23:76|23:76|55:116,1,176,4|4,3:0|3:2,3:0:0:0:
114,171,194357,1,8,3:0:0:0:
141,14,194500,2,0,B|219:21|219:21|231:39|231:39|311:47,1,176,4|4,3:0|3:0,3:0:0:0:
328,49,194857,1,0,3:0:0:0:
361,36,194929,1,0,3:0:0:0:
391,52,195000,1,0,3:0:0:0:
424,40,195072,1,0,3:0:0:0:
455,57,195143,1,0,3:0:0:0:
487,43,195215,6,0,P|485:139|422:144,2,176,4|10|2,3:2|3:0|3:0,3:0:0:0:
391,52,195929,1,0,3:0:0:0:
391,52,196072,1,10,3:0:0:0:
363,225,196215,2,0,B|368:271|368:271|366:273|366:273|373:325,1,88,0|2,3:0|3:0,3:0:0:0:
250,362,196500,1,0,3:0:0:0:
250,362,196643,2,0,B|243:323|243:323|247:318|247:318|240:276,1,88,10|0,3:0|3:0,3:0:0:0:
189,125,196929,2,0,B|149:93|98:129|128:156|84:184|37:158,1,176,2|10,3:0|3:0,3:0:0:0:
215,205,197357,1,0,3:0:0:0:
215,205,197429,1,0,3:0:0:0:
215,205,197500,6,0,B|269:166|269:166|250:47,2,176,2|10|2,3:0|3:0|3:0,3:0:0:0:
187,122,198215,1,0,3:0:0:0:
325,12,198357,1,10,3:0:0:0:
353,185,198500,2,0,B|396:178|396:178|400:180|400:180|452:170,1,88,4|0,3:0|3:0,3:0:0:0:
305,288,198786,1,0,3:0:0:0:
305,288,198929,2,1,B|264:281|264:281|261:284|261:284|211:276,1,88,10|0,3:0|3:0,3:0:0:0:
197,273,199143,1,0,3:0:0:0:
162,267,199215,1,8,3:0:0:0:
126,262,199286,1,8,3:0:0:0:
91,256,199357,1,8,3:0:0:0:
55,250,199429,1,8,3:0:0:0:
20,244,199500,2,0,L|29:182,3,44,8|8|8|8,3:0|3:0|3:0|3:0,3:0:0:0:
123,149,199786,6,0,B|113:230|113:230|116:238|116:238|105:330,2,176,4|10|2,3:0|3:0|3:0,3:0:0:0:
198,194,200500,1,0,3:0:0:0:
44,107,200643,1,10,3:0:0:0:
200,26,200786,2,0,B|245:10|245:10|293:46,1,88,0|2,3:0|3:0,3:0:0:0:
359,138,201072,1,0,3:0:0:0:
359,138,201215,2,1,B|400:162|400:162|457:144,1,88,10|0,3:0|3:0,3:0:0:0:
459,142,201429,1,0,3:0:0:0:
491,111,201500,1,8,3:0:0:0:
497,67,201572,1,8,3:0:0:0:
474,28,201643,1,8,3:0:0:0:
431,16,201715,1,8,3:0:0:0:
387,22,201786,6,0,L|379:85,1,44,0|0,3:0|3:0,3:0:0:0:
286,122,201929,2,0,L|294:185,1,44,0|0,3:0|3:0,3:0:0:0:
365,241,202072,5,8,3:0:0:0:
362,267,202214,1,8,3:0:0:0:
274,255,202357,5,8,3:0:0:0:
329,344,202500,1,8,3:0:0:0:
182,283,202643,5,8,3:0:0:0:
291,165,202786,1,8,3:0:0:0:
247,335,202929,6,0,P|215:366|130:355,1,132,4|0,3:2|3:0,3:0:0:0:
115,344,203214,6,0,B|107:278|107:278|103:275|103:275|96:196,1,132,4|0,3:0|3:0,3:0:0:0:
70,132,203500,5,8,3:0:0:0:
96,126,203643,1,8,3:0:0:0:
181,63,203786,5,8,3:0:0:0:
267,79,203929,1,8,3:0:0:0:
195,189,204072,5,8,3:0:0:0:
95,45,204214,1,8,3:0:0:0:
274,74,204357,6,0,B|336:67|336:67|341:71|341:71|411:61,1,132,4|0,3:2|3:0,3:0:0:0:
425,60,204643,6,0,B|448:103|448:103|431:151,1,88,4|0,3:0|3:0,3:0:0:0:
364,297,204929,6,0,B|401:291|419:247|384:194|307:188|267:246|289:300|255:330|212:344|164:323|139:279|139:279|161:296|191:292,1,416,4|0,3:0|3:0,3:0:0:0:
