osu file format v14

[General]
AudioFilename: audio.mp3
AudioLeadIn: 0
PreviewTime: 50569
Countdown: 0
SampleSet: Normal
StackLeniency: 0.7
Mode: 1
LetterboxInBreaks: 0
WidescreenStoryboard: 0

[Editor]
DistanceSpacing: 0.9
BeatDivisor: 4
GridSize: 32
TimelineZoom: 1.1

[Metadata]
Title:My Secret (TV Size)
TitleUnicode:My Secret (TV Size)
Artist:Saaya Mizuno
ArtistUnicode:水野佐彩
Creator:KennethBBG
Version:Muzukashii
Source:Maid-sama!
Tags:Aurorance Diederich Olsen 会長はメイド様! kaichou wa maid sama! japanese anime opening female vocal j-pop jpop pop j-rock jrock rock op
BeatmapID:3806091
BeatmapSetID:1815318

[Difficulty]
HPDrainRate:6
CircleSize:2
OverallDifficulty:5
ApproachRate:5
SliderMultiplier:1.4
SliderTickRate:1

[Events]
//Background and Video events
0,0,"BG.jpg",0,0
Video,-700,"output.mp4"
//Break Periods
//Storyboard Layer 0 (Background)
//Storyboard Layer 1 (Fail)
//Storyboard Layer 2 (Pass)
//Storyboard Layer 3 (Foreground)
//Storyboard Layer 4 (Overlay)
//Storyboard Sound Samples

[TimingPoints]
20,326.086956521739,4,1,0,75,1,0
22,-100,4,1,0,70,0,0
6541,-100,4,1,0,80,0,0
14367,-100,4,1,0,70,0,0
19585,-100,4,1,0,60,0,0
27411,-100,4,1,0,65,0,0
28878,-100,4,1,0,70,0,0
30019,-100,4,1,0,75,0,0
50889,-100,4,1,0,90,0,1
73063,-100,4,1,0,80,0,0
74041,-100,4,1,0,75,0,0
76976,-100,4,1,0,80,0,0
84802,-100,4,1,0,70,0,0
87085,-100,4,1,0,75,0,0
88552,-100,4,1,0,80,0,0

[Colours]
Combo1 : 128,64,0
Combo2 : 105,210,0
Combo3 : 255,128,64

[HitObjects]
254,189,998,5,0,0:0:0:0:
254,189,1161,1,0,0:0:0:0:
369,85,1324,1,14,0:0:0:0:
254,189,2302,1,8,0:0:0:0:
369,85,2628,1,6,0:0:0:0:
254,189,2954,1,0,0:0:0:0:
256,187,3280,1,0,0:0:0:0:
255,188,3606,1,2,0:0:0:0:
369,85,3933,1,4,0:0:0:0:
255,190,5237,1,0,0:0:0:0:
255,190,5400,1,2,0:0:0:0:
255,190,5481,1,2,0:0:0:0:
255,190,5563,1,2,0:0:0:0:
255,190,5726,1,0,0:0:0:0:
255,190,5971,1,8,0:0:0:0:
255,190,6052,1,8,0:0:0:0:
255,190,6215,1,0,0:0:0:0:
240,193,6378,1,8,0:0:0:0:
365,86,6541,1,4,0:0:0:0:
365,86,6867,1,2,0:0:0:0:
255,190,7193,1,0,0:0:0:0:
255,190,7356,1,0,0:0:0:0:
255,190,7519,1,2,0:0:0:0:
255,190,7683,1,0,0:0:0:0:
255,190,8009,1,0,0:0:0:0:
255,190,8172,1,2,0:0:0:0:
255,190,8335,1,0,0:0:0:0:
255,190,8498,1,0,0:0:0:0:
255,190,8579,1,0,0:0:0:0:
255,190,8661,1,0,0:0:0:0:
255,190,8824,1,8,0:0:0:0:
255,190,8987,1,0,0:0:0:0:
365,86,9150,1,0,0:0:0:0:
365,86,9476,1,2,0:0:0:0:
255,190,9802,1,0,0:0:0:0:
255,190,9965,1,0,0:0:0:0:
255,190,10128,1,2,0:0:0:0:
255,190,10291,1,0,0:0:0:0:
255,190,10617,1,0,0:0:0:0:
255,190,10780,1,8,0:0:0:0:
255,190,10943,1,0,0:0:0:0:
255,190,11432,1,8,0:0:0:0:
365,86,11759,1,0,0:0:0:0:
365,86,12085,1,8,0:0:0:0:
255,190,12411,1,0,0:0:0:0:
255,190,12574,1,8,0:0:0:0:
255,190,12737,1,8,0:0:0:0:
365,86,12900,1,0,0:0:0:0:
365,86,13226,1,0,0:0:0:0:
365,86,13389,1,0,0:0:0:0:
365,86,13552,1,0,0:0:0:0:
365,86,13878,1,8,0:0:0:0:
365,86,14367,1,4,0:0:0:0:
250,188,14693,1,0,0:0:0:0:
244,211,15019,1,8,0:0:0:0:
250,188,15346,1,0,0:0:0:0:
250,188,15509,1,8,0:0:0:0:
250,188,15835,1,8,0:0:0:0:
182,177,15998,1,0,0:0:0:0:
182,177,16161,1,0,0:0:0:0:
227,183,16487,1,0,0:0:0:0:
269,184,16650,1,0,0:0:0:0:
269,184,16976,1,0,0:0:0:0:
197,185,17302,1,0,0:0:0:0:
190,181,17628,1,8,0:0:0:0:
227,183,17954,1,0,0:0:0:0:
269,184,18117,1,8,0:0:0:0:
172,172,18443,1,0,0:0:0:0:
263,191,18769,1,8,0:0:0:0:
263,191,18851,1,8,0:0:0:0:
263,191,18933,1,8,0:0:0:0:
253,178,19096,1,0,0:0:0:0:
239,163,19259,1,8,0:0:0:0:
342,210,19585,1,4,0:0:0:0:
219,184,19911,1,0,0:0:0:0:
188,190,20237,1,0,0:0:0:0:
210,189,20400,1,0,0:0:0:0:
264,171,20726,1,8,0:0:0:0:
264,171,21052,1,0,0:0:0:0:
212,167,21378,1,8,0:0:0:0:
230,201,21704,1,0,0:0:0:0:
230,201,21867,1,0,0:0:0:0:
230,201,22030,1,8,0:0:0:0:
292,198,22193,1,0,0:0:0:0:
293,198,22519,1,0,0:0:0:0:
230,190,22846,1,0,0:0:0:0:
178,166,23172,1,8,0:0:0:0:
178,166,23335,1,0,0:0:0:0:
170,167,23824,1,0,0:0:0:0:
198,185,24150,1,0,0:0:0:0:
211,261,24313,1,0,0:0:0:0:
248,204,24476,1,8,0:0:0:0:
211,197,24639,1,8,0:0:0:0:
252,208,24802,1,0,0:0:0:0:
211,197,25128,1,0,0:0:0:0:
219,213,25291,1,8,0:0:0:0:
252,194,25780,1,8,0:0:0:0:
252,194,25943,1,0,0:0:0:0:
242,194,26106,1,0,0:0:0:0:
255,181,26433,1,0,0:0:0:0:
245,247,26759,1,8,0:0:0:0:
185,211,27085,1,8,0:0:0:0:
249,192,27411,1,4,0:0:0:0:
279,162,27900,1,12,0:0:0:0:
273,165,28389,1,12,0:0:0:0:
209,172,28878,1,0,0:0:0:0:
299,168,29041,1,0,0:0:0:0:
209,172,29204,1,8,0:0:0:0:
220,268,29367,1,8,0:0:0:0:
209,172,29530,1,0,0:0:0:0:
371,189,29693,1,8,0:0:0:0:
226,150,30019,1,0,0:0:0:0:
286,212,30346,1,8,0:0:0:0:
219,204,30672,1,0,0:0:0:0:
242,220,30835,1,8,0:0:0:0:
242,220,31161,1,8,0:0:0:0:
234,205,31487,1,0,0:0:0:0:
234,205,31650,1,8,0:0:0:0:
262,224,31813,1,8,0:0:0:0:
207,197,32139,1,0,0:0:0:0:
232,170,32302,1,8,0:0:0:0:
206,197,32465,1,0,0:0:0:0:
224,176,32628,1,0,0:0:0:0:
266,205,32954,1,8,0:0:0:0:
239,196,33281,1,0,0:0:0:0:
239,196,33606,1,0,0:0:0:0:
133,183,33769,1,8,0:0:0:0:
239,196,34096,1,0,0:0:0:0:
133,183,34259,1,8,0:0:0:0:
171,175,34585,1,0,0:0:0:0:
171,175,34748,1,0,0:0:0:0:
171,175,34911,1,8,0:0:0:0:
212,216,35237,1,0,0:0:0:0:
189,243,35563,1,8,0:0:0:0:
177,214,35726,1,0,0:0:0:0:
177,214,36052,1,0,0:0:0:0:
171,175,36215,1,8,0:0:0:0:
202,224,36378,1,8,0:0:0:0:
180,204,36704,1,0,0:0:0:0:
234,213,36867,1,8,0:0:0:0:
231,215,37193,1,0,0:0:0:0:
231,215,37519,1,8,0:0:0:0:
179,173,37683,1,0,0:0:0:0:
228,215,37846,1,0,0:0:0:0:
231,215,38172,1,8,0:0:0:0:
291,199,38498,1,8,0:0:0:0:
289,200,38987,1,8,0:0:0:0:
287,201,39150,1,0,0:0:0:0:
289,200,39476,1,8,0:0:0:0:
169,154,39802,1,0,0:0:0:0:
169,154,39884,1,0,0:0:0:0:
169,154,39965,1,0,0:0:0:0:
331,178,40128,1,8,0:0:0:0:
269,184,40454,1,4,0:0:0:0:
177,139,40780,1,0,0:0:0:0:
176,141,41106,1,0,0:0:0:0:
177,148,41433,1,8,0:0:0:0:
177,177,41759,1,0,0:0:0:0:
320,222,42085,1,8,0:0:0:0:
204,200,42411,1,0,0:0:0:0:
190,226,42737,1,8,0:0:0:0:
217,232,42900,1,0,0:0:0:0:
303,210,43063,1,0,0:0:0:0:
312,189,43389,1,0,0:0:0:0:
312,189,43552,1,8,0:0:0:0:
312,189,43715,1,0,0:0:0:0:
312,189,44041,1,8,0:0:0:0:
312,189,44367,1,8,0:0:0:0:
297,214,44530,1,0,0:0:0:0:
312,189,44693,1,0,0:0:0:0:
312,189,45019,1,0,0:0:0:0:
312,189,45346,1,8,0:0:0:0:
312,189,45672,1,8,0:0:0:0:
221,171,46324,1,8,0:0:0:0:
312,189,46650,1,0,0:0:0:0:
312,189,46813,1,8,0:0:0:0:
312,189,46976,1,0,0:0:0:0:
312,189,47302,1,0,0:0:0:0:
182,167,47465,1,0,0:0:0:0:
156,192,47628,1,8,0:0:0:0:
249,167,47710,1,8,0:0:0:0:
249,167,47791,1,8,0:0:0:0:
251,215,47954,1,8,0:0:0:0:
280,234,48280,1,4,0:0:0:0:
280,234,48443,1,4,0:0:0:0:
280,234,48769,1,4,0:0:0:0:
280,234,48932,1,4,0:0:0:0:
280,234,49259,1,12,0:0:0:0:
280,234,49422,1,12,0:0:0:0:
280,234,49748,1,12,0:0:0:0:
280,234,49911,1,12,0:0:0:0:
241,154,50237,1,0,0:0:0:0:
241,154,50318,1,0,0:0:0:0:
241,154,50400,1,0,0:0:0:0:
233,148,50563,1,8,0:0:0:0:
169,214,50889,1,4,0:0:0:0:
254,174,51215,1,8,0:0:0:0:
254,174,51378,1,0,0:0:0:0:
254,174,51541,1,0,0:0:0:0:
254,174,51704,1,0,0:0:0:0:
254,174,51867,1,8,0:0:0:0:
267,162,52030,1,0,0:0:0:0:
246,164,52519,1,0,0:0:0:0:
245,165,52846,1,8,0:0:0:0:
245,165,53172,1,8,0:0:0:0:
254,200,53335,1,0,0:0:0:0:
169,214,53498,1,0,0:0:0:0:
254,174,53824,1,8,0:0:0:0:
254,174,53987,1,0,0:0:0:0:
254,174,54150,1,8,0:0:0:0:
254,174,54313,1,8,0:0:0:0:
254,174,54476,1,0,0:0:0:0:
267,162,54639,1,8,0:0:0:0:
200,182,54965,1,0,0:0:0:0:
200,182,55128,1,8,0:0:0:0:
225,217,55454,1,0,0:0:0:0:
372,178,55943,1,8,0:0:0:0:
512,10,56106,1,4,0:0:0:0:
292,169,56433,1,8,0:0:0:0:
366,212,56596,1,0,0:0:0:0:
345,200,56759,1,0,0:0:0:0:
292,169,56922,1,8,0:0:0:0:
292,169,57085,1,8,0:0:0:0:
366,212,57248,1,0,0:0:0:0:
366,212,57574,1,0,0:0:0:0:
292,169,57737,1,8,0:0:0:0:
366,212,58063,1,0,0:0:0:0:
366,212,58389,1,8,0:0:0:0:
366,212,58552,1,0,0:0:0:0:
366,212,58715,1,0,0:0:0:0:
181,157,59041,1,8,0:0:0:0:
173,174,59204,1,0,0:0:0:0:
178,187,59367,1,0,0:0:0:0:
178,187,59449,1,0,0:0:0:0:
178,187,59530,1,0,0:0:0:0:
217,175,59693,1,8,0:0:0:0:
217,175,59856,1,0,0:0:0:0:
207,163,60346,1,8,0:0:0:0:
207,163,60509,1,0,0:0:0:0:
207,163,60672,1,8,0:0:0:0:
207,163,60835,1,0,0:0:0:0:
253,174,60998,1,8,0:0:0:0:
253,174,61079,1,8,0:0:0:0:
253,174,61161,1,8,0:0:0:0:
253,174,61324,1,4,0:0:0:0:
259,197,61650,1,8,0:0:0:0:
238,192,61813,1,0,0:0:0:0:
238,192,61977,1,0,0:0:0:0:
251,184,62139,1,8,0:0:0:0:
296,203,62302,1,8,0:0:0:0:
213,181,62465,1,0,0:0:0:0:
268,202,62791,1,8,0:0:0:0:
268,202,62954,1,8,0:0:0:0:
282,216,63280,1,0,0:0:0:0:
283,206,63769,1,0,0:0:0:0:
283,206,63933,1,12,0:0:0:0:
203,165,64259,1,8,0:0:0:0:
203,165,64422,1,8,0:0:0:0:
271,166,64585,1,0,0:0:0:0:
233,164,64748,1,0,0:0:0:0:
222,163,64911,1,8,0:0:0:0:
261,190,65074,1,0,0:0:0:0:
250,153,65400,1,8,0:0:0:0:
250,153,65563,1,8,0:0:0:0:
238,154,65726,1,0,0:0:0:0:
139,154,66215,1,8,0:0:0:0:
139,154,66378,1,8,0:0:0:0:
139,154,66541,1,4,0:0:0:0:
236,144,66867,1,8,0:0:0:0:
295,173,67030,1,0,0:0:0:0:
236,144,67193,1,8,0:0:0:0:
236,144,67519,1,8,0:0:0:0:
295,173,67683,1,8,0:0:0:0:
278,204,67846,1,0,0:0:0:0:
278,204,68009,1,0,0:0:0:0:
278,204,68172,1,8,0:0:0:0:
273,209,68335,1,0,0:0:0:0:
316,198,68498,1,8,0:0:0:0:
316,198,68824,1,0,0:0:0:0:
307,205,69150,1,8,0:0:0:0:
236,144,69476,1,8,0:0:0:0:
295,173,69639,1,0,0:0:0:0:
236,144,69802,1,8,0:0:0:0:
295,173,69965,1,0,0:0:0:0:
236,144,70128,1,8,0:0:0:0:
292,159,70454,1,0,0:0:0:0:
275,160,70780,1,8,0:0:0:0:
275,160,70943,1,0,0:0:0:0:
275,160,71106,1,0,0:0:0:0:
275,160,71269,1,8,0:0:0:0:
275,160,71433,1,8,0:0:0:0:
268,164,71596,1,8,0:0:0:0:
268,164,71759,1,4,0:0:0:0:
226,198,72085,1,8,0:0:0:0:
221,160,72248,1,0,0:0:0:0:
221,160,72411,1,0,0:0:0:0:
210,158,72492,1,0,0:0:0:0:
270,135,72574,1,0,0:0:0:0:
208,158,72737,1,8,0:0:0:0:
315,150,73063,1,4,0:0:0:0:
315,150,73226,1,4,0:0:0:0:
315,150,73389,1,4,0:0:0:0:
186,203,74367,1,4,0:0:0:0:
204,218,74693,1,8,0:0:0:0:
195,214,75019,1,0,0:0:0:0:
195,214,75183,1,0,0:0:0:0:
235,192,75346,1,8,0:0:0:0:
230,199,75508,1,8,0:0:0:0:
132,153,75835,1,0,0:0:0:0:
132,153,75998,1,0,0:0:0:0:
132,153,76161,1,8,0:0:0:0:
132,153,76324,1,0,0:0:0:0:
132,153,76487,1,0,0:0:0:0:
132,153,76650,1,8,0:0:0:0:
240,193,76813,1,8,0:0:0:0:
365,86,76976,1,4,0:0:0:0:
365,86,77302,1,2,0:0:0:0:
255,190,77628,1,0,0:0:0:0:
255,190,77791,1,0,0:0:0:0:
255,190,77954,1,2,0:0:0:0:
255,190,78118,1,0,0:0:0:0:
261,156,78444,1,0,0:0:0:0:
337,171,78606,1,2,0:0:0:0:
261,156,78769,1,0,0:0:0:0:
284,170,78933,1,8,0:0:0:0:
284,170,79014,1,8,0:0:0:0:
284,170,79096,1,8,0:0:0:0:
337,201,79259,1,8,0:0:0:0:
279,218,79422,1,8,0:0:0:0:
362,177,79585,1,0,0:0:0:0:
337,171,79911,1,2,0:0:0:0:
338,148,80237,1,0,0:0:0:0:
261,156,80400,1,0,0:0:0:0:
337,171,80563,1,2,0:0:0:0:
261,156,80726,1,0,0:0:0:0:
251,187,81052,1,0,0:0:0:0:
338,215,81215,1,8,0:0:0:0:
338,215,81378,1,0,0:0:0:0:
338,215,81867,1,8,0:0:0:0:
300,199,82193,1,0,0:0:0:0:
330,248,82520,1,8,0:0:0:0:
246,202,82846,1,0,0:0:0:0:
246,202,83009,1,0,0:0:0:0:
246,202,83172,1,8,0:0:0:0:
253,212,83335,1,0,0:0:0:0:
201,208,83661,1,8,0:0:0:0:
180,198,83824,1,0,0:0:0:0:
180,198,83987,1,0,0:0:0:0:
254,197,84313,1,0,0:0:0:0:
365,86,84802,1,4,0:0:0:0:
250,188,85128,1,0,0:0:0:0:
217,193,85454,1,8,0:0:0:0:
250,188,85781,1,0,0:0:0:0:
250,188,85944,1,8,0:0:0:0:
182,177,86270,1,8,0:0:0:0:
182,177,86433,1,0,0:0:0:0:
182,177,86596,1,0,0:0:0:0:
227,183,86922,1,0,0:0:0:0:
269,184,87085,1,8,0:0:0:0:
269,184,87411,1,0,0:0:0:0:
265,149,87737,1,8,0:0:0:0:
308,165,88063,1,0,0:0:0:0:
308,165,88226,1,0,0:0:0:0:
293,190,88308,1,0,0:0:0:0:
308,165,88389,1,0,0:0:0:0:
308,165,88552,1,12,0:0:0:0:
