osu file format v14

[General]
AudioFilename: audio.mp3
AudioLeadIn: 0
PreviewTime:50569
Countdown: 0
SampleSet: Normal
StackLeniency: 0.7
Mode: 1
LetterboxInBreaks: 0
WidescreenStoryboard: 1

[Editor]
Bookmarks: 18769,40454
DistanceSpacing: 0.9
BeatDivisor: 2
GridSize: 32
TimelineZoom: 1.4

[Metadata]
Title:My Secret (TV Size)
TitleUnicode:My Secret (TV Size)
Artist:Saaya Mizuno
ArtistUnicode:水野佐彩
Creator:KennethBBG
Version:Futsuu
Source:Maid-sama!
Tags:Aurorance Diederich Olsen 会長はメイド様! kaichou wa maid sama! japanese anime opening female vocal j-pop jpop pop j-rock jrock rock op
BeatmapID:3724072
BeatmapSetID:1815318

[Difficulty]
HPDrainRate:7
CircleSize:5
OverallDifficulty:4
ApproachRate:5
SliderMultiplier:1.4
SliderTickRate:1

[Events]
//Background and Video events
0,0,"BG.jpg",0,0
Video,-700,"output.mp4"
//Break Periods
2,14567,17569
//Storyboard Layer 0 (Background)
//Storyboard Layer 1 (Fail)
//Storyboard Layer 2 (Pass)
//Storyboard Layer 3 (Foreground)
//Storyboard Layer 4 (Overlay)
//Storyboard Sound Samples

[TimingPoints]
20,326.086956521739,4,1,0,75,1,0
22,-100,4,1,0,70,0,0
6541,-100,4,1,0,80,0,0
14367,-100,4,1,0,70,0,0
19585,-100,4,1,0,60,0,0
27411,-100,4,1,0,65,0,0
28878,-100,4,1,0,70,0,0
30019,-100,4,1,0,75,0,0
50889,-100,4,1,0,90,0,1
73063,-100,4,1,0,80,0,0
74041,-100,4,1,0,75,0,0
76976,-100,4,1,0,80,0,0
84802,-100,4,1,0,70,0,0
87085,-100,4,1,0,75,0,0
88552,-100,4,1,0,80,0,0

[Colours]
Combo1 : 128,64,0
Combo2 : 105,210,0
Combo3 : 255,128,64

[HitObjects]
259,162,1324,5,12,0:0:0:0:
312,211,2628,1,12,0:0:0:0:
272,203,3933,1,4,0:0:0:0:
321,201,5237,1,0,0:0:0:0:
323,199,5400,1,8,0:0:0:0:
323,199,5563,1,8,0:0:0:0:
323,199,5726,1,0,0:0:0:0:
297,170,6052,1,8,0:0:0:0:
321,199,6215,1,0,0:0:0:0:
259,164,6541,1,4,0:0:0:0:
243,173,6867,1,8,0:0:0:0:
174,199,7193,1,0,0:0:0:0:
237,173,7356,1,8,0:0:0:0:
260,147,7683,1,0,0:0:0:0:
269,215,8009,1,0,0:0:0:0:
237,173,8172,1,8,0:0:0:0:
241,206,8335,1,0,0:0:0:0:
294,192,8824,1,8,0:0:0:0:
223,219,8987,1,8,0:0:0:0:
192,177,9150,1,0,0:0:0:0:
248,195,9476,1,8,0:0:0:0:
268,139,9802,1,0,0:0:0:0:
268,139,9965,1,0,0:0:0:0:
259,146,10291,1,0,0:0:0:0:
266,157,10617,1,0,0:0:0:0:
231,167,10780,1,8,0:0:0:0:
171,171,11433,1,8,0:0:0:0:
217,171,11759,1,0,0:0:0:0:
237,182,12085,1,8,0:0:0:0:
232,192,12411,1,0,0:0:0:0:
229,192,12574,1,8,0:0:0:0:
263,162,12900,1,0,0:0:0:0:
256,162,13226,1,0,0:0:0:0:
245,232,13389,1,0,0:0:0:0:
256,162,13552,1,8,0:0:0:0:
295,203,13878,1,8,0:0:0:0:
338,188,14367,1,4,0:0:0:0:
315,174,18769,5,0,0:0:0:0:
315,174,18933,5,8,0:0:0:0:
315,174,19259,1,8,0:0:0:0:
201,197,19585,5,4,0:0:0:0:
292,213,20237,1,0,0:0:0:0:
355,200,20726,1,8,0:0:0:0:
275,212,21378,1,0,0:0:0:0:
340,197,21704,1,0,0:0:0:0:
333,198,21867,1,0,0:0:0:0:
239,38,22193,1,8,0:0:0:0:
239,39,22846,1,0,0:0:0:0:
239,40,23335,1,8,0:0:0:0:
211,168,24150,1,0,0:0:0:0:
307,220,24802,1,0,0:0:0:0:
231,188,25291,1,0,0:0:0:0:
231,188,25943,1,8,0:0:0:0:
312,221,26433,1,8,0:0:0:0:
263,190,26759,1,8,0:0:0:0:
276,184,27411,1,4,0:0:0:0:
271,183,27900,1,12,0:0:0:0:
268,182,28389,1,12,0:0:0:0:
224,224,29693,1,8,0:0:0:0:
201,197,30019,1,0,0:0:0:0:
339,194,30346,1,8,0:0:0:0:
292,213,30672,1,0,0:0:0:0:
355,200,31161,1,8,0:0:0:0:
275,212,31813,1,8,0:0:0:0:
259,186,32302,1,8,0:0:0:0:
333,198,32627,1,0,0:0:0:0:
240,179,32954,1,8,0:0:0:0:
275,219,33280,1,0,0:0:0:0:
285,200,33769,1,8,0:0:0:0:
259,209,34585,1,0,0:0:0:0:
244,164,34911,1,8,0:0:0:0:
249,192,35237,1,0,0:0:0:0:
280,166,35726,1,8,0:0:0:0:
231,188,36378,1,8,0:0:0:0:
312,221,36867,1,8,0:0:0:0:
212,175,37193,1,0,0:0:0:0:
196,218,37519,1,8,0:0:0:0:
276,184,37846,1,0,0:0:0:0:
326,204,38498,1,8,0:0:0:0:
326,205,39150,1,0,0:0:0:0:
324,206,39802,1,0,0:0:0:0:
264,187,40128,1,8,0:0:0:0:
263,192,40454,1,4,0:0:0:0:
222,200,41433,1,8,0:0:0:0:
221,219,41759,1,0,0:0:0:0:
310,198,42085,1,8,0:0:0:0:
310,198,42411,1,0,0:0:0:0:
310,198,43063,1,8,0:0:0:0:
310,198,43552,1,8,0:0:0:0:
310,198,44041,1,0,0:0:0:0:
217,209,44367,1,8,0:0:0:0:
253,197,45019,1,0,0:0:0:0:
252,196,45346,1,8,0:0:0:0:
252,196,45672,1,0,0:0:0:0:
245,209,46650,1,8,0:0:0:0:
205,174,46976,1,8,0:0:0:0:
194,172,47302,1,0,0:0:0:0:
224,183,47628,1,8,0:0:0:0:
213,211,47791,1,0,0:0:0:0:
179,172,47954,1,8,0:0:0:0:
242,194,48280,1,4,0:0:0:0:
242,194,48769,1,4,0:0:0:0:
242,194,49259,1,12,0:0:0:0:
242,194,49748,1,12,0:0:0:0:
266,104,50889,1,4,0:0:0:0:
264,107,51215,1,8,0:0:0:0:
268,185,51378,1,0,0:0:0:0:
260,117,51704,1,0,0:0:0:0:
246,212,52030,1,0,0:0:0:0:
243,212,52519,1,8,0:0:0:0:
238,213,52846,1,0,0:0:0:0:
192,169,53498,1,0,0:0:0:0:
187,168,53824,1,8,0:0:0:0:
253,166,53987,1,0,0:0:0:0:
253,166,54313,1,8,0:0:0:0:
381,214,54476,1,0,0:0:0:0:
305,196,54639,1,8,0:0:0:0:
155,210,54965,1,0,0:0:0:0:
232,196,55128,1,8,0:0:0:0:
295,211,55454,1,0,0:0:0:0:
226,243,56106,1,4,0:0:0:0:
198,224,56433,1,8,0:0:0:0:
189,219,56596,1,0,0:0:0:0:
222,225,56922,1,8,0:0:0:0:
229,229,57085,1,8,0:0:0:0:
208,169,57248,1,0,0:0:0:0:
191,217,57574,1,0,0:0:0:0:
343,180,57737,1,8,0:0:0:0:
244,216,58063,1,0,0:0:0:0:
256,177,58389,1,8,0:0:0:0:
280,221,58552,1,0,0:0:0:0:
254,177,58715,1,0,0:0:0:0:
258,206,59041,1,8,0:0:0:0:
203,177,59693,1,8,0:0:0:0:
203,177,59856,1,0,0:0:0:0:
226,175,60346,1,8,0:0:0:0:
226,175,60672,1,8,0:0:0:0:
226,175,60835,1,0,0:0:0:0:
143,172,60998,1,8,0:0:0:0:
266,104,61324,1,4,0:0:0:0:
264,107,61650,1,8,0:0:0:0:
268,185,61813,1,0,0:0:0:0:
260,117,62139,1,8,0:0:0:0:
261,197,62302,1,8,0:0:0:0:
246,212,62465,1,0,0:0:0:0:
233,198,62791,1,8,0:0:0:0:
243,212,62954,1,8,0:0:0:0:
289,175,63280,1,0,0:0:0:0:
183,179,63933,1,12,0:0:0:0:
181,175,64259,1,8,0:0:0:0:
175,179,64422,1,8,0:0:0:0:
214,204,64748,1,0,0:0:0:0:
273,191,65074,1,0,0:0:0:0:
331,185,65400,1,8,0:0:0:0:
331,185,65563,1,8,0:0:0:0:
331,185,65726,1,0,0:0:0:0:
347,180,66215,1,8,0:0:0:0:
338,179,66541,1,4,0:0:0:0:
307,170,67193,1,8,0:0:0:0:
301,171,67519,1,8,0:0:0:0:
217,165,67683,1,8,0:0:0:0:
217,165,67846,1,0,0:0:0:0:
217,165,68009,1,0,0:0:0:0:
217,165,68172,1,8,0:0:0:0:
273,163,68498,1,8,0:0:0:0:
189,195,68824,1,0,0:0:0:0:
247,201,69150,1,8,0:0:0:0:
307,170,69802,1,8,0:0:0:0:
213,177,69965,1,0,0:0:0:0:
301,171,70128,1,8,0:0:0:0:
317,170,70454,1,0,0:0:0:0:
307,170,70780,1,8,0:0:0:0:
342,190,70943,1,0,0:0:0:0:
301,171,71106,1,0,0:0:0:0:
233,178,71269,1,0,0:0:0:0:
309,184,71433,1,8,0:0:0:0:
273,193,71759,1,4,0:0:0:0:
295,179,73063,1,4,0:0:0:0:
295,179,73226,1,4,0:0:0:0:
295,179,73389,1,4,0:0:0:0:
266,209,74367,1,4,0:0:0:0:
200,195,74693,1,8,0:0:0:0:
184,187,75346,1,8,0:0:0:0:
180,186,75509,1,8,0:0:0:0:
167,169,75835,1,0,0:0:0:0:
233,145,75998,1,8,0:0:0:0:
209,175,76161,1,8,0:0:0:0:
185,174,76487,1,0,0:0:0:0:
177,176,76650,1,8,0:0:0:0:
259,164,76976,1,4,0:0:0:0:
243,173,77302,1,8,0:0:0:0:
174,199,77628,1,0,0:0:0:0:
237,173,77791,1,0,0:0:0:0:
260,147,78118,1,8,0:0:0:0:
269,215,78443,1,0,0:0:0:0:
237,173,78607,1,0,0:0:0:0:
241,206,78770,1,8,0:0:0:0:
294,192,79259,1,8,0:0:0:0:
223,219,79422,1,8,0:0:0:0:
192,177,79585,1,0,0:0:0:0:
248,195,79911,1,8,0:0:0:0:
268,139,80237,1,0,0:0:0:0:
268,139,80400,1,8,0:0:0:0:
259,146,80726,1,0,0:0:0:0:
266,157,81052,1,8,0:0:0:0:
231,167,81215,1,8,0:0:0:0:
171,171,81868,1,8,0:0:0:0:
217,171,82194,1,0,0:0:0:0:
237,182,82520,1,8,0:0:0:0:
232,192,82846,1,0,0:0:0:0:
229,192,83009,1,8,0:0:0:0:
263,162,83335,1,0,0:0:0:0:
256,162,83661,1,0,0:0:0:0:
245,232,83824,1,0,0:0:0:0:
256,162,83987,1,8,0:0:0:0:
295,203,84313,1,8,0:0:0:0:
338,188,84802,1,4,0:0:0:0:
192,183,87411,5,0,0:0:0:0:
190,185,87737,1,8,0:0:0:0:
183,186,88063,1,0,0:0:0:0:
183,186,88226,1,0,0:0:0:0:
183,186,88389,1,0,0:0:0:0:
161,178,88552,1,12,0:0:0:0:
