osu file format v14

[General]
AudioFilename: audio.mp3
AudioLeadIn: 0
PreviewTime: 50569
Countdown: 0
SampleSet: Normal
StackLeniency: 0.7
Mode: 1
LetterboxInBreaks: 0
WidescreenStoryboard: 1

[Editor]
Bookmarks: 19305,36913,40174,84522
DistanceSpacing: 0.9
BeatDivisor: 4
GridSize: 4
TimelineZoom: 1.4

[Metadata]
Title:My Secret (TV Size)
TitleUnicode:My Secret (TV Size)
Artist:Saaya Mizuno
ArtistUnicode:水野佐彩
Creator:KennethBBG
Version:Diederich Olsen's Oni
Source:Maid-sama!
Tags:Aurorance Diederich Olsen 会長はメイド様! kaichou wa maid sama! japanese anime opening female vocal j-pop jpop pop j-rock jrock rock op
BeatmapID:3724071
BeatmapSetID:1815318

[Difficulty]
HPDrainRate:5
CircleSize:4
OverallDifficulty:5.5
ApproachRate:9
SliderMultiplier:1.4
SliderTickRate:1

[Events]
//Background and Video events
0,0,"BG.jpg",0,0
Video,-700,"output.mp4"
//Break Periods
//Storyboard Layer 0 (Background)
//Storyboard Layer 1 (Fail)
//Storyboard Layer 2 (Pass)
//Storyboard Layer 3 (Foreground)
//Storyboard Layer 4 (Overlay)
//Storyboard Sound Samples

[TimingPoints]
20,326.086956521739,4,1,0,75,1,0
22,-100,4,1,0,70,0,0
6541,-100,4,1,0,80,0,0
14367,-100,4,1,0,70,0,0
19585,-100,4,1,0,60,0,0
27411,-100,4,1,0,65,0,0
28878,-100,4,1,0,70,0,0
30019,-100,4,1,0,75,0,0
50889,-100,4,1,0,90,0,1
73063,-100,4,1,0,80,0,0
74041,-100,4,1,0,75,0,0
76976,-100,4,1,0,80,0,0
84802,-100,4,1,0,70,0,0
87085,-100,4,1,0,75,0,0
88552,-100,4,1,0,80,0,0

[Colours]
Combo1 : 128,64,0
Combo2 : 105,210,0
Combo3 : 255,128,64

[HitObjects]
258,190,1324,5,4,0:0:0:0:
259,193,2628,1,6,0:0:0:0:
258,198,3933,1,4,0:0:0:0:
167,100,5237,1,2,0:0:0:0:
289,184,5400,1,0,0:0:0:0:
289,184,5481,1,0,0:0:0:0:
289,184,5563,1,0,0:0:0:0:
150,226,5726,1,2,0:0:0:0:
299,69,5971,1,0,0:0:0:0:
299,69,6052,1,0,0:0:0:0:
321,242,6215,1,2,0:0:0:0:
321,242,6297,1,2,0:0:0:0:
321,242,6378,1,0,0:0:0:0:
321,242,6460,1,0,0:0:0:0:
321,242,6541,1,6,0:0:0:0:
342,109,6867,1,2,0:0:0:0:
108,182,7193,1,0,0:0:0:0:
108,182,7356,1,0,0:0:0:0:
108,182,7519,1,2,0:0:0:0:
161,112,7683,1,2,0:0:0:0:
286,206,8009,1,0,0:0:0:0:
286,206,8172,1,2,0:0:0:0:
308,317,8335,1,0,0:0:0:0:
224,92,8498,1,2,0:0:0:0:
224,92,8579,1,0,0:0:0:0:
224,92,8661,1,2,0:0:0:0:
224,92,8742,1,2,0:0:0:0:
224,92,8824,1,0,0:0:0:0:
344,80,8987,1,2,0:0:0:0:
290,167,9150,1,4,0:0:0:0:
405,145,9476,1,2,0:0:0:0:
151,113,9802,1,2,0:0:0:0:
192,181,9965,1,0,0:0:0:0:
88,185,10128,1,0,0:0:0:0:
144,255,10291,1,2,0:0:0:0:
138,75,10617,1,2,0:0:0:0:
138,75,10780,1,2,0:0:0:0:
198,109,10943,1,0,0:0:0:0:
275,63,11106,1,2,0:0:0:0:
278,191,11269,1,0,0:0:0:0:
278,191,11351,1,0,0:0:0:0:
278,191,11433,1,2,0:0:0:0:
377,174,11596,1,2,0:0:0:0:
337,272,11759,1,4,0:0:0:0:
144,94,12085,1,2,0:0:0:0:
134,181,12411,1,0,0:0:0:0:
134,181,12574,1,0,0:0:0:0:
134,181,12655,1,2,0:0:0:0:
134,181,12737,1,2,0:0:0:0:
134,181,12900,1,0,0:0:0:0:
261,112,13226,1,2,0:0:0:0:
261,112,13389,1,2,0:0:0:0:
261,112,13552,1,0,0:0:0:0:
208,216,13878,1,0,0:0:0:0:
305,205,14041,1,2,0:0:0:0:
372,126,14204,1,8,0:0:0:0:
372,126,14286,1,8,0:0:0:0:
372,126,14367,1,4,0:0:0:0:
424,271,14693,1,0,0:0:0:0:
185,276,15019,1,0,0:0:0:0:
131,103,15183,1,0,0:0:0:0:
246,196,15346,1,0,0:0:0:0:
246,196,15509,1,2,0:0:0:0:
115,177,15835,1,2,0:0:0:0:
115,177,15998,1,0,0:0:0:0:
115,177,16161,1,2,0:0:0:0:
191,174,16487,1,2,0:0:0:0:
318,240,16650,1,0,0:0:0:0:
132,69,16976,1,0,0:0:0:0:
257,128,17302,1,2,0:0:0:0:
341,149,17628,1,0,0:0:0:0:
337,143,17954,1,0,0:0:0:0:
455,179,18117,1,2,0:0:0:0:
222,203,18443,1,0,0:0:0:0:
222,203,18606,1,2,0:0:0:0:
222,203,18769,1,0,0:0:0:0:
222,203,18851,1,2,0:0:0:0:
222,203,18933,1,2,0:0:0:0:
297,221,19096,1,0,0:0:0:0:
304,125,19259,1,2,0:0:0:0:
353,241,19585,1,4,0:0:0:0:
121,81,19911,1,2,0:0:0:0:
121,81,20074,1,0,0:0:0:0:
121,81,20237,1,0,0:0:0:0:
121,81,20400,1,2,0:0:0:0:
121,81,20726,1,2,0:0:0:0:
269,84,21052,1,0,0:0:0:0:
269,84,21215,1,0,0:0:0:0:
143,130,21378,1,2,0:0:0:0:
143,130,21704,1,2,0:0:0:0:
143,130,21867,1,0,0:0:0:0:
143,130,22030,1,2,0:0:0:0:
143,130,22193,1,0,0:0:0:0:
303,72,22519,1,2,0:0:0:0:
303,72,22846,1,0,0:0:0:0:
308,200,23172,1,2,0:0:0:0:
308,200,23335,1,0,0:0:0:0:
308,200,23661,1,0,0:0:0:0:
234,108,23824,1,2,0:0:0:0:
101,226,24150,1,0,0:0:0:0:
170,181,24313,1,2,0:0:0:0:
158,270,24476,1,0,0:0:0:0:
248,256,24639,1,0,0:0:0:0:
281,188,24802,1,2,0:0:0:0:
119,84,25128,1,0,0:0:0:0:
193,95,25291,1,2,0:0:0:0:
335,108,25617,1,2,0:0:0:0:
336,193,25780,1,0,0:0:0:0:
371,218,25943,1,0,0:0:0:0:
262,270,26106,1,2,0:0:0:0:
39,83,26433,1,0,0:0:0:0:
112,142,26596,1,2,0:0:0:0:
199,123,26759,1,2,0:0:0:0:
308,141,27085,1,0,0:0:0:0:
262,198,27248,1,0,0:0:0:0:
286,56,27411,1,6,0:0:0:0:
380,120,27900,1,4,0:0:0:0:
380,120,28389,1,6,0:0:0:0:
195,184,28878,1,0,0:0:0:0:
299,187,29041,1,2,0:0:0:0:
10,23,29204,1,2,0:0:0:0:
98,346,29367,1,2,0:0:0:0:
367,53,29530,1,0,0:0:0:0:
202,101,29612,1,0,0:0:0:0:
491,337,29693,1,2,0:0:0:0:
137,214,30019,1,4,0:0:0:0:
313,155,30346,1,2,0:0:0:0:
48,135,30672,1,0,0:0:0:0:
48,135,30835,1,0,0:0:0:0:
48,135,30998,1,0,0:0:0:0:
48,135,31161,1,2,0:0:0:0:
206,123,31487,1,0,0:0:0:0:
206,123,31650,1,2,0:0:0:0:
286,191,31813,1,0,0:0:0:0:
286,191,31894,1,0,0:0:0:0:
320,89,31976,1,2,0:0:0:0:
142,201,32139,1,0,0:0:0:0:
248,275,32302,1,2,0:0:0:0:
383,256,32465,1,0,0:0:0:0:
152,120,32628,1,0,0:0:0:0:
275,95,32954,1,2,0:0:0:0:
365,96,33117,1,2,0:0:0:0:
312,179,33280,1,0,0:0:0:0:
312,179,33362,1,0,0:0:0:0:
312,179,33443,1,2,0:0:0:0:
200,168,33606,1,0,0:0:0:0:
277,66,33769,1,2,0:0:0:0:
378,108,34096,1,0,0:0:0:0:
332,41,34259,1,2,0:0:0:0:
279,136,34422,1,0,0:0:0:0:
279,136,34503,1,2,0:0:0:0:
279,136,34585,1,2,0:0:0:0:
339,200,34748,1,0,0:0:0:0:
305,280,34911,1,2,0:0:0:0:
200,164,35074,1,2,0:0:0:0:
158,73,35237,1,0,0:0:0:0:
329,115,35563,1,0,0:0:0:0:
239,76,35726,1,2,0:0:0:0:
129,174,35889,1,0,0:0:0:0:
182,209,36052,1,0,0:0:0:0:
259,178,36215,1,2,0:0:0:0:
309,247,36378,1,2,0:0:0:0:
160,66,36704,1,0,0:0:0:0:
258,51,36867,1,2,0:0:0:0:
231,130,37030,1,0,0:0:0:0:
337,104,37112,1,2,0:0:0:0:
337,104,37193,1,2,0:0:0:0:
356,163,37356,1,0,0:0:0:0:
397,39,37519,1,2,0:0:0:0:
193,150,37846,1,0,0:0:0:0:
238,223,38009,1,0,0:0:0:0:
295,150,38172,1,2,0:0:0:0:
327,239,38335,1,0,0:0:0:0:
409,154,38498,1,2,0:0:0:0:
409,154,38579,1,0,0:0:0:0:
409,154,38661,1,0,0:0:0:0:
420,221,38824,1,0,0:0:0:0:
400,293,38987,1,2,0:0:0:0:
134,127,39313,1,0,0:0:0:0:
196,91,39476,1,2,0:0:0:0:
278,110,39639,1,2,0:0:0:0:
278,110,39721,1,2,0:0:0:0:
271,150,39802,1,0,0:0:0:0:
345,163,39965,1,0,0:0:0:0:
385,84,40128,1,2,0:0:0:0:
224,223,40291,1,0,0:0:0:0:
98,136,40373,1,0,0:0:0:0:
98,136,40454,1,6,0:0:0:0:
186,208,40780,1,0,0:0:0:0:
249,166,40943,1,2,0:0:0:0:
270,265,41106,1,0,0:0:0:0:
355,192,41433,1,2,0:0:0:0:
267,130,41759,1,0,0:0:0:0:
382,67,41922,1,0,0:0:0:0:
296,60,42085,1,2,0:0:0:0:
347,125,42248,1,0,0:0:0:0:
347,125,42411,1,2,0:0:0:0:
236,210,42737,1,2,0:0:0:0:
253,110,42900,1,2,0:0:0:0:
358,226,43063,1,0,0:0:0:0:
171,104,43389,1,2,0:0:0:0:
257,126,43552,1,0,0:0:0:0:
344,120,43715,1,0,0:0:0:0:
208,198,44041,1,2,0:0:0:0:
346,196,44367,1,2,0:0:0:0:
343,266,44530,1,0,0:0:0:0:
296,142,44693,1,2,0:0:0:0:
260,219,44856,1,2,0:0:0:0:
434,237,44938,1,0,0:0:0:0:
434,237,45019,1,0,0:0:0:0:
383,142,45183,1,0,0:0:0:0:
439,101,45346,1,2,0:0:0:0:
211,193,45672,1,4,0:0:0:0:
142,71,45998,1,2,0:0:0:0:
231,110,46161,1,2,0:0:0:0:
311,81,46324,1,0,0:0:0:0:
250,183,46487,1,0,0:0:0:0:
250,183,46568,1,0,0:0:0:0:
250,183,46650,1,2,0:0:0:0:
168,97,46813,1,0,0:0:0:0:
343,191,46976,1,2,0:0:0:0:
298,98,47302,1,0,0:0:0:0:
410,95,47465,1,2,0:0:0:0:
307,231,47628,1,0,0:0:0:0:
307,231,47710,1,0,0:0:0:0:
307,231,47791,1,2,0:0:0:0:
307,231,47873,1,2,0:0:0:0:
307,231,47954,1,0,0:0:0:0:
307,231,48117,1,2,0:0:0:0:
395,223,48280,1,4,0:0:0:0:
395,223,48443,1,4,0:0:0:0:
216,157,48769,1,4,0:0:0:0:
216,157,48933,1,6,0:0:0:0:
322,125,49259,1,6,0:0:0:0:
322,125,49422,1,6,0:0:0:0:
171,116,49748,1,6,0:0:0:0:
171,116,49911,1,4,0:0:0:0:
274,210,50155,1,0,0:0:0:0:
274,210,50237,1,2,0:0:0:0:
274,210,50400,1,2,0:0:0:0:
357,252,50563,1,0,0:0:0:0:
357,252,50644,1,2,0:0:0:0:
357,252,50726,1,2,0:0:0:0:
357,252,50808,1,2,0:0:0:0:
357,252,50889,1,4,0:0:0:0:
225,210,51215,1,2,0:0:0:0:
296,132,51378,1,2,0:0:0:0:
369,160,51541,1,0,0:0:0:0:
302,238,51623,1,0,0:0:0:0:
369,160,51704,1,0,0:0:0:0:
369,160,51867,1,2,0:0:0:0:
369,160,52030,1,0,0:0:0:0:
369,160,52112,1,0,0:0:0:0:
369,160,52193,1,2,0:0:0:0:
239,129,52356,1,0,0:0:0:0:
302,80,52519,1,2,0:0:0:0:
142,116,52846,1,0,0:0:0:0:
142,116,52927,1,0,0:0:0:0:
142,116,53009,1,2,0:0:0:0:
142,116,53090,1,0,0:0:0:0:
142,116,53172,1,2,0:0:0:0:
142,116,53335,1,0,0:0:0:0:
233,96,53498,1,4,0:0:0:0:
317,125,53824,1,2,0:0:0:0:
222,199,53987,1,0,0:0:0:0:
311,210,54150,1,2,0:0:0:0:
311,210,54313,1,2,0:0:0:0:
157,133,54394,1,2,0:0:0:0:
311,210,54476,1,0,0:0:0:0:
311,210,54639,1,2,0:0:0:0:
203,70,54965,1,2,0:0:0:0:
203,70,55128,1,2,0:0:0:0:
230,138,55291,1,0,0:0:0:0:
306,80,55454,1,2,0:0:0:0:
306,80,55536,1,2,0:0:0:0:
306,80,55617,1,0,0:0:0:0:
306,80,55699,1,0,0:0:0:0:
306,80,55780,1,2,0:0:0:0:
338,181,55943,1,0,0:0:0:0:
338,181,56106,1,4,0:0:0:0:
196,135,56433,1,2,0:0:0:0:
196,135,56596,1,0,0:0:0:0:
212,215,56759,1,2,0:0:0:0:
212,215,56840,1,0,0:0:0:0:
212,215,56922,1,0,0:0:0:0:
212,215,57085,1,0,0:0:0:0:
212,215,57248,1,2,0:0:0:0:
315,147,57574,1,2,0:0:0:0:
315,147,57737,1,0,0:0:0:0:
382,256,57900,1,0,0:0:0:0:
373,255,57981,1,0,0:0:0:0:
374,256,58063,1,2,0:0:0:0:
374,256,58226,1,2,0:0:0:0:
297,264,58389,1,2,0:0:0:0:
443,215,58552,1,0,0:0:0:0:
404,157,58715,1,2,0:0:0:0:
232,100,59041,1,2,0:0:0:0:
288,152,59204,1,0,0:0:0:0:
217,189,59367,1,0,0:0:0:0:
217,189,59449,1,2,0:0:0:0:
217,189,59530,1,0,0:0:0:0:
301,239,59693,1,2,0:0:0:0:
320,311,59856,1,2,0:0:0:0:
350,145,60183,1,2,0:0:0:0:
350,145,60346,1,0,0:0:0:0:
350,145,60509,1,0,0:0:0:0:
187,151,60590,1,0,0:0:0:0:
432,149,60672,1,2,0:0:0:0:
390,227,60835,1,0,0:0:0:0:
283,151,60998,1,2,0:0:0:0:
294,232,61161,1,2,0:0:0:0:
339,80,61324,1,4,0:0:0:0:
181,114,61650,1,2,0:0:0:0:
198,181,61813,1,0,0:0:0:0:
292,143,61976,1,2,0:0:0:0:
380,174,62139,1,2,0:0:0:0:
380,174,62221,1,2,0:0:0:0:
380,174,62302,1,0,0:0:0:0:
380,174,62465,1,2,0:0:0:0:
244,192,62791,1,2,0:0:0:0:
206,94,62873,1,0,0:0:0:0:
298,198,62954,1,2,0:0:0:0:
298,198,63117,1,0,0:0:0:0:
297,269,63280,1,2,0:0:0:0:
297,269,63362,1,0,0:0:0:0:
297,269,63443,1,0,0:0:0:0:
297,269,63525,1,0,0:0:0:0:
297,269,63606,1,2,0:0:0:0:
216,164,63769,1,0,0:0:0:0:
321,110,63933,1,6,0:0:0:0:
407,90,64259,1,2,0:0:0:0:
371,205,64422,1,0,0:0:0:0:
278,216,64585,1,0,0:0:0:0:
327,278,64748,1,2,0:0:0:0:
327,278,64829,1,2,0:0:0:0:
327,278,64911,1,0,0:0:0:0:
327,136,65074,1,2,0:0:0:0:
150,117,65400,1,2,0:0:0:0:
150,117,65481,1,0,0:0:0:0:
150,117,65563,1,2,0:0:0:0:
139,238,65726,1,0,0:0:0:0:
228,176,65889,1,0,0:0:0:0:
228,176,65971,1,2,0:0:0:0:
228,176,66052,1,0,0:0:0:0:
228,176,66134,1,0,0:0:0:0:
228,176,66215,1,2,0:0:0:0:
305,274,66378,1,0,0:0:0:0:
322,175,66541,1,6,0:0:0:0:
212,82,66867,1,2,0:0:0:0:
289,114,67030,1,0,0:0:0:0:
289,114,67112,1,0,0:0:0:0:
289,114,67193,1,2,0:0:0:0:
416,102,67356,1,0,0:0:0:0:
407,199,67519,1,2,0:0:0:0:
324,218,67683,1,2,0:0:0:0:
389,299,67846,1,0,0:0:0:0:
190,160,68172,1,2,0:0:0:0:
271,96,68335,1,2,0:0:0:0:
271,96,68416,1,0,0:0:0:0:
271,96,68498,1,2,0:0:0:0:
294,176,68661,1,0,0:0:0:0:
376,134,68824,1,2,0:0:0:0:
376,134,68987,1,2,0:0:0:0:
195,227,69150,1,0,0:0:0:0:
143,144,69476,1,2,0:0:0:0:
237,103,69639,1,0,0:0:0:0:
302,198,69802,1,2,0:0:0:0:
293,280,69965,1,0,0:0:0:0:
182,210,70128,1,2,0:0:0:0:
393,249,70291,1,0,0:0:0:0:
396,253,70373,1,0,0:0:0:0:
396,253,70454,1,2,0:0:0:0:
326,161,70617,1,0,0:0:0:0:
233,101,70780,1,6,0:0:0:0:
233,101,70943,1,0,0:0:0:0:
233,101,71106,1,6,0:0:0:0:
233,101,71269,1,0,0:0:0:0:
233,101,71433,1,6,0:0:0:0:
233,101,71596,1,0,0:0:0:0:
320,144,71759,1,4,0:0:0:0:
142,123,72085,1,2,0:0:0:0:
172,189,72248,1,0,0:0:0:0:
242,211,72411,1,0,0:0:0:0:
242,211,72492,1,0,0:0:0:0:
242,211,72574,1,2,0:0:0:0:
242,211,72655,1,2,0:0:0:0:
247,221,72737,1,0,0:0:0:0:
330,291,72900,1,0,0:0:0:0:
355,200,73063,1,6,0:0:0:0:
355,200,73226,1,6,0:0:0:0:
355,200,73389,1,6,0:0:0:0:
204,178,74041,1,0,0:0:0:0:
204,178,74123,1,0,0:0:0:0:
204,178,74204,1,0,0:0:0:0:
204,178,74286,1,0,0:0:0:0:
204,178,74367,1,6,0:0:0:0:
313,173,74693,1,2,0:0:0:0:
257,120,75019,1,0,0:0:0:0:
257,120,75183,1,0,0:0:0:0:
257,120,75264,1,0,0:0:0:0:
257,120,75346,1,2,0:0:0:0:
257,120,75509,1,0,0:0:0:0:
195,184,75835,1,0,0:0:0:0:
299,187,75998,1,2,0:0:0:0:
10,23,76161,1,2,0:0:0:0:
98,346,76324,1,2,0:0:0:0:
484,26,76487,1,2,0:0:0:0:
0,339,76650,1,2,0:0:0:0:
313,253,76731,1,0,0:0:0:0:
355,95,76813,1,0,0:0:0:0:
202,101,76895,1,0,0:0:0:0:
491,337,76976,1,6,0:0:0:0:
342,109,77302,1,2,0:0:0:0:
108,182,77628,1,2,0:0:0:0:
108,182,77791,1,0,0:0:0:0:
108,182,77954,1,2,0:0:0:0:
161,112,78118,1,2,0:0:0:0:
286,206,78444,1,0,0:0:0:0:
286,206,78606,1,2,0:0:0:0:
308,317,78769,1,2,0:0:0:0:
224,92,78933,1,0,0:0:0:0:
224,92,79014,1,0,0:0:0:0:
224,92,79096,1,2,0:0:0:0:
224,92,79177,1,2,0:0:0:0:
224,92,79259,1,0,0:0:0:0:
344,80,79422,1,2,0:0:0:0:
290,167,79585,1,4,0:0:0:0:
405,145,79911,1,2,0:0:0:0:
151,113,80237,1,0,0:0:0:0:
192,181,80400,1,0,0:0:0:0:
88,185,80563,1,2,0:0:0:0:
144,255,80726,1,2,0:0:0:0:
138,75,81052,1,2,0:0:0:0:
138,75,81215,1,2,0:0:0:0:
198,109,81378,1,0,0:0:0:0:
275,63,81541,1,2,0:0:0:0:
278,191,81704,1,0,0:0:0:0:
278,191,81786,1,2,0:0:0:0:
278,191,81868,1,2,0:0:0:0:
377,174,82031,1,2,0:0:0:0:
337,272,82194,1,4,0:0:0:0:
144,94,82520,1,2,0:0:0:0:
134,181,82846,1,0,0:0:0:0:
134,181,83009,1,0,0:0:0:0:
134,181,83090,1,2,0:0:0:0:
134,181,83172,1,2,0:0:0:0:
134,181,83335,1,2,0:0:0:0:
261,112,83661,1,0,0:0:0:0:
261,112,83824,1,2,0:0:0:0:
261,112,83987,1,0,0:0:0:0:
208,216,84313,1,0,0:0:0:0:
305,205,84476,1,2,0:0:0:0:
372,126,84639,1,8,0:0:0:0:
372,126,84721,1,8,0:0:0:0:
372,126,84802,1,4,0:0:0:0:
424,271,85128,1,0,0:0:0:0:
159,129,85454,1,2,0:0:0:0:
159,129,85617,1,0,0:0:0:0:
159,129,85780,1,2,0:0:0:0:
159,129,85943,1,2,0:0:0:0:
262,185,86269,1,0,0:0:0:0:
262,185,86433,1,2,0:0:0:0:
262,185,86596,1,2,0:0:0:0:
356,126,86922,1,2,0:0:0:0:
387,232,87085,1,0,0:0:0:0:
387,232,87166,1,2,0:0:0:0:
387,232,87248,1,0,0:0:0:0:
387,232,87329,1,0,0:0:0:0:
387,232,87411,1,2,0:0:0:0:
269,255,87737,1,2,0:0:0:0:
156,216,87981,1,2,0:0:0:0:
156,216,88063,1,0,0:0:0:0:
156,216,88226,1,0,0:0:0:0:
261,106,88308,1,0,0:0:0:0:
302,181,88389,1,2,0:0:0:0:
191,72,88552,1,6,0:0:0:0:
