osu file format v14

[General]
AudioFilename: audio.mp3
AudioLeadIn: 0
PreviewTime:50569
Countdown: 0
SampleSet: Normal
StackLeniency: 0.7
Mode: 1
LetterboxInBreaks: 0
WidescreenStoryboard: 1

[Editor]
DistanceSpacing: 0.9
BeatDivisor: 1
GridSize: 32
TimelineZoom: 0.5999999

[Metadata]
Title:My Secret (TV Size)
TitleUnicode:My Secret (TV Size)
Artist:Saaya Mizuno
ArtistUnicode:水野佐彩
Creator:KennethBBG
Version:Aurorance's Kantan
Source:Maid-sama!
Tags:Aurorance Diederich Olsen 会長はメイド様! kaichou wa maid sama! japanese anime opening female vocal j-pop jpop pop j-rock jrock rock op
BeatmapID:3727022
BeatmapSetID:1815318

[Difficulty]
HPDrainRate:8
CircleSize:5
OverallDifficulty:3
ApproachRate:5
SliderMultiplier:1.4
SliderTickRate:1

[Events]
//Background and Video events
0,0,"BG.jpg",0,0
Video,-700,"output.mp4"
//Break Periods
2,14567,18385
//Storyboard Layer 0 (Background)
//Storyboard Layer 1 (Fail)
//Storyboard Layer 2 (Pass)
//Storyboard Layer 3 (Foreground)
//Storyboard Layer 4 (Overlay)
//Storyboard Sound Samples

[TimingPoints]
20,326.086956521739,4,1,0,75,1,0
22,-100,4,1,0,70,0,0
6541,-100,4,1,0,80,0,0
14367,-100,4,1,0,70,0,0
19585,-100,4,1,0,60,0,0
27411,-100,4,1,0,65,0,0
28878,-100,4,1,0,70,0,0
30019,-100,4,1,0,75,0,0
50889,-100,4,1,0,90,0,1
73063,-100,4,1,0,80,0,0
74041,-100,4,1,0,75,0,0
76976,-100,4,1,0,80,0,0
84802,-100,4,1,0,70,0,0
87085,-100,4,1,0,75,0,0
88552,-100,4,1,0,80,0,0

[Colours]
Combo1 : 128,64,0
Combo2 : 105,210,0
Combo3 : 255,128,64

[HitObjects]
256,192,1324,5,12,0:0:0:0:
256,192,2628,1,12,0:0:0:0:
256,192,3933,1,4,0:0:0:0:
256,192,6215,1,8,0:0:0:0:
256,192,6541,1,4,0:0:0:0:
256,192,7193,1,0,0:0:0:0:
256,192,7683,1,2,0:0:0:0:
256,192,8824,1,8,0:0:0:0:
256,192,9150,1,0,0:0:0:0:
256,192,9802,1,0,0:0:0:0:
256,192,10292,1,2,0:0:0:0:
256,192,11433,1,0,0:0:0:0:
256,192,11759,1,2,0:0:0:0:
256,192,12411,1,2,0:0:0:0:
256,192,12901,1,0,0:0:0:0:
256,192,13552,1,0,0:0:0:0:
256,192,14367,1,4,0:0:0:0:
256,192,19585,5,4,0:0:0:0:
256,192,20237,1,0,0:0:0:0:
256,192,20726,1,2,0:0:0:0:
256,192,21378,1,2,0:0:0:0:
256,192,22193,1,0,0:0:0:0:
256,192,24150,1,2,0:0:0:0:
256,192,24802,1,0,0:0:0:0:
256,192,25780,1,2,0:0:0:0:
256,192,26759,1,2,0:0:0:0:
256,192,27411,1,4,0:0:0:0:
256,192,27900,1,6,0:0:0:0:
256,192,28389,1,12,0:0:0:0:
256,192,29693,5,2,0:0:0:0:
256,192,30019,5,0,0:0:0:0:
256,192,30671,1,0,0:0:0:0:
256,192,31161,1,2,0:0:0:0:
256,192,31813,1,0,0:0:0:0:
256,192,32627,1,0,0:0:0:0:
256,192,33769,1,2,0:0:0:0:
256,192,34585,1,0,0:0:0:0:
256,192,35237,1,0,0:0:0:0:
256,192,36378,1,2,0:0:0:0:
256,192,37193,1,0,0:0:0:0:
256,192,37846,1,0,0:0:0:0:
256,192,38498,1,2,0:0:0:0:
256,192,39150,1,0,0:0:0:0:
256,192,39802,1,2,0:0:0:0:
256,192,40454,1,4,0:0:0:0:
256,192,41759,1,2,0:0:0:0:
256,192,42411,1,0,0:0:0:0:
256,192,43063,1,0,0:0:0:0:
256,192,43552,1,2,0:0:0:0:
256,192,44041,1,0,0:0:0:0:
256,192,45019,1,2,0:0:0:0:
256,192,45672,1,0,0:0:0:0:
256,192,46650,1,2,0:0:0:0:
256,192,46976,1,0,0:0:0:0:
256,192,47628,1,2,0:0:0:0:
256,192,48280,1,4,0:0:0:0:
256,192,48769,1,4,0:0:0:0:
256,192,49259,1,6,0:0:0:0:
256,192,49748,1,6,0:0:0:0:
256,192,50889,5,4,0:0:0:0:
256,192,51378,1,2,0:0:0:0:
256,192,52030,1,2,0:0:0:0:
256,192,52519,1,0,0:0:0:0:
256,192,52846,1,2,0:0:0:0:
256,192,53498,5,2,0:0:0:0:
256,192,53987,1,0,0:0:0:0:
256,192,54639,1,0,0:0:0:0:
256,192,55128,1,2,0:0:0:0:
256,192,55455,1,2,0:0:0:0:
256,192,56106,1,4,0:0:0:0:
256,192,57248,1,0,0:0:0:0:
256,192,58063,1,2,0:0:0:0:
256,192,58389,1,2,0:0:0:0:
256,192,58715,1,0,0:0:0:0:
256,192,59856,1,0,0:0:0:0:
256,192,60672,1,8,0:0:0:0:
256,192,60998,1,8,0:0:0:0:
256,192,61324,5,4,0:0:0:0:
256,192,61813,1,0,0:0:0:0:
256,192,62465,1,0,0:0:0:0:
256,192,62954,1,2,0:0:0:0:
256,192,63281,1,0,0:0:0:0:
256,192,63933,5,6,0:0:0:0:
256,192,64422,1,0,0:0:0:0:
256,192,65074,1,2,0:0:0:0:
256,192,65563,1,2,0:0:0:0:
256,192,66215,1,0,0:0:0:0:
256,192,66541,1,12,0:0:0:0:
256,192,67846,1,0,0:0:0:0:
256,192,68498,1,2,0:0:0:0:
256,192,68824,1,2,0:0:0:0:
256,192,69150,1,0,0:0:0:0:
256,192,69802,1,2,0:0:0:0:
256,192,70454,1,0,0:0:0:0:
256,192,70780,1,2,0:0:0:0:
256,192,71106,1,2,0:0:0:0:
256,192,71759,1,4,0:0:0:0:
256,192,73063,1,4,0:0:0:0:
256,192,73389,1,4,0:0:0:0:
256,192,74367,1,4,0:0:0:0:
256,192,74693,1,8,0:0:0:0:
256,192,75346,1,2,0:0:0:0:
256,192,76650,1,2,0:0:0:0:
256,192,76976,1,4,0:0:0:0:
256,192,77628,1,0,0:0:0:0:
256,192,78118,1,2,0:0:0:0:
256,192,79259,1,8,0:0:0:0:
256,192,79585,1,0,0:0:0:0:
256,192,80237,1,2,0:0:0:0:
256,192,80727,1,0,0:0:0:0:
256,192,81867,1,0,0:0:0:0:
256,192,82194,1,0,0:0:0:0:
256,192,82846,1,0,0:0:0:0:
256,192,83336,1,2,0:0:0:0:
256,192,83987,1,2,0:0:0:0:
256,192,84802,1,4,0:0:0:0:
256,192,87411,1,0,0:0:0:0:
256,192,88063,1,0,0:0:0:0:
256,192,88552,1,6,0:0:0:0:
