osu file format v14

[General]
AudioFilename: [MAD][papa][LOVE_PLUS+]colorful_days.mp3
AudioLeadIn: 1996
PreviewTime: 39641
Countdown: 0
SampleSet: Normal
StackLeniency: 0.3
Mode: 2
LetterboxInBreaks: 1
WidescreenStoryboard: 1

[Editor]
Bookmarks: 25222,35838
DistanceSpacing: 2
BeatDivisor: 8
GridSize: 8
TimelineZoom: 1.7

[Metadata]
Title:Good Day
TitleUnicode:Good Day
Artist:Saaya Mizuno
ArtistUnicode:Saaya Mizuno
Creator:Del
Version:Colorful Day
Source:Love Plus
Tags:MAD love plus
BeatmapID:1253514
BeatmapSetID:592440

[Difficulty]
HPDrainRate:6
CircleSize:4
OverallDifficulty:9
ApproachRate:9
SliderMultiplier:1.9
SliderTickRate:2

[Events]
//Background and Video events
Video,0,"PV.AVI"
0,0,"bg.jpg",0,0
//Break Periods
//Storyboard Layer 0 (Background)
//Storyboard Layer 1 (Fail)
//Storyboard Layer 2 (Pass)
//Storyboard Layer 3 (Foreground)
//Storyboard Sound Samples

[TimingPoints]
915,307.692307692308,4,1,1,50,1,0
69822,307.692307692308,4,1,1,50,1,0

[Colours]
Combo1 : 225,79,251
Combo2 : 140,221,6
Combo3 : 7,156,237

[HitObjects]
256,192,914,12,0,2761,0:0:0:0:
312,192,2915,5,4,0:0:0:0:
72,192,3068,2,0,P|88:136|192:112,1,142.5,8|0,0:0|0:0,0:0:0:0:
256,96,3376,2,0,L|352:96,3,95,4|0|8|0,0:0|0:0|0:0|0:0,0:0:0:0:
232,208,3991,1,4,0:0:0:0:
384,232,4145,1,4,0:0:0:0:
88,240,4299,2,0,L|88:144,1,95,8|0,0:0|0:0,0:0:0:0:
240,248,4607,6,0,L|296:168,2,95,4|4|8,0:0|0:0|0:0,0:0:0:0:
392,88,5068,1,0,0:0:0:0:
272,80,5222,2,0,L|136:80,1,95,4|4,0:0|0:0,0:0:0:0:
296,184,5530,2,0,L|400:184,1,95,8|0,0:0|0:0,0:0:0:0:
112,272,5838,5,4,0:0:0:0:
25,239,5991,1,0,0:0:0:0:
176,184,6145,1,8,0:0:0:0:
89,151,6298,1,0,0:0:0:0:
336,80,6453,1,4,0:0:0:0:
240,72,6607,1,4,0:0:0:0:
480,280,6761,2,0,L|360:280,1,95,8|0,0:0|0:0,0:0:0:0:
144,200,7068,5,4,0:0:0:0:
256,240,7222,1,4,0:0:0:0:
144,232,7376,2,0,P|160:168|264:112,1,190,8|4,0:0|0:0,0:0:0:0:
192,48,7838,1,4,0:0:0:0:
344,256,7991,2,0,L|384:160,1,95,8|0,0:0|0:0,0:0:0:0:
88,256,8299,6,0,L|48:160,1,95,4|0,0:0|0:0,0:0:0:0:
424,256,8607,2,0,L|464:160,1,95,8|0,0:0|0:0,0:0:0:0:
216,112,8915,1,4,0:0:0:0:
336,104,9068,1,4,0:0:0:0:
216,40,9222,1,8,0:0:0:0:
488,304,9530,6,0,L|400:216,2,95,4|4|8,0:0|0:0|0:0,0:0:0:0:
200,144,9991,1,0,0:0:0:0:
272,120,10145,1,4,0:0:0:0:
128,88,10299,1,4,0:0:0:0:
376,264,10453,1,8,0:0:0:0:
8,304,10761,6,0,P|24:224|144:168,1,190,4|8,0:0|0:0,0:0:0:0:
392,104,11376,2,0,L|288:104,2,95,4|4|8,0:0|0:0|0:0,0:0:0:0:
144,104,11991,2,0,L|248:104,2,95,0|4|8,0:0|0:0|0:0,0:0:0:0:
368,224,12453,1,0,0:0:0:0:
256,200,12607,1,8,0:0:0:0:
368,320,12761,1,8,0:0:0:0:
256,184,12915,1,8,0:0:0:0:
480,272,13068,6,0,L|480:80,1,190,4|4,0:0|0:0,0:0:0:0:
112,104,13530,1,8,0:0:0:0:
352,224,13684,1,0,0:0:0:0:
264,224,13838,1,0,0:0:0:0:
504,152,13991,1,0,0:0:0:0:
416,152,14145,1,0,0:0:0:0:
496,80,14299,1,0,0:0:0:0:
256,80,14453,1,0,0:0:0:0:
344,80,14607,1,0,0:0:0:0:
120,192,14761,5,0,0:0:0:0:
224,192,14915,1,0,0:0:0:0:
328,200,15068,1,0,0:0:0:0:
432,200,15222,1,0,0:0:0:0:
208,104,15376,1,0,0:0:0:0:
432,312,15530,2,0,P|488:272|408:200,1,190
96,192,15991,6,0,L|216:192,1,95
96,144,16299,2,0,L|216:144,1,95
92,92,16607,2,0,L|136:96,1,23.75
224,80,16761,1,0,0:0:0:0:
247,80,16799,1,0,0:0:0:0:
271,80,16837,1,0,0:0:0:0:
344,216,16915,5,0,0:0:0:0:
192,200,17068,1,0,0:0:0:0:
320,280,17222,1,0,0:0:0:0:
192,312,17376,2,0,L|144:272,1,47.5
80,128,17530,2,0,L|176:128,2,95
360,192,17991,2,0,P|416:168|344:104,1,190
184,200,18453,6,0,L|288:200,1,95
432,272,18761,2,0,L|328:272,1,95
184,104,19068,2,0,L|288:104,1,95
344,104,19299,1,0,0:0:0:0:
408,104,19376,5,0,0:0:0:0:
256,192,19530,1,0,0:0:0:0:
480,272,19684,1,0,0:0:0:0:
352,256,19838,2,0,L|248:256,3,95
32,208,20453,2,0,P|40:176|168:96,1,190
328,72,20915,6,0,L|216:72,1,95
400,208,21222,1,0,0:0:0:0:
305,204,21375,1,0,0:0:0:0:
210,200,21529,1,0,0:0:0:0:
336,144,21684,1,0,0:0:0:0:
304,120,21760,1,0,0:0:0:0:
232,120,21837,5,0,0:0:0:0:
136,96,21991,1,0,0:0:0:0:
264,312,22145,1,0,0:0:0:0:
392,272,22299,1,0,0:0:0:0:
56,264,22453,2,0,L|152:264,2,95
392,200,22915,2,0,L|392:136,1,47.5
392,176,23068,2,0,L|392:271,1,95
240,120,23376,5,0,0:0:0:0:
320,88,23530,1,0,0:0:0:0:
80,288,23684,1,0,0:0:0:0:
160,256,23838,1,0,0:0:0:0:
80,176,23991,1,0,0:0:0:0:
320,192,24145,1,0,0:0:0:0:
80,272,24299,6,0,L|48:368,1,95
432,272,24607,2,0,L|464:368,1,95
216,120,24915,1,0,0:0:0:0:
128,112,25068,1,0,0:0:0:0:
216,168,25222,1,0,0:0:0:0:
456,216,25376,2,0,P|408:208|464:128,1,190
288,320,25838,6,0,P|336:312|280:232,1,190
168,192,26299,1,0,0:0:0:0:
432,192,26453,2,0,L|384:104,1,95
240,288,26761,1,0,0:0:0:0:
360,288,26915,1,0,0:0:0:0:
96,288,27068,2,0,L|144:200,1,95
296,120,27376,2,0,L|192:120,2,95
128,144,27838,2,0,P|80:144|136:72,1,190
424,288,28299,6,0,L|424:184,1,95
272,104,28607,1,0,0:0:0:0:
367,104,28760,1,0,0:0:0:0:
462,104,28914,1,0,0:0:0:0:
224,256,29068,1,0,0:0:0:0:
344,208,29222,5,0,0:0:0:0:
256,184,29376,1,0,0:0:0:0:
384,136,29530,1,0,0:0:0:0:
144,112,29684,2,0,L|48:112,1,95
288,296,29991,2,0,L|192:296,1,95
432,208,30299,2,0,L|224:200,1,190
312,120,30761,5,0,0:0:0:0:
160,96,30915,1,0,0:0:0:0:
384,296,31068,2,0,L|448:200,2,95
160,160,31530,1,0,0:0:0:0:
384,152,31684,2,0,L|320:56,2,95
448,248,32145,1,0,0:0:0:0:
128,152,32299,2,0,L|192:56,2,95
368,320,32760,1,0,0:0:0:0:
248,296,32915,5,0,0:0:0:0:
336,200,33068,1,0,0:0:0:0:
72,280,33222,2,0,L|104:184,1,95
248,208,33530,2,0,L|280:112,1,95
136,80,33838,1,0,0:0:0:0:
256,48,33991,1,0,0:0:0:0:
496,320,34145,6,0,L|464:224,1,95
320,248,34453,2,0,P|272:232|320:176,1,142.5
408,112,34761,2,0,L|304:112,2,95
144,240,35222,1,0,0:0:0:0:
40,240,35376,6,0,P|16:208|120:144,1,190
472,240,35838,2,0,P|496:208|392:144,1,190
184,280,36299,2,0,L|392:288,1,190
336,216,36684,1,0,0:0:0:0:
264,152,36761,1,0,0:0:0:0:
416,104,36915,1,0,0:0:0:0:
288,80,37068,1,0,0:0:0:0:
160,152,37222,6,0,L|72:96,2,95
400,280,37684,1,0,0:0:0:0:
160,224,37991,1,0,0:0:0:0:
400,104,38145,1,0,0:0:0:0:
240,152,38453,1,0,0:0:0:0:
328,160,38607,1,0,0:0:0:0:
88,88,38761,1,0,0:0:0:0:
344,264,39068,5,0,0:0:0:0:
120,256,39222,1,0,0:0:0:0:
344,224,39376,1,0,0:0:0:0:
120,208,39530,1,0,0:0:0:0:
344,216,39684,1,0,0:0:0:0:
120,312,39837,1,0,0:0:0:0:
496,192,40145,6,0,P|440:184|504:120,1,190
272,248,40607,2,0,P|328:240|264:176,1,190
152,128,41068,1,0,0:0:0:0:
392,192,41222,1,0,0:0:0:0:
136,248,41530,5,0,0:0:0:0:
264,216,41684,2,0,L|264:104,1,95
392,232,41991,2,0,L|392:120,1,95
112,184,42298,1,0,0:0:0:0:
128,248,42452,1,0,0:0:0:0:
400,184,42607,5,0,0:0:0:0:
384,248,42761,1,0,0:0:0:0:
264,144,42915,1,0,0:0:0:0:
488,288,43068,1,0,0:0:0:0:
256,200,43376,1,0,0:0:0:0:
360,192,43530,1,0,0:0:0:0:
256,112,43684,1,0,0:0:0:0:
32,280,43991,5,0,0:0:0:0:
136,192,44145,1,0,0:0:0:0:
32,104,44299,1,0,0:0:0:0:
360,192,44453,2,0,L|464:192,1,95
152,192,44761,2,0,L|48:192,1,95
296,168,45068,6,0,P|328:160|296:48,1,190
136,280,45530,2,0,L|248:280,1,95
352,224,45838,2,0,L|288:152,2,95
96,96,46453,5,0,0:0:0:0:
336,216,46607,1,0,0:0:0:0:
240,184,46761,1,0,0:0:0:0:
336,136,46915,1,0,0:0:0:0:
240,72,47068,2,0,L|136:72,2,95
480,280,47530,2,0,L|440:88,1,190
296,216,47991,6,0,L|392:216,1,95
240,136,48299,1,0,0:0:0:0:
328,88,48453,1,0,0:0:0:0:
176,48,48607,1,0,0:0:0:0:
400,336,48761,2,0,L|200:336,1,190
376,192,49222,2,0,L|280:192,1,95
128,152,49530,1,0,0:0:0:0:
368,96,49684,1,0,0:0:0:0:
0,208,49991,6,0,P|32:144|144:88,1,190
360,224,50453,2,0,L|248:224,1,95
416,120,50761,2,0,L|320:120,2,95
160,248,51376,1,0,0:0:0:0:
288,248,51530,1,0,0:0:0:0:
416,248,51684,1,0,0:0:0:0:
176,80,51838,2,0,L|120:168,1,95
368,184,52145,2,0,L|424:96,1,95
176,280,52453,6,0,P|128:272|184:184,1,190
392,208,52915,1,0,0:0:0:0:
136,272,53222,2,0,L|136:176,1,95
376,312,53530,1,0,0:0:0:0:
120,264,53838,5,0,0:0:0:0:
216,232,53991,1,0,0:0:0:0:
120,200,54145,1,0,0:0:0:0:
344,136,54299,1,0,0:0:0:0:
264,120,54453,1,0,0:0:0:0:
488,304,54607,1,0,0:0:0:0:
408,288,54761,1,0,0:0:0:0:
64,264,54915,6,0,P|104:264|56:184,1,190
288,184,55376,2,0,P|248:184|296:104,1,190
408,96,55838,1,0,0:0:0:0:
256,296,55991,2,0,L|152:304,1,95
312,224,56299,6,0,L|416:232,1,95
168,192,56607,1,0,0:0:0:0:
264,128,56761,1,0,0:0:0:0:
360,112,56915,2,0,L|248:112,2,95
120,216,57376,5,0,0:0:0:0:
376,224,57684,1,0,0:0:0:0:
256,176,57838,2,0,L|352:176,1,95
504,112,58145,1,0,0:0:0:0:
280,96,58298,1,0,0:0:0:0:
400,280,58453,1,0,0:0:0:0:
32,232,58761,5,0,0:0:0:0:
144,232,58915,1,0,0:0:0:0:
32,144,59068,1,0,0:0:0:0:
144,144,59222,1,0,0:0:0:0:
408,192,59376,2,0,L|312:192,1,95
72,248,59684,1,0,0:0:0:0:
312,272,59838,1,0,0:0:0:0:
432,272,59991,6,0,P|464:264|400:200,1,190
104,192,60607,2,0,L|200:192,2,95
408,192,61222,2,0,L|312:192,2,95
168,256,61684,1,0,0:0:0:0:
48,256,61838,1,0,0:0:0:0:
70,164,61991,1,0,0:0:0:0:
133,95,62145,1,0,0:0:0:0:
222,64,62299,1,0,0:0:0:0:
448,200,62453,1,0,0:0:0:0:
256,192,62607,12,0,64299,0:0:0:0:
56,192,64453,5,0,0:0:0:0:
296,208,64607,1,0,0:0:0:0:
104,96,64915,6,0,L|296:88,1,190
480,288,65530,1,0,0:0:0:0:
352,184,65683,1,0,0:0:0:0:
224,176,65837,1,0,0:0:0:0:
480,96,66145,6,0,L|376:96,1,95
232,96,66453,1,0,0:0:0:0:
72,208,66607,1,0,0:0:0:0:
192,216,66761,2,0,L|248:128,1,95
96,136,67068,2,0,L|152:48,1,95
480,272,67376,6,0,P|472:224|368:136,1,190
72,144,67991,1,0,0:0:0:0:
184,144,68145,1,0,0:0:0:0:
72,64,68299,1,0,0:0:0:0:
328,264,68607,5,0,0:0:0:0:
416,244,68760,1,0,0:0:0:0:
444,158,68914,1,0,0:0:0:0:
184,264,69068,1,0,0:0:0:0:
95,244,69221,1,0,0:0:0:0:
67,158,69375,1,0,0:0:0:0:
288,144,69530,1,0,0:0:0:0:
176,96,69684,2,0,L|152:136,1,47.5
176,184,69822,5,0,0:0:0:0:
96,184,69975,1,0,0:0:0:0:
320,264,70129,1,0,0:0:0:0:
232,264,70283,1,0,0:0:0:0:
456,168,70437,1,0,0:0:0:0:
368,168,70591,1,0,0:0:0:0:
56,168,70745,1,0,0:0:0:0:
144,168,70899,1,0,0:0:0:0:
296,96,71052,5,0,0:0:0:0:
184,96,71206,1,0,0:0:0:0:
408,232,71360,1,0,0:0:0:0:
296,232,71514,2,0,L|232:136,2,95
72,176,71975,1,0,0:0:0:0:
168,168,72129,1,0,0:0:0:0:
408,256,72283,6,0,L|384:160,1,95
104,256,72591,2,0,L|128:160,1,95
256,112,72898,1,0,0:0:0:0:
384,112,73052,1,0,0:0:0:0:
144,80,73206,1,0,0:0:0:0:
240,248,73360,1,0,0:0:0:0:
392,208,73514,6,0,L|296:208,1,95
56,224,73822,1,0,0:0:0:0:
87,135,73975,1,0,0:0:0:0:
158,74,74129,1,0,0:0:0:0:
250,55,74283,1,0,0:0:0:0:
400,256,74437,1,0,0:0:0:0:
160,240,74591,1,0,0:0:0:0:
416,152,74898,1,0,0:0:0:0:
192,96,75052,5,0,0:0:0:0:
296,88,75206,1,0,0:0:0:0:
72,200,75360,1,0,0:0:0:0:
176,192,75514,1,0,0:0:0:0:
272,280,75668,1,0,0:0:0:0:
168,272,75822,1,0,0:0:0:0:
392,224,75975,5,0,0:0:0:0:
288,216,76129,1,0,0:0:0:0:
512,160,76283,1,0,0:0:0:0:
408,152,76437,1,0,0:0:0:0:
184,112,76591,1,0,0:0:0:0:
336,96,76745,1,0,0:0:0:0:
112,256,76898,5,0,0:0:0:0:
216,248,77052,1,0,0:0:0:0:
440,256,77206,1,0,0:0:0:0:
336,248,77360,1,0,0:0:0:0:
72,128,77514,1,0,0:0:0:0:
176,136,77668,1,0,0:0:0:0:
400,128,77822,5,0,0:0:0:0:
176,88,77975,1,0,0:0:0:0:
400,64,78129,1,0,0:0:0:0:
288,232,78283,1,0,0:0:0:0:
64,200,78437,6,0,L|0:200,1,47.5
168,288,78591,2,0,L|224:288,1,47.5
64,144,78745,2,0,L|0:144,1,47.5
168,232,78899,2,0,L|224:232,1,47.5
64,88,79052,1,0,0:0:0:0:
288,296,79206,1,0,0:0:0:0:
176,288,79360,1,0,0:0:0:0:
400,176,79514,1,0,0:0:0:0:
256,192,79668,12,0,81514,0:0:0:0:
