osu file format v14

[General]
AudioFilename: audio.mp3
AudioLeadIn: 0
PreviewTime: 59057
Countdown: 0
SampleSet: Soft
StackLeniency: 0.7
Mode: 3
LetterboxInBreaks: 0
SpecialStyle: 0
WidescreenStoryboard: 1

[Editor]
Bookmarks: 14486,28228,62486,76200,110486,137914,144772,151629,158486,165343,172200,185914
DistanceSpacing: 0.8
BeatDivisor: 4
GridSize: 32
TimelineZoom: 2.3

[Metadata]
Title:Kyou wa Doko Ikou
TitleUnicode:今日はどこ行こう
Artist:SaMZIng & HJLL
ArtistUnicode:SaMZIng & HJLL
Creator:[GB]AelSan
Version:Hard
Source:
Tags:japanese pop rock jpop j-pop jrock j-rock kawaii bass electronic dance & EDM Gəyxe/HJLL Gayxe/HJLL LN hybrid release instrumental 今天要去哪里呢 FAMoss
BeatmapID:3292537
BeatmapSetID:1558455

[Difficulty]
HPDrainRate:7.5
CircleSize:4
OverallDifficulty:7.2
ApproachRate:5
SliderMultiplier:1.4
SliderTickRate:1

[Events]
//Background and Video events
0,0,"91269619_p0.png",0,0
//Break Periods
//Storyboard Layer 0 (Background)
//Storyboard Layer 1 (Fail)
//Storyboard Layer 2 (Pass)
//Storyboard Layer 3 (Foreground)
//Storyboard Layer 4 (Overlay)
//Storyboard Sound Samples
Sample,75557,0,"Ultimate Snare 1 - C.wav",70
Sample,157843,0,"Ultimate Snare 1 - C.wav",70

[TimingPoints]
772,428.571428571429,4,2,1,50,1,0
62486,-100,4,2,1,50,0,1
74486,-100,4,2,1,50,0,0
76200,-100,4,2,1,50,0,1
89914,-100,4,2,1,50,0,0
110486,-100,4,2,1,50,0,1
124147,-100,4,2,1,50,0,0
124200,-100,4,2,1,50,0,1
137057,-100,4,2,1,50,0,0
144772,-100,4,2,1,50,0,1
158432,-100,4,2,1,50,0,0
158486,-100,4,2,1,50,0,1
185914,-100,4,2,1,50,0,0

[HitObjects]
320,192,772,5,0,0:0:0:0:
448,192,772,1,0,0:0:0:0:
64,192,986,1,0,0:0:0:0:
448,192,1200,1,0,0:0:0:0:
192,192,1414,1,0,0:0:0:0:
320,192,1414,1,0,0:0:0:0:
64,192,1629,1,0,0:0:0:0:
448,192,1843,1,0,0:0:0:0:
192,192,2057,1,0,0:0:0:0:
64,192,2272,1,0,0:0:0:0:
320,192,2486,1,0,0:0:0:0:
448,192,2486,1,0,0:0:0:0:
192,192,2700,1,0,0:0:0:0:
448,192,2914,1,0,0:0:0:0:
64,192,3129,1,0,0:0:0:0:
320,192,3129,1,0,0:0:0:0:
448,192,3343,1,0,0:0:0:0:
192,192,3557,1,0,0:0:0:0:
320,192,3772,1,0,0:0:0:0:
64,192,3986,1,0,0:0:0:0:
320,192,4200,1,0,0:0:0:0:
448,192,4200,1,0,0:0:0:0:
192,192,4414,1,0,0:0:0:0:
64,192,4629,1,0,0:0:0:0:
448,192,4843,1,0,0:0:0:0:
192,192,5057,1,0,0:0:0:0:
320,192,5272,1,0,0:0:0:0:
192,192,5486,1,0,0:0:0:0:
64,192,5700,1,0,0:0:0:0:
192,192,5914,1,0,0:0:0:0:
448,192,5914,1,0,0:0:0:0:
320,192,6129,1,0,0:0:0:0:
448,192,6343,1,0,0:0:0:0:
64,192,6557,1,0,0:0:0:0:
192,192,6557,1,0,0:0:0:0:
448,192,6772,1,0,0:0:0:0:
192,192,6986,1,0,0:0:0:0:
320,192,7200,1,0,0:0:0:0:
64,192,7414,1,0,0:0:0:0:
320,192,7629,128,0,7843:0:0:0:0:
448,192,7629,1,0,0:0:0:0:
64,192,7843,1,0,0:0:0:0:
448,192,8057,128,0,8272:0:0:0:0:
64,192,8272,1,0,0:0:0:0:
192,192,8272,128,0,8486:0:0:0:0:
448,192,8486,1,0,0:0:0:0:
320,192,8700,1,0,0:0:0:0:
64,192,8914,1,0,0:0:0:0:
448,192,9129,1,0,0:0:0:0:
192,192,9343,1,0,0:0:0:0:
320,192,9343,128,0,9557:0:0:0:0:
448,192,9557,1,0,0:0:0:0:
64,192,9772,128,0,9986:0:0:0:0:
320,192,9986,1,0,0:0:0:0:
448,192,9986,128,0,10200:0:0:0:0:
192,192,10200,1,0,0:0:0:0:
64,192,10414,1,0,0:0:0:0:
320,192,10629,1,0,0:0:0:0:
192,192,10843,1,0,0:0:0:0:
320,192,11057,128,0,11272:0:0:0:0:
448,192,11057,1,0,0:0:0:0:
64,192,11272,1,0,0:0:0:0:
448,192,11486,128,0,11700:0:0:0:0:
64,192,11700,1,0,0:0:0:0:
192,192,11700,128,0,11914:0:0:0:0:
448,192,11914,1,0,0:0:0:0:
320,192,12129,1,0,0:0:0:0:
64,192,12343,1,0,0:0:0:0:
192,192,12557,1,0,0:0:0:0:
320,192,12772,128,0,12986:0:0:0:0:
448,192,12772,1,0,0:0:0:0:
64,192,12986,1,0,0:0:0:0:
448,192,13200,128,0,13414:0:0:0:0:
64,192,13414,128,0,13629:0:0:0:0:
320,192,13414,1,0,0:0:0:0:
448,192,13629,1,0,0:0:0:0:
192,192,13843,1,0,0:0:0:0:
448,192,14057,1,0,0:0:0:0:
320,192,14164,1,0,0:0:0:0:
192,192,14272,1,0,0:0:0:0:
64,192,14379,1,0,0:0:0:0:
192,192,14486,1,2,0:0:0:0:
448,192,14486,128,4,14700:0:0:0:0:
320,192,14700,128,0,14807:0:0:0:0:
64,192,14807,1,2,0:0:0:0:
448,192,14807,1,0,0:0:0:0:
192,192,14914,128,0,15057:0:0:0:0:
320,192,15057,128,0,15129:0:0:0:0:
64,192,15129,128,0,15557:0:0:0:0:
320,192,15343,1,0,0:0:0:0:
192,192,15557,128,0,15772:0:0:0:0:
448,192,15772,1,0,0:0:0:0:
64,192,15986,1,2,0:0:0:0:
192,192,15986,128,0,16200:0:0:0:0:
320,192,16200,1,2,0:0:0:0:
448,192,16200,1,0,0:0:0:0:
320,192,16414,128,0,16522:0:0:0:0:
64,192,16522,1,2,0:0:0:0:
192,192,16522,1,0,0:0:0:0:
448,192,16629,128,0,16843:0:0:0:0:
192,192,16843,128,0,17057:0:0:0:0:
448,192,17057,1,0,0:0:0:0:
320,192,17272,128,0,17486:0:0:0:0:
64,192,17486,1,2,0:0:0:0:
448,192,17486,128,0,17629:0:0:0:0:
192,192,17629,128,0,17700:0:0:0:0:
64,192,17700,128,0,18129:0:0:0:0:
192,192,17914,1,2,0:0:0:0:
320,192,17914,1,0,0:0:0:0:
448,192,18129,128,0,18343:0:0:0:0:
64,192,18236,1,2,0:0:0:0:
192,192,18236,1,0,0:0:0:0:
320,192,18343,128,0,18557:0:0:0:0:
192,192,18557,128,0,18986:0:0:0:0:
64,192,18772,1,0,0:0:0:0:
320,192,18986,128,0,19200:0:0:0:0:
448,192,19200,128,0,19414:0:0:0:0:
64,192,19414,128,2,19843:0:0:0:0:
192,192,19414,1,0,0:0:0:0:
320,192,19629,1,2,0:0:0:0:
448,192,19629,1,0,0:0:0:0:
448,192,19843,128,0,20057:0:0:0:0:
64,192,19950,1,2,0:0:0:0:
192,192,19950,1,0,0:0:0:0:
320,192,20057,128,0,20272:0:0:0:0:
448,192,20272,128,0,20379:0:0:0:0:
192,192,20486,1,0,0:0:0:0:
64,192,20700,1,0,0:0:0:0:
192,192,20807,1,0,0:0:0:0:
320,192,20914,1,2,0:0:0:0:
448,192,20914,1,0,0:0:0:0:
192,192,21022,1,0,0:0:0:0:
64,192,21129,1,0,0:0:0:0:
448,192,21236,1,0,0:0:0:0:
192,192,21343,1,2,0:0:0:0:
320,192,21343,128,0,21557:0:0:0:0:
192,192,21557,128,0,21664:0:0:0:0:
320,192,21664,1,2,0:0:0:0:
448,192,21664,1,0,0:0:0:0:
64,192,21772,128,0,21879:0:0:0:0:
320,192,21986,128,0,22093:0:0:0:0:
64,192,22200,1,0,0:0:0:0:
448,192,22414,128,0,22843:0:0:0:0:
320,192,22629,1,0,0:0:0:0:
64,192,22843,1,2,0:0:0:0:
192,192,22843,128,0,23272:0:0:0:0:
320,192,23057,1,2,0:0:0:0:
448,192,23057,1,0,0:0:0:0:
64,192,23272,128,0,23486:0:0:0:0:
192,192,23379,1,2,0:0:0:0:
448,192,23379,1,0,0:0:0:0:
320,192,23486,128,0,23700:0:0:0:0:
448,192,23700,128,0,24129:0:0:0:0:
64,192,23914,1,0,0:0:0:0:
192,192,24343,1,2,0:0:0:0:
320,192,24343,128,0,24450:0:0:0:0:
64,192,24557,128,0,25093:0:0:0:0:
320,192,24772,1,2,0:0:0:0:
448,192,24772,1,0,0:0:0:0:
192,192,25093,1,2,0:0:0:0:
320,192,25093,1,0,0:0:0:0:
64,192,25414,128,0,25629:0:0:0:0:
192,192,25629,128,0,25843:0:0:0:0:
320,192,25629,1,0,0:0:0:0:
320,192,25843,128,0,26057:0:0:0:0:
448,192,26057,128,0,26164:0:0:0:0:
64,192,26272,128,2,27986:0:0:0:0:
192,192,26486,1,2,0:0:0:0:
448,192,26486,1,0,0:0:0:0:
192,192,26807,1,2,0:0:0:0:
320,192,26807,1,0,0:0:0:0:
320,192,27129,1,0,0:0:0:0:
448,192,27343,1,0,0:0:0:0:
192,192,27557,1,0,0:0:0:0:
320,192,27772,128,0,28093:0:0:0:0:
448,192,27772,128,0,28093:0:0:0:0:
64,192,28200,1,2,0:0:0:0:
448,192,28200,128,4,29700:0:0:0:0:
64,192,28414,1,0,0:0:0:0:
64,192,28629,1,0,0:0:0:0:
64,192,28736,128,0,28950:0:0:0:0:
192,192,28950,128,0,29272:0:0:0:0:
320,192,29272,128,0,29486:0:0:0:0:
64,192,29486,128,0,29700:0:0:0:0:
192,192,29700,128,0,29914:0:0:0:0:
64,192,29914,128,0,31414:0:0:0:0:
320,192,29914,1,0,0:0:0:0:
320,192,30129,1,0,0:0:0:0:
320,192,30343,1,0,0:0:0:0:
320,192,30450,128,0,30664:0:0:0:0:
448,192,30664,128,0,30986:0:0:0:0:
320,192,30986,128,0,31200:0:0:0:0:
192,192,31200,128,0,31414:0:0:0:0:
448,192,31414,1,0,0:0:0:0:
320,192,31522,1,0,0:0:0:0:
192,192,31629,1,0,0:0:0:0:
448,192,31629,128,0,33129:0:0:0:0:
192,192,31843,1,0,0:0:0:0:
192,192,32057,1,0,0:0:0:0:
192,192,32164,128,0,32379:0:0:0:0:
320,192,32379,128,0,32700:0:0:0:0:
64,192,32700,128,0,32914:0:0:0:0:
192,192,32914,128,0,33129:0:0:0:0:
320,192,33129,128,0,33343:0:0:0:0:
192,192,33343,128,0,35057:0:0:0:0:
448,192,33343,1,0,0:0:0:0:
64,192,33557,1,0,0:0:0:0:
320,192,33772,1,0,0:0:0:0:
448,192,33879,1,0,0:0:0:0:
320,192,34093,128,0,34629:0:0:0:0:
64,192,34629,1,0,0:0:0:0:
320,192,34736,1,0,0:0:0:0:
448,192,34843,1,0,0:0:0:0:
320,192,34950,1,0,0:0:0:0:
64,192,35057,128,0,36557:0:0:0:0:
448,192,35057,1,0,0:0:0:0:
448,192,35272,1,0,0:0:0:0:
448,192,35486,1,0,0:0:0:0:
448,192,35593,128,0,35807:0:0:0:0:
320,192,35807,128,0,36129:0:0:0:0:
192,192,36129,128,0,36343:0:0:0:0:
448,192,36343,128,0,36557:0:0:0:0:
320,192,36557,128,0,36772:0:0:0:0:
192,192,36772,1,0,0:0:0:0:
448,192,36772,128,0,38272:0:0:0:0:
192,192,36986,1,0,0:0:0:0:
192,192,37200,1,0,0:0:0:0:
192,192,37307,128,0,37522:0:0:0:0:
320,192,37522,128,0,37843:0:0:0:0:
64,192,37843,128,0,38057:0:0:0:0:
192,192,38057,128,0,38164:0:0:0:0:
320,192,38164,128,0,38379:0:0:0:0:
64,192,38379,128,0,38486:0:0:0:0:
192,192,38486,128,0,39343:0:0:0:0:
448,192,38486,1,0,0:0:0:0:
448,192,38914,1,0,0:0:0:0:
64,192,39343,128,0,39772:0:0:0:0:
448,192,39343,128,0,40200:0:0:0:0:
192,192,39772,1,0,0:0:0:0:
64,192,40200,128,0,41057:0:0:0:0:
320,192,40200,1,0,0:0:0:0:
192,192,40414,1,0,0:0:0:0:
320,192,40629,1,0,0:0:0:0:
448,192,40736,1,0,0:0:0:0:
320,192,40950,128,0,41272:0:0:0:0:
448,192,41057,128,0,41700:0:0:0:0:
192,192,41272,128,0,41486:0:0:0:0:
64,192,41486,128,0,41700:0:0:0:0:
192,192,41700,128,0,41914:0:0:0:0:
64,192,41914,128,2,43414:0:0:0:0:
320,192,41914,1,4,0:0:0:0:
448,192,41914,1,0,0:0:0:0:
320,192,42129,1,0,0:0:0:0:
320,192,42343,1,0,0:0:0:0:
192,192,42450,128,0,42664:0:0:0:0:
320,192,42664,128,0,43200:0:0:0:0:
448,192,43307,1,0,0:0:0:0:
320,192,43414,1,0,0:0:0:0:
192,192,43522,1,0,0:0:0:0:
64,192,43629,1,0,0:0:0:0:
448,192,43629,128,0,45129:0:0:0:0:
192,192,43843,1,0,0:0:0:0:
192,192,44057,1,0,0:0:0:0:
320,192,44164,128,0,44379:0:0:0:0:
192,192,44379,128,0,44700:0:0:0:0:
64,192,44700,128,0,44914:0:0:0:0:
320,192,44914,128,0,45129:0:0:0:0:
192,192,45129,128,0,45343:0:0:0:0:
64,192,45343,1,0,0:0:0:0:
320,192,45343,128,0,47057:0:0:0:0:
192,192,45557,1,0,0:0:0:0:
192,192,45772,1,0,0:0:0:0:
64,192,45879,128,0,46093:0:0:0:0:
192,192,46093,128,0,46629:0:0:0:0:
64,192,46736,1,0,0:0:0:0:
192,192,46843,1,0,0:0:0:0:
448,192,46950,1,0,0:0:0:0:
64,192,47057,128,0,48772:0:0:0:0:
192,192,47057,1,0,0:0:0:0:
448,192,47272,1,0,0:0:0:0:
320,192,47486,1,0,0:0:0:0:
448,192,47593,1,0,0:0:0:0:
448,192,47807,128,0,48022:0:0:0:0:
192,192,48129,128,0,48343:0:0:0:0:
448,192,48343,128,0,48557:0:0:0:0:
320,192,48557,128,0,48772:0:0:0:0:
192,192,48772,1,0,0:0:0:0:
448,192,48772,128,0,50486:0:0:0:0:
320,192,48986,1,0,0:0:0:0:
320,192,49200,1,0,0:0:0:0:
192,192,49307,128,0,49522:0:0:0:0:
320,192,49522,128,0,50057:0:0:0:0:
64,192,50164,1,0,0:0:0:0:
192,192,50272,1,0,0:0:0:0:
320,192,50379,1,0,0:0:0:0:
64,192,50486,1,0,0:0:0:0:
192,192,50486,128,0,51986:0:0:0:0:
320,192,50700,1,0,0:0:0:0:
64,192,50914,1,0,0:0:0:0:
448,192,51022,1,0,0:0:0:0:
448,192,51236,128,0,51772:0:0:0:0:
64,192,51986,1,0,0:0:0:0:
320,192,52093,1,0,0:0:0:0:
192,192,52200,128,0,52414:0:0:0:0:
448,192,52200,128,0,55522:0:0:0:0:
64,192,52414,1,0,0:0:0:0:
64,192,52522,128,0,53700:0:0:0:0:
192,192,53700,1,0,0:0:0:0:
320,192,53807,1,0,0:0:0:0:
192,192,53914,1,0,0:0:0:0:
64,192,54129,1,0,0:0:0:0:
64,192,54236,128,0,55307:0:0:0:0:
192,192,55414,1,0,0:0:0:0:
320,192,55522,1,0,0:0:0:0:
64,192,55629,1,2,0:0:0:0:
192,192,55629,1,4,0:0:0:0:
448,192,55843,1,0,0:0:0:0:
192,192,55950,1,0,0:0:0:0:
64,192,56057,1,2,0:0:0:0:
320,192,56057,1,0,0:0:0:0:
448,192,56272,1,0,0:0:0:0:
320,192,56379,1,0,0:0:0:0:
64,192,56486,1,2,0:0:0:0:
448,192,56486,1,0,0:0:0:0:
192,192,56700,1,0,0:0:0:0:
320,192,56807,1,0,0:0:0:0:
64,192,56914,1,2,0:0:0:0:
448,192,56914,1,0,0:0:0:0:
192,192,57129,1,0,0:0:0:0:
64,192,57236,1,0,0:0:0:0:
320,192,57343,1,2,0:0:0:0:
448,192,57343,1,0,0:0:0:0:
64,192,57557,1,0,0:0:0:0:
320,192,57664,1,0,0:0:0:0:
192,192,57772,1,2,0:0:0:0:
448,192,57772,1,0,0:0:0:0:
64,192,57986,1,0,0:0:0:0:
192,192,58093,1,0,0:0:0:0:
64,192,58200,1,2,0:0:0:0:
448,192,58200,1,0,0:0:0:0:
320,192,58414,1,0,0:0:0:0:
192,192,58522,1,0,0:0:0:0:
64,192,58629,1,2,0:0:0:0:
448,192,58629,1,0,0:0:0:0:
320,192,58843,1,0,0:0:0:0:
448,192,58950,1,0,0:0:0:0:
64,192,59057,1,2,0:0:0:0:
192,192,59057,1,0,0:0:0:0:
64,192,59272,1,2,0:0:0:0:
320,192,59272,1,0,0:0:0:0:
320,192,59486,1,2,0:0:0:0:
448,192,59486,1,0,0:0:0:0:
192,192,59700,1,2,0:0:0:0:
448,192,59700,1,0,0:0:0:0:
64,192,59914,1,2,0:0:0:0:
192,192,59914,1,0,0:0:0:0:
64,192,60129,1,2,0:0:0:0:
448,192,60129,1,0,0:0:0:0:
320,192,60343,1,2,0:0:0:0:
448,192,60343,1,0,0:0:0:0:
64,192,60450,1,2,0:0:0:0:
192,192,60450,1,0,0:0:0:0:
320,192,60557,1,2,0:0:0:0:
448,192,60557,1,0,0:0:0:0:
64,192,60664,1,2,0:0:0:0:
192,192,60664,1,0,0:0:0:0:
320,192,60772,1,2,0:0:0:0:
448,192,60772,1,0,0:0:0:0:
192,192,60914,1,0,0:0:0:0:
64,192,60986,1,0,0:0:0:50:Ultimate Snare 1 - C.wav
192,192,61200,1,0,0:0:0:50:Ultimate Snare 1 - C.wav
448,192,61200,1,0,0:0:0:0:
64,192,61414,1,0,0:0:0:0:
320,192,61629,1,8,0:0:0:0:
448,192,61629,1,0,0:0:0:0:
64,192,61736,1,8,0:0:0:0:
192,192,61736,1,0,0:0:0:0:
320,192,61843,1,2,0:0:0:0:
448,192,61843,1,8,0:0:0:0:
64,192,62057,1,8,0:0:0:0:
192,192,62057,1,0,0:0:0:0:
448,192,62057,1,0,0:0:0:0:
192,192,62486,128,2,62593:0:0:0:0:
320,192,62486,128,0,62593:0:0:0:0:
64,192,62700,128,2,62807:0:0:0:0:
448,192,62700,128,0,62807:0:0:0:0:
192,192,62914,1,8,0:0:0:0:
320,192,62914,128,4,63022:0:0:0:0:
64,192,63022,128,0,63129:0:0:0:0:
448,192,63129,128,0,63236:0:0:0:0:
320,192,63236,128,0,63343:0:0:0:0:
192,192,63343,1,2,0:0:0:0:
448,192,63343,1,0,0:0:0:0:
320,192,63450,128,0,63557:0:0:0:0:
192,192,63557,1,2,0:0:0:0:
448,192,63664,128,0,63772:0:0:0:0:
64,192,63772,1,8,0:0:0:0:
320,192,63772,1,0,0:0:0:0:
192,192,63986,128,0,64200:0:0:0:0:
320,192,64200,128,2,64307:0:0:0:0:
448,192,64200,128,0,64307:0:0:0:0:
64,192,64414,128,0,64522:0:0:0:0:
192,192,64414,128,0,64522:0:0:0:0:
320,192,64629,1,8,0:0:0:0:
448,192,64629,128,0,64736:0:0:0:0:
192,192,64736,128,0,64843:0:0:0:0:
64,192,64843,128,0,64950:0:0:0:0:
320,192,64950,128,0,65057:0:0:0:0:
192,192,65057,1,2,0:0:0:0:
448,192,65057,1,0,0:0:0:0:
64,192,65164,128,0,65272:0:0:0:0:
192,192,65272,1,2,0:0:0:0:
448,192,65379,128,0,65486:0:0:0:0:
64,192,65486,1,8,0:0:0:0:
320,192,65486,1,0,0:0:0:0:
448,192,65700,128,0,65914:0:0:0:0:
64,192,65914,128,2,66022:0:0:0:0:
192,192,65914,128,0,66022:0:0:0:0:
192,192,66129,128,0,66236:0:0:0:0:
320,192,66129,128,0,66236:0:0:0:0:
320,192,66343,128,8,66450:0:0:0:0:
448,192,66343,1,0,0:0:0:0:
64,192,66450,128,0,66557:0:0:0:0:
448,192,66557,128,0,66664:0:0:0:0:
192,192,66664,128,0,66772:0:0:0:0:
64,192,66772,1,2,0:0:0:0:
320,192,66772,1,0,0:0:0:0:
448,192,66879,128,0,66986:0:0:0:0:
64,192,66986,1,2,0:0:0:0:
192,192,67093,128,0,67200:0:0:0:0:
320,192,67200,1,8,0:0:0:0:
448,192,67200,1,0,0:0:0:0:
192,192,67414,128,0,67629:0:0:0:0:
64,192,67629,1,2,0:0:0:0:
448,192,67629,128,0,67736:0:0:0:0:
320,192,67736,128,0,67843:0:0:0:0:
64,192,67843,128,0,67950:0:0:0:0:
320,192,67950,128,0,68057:0:0:0:0:
64,192,68057,1,8,0:0:0:0:
448,192,68057,1,0,0:0:0:0:
192,192,68164,128,0,68272:0:0:0:0:
448,192,68272,128,0,68379:0:0:0:0:
64,192,68486,128,2,68700:0:0:0:0:
192,192,68486,1,0,0:0:0:0:
320,192,68700,1,2,0:0:0:0:
448,192,68700,128,0,68807:0:0:0:0:
192,192,68807,128,0,68914:0:0:0:0:
64,192,68914,128,8,69022:0:0:0:0:
192,192,69022,128,0,69129:0:0:0:0:
320,192,69129,128,2,69236:0:0:0:0:
448,192,69236,128,0,69343:0:0:0:0:
64,192,69343,1,2,0:0:0:0:
192,192,69343,128,4,69450:0:0:0:0:
320,192,69557,1,0,0:0:0:0:
448,192,69557,128,0,69664:0:0:0:0:
64,192,69772,1,8,0:0:0:0:
320,192,69772,1,0,0:0:0:0:
192,192,69879,128,0,69986:0:0:0:0:
448,192,69986,1,0,0:0:0:0:
320,192,70093,128,0,70200:0:0:0:0:
64,192,70200,1,2,0:0:0:0:
192,192,70200,1,0,0:0:0:0:
448,192,70307,128,0,70414:0:0:0:0:
192,192,70414,1,2,0:0:0:0:
64,192,70522,128,0,70629:0:0:0:0:
320,192,70629,128,8,70736:0:0:0:0:
448,192,70629,1,0,0:0:0:0:
64,192,70843,128,0,70950:0:0:0:0:
192,192,70950,128,0,71272:0:0:0:0:
320,192,71057,1,2,0:0:0:0:
448,192,71057,128,0,71164:0:0:0:0:
320,192,71272,128,0,71379:0:0:0:0:
64,192,71486,1,8,0:0:0:0:
448,192,71486,1,0,0:0:0:0:
192,192,71593,128,0,71700:0:0:0:0:
448,192,71700,1,0,0:0:0:0:
320,192,71807,128,0,71914:0:0:0:0:
64,192,71914,1,2,0:0:0:0:
192,192,71914,1,0,0:0:0:0:
320,192,72022,128,0,72129:0:0:0:0:
64,192,72129,1,2,0:0:0:0:
192,192,72236,128,0,72343:0:0:0:0:
320,192,72343,1,8,0:0:0:0:
448,192,72343,128,0,72450:0:0:0:0:
192,192,72450,1,0,0:0:0:0:
64,192,72557,128,0,72772:0:0:0:0:
320,192,72664,1,0,0:0:0:0:
192,192,72772,128,2,72879:0:0:0:0:
448,192,72772,128,0,73307:0:0:0:0:
320,192,72986,128,0,73093:0:0:0:0:
64,192,73200,1,8,0:0:0:0:
320,192,73307,128,0,73414:0:0:0:0:
192,192,73414,1,0,0:0:0:0:
64,192,73522,128,0,73629:0:0:0:0:
192,192,73629,1,2,0:0:0:0:
320,192,73629,1,0,0:0:0:0:
448,192,73629,128,0,73950:0:0:0:0:
192,192,73843,1,2,0:0:0:0:
320,192,73843,1,0,0:0:0:0:
64,192,74057,128,8,74379:0:0:0:0:
448,192,74057,1,0,0:0:0:0:
320,192,74272,1,0,0:0:0:0:
64,192,74486,128,2,74807:0:0:0:0:
192,192,74486,128,0,74807:0:0:0:0:
192,192,74914,128,8,75236:0:0:0:0:
320,192,74914,128,0,75236:0:0:0:0:
320,192,75343,128,2,75664:0:0:0:0:
448,192,75343,128,0,75664:0:0:0:0:
64,192,75557,1,2,0:0:0:0:
192,192,75664,1,0,0:0:0:70:Ultimate Snare 1 - C.wav
64,192,75772,1,8,0:0:0:0:
448,192,75772,1,0,0:0:0:0:
320,192,75879,1,0,0:0:0:70:tom02.wav
192,192,75986,1,0,0:0:0:70:tom03.wav
64,192,76093,1,0,0:0:0:70:tom04.wav
192,192,76200,128,4,76414:0:0:0:0:
448,192,76200,128,2,76414:0:0:0:0:
64,192,76414,128,2,76522:0:0:0:0:
320,192,76414,128,0,76522:0:0:0:0:
448,192,76522,128,0,76629:0:0:0:0:
64,192,76629,128,0,76950:0:0:0:0:
448,192,76843,128,0,76950:0:0:0:0:
320,192,76950,128,0,77057:0:0:0:0:
64,192,77057,1,0,0:0:0:70:Ultimate Snare 1 - C.wav
448,192,77057,1,0,0:0:0:0:
320,192,77272,128,0,77379:0:0:0:0:
64,192,77379,128,0,77486:0:0:0:0:
448,192,77486,128,0,77700:0:0:0:0:
64,192,77700,1,2,0:0:0:0:
192,192,77700,128,0,77914:0:0:0:0:
320,192,77914,128,2,78129:0:0:0:0:
448,192,77914,1,0,0:0:0:0:
192,192,78022,1,0,0:0:0:0:
64,192,78129,128,0,78236:0:0:0:0:
320,192,78236,1,2,0:0:0:0:
448,192,78236,1,0,0:0:0:0:
64,192,78343,128,0,78450:0:0:0:0:
448,192,78450,128,0,78557:0:0:0:0:
192,192,78557,1,2,0:0:0:0:
448,192,78664,128,0,78772:0:0:0:0:
64,192,78772,1,0,0:0:0:70:Ultimate Snare 1 - C.wav
192,192,78772,1,0,0:0:0:0:
320,192,78879,1,0,0:0:0:0:
64,192,78986,128,0,79093:0:0:0:0:
320,192,79093,1,2,0:0:0:0:
448,192,79093,1,0,0:0:0:0:
192,192,79200,1,0,0:0:0:0:
448,192,79307,128,0,79414:0:0:0:0:
64,192,79414,1,2,0:0:0:0:
320,192,79522,1,0,0:0:0:0:
192,192,79629,128,2,79843:0:0:0:0:
448,192,79629,128,0,79843:0:0:0:0:
64,192,79843,128,0,79950:0:0:0:0:
320,192,79843,128,0,79950:0:0:0:0:
448,192,79950,128,0,80057:0:0:0:0:
64,192,80057,128,0,80379:0:0:0:0:
448,192,80272,128,0,80379:0:0:0:0:
320,192,80379,128,0,80486:0:0:0:0:
64,192,80486,1,0,0:0:0:70:Ultimate Snare 1 - C.wav
448,192,80486,1,0,0:0:0:0:
192,192,80700,128,0,80807:0:0:0:0:
320,192,80807,128,0,80914:0:0:0:0:
64,192,80914,128,0,81129:0:0:0:0:
192,192,81129,128,2,81343:0:0:0:0:
320,192,81129,128,0,81343:0:0:0:0:
64,192,81343,1,0,0:0:0:0:
448,192,81343,1,0,0:0:0:0:
64,192,81557,1,2,0:0:0:0:
192,192,81557,1,0,0:0:0:0:
320,192,81664,1,2,0:0:0:0:
448,192,81664,1,0,0:0:0:0:
64,192,81772,1,2,0:0:0:0:
192,192,81772,1,0,0:0:0:0:
320,192,81879,1,2,0:0:0:0:
448,192,81879,1,0,0:0:0:0:
64,192,81986,1,2,0:0:0:0:
192,192,81986,1,0,0:0:0:0:
320,192,82093,1,2,0:0:0:0:
448,192,82093,1,0,0:0:0:0:
64,192,82200,1,0,0:0:0:70:Ultimate Snare 1 - C.wav
192,192,82200,1,0,0:0:0:0:
448,192,82414,128,8,82522:0:0:0:0:
320,192,82522,128,8,82843:0:0:0:0:
64,192,82629,1,8,0:0:0:0:
192,192,82629,128,0,82843:0:0:0:0:
64,192,82843,1,2,0:0:0:0:
448,192,82843,1,0,0:0:0:0:
192,192,83057,1,4,0:0:0:0:
320,192,83057,1,2,0:0:0:0:
448,192,83272,128,0,83486:0:0:0:0:
320,192,83486,128,0,84129:0:0:0:0:
64,192,83700,128,2,83914:0:0:0:0:
192,192,83700,1,0,0:0:0:0:
448,192,83914,1,0,0:0:0:70:Ultimate Snare 1 - C.wav
64,192,84022,1,0,0:0:0:0:
192,192,84129,128,0,84343:0:0:0:0:
448,192,84129,1,0,0:0:0:0:
64,192,84236,1,0,0:0:0:0:
448,192,84343,128,0,84986:0:0:0:0:
192,192,84557,128,2,84772:0:0:0:0:
320,192,84557,1,0,0:0:0:0:
64,192,84772,128,0,84879:0:0:0:0:
64,192,84986,128,0,85093:0:0:0:0:
320,192,84986,128,0,85200:0:0:0:0:
64,192,85200,128,0,85307:0:0:0:0:
448,192,85200,128,0,85414:0:0:0:0:
64,192,85414,128,2,85522:0:0:0:0:
192,192,85414,1,0,0:0:0:0:
320,192,85414,128,0,86057:0:0:0:0:
192,192,85629,1,0,0:0:0:70:Ultimate Snare 1 - C.wav
448,192,85629,1,0,0:0:0:0:
64,192,85736,1,0,0:0:0:0:
192,192,85843,1,0,0:0:0:0:
448,192,85950,1,0,0:0:0:0:
192,192,86057,128,0,86272:0:0:0:0:
64,192,86272,128,2,87343:0:0:0:0:
448,192,86272,1,0,0:0:0:0:
448,192,86486,128,0,86593:0:0:0:0:
448,192,86700,128,0,86807:0:0:0:0:
448,192,86914,128,0,87022:0:0:0:0:
448,192,87129,128,0,87236:0:0:0:0:
192,192,87343,1,0,0:0:0:70:Ultimate Snare 1 - C.wav
320,192,87343,1,0,0:0:0:0:
192,192,87557,128,0,87772:0:0:0:0:
320,192,87772,128,0,87986:0:0:0:0:
64,192,87986,1,2,0:0:0:0:
448,192,87986,128,0,88843:0:0:0:0:
64,192,88200,128,0,88307:0:0:0:0:
64,192,88414,128,0,88522:0:0:0:0:
64,192,88629,128,2,88736:0:0:0:0:
320,192,88629,1,0,0:0:0:0:
64,192,88843,128,0,88950:0:0:0:0:
320,192,89057,1,0,0:0:0:70:Ultimate Snare 1 - C.wav
448,192,89057,1,0,0:0:0:0:
448,192,89486,1,0,0:0:0:0:
64,192,89914,128,4,93343:0:0:0:0:
320,192,89914,128,0,95057:0:0:0:0:
448,192,89914,128,0,96772:0:0:0:0:
64,192,96236,128,0,96772:0:0:0:0:
320,192,96772,128,0,96879:0:0:0:0:
320,192,97093,128,0,97200:0:0:0:0:
320,192,97307,1,0,0:0:0:0:
192,192,97414,128,0,97843:0:0:0:0:
64,192,98057,128,0,98272:0:0:0:0:
448,192,98057,1,0,0:0:0:0:
192,192,98272,128,0,98486:0:0:0:0:
64,192,98486,1,0,0:0:0:0:
320,192,98486,128,0,98700:0:0:0:0:
64,192,98807,1,0,0:0:0:0:
448,192,98807,1,0,0:0:0:0:
192,192,99129,128,0,99343:0:0:0:0:
448,192,99129,1,0,0:0:0:0:
64,192,99557,128,0,99772:0:0:0:0:
192,192,99772,128,0,99986:0:0:0:0:
448,192,99772,1,0,0:0:0:0:
320,192,99986,128,0,100200:0:0:0:0:
64,192,100200,1,0,0:0:0:0:
192,192,100200,128,0,100414:0:0:0:0:
448,192,100414,128,0,100522:0:0:0:0:
64,192,100522,128,0,100736:0:0:0:0:
320,192,100522,1,0,0:0:0:0:
320,192,100736,128,0,100950:0:0:0:0:
64,192,100843,1,0,0:0:0:0:
448,192,100843,1,0,0:0:0:0:
192,192,100950,128,0,101272:0:0:0:0:
448,192,101486,1,0,0:0:0:0:
448,192,101700,1,0,0:0:0:0:
64,192,101914,1,0,0:0:0:0:
320,192,101914,1,0,0:0:0:0:
192,192,102236,1,0,0:0:0:0:
448,192,102236,1,0,0:0:0:0:
192,192,102557,1,0,0:0:0:0:
320,192,102557,1,0,0:0:0:0:
192,192,103307,1,0,0:0:0:0:
320,192,103414,1,0,0:0:0:0:
448,192,103522,1,0,0:0:0:0:
64,192,103629,128,0,103843:0:0:0:0:
192,192,103629,1,0,0:0:0:0:
448,192,103736,1,0,0:0:0:0:
320,192,103843,1,0,0:0:0:0:
64,192,103950,1,0,0:0:0:0:
448,192,104057,1,0,0:0:0:0:
320,192,104164,1,0,0:0:0:0:
64,192,104272,1,0,0:0:0:0:
192,192,104272,128,0,104914:0:0:0:0:
448,192,104629,1,0,0:0:0:0:
64,192,104914,1,0,0:0:0:0:
320,192,105129,1,0,0:0:0:0:
192,192,105236,1,0,0:0:0:0:
64,192,105343,1,0,0:0:0:0:
448,192,105343,128,0,105664:0:0:0:0:
64,192,105557,1,0,0:0:0:0:
320,192,105664,128,0,105986:0:0:0:0:
64,192,105986,1,0,0:0:0:0:
448,192,105986,128,0,106629:0:0:0:0:
64,192,106343,1,0,0:0:0:0:
64,192,106629,1,0,0:0:0:0:
192,192,106629,128,0,106843:0:0:0:0:
64,192,106843,128,0,108343:0:0:0:0:
320,192,106843,1,0,0:0:0:0:
192,192,107057,1,0,0:0:0:0:
448,192,107057,1,0,0:0:0:0:
320,192,107272,1,0,0:0:0:0:
192,192,107414,1,0,0:0:0:0:
320,192,107486,1,0,0:0:0:0:
448,192,107486,1,0,0:0:0:0:
448,192,107700,1,0,0:0:0:0:
192,192,107843,1,0,0:0:0:0:
320,192,107843,1,0,0:0:0:0:
448,192,108057,1,0,0:0:0:0:
192,192,108343,1,0,0:0:0:0:
320,192,108343,1,0,0:0:0:0:
448,192,108557,1,0,0:0:0:0:
64,192,108772,1,0,0:0:0:0:
192,192,108772,1,0,0:0:0:0:
448,192,108879,1,0,0:0:0:0:
320,192,108986,1,0,0:0:0:0:
64,192,109093,1,0,0:0:0:0:
320,192,109200,1,0,0:0:0:0:
448,192,109200,1,0,0:0:0:0:
64,192,109307,1,0,0:0:0:0:
192,192,109414,1,0,0:0:0:0:
448,192,109522,1,0,0:0:0:0:
64,192,109629,1,0,0:0:0:0:
192,192,109629,1,0,0:0:0:0:
448,192,109736,1,0,0:0:0:0:
320,192,109843,1,0,0:0:0:0:
192,192,109950,1,0,0:0:0:0:
64,192,110057,1,0,0:0:0:0:
320,192,110057,1,0,0:0:0:0:
448,192,110057,1,0,0:0:0:0:
192,192,110486,1,2,0:0:0:0:
448,192,110486,128,4,110700:0:0:0:0:
64,192,110700,128,0,110807:0:0:0:0:
320,192,110700,1,0,0:0:0:0:
192,192,110914,1,2,0:0:0:0:
448,192,110914,1,0,0:0:0:0:
64,192,111129,128,0,111343:0:0:0:0:
192,192,111236,1,0,0:0:0:0:
320,192,111343,1,2,0:0:0:0:
448,192,111343,1,0,0:0:0:0:
64,192,111450,128,0,111557:0:0:0:0:
320,192,111557,1,2,0:0:0:0:
448,192,111664,128,0,111772:0:0:0:0:
64,192,111772,1,2,0:0:0:0:
192,192,111772,1,0,0:0:0:0:
448,192,111986,128,0,112200:0:0:0:0:
320,192,112093,128,0,112200:0:0:0:0:
64,192,112200,128,2,112414:0:0:0:0:
192,192,112200,1,0,0:0:0:0:
320,192,112414,1,0,0:0:0:0:
448,192,112414,128,0,112522:0:0:0:0:
64,192,112629,1,2,0:0:0:0:
192,192,112629,1,0,0:0:0:0:
448,192,112843,128,0,113057:0:0:0:0:
64,192,112950,1,0,0:0:0:0:
192,192,113057,1,2,0:0:0:0:
320,192,113057,1,0,0:0:0:0:
320,192,113272,128,2,113486:0:0:0:0:
64,192,113379,128,0,113486:0:0:0:0:
192,192,113486,1,2,0:0:0:0:
448,192,113486,1,0,0:0:0:0:
192,192,113700,128,0,113914:0:0:0:0:
320,192,113914,1,2,0:0:0:0:
448,192,113914,128,0,114129:0:0:0:0:
64,192,114129,128,0,114236:0:0:0:0:
320,192,114129,1,0,0:0:0:0:
192,192,114343,1,2,0:0:0:0:
448,192,114343,1,0,0:0:0:0:
192,192,114557,128,0,114772:0:0:0:0:
64,192,114664,1,0,0:0:0:0:
320,192,114772,1,2,0:0:0:0:
448,192,114772,1,0,0:0:0:0:
64,192,114879,128,0,114986:0:0:0:0:
320,192,114986,1,2,0:0:0:0:
192,192,115093,128,0,115200:0:0:0:0:
64,192,115200,1,2,0:0:0:0:
448,192,115200,1,0,0:0:0:0:
320,192,115414,128,0,115629:0:0:0:0:
448,192,115522,128,0,115629:0:0:0:0:
64,192,115629,128,2,115843:0:0:0:0:
192,192,115629,1,0,0:0:0:0:
192,192,115843,1,0,0:0:0:0:
320,192,115843,128,0,115950:0:0:0:0:
64,192,116057,1,2,0:0:0:0:
448,192,116057,1,0,0:0:0:0:
320,192,116272,128,0,116486:0:0:0:0:
448,192,116379,1,0,0:0:0:0:
64,192,116486,1,2,0:0:0:0:
192,192,116486,1,0,0:0:0:0:
192,192,116700,128,2,116914:0:0:0:0:
448,192,116807,128,0,116914:0:0:0:0:
64,192,116914,1,2,0:0:0:0:
320,192,116914,1,0,0:0:0:0:
64,192,117129,128,0,117343:0:0:0:0:
192,192,117343,1,4,0:0:0:0:
448,192,117343,128,2,117557:0:0:0:0:
64,192,117557,1,0,0:0:0:0:
320,192,117557,128,0,117664:0:0:0:0:
192,192,117772,1,8,0:0:0:0:
448,192,117772,1,2,0:0:0:0:
64,192,117986,128,0,118200:0:0:0:0:
192,192,118093,1,0,0:0:0:0:
320,192,118200,1,2,0:0:0:0:
448,192,118200,1,0,0:0:0:0:
64,192,118307,128,0,118414:0:0:0:0:
320,192,118414,1,2,0:0:0:0:
448,192,118522,128,0,118629:0:0:0:0:
64,192,118629,1,8,0:0:0:0:
192,192,118629,1,2,0:0:0:0:
448,192,118843,128,0,119057:0:0:0:0:
320,192,118950,128,0,119057:0:0:0:0:
64,192,119057,128,2,119272:0:0:0:0:
192,192,119057,1,0,0:0:0:0:
320,192,119272,1,0,0:0:0:0:
448,192,119272,128,0,119379:0:0:0:0:
64,192,119486,1,8,0:0:0:0:
192,192,119486,1,2,0:0:0:0:
448,192,119700,128,0,119914:0:0:0:0:
64,192,119807,1,0,0:0:0:0:
192,192,119914,1,2,0:0:0:0:
320,192,119914,1,0,0:0:0:0:
320,192,120129,128,2,120343:0:0:0:0:
64,192,120236,128,0,120343:0:0:0:0:
192,192,120343,1,8,0:0:0:0:
448,192,120343,128,2,120557:0:0:0:0:
192,192,120557,128,0,120772:0:0:0:0:
64,192,120664,1,0,0:0:0:0:
320,192,120772,1,2,0:0:0:0:
448,192,120772,128,0,120986:0:0:0:0:
64,192,120986,1,0,0:0:0:0:
192,192,120986,128,0,121093:0:0:0:0:
64,192,121200,1,8,0:0:0:0:
448,192,121200,1,2,0:0:0:0:
192,192,121414,128,0,121629:0:0:0:0:
64,192,121522,1,0,0:0:0:0:
320,192,121629,1,2,0:0:0:0:
448,192,121629,1,0,0:0:0:0:
64,192,121736,128,0,121843:0:0:0:0:
320,192,121843,1,2,0:0:0:0:
192,192,121950,128,0,122057:0:0:0:0:
64,192,122057,1,8,0:0:0:0:
448,192,122057,1,2,0:0:0:0:
320,192,122272,128,0,122486:0:0:0:0:
448,192,122379,128,0,122486:0:0:0:0:
64,192,122486,128,2,122700:0:0:0:0:
192,192,122486,1,0,0:0:0:0:
192,192,122700,128,0,122807:0:0:0:0:
320,192,122700,1,0,0:0:0:0:
64,192,122914,1,2,0:0:0:0:
448,192,122914,1,8,0:0:0:0:
192,192,123129,128,0,123236:0:0:0:0:
320,192,123236,1,0,0:0:0:70:Ultimate Snare 1 - C.wav
448,192,123236,1,0,0:0:0:0:
64,192,123343,1,2,0:0:0:0:
192,192,123343,1,0,0:0:0:0:
320,192,123450,1,0,0:0:0:70:Ultimate Snare 1 - C.wav
448,192,123450,1,0,0:0:0:0:
64,192,123557,1,2,0:0:0:0:
192,192,123557,128,0,123664:0:0:0:70:tom03.wav
320,192,123664,1,0,0:0:0:70:tom04.wav
64,192,123772,128,2,124093:0:0:0:0:
192,192,123772,128,4,124093:0:0:0:0:
448,192,123772,128,8,124093:0:0:0:0:
320,192,124200,128,4,124414:0:0:0:0:
448,192,124200,128,2,124414:0:0:0:0:
320,192,124522,128,2,124736:0:0:0:0:
448,192,124522,128,4,124736:0:0:0:0:
320,192,124843,128,4,125057:0:0:0:0:
448,192,124843,128,2,125057:0:0:0:0:
64,192,125164,1,0,0:0:0:0:
192,192,125272,1,0,0:0:0:0:
64,192,125379,128,4,125593:0:0:0:0:
448,192,125379,128,2,125593:0:0:0:0:
64,192,125700,128,4,125914:0:0:0:0:
448,192,125700,128,2,125914:0:0:0:0:
64,192,126022,128,4,126236:0:0:0:0:
448,192,126022,128,2,126236:0:0:0:0:
192,192,126236,128,0,127200:0:0:0:0:
448,192,126664,1,0,0:0:0:0:
320,192,126772,1,0,0:0:0:0:
64,192,126879,1,0,0:0:0:0:
320,192,126986,1,0,0:0:0:0:
448,192,127093,1,0,0:0:0:0:
64,192,127200,1,0,0:0:0:0:
448,192,127307,1,0,0:0:0:0:
192,192,127414,1,0,0:0:0:0:
320,192,127522,1,0,0:0:0:0:
64,192,127629,128,2,127843:0:0:0:0:
192,192,127629,128,4,127843:0:0:0:0:
448,192,127629,128,0,129343:0:0:0:0:
64,192,127950,128,2,128164:0:0:0:0:
192,192,127950,128,4,128164:0:0:0:0:
64,192,128272,128,2,128486:0:0:0:0:
192,192,128272,128,4,128486:0:0:0:0:
320,192,128593,128,0,128700:0:0:0:0:
192,192,128700,128,0,128807:0:0:0:0:
64,192,128807,128,4,129022:0:0:0:0:
320,192,128807,128,2,129022:0:0:0:0:
64,192,129129,128,4,129343:0:0:0:0:
320,192,129129,128,2,129343:0:0:0:0:
64,192,129450,128,4,129664:0:0:0:0:
320,192,129450,128,2,129664:0:0:0:0:
448,192,129557,1,0,0:0:0:0:
192,192,129664,1,0,0:0:0:0:
448,192,129772,1,0,0:0:0:0:
64,192,129879,1,0,0:0:0:0:
192,192,129986,1,0,0:0:0:0:
320,192,130093,1,0,0:0:0:0:
448,192,130200,128,0,130414:0:0:0:0:
320,192,130414,1,0,0:0:0:0:
192,192,130629,128,0,130843:0:0:0:0:
64,192,130843,1,0,0:0:0:0:
64,192,131057,128,2,132772:0:0:0:0:
320,192,131057,128,4,131272:0:0:0:0:
448,192,131057,128,0,131272:0:0:0:0:
320,192,131379,128,2,131593:0:0:0:0:
448,192,131379,128,4,131593:0:0:0:0:
320,192,131700,128,2,131914:0:0:0:0:
448,192,131700,128,4,131914:0:0:0:0:
192,192,132022,1,0,0:0:0:0:
192,192,132236,128,4,132450:0:0:0:0:
448,192,132236,128,2,132450:0:0:0:0:
192,192,132557,128,4,132772:0:0:0:0:
448,192,132557,128,2,132772:0:0:0:0:
192,192,132879,128,4,133093:0:0:0:0:
448,192,132879,128,2,133093:0:0:0:0:
64,192,132986,1,0,0:0:0:0:
320,192,133093,1,0,0:0:0:0:
64,192,133200,1,0,0:0:0:0:
448,192,133307,1,0,0:0:0:0:
192,192,133414,1,0,0:0:0:0:
448,192,133629,128,0,134057:0:0:0:0:
64,192,133843,1,0,0:0:0:0:
192,192,133950,1,0,0:0:0:0:
320,192,134057,1,0,0:0:0:0:
64,192,134164,1,0,0:0:0:0:
448,192,134272,1,0,0:0:0:0:
320,192,134379,1,0,0:0:0:0:
64,192,134486,128,2,135343:0:0:0:0:
192,192,134486,128,4,134700:0:0:0:0:
448,192,134486,128,0,134700:0:0:0:0:
192,192,134807,128,2,135022:0:0:0:0:
448,192,134807,128,4,135022:0:0:0:0:
192,192,135129,128,2,135343:0:0:0:0:
448,192,135129,128,4,135343:0:0:0:0:
320,192,135450,128,0,135557:0:0:0:0:
64,192,135557,128,0,135664:0:0:0:0:
192,192,135664,128,4,135879:0:0:0:0:
320,192,135664,128,2,135879:0:0:0:0:
448,192,135664,128,0,135879:0:0:0:0:
192,192,135986,128,4,136200:0:0:0:0:
320,192,135986,128,2,136200:0:0:0:0:
448,192,135986,128,0,136200:0:0:0:0:
192,192,136307,128,4,136522:0:0:0:0:
320,192,136307,128,2,136522:0:0:0:0:
448,192,136307,128,0,136522:0:0:0:0:
64,192,137272,1,0,0:0:0:0:
192,192,137379,1,0,0:0:0:0:
320,192,137486,1,0,0:0:0:0:
448,192,137593,1,0,0:0:0:0:
192,192,137700,1,0,0:0:0:0:
320,192,137807,1,0,0:0:0:0:
64,192,137914,128,2,141343:0:0:0:0:
448,192,137914,1,4,0:0:0:0:
192,192,138129,128,0,138343:0:0:0:0:
448,192,138343,1,2,0:0:0:0:
320,192,138557,128,0,138772:0:0:0:0:
192,192,138772,1,2,0:0:0:0:
448,192,138879,128,0,138986:0:0:0:0:
192,192,139093,128,0,139200:0:0:0:0:
320,192,139200,1,2,0:0:0:0:
320,192,139414,128,0,139522:0:0:0:0:
448,192,139522,128,0,139629:0:0:0:0:
192,192,139629,1,2,0:0:0:0:
448,192,139843,128,0,140057:0:0:0:0:
192,192,140057,1,2,0:0:0:0:
320,192,140272,128,0,140486:0:0:0:0:
448,192,140486,1,2,0:0:0:0:
192,192,140700,128,0,140807:0:0:0:0:
448,192,140807,128,0,140914:0:0:0:0:
320,192,140914,1,2,0:0:0:0:
192,192,141129,128,0,141236:0:0:0:0:
320,192,141343,1,2,0:0:0:0:
448,192,141343,1,0,0:0:0:0:
64,192,141557,1,2,0:0:0:0:
192,192,141557,1,0,0:0:0:0:
64,192,141772,1,2,0:0:0:0:
448,192,141772,1,0,0:0:0:0:
192,192,141986,1,2,0:0:0:0:
320,192,141986,1,0,0:0:0:0:
320,192,142200,1,2,0:0:0:0:
448,192,142200,1,0,0:0:0:0:
192,192,142414,1,2,0:0:0:0:
448,192,142414,1,0,0:0:0:0:
64,192,142629,1,2,0:0:0:0:
192,192,142629,1,0,0:0:0:0:
320,192,142736,1,2,0:0:0:0:
448,192,142736,1,0,0:0:0:0:
64,192,142843,1,2,0:0:0:0:
192,192,142843,1,0,0:0:0:0:
320,192,142950,1,2,0:0:0:0:
448,192,142950,1,0,0:0:0:0:
64,192,143057,1,2,0:0:0:0:
192,192,143057,1,0,0:0:0:0:
320,192,143200,1,0,0:0:0:0:
448,192,143272,1,8,0:0:0:0:
64,192,143486,1,0,0:0:0:50:Ultimate Snare 1 - C.wav
192,192,143486,1,0,0:0:0:0:
320,192,143700,1,0,0:0:0:0:
64,192,143914,1,8,0:0:0:0:
192,192,143914,1,0,0:0:0:0:
320,192,144022,1,8,0:0:0:0:
448,192,144022,1,0,0:0:0:0:
64,192,144129,1,2,0:0:0:0:
192,192,144129,1,8,0:0:0:0:
320,192,144343,1,8,0:0:0:0:
448,192,144343,1,0,0:0:0:0:
64,192,144557,128,0,144772:0:0:0:0:
192,192,144772,1,2,0:0:0:0:
448,192,144772,128,4,144986:0:0:0:0:
320,192,144879,1,0,0:0:0:0:
64,192,144986,1,2,0:0:0:0:
320,192,145200,1,8,0:0:0:0:
448,192,145200,1,0,0:0:0:0:
64,192,145307,1,0,0:0:0:0:
192,192,145414,1,0,0:0:0:0:
448,192,145522,1,0,0:0:0:0:
64,192,145629,1,2,0:0:0:0:
192,192,145629,1,0,0:0:0:0:
320,192,145736,1,0,0:0:0:0:
448,192,145843,1,2,0:0:0:0:
192,192,145950,1,0,0:0:0:0:
320,192,146057,1,8,0:0:0:0:
448,192,146057,1,0,0:0:0:0:
64,192,146272,1,0,0:0:0:0:
192,192,146272,1,0,0:0:0:0:
64,192,146486,128,2,146700:0:0:0:0:
448,192,146486,1,0,0:0:0:0:
192,192,146593,1,0,0:0:0:0:
320,192,146700,1,0,0:0:0:0:
192,192,146914,1,8,0:0:0:0:
448,192,146914,1,0,0:0:0:0:
64,192,147022,1,0,0:0:0:0:
320,192,147129,1,0,0:0:0:0:
192,192,147236,1,0,0:0:0:0:
320,192,147343,1,2,0:0:0:0:
448,192,147343,1,0,0:0:0:0:
192,192,147450,1,0,0:0:0:0:
64,192,147557,1,2,0:0:0:0:
320,192,147664,1,0,0:0:0:0:
64,192,147772,1,8,0:0:0:0:
192,192,147772,1,0,0:0:0:0:
320,192,147986,1,0,0:0:0:0:
448,192,147986,1,0,0:0:0:0:
192,192,148200,128,2,148414:0:0:0:0:
448,192,148200,1,0,0:0:0:0:
64,192,148307,1,0,0:0:0:0:
320,192,148414,1,0,0:0:0:0:
64,192,148629,1,8,0:0:0:0:
448,192,148629,1,0,0:0:0:0:
192,192,148736,1,0,0:0:0:0:
448,192,148843,1,0,0:0:0:0:
320,192,148950,1,0,0:0:0:0:
64,192,149057,1,2,0:0:0:0:
192,192,149057,1,0,0:0:0:0:
320,192,149164,1,0,0:0:0:0:
448,192,149272,1,2,0:0:0:0:
192,192,149379,1,0,0:0:0:0:
320,192,149486,1,8,0:0:0:0:
448,192,149486,1,0,0:0:0:0:
64,192,149700,1,0,0:0:0:0:
192,192,149700,1,0,0:0:0:0:
320,192,149914,128,2,150129:0:0:0:0:
448,192,149914,1,0,0:0:0:0:
64,192,150022,1,0,0:0:0:0:
192,192,150129,1,0,0:0:0:0:
64,192,150343,1,8,0:0:0:0:
448,192,150343,1,0,0:0:0:0:
320,192,150450,1,0,0:0:0:0:
64,192,150557,128,0,150772:0:0:0:0:
192,192,150557,1,0,0:0:0:0:
320,192,150772,1,2,0:0:0:0:
448,192,150772,1,0,0:0:0:0:
192,192,150879,1,0,0:0:0:0:
64,192,150986,1,2,0:0:0:0:
320,192,151093,1,0,0:0:0:0:
64,192,151200,1,8,0:0:0:0:
192,192,151200,1,0,0:0:0:0:
320,192,151414,1,0,0:0:0:0:
448,192,151414,1,0,0:0:0:0:
192,192,151629,1,4,0:0:0:0:
448,192,151629,128,2,151843:0:0:0:0:
320,192,151736,1,0,0:0:0:0:
64,192,151843,1,0,0:0:0:0:
320,192,152057,1,8,0:0:0:0:
448,192,152057,1,0,0:0:0:0:
64,192,152164,1,0,0:0:0:0:
192,192,152272,1,0,0:0:0:0:
448,192,152379,1,0,0:0:0:0:
64,192,152486,1,2,0:0:0:0:
192,192,152486,1,0,0:0:0:0:
320,192,152593,1,0,0:0:0:0:
448,192,152700,1,2,0:0:0:0:
192,192,152807,1,0,0:0:0:0:
320,192,152914,1,8,0:0:0:0:
448,192,152914,1,0,0:0:0:0:
64,192,153129,1,0,0:0:0:0:
192,192,153129,1,0,0:0:0:0:
64,192,153343,128,2,153557:0:0:0:0:
448,192,153343,1,0,0:0:0:0:
192,192,153450,1,0,0:0:0:0:
320,192,153557,1,0,0:0:0:0:
192,192,153772,1,8,0:0:0:0:
448,192,153772,1,0,0:0:0:0:
64,192,153879,1,0,0:0:0:0:
320,192,153986,1,0,0:0:0:0:
192,192,154093,1,0,0:0:0:0:
320,192,154200,1,2,0:0:0:0:
448,192,154200,1,0,0:0:0:0:
192,192,154307,1,0,0:0:0:0:
64,192,154414,1,2,0:0:0:0:
320,192,154522,1,0,0:0:0:0:
64,192,154629,1,8,0:0:0:0:
192,192,154629,1,0,0:0:0:0:
320,192,154843,1,0,0:0:0:0:
448,192,154843,1,0,0:0:0:0:
192,192,155057,128,2,155272:0:0:0:0:
448,192,155057,1,0,0:0:0:0:
64,192,155164,1,0,0:0:0:0:
320,192,155272,1,0,0:0:0:0:
64,192,155486,1,8,0:0:0:0:
448,192,155486,1,0,0:0:0:0:
192,192,155593,1,0,0:0:0:0:
448,192,155700,1,0,0:0:0:0:
320,192,155807,1,0,0:0:0:0:
64,192,155914,1,2,0:0:0:0:
192,192,155914,1,0,0:0:0:0:
320,192,156022,1,0,0:0:0:0:
448,192,156129,1,2,0:0:0:0:
192,192,156236,1,0,0:0:0:0:
320,192,156343,1,8,0:0:0:0:
448,192,156343,1,0,0:0:0:0:
64,192,156557,1,0,0:0:0:0:
192,192,156557,1,0,0:0:0:0:
320,192,156772,128,2,156986:0:0:0:0:
448,192,156772,1,0,0:0:0:0:
64,192,156879,1,0,0:0:0:0:
192,192,156986,1,0,0:0:0:0:
64,192,157200,1,8,0:0:0:0:
448,192,157200,1,0,0:0:0:0:
192,192,157307,1,0,0:0:0:0:
320,192,157414,128,0,157629:0:0:0:0:
448,192,157414,1,0,0:0:0:0:
64,192,157629,1,2,0:0:0:0:
192,192,157629,1,0,0:0:0:0:
448,192,157736,1,0,0:0:0:0:
320,192,157843,1,2,0:0:0:0:
192,192,157950,1,0,0:0:0:70:Ultimate Snare 1 - C.wav
64,192,158057,1,8,0:0:0:0:
448,192,158057,1,0,0:0:0:70:tom01.wav
320,192,158164,1,0,0:0:0:70:tom02.wav
192,192,158272,1,0,0:0:0:70:tom03.wav
320,192,158379,1,0,0:0:0:70:tom04.wav
64,192,158486,1,2,0:0:0:0:
448,192,158486,1,4,0:0:0:0:
192,192,158700,128,0,158807:0:0:0:0:
448,192,158807,128,0,158914:0:0:0:0:
192,192,158914,1,8,0:0:0:0:
320,192,158914,128,2,159022:0:0:0:0:
64,192,159022,1,0,0:0:0:0:
448,192,159129,128,0,159236:0:0:0:0:
64,192,159236,128,0,159343:0:0:0:0:
192,192,159343,1,2,0:0:0:0:
448,192,159343,1,0,0:0:0:0:
320,192,159450,128,0,159557:0:0:0:0:
448,192,159557,1,0,0:0:0:0:
64,192,159664,128,0,159772:0:0:0:0:
192,192,159772,1,8,0:0:0:0:
320,192,159772,1,2,0:0:0:0:
448,192,159879,128,0,159986:0:0:0:0:
320,192,159986,128,0,160093:0:0:0:0:
192,192,160093,128,0,160200:0:0:0:0:
64,192,160200,1,2,0:0:0:0:
320,192,160200,1,0,0:0:0:0:
448,192,160307,128,0,160414:0:0:0:0:
192,192,160414,1,0,0:0:0:0:
320,192,160522,128,0,160629:0:0:0:0:
64,192,160629,1,8,0:0:0:0:
192,192,160629,1,2,0:0:0:0:
448,192,160736,128,0,160843:0:0:0:0:
320,192,160843,1,0,0:0:0:0:
64,192,160950,128,0,161057:0:0:0:0:
192,192,161057,1,2,0:0:0:0:
320,192,161057,1,0,0:0:0:0:
448,192,161164,1,0,0:0:0:0:
64,192,161272,128,0,161379:0:0:0:0:
320,192,161379,1,0,0:0:0:0:
192,192,161486,1,2,0:0:0:0:
448,192,161486,1,8,0:0:0:0:
320,192,161593,128,0,161700:0:0:0:0:
192,192,161700,128,0,161914:0:0:0:0:
64,192,161914,1,2,0:0:0:0:
448,192,161914,1,0,0:0:0:0:
448,192,162129,128,0,162236:0:0:0:0:
64,192,162236,128,0,162343:0:0:0:0:
192,192,162343,128,8,162450:0:0:0:0:
320,192,162343,1,2,0:0:0:0:
64,192,162557,128,0,162664:0:0:0:0:
320,192,162664,1,0,0:0:0:0:
64,192,162772,1,2,0:0:0:0:
448,192,162772,128,0,162879:0:0:0:0:
320,192,162879,128,0,162986:0:0:0:0:
192,192,162986,1,0,0:0:0:0:
64,192,163093,128,0,163200:0:0:0:0:
320,192,163200,1,8,0:0:0:0:
448,192,163200,1,2,0:0:0:0:
192,192,163307,128,0,163414:0:0:0:0:
448,192,163414,128,0,163522:0:0:0:0:
320,192,163522,128,0,163629:0:0:0:0:
64,192,163629,1,2,0:0:0:0:
448,192,163629,1,0,0:0:0:0:
192,192,163736,128,0,163843:0:0:0:0:
320,192,163843,1,0,0:0:0:0:
448,192,163950,128,0,164057:0:0:0:0:
192,192,164057,128,8,164164:0:0:0:0:
320,192,164057,1,2,0:0:0:0:
64,192,164164,1,0,0:0:0:0:
448,192,164272,128,0,164379:0:0:0:0:
192,192,164379,1,0,0:0:0:0:
64,192,164486,1,2,0:0:0:0:
320,192,164486,1,0,0:0:0:0:
448,192,164593,1,0,0:0:0:0:
64,192,164700,128,0,164807:0:0:0:0:
192,192,164807,1,0,0:0:0:0:
320,192,164914,1,2,0:0:0:0:
448,192,164914,128,8,165129:0:0:0:0:
192,192,165129,128,0,165236:0:0:0:0:
320,192,165236,1,0,0:0:0:0:
64,192,165343,1,4,0:0:0:0:
448,192,165343,1,2,0:0:0:0:
64,192,165557,128,0,165664:0:0:0:0:
448,192,165664,128,0,165772:0:0:0:0:
192,192,165772,1,8,0:0:0:0:
320,192,165772,128,2,165879:0:0:0:0:
64,192,165879,1,0,0:0:0:0:
448,192,165986,128,0,166093:0:0:0:0:
64,192,166093,128,0,166200:0:0:0:0:
192,192,166200,1,2,0:0:0:0:
448,192,166200,1,0,0:0:0:0:
320,192,166307,128,0,166414:0:0:0:0:
448,192,166414,1,0,0:0:0:0:
64,192,166522,128,0,166629:0:0:0:0:
192,192,166629,1,2,0:0:0:0:
320,192,166629,1,8,0:0:0:0:
448,192,166736,128,0,166843:0:0:0:0:
320,192,166843,128,0,166950:0:0:0:0:
192,192,166950,128,0,167057:0:0:0:0:
64,192,167057,1,2,0:0:0:0:
320,192,167057,1,0,0:0:0:0:
448,192,167164,128,0,167272:0:0:0:0:
192,192,167272,1,0,0:0:0:0:
320,192,167379,128,0,167486:0:0:0:0:
64,192,167486,1,2,0:0:0:0:
192,192,167486,1,8,0:0:0:0:
448,192,167593,128,0,167700:0:0:0:0:
320,192,167700,1,0,0:0:0:0:
64,192,167807,128,0,167914:0:0:0:0:
320,192,167914,1,2,0:0:0:0:
448,192,167914,1,0,0:0:0:0:
192,192,168022,1,0,0:0:0:0:
448,192,168129,128,0,168236:0:0:0:0:
64,192,168236,1,0,0:0:0:0:
192,192,168343,1,2,0:0:0:0:
320,192,168343,1,8,0:0:0:0:
64,192,168450,128,0,168557:0:0:0:0:
320,192,168557,128,0,168772:0:0:0:0:
64,192,168772,1,2,0:0:0:0:
448,192,168772,1,0,0:0:0:0:
448,192,168986,128,0,169093:0:0:0:0:
64,192,169093,128,0,169200:0:0:0:0:
192,192,169200,128,8,169307:0:0:0:0:
320,192,169200,1,2,0:0:0:0:
448,192,169307,1,0,0:0:0:0:
320,192,169414,128,0,169522:0:0:0:0:
64,192,169522,1,0,0:0:0:0:
192,192,169629,1,2,0:0:0:0:
448,192,169629,128,0,169736:0:0:0:0:
320,192,169736,128,0,169843:0:0:0:0:
192,192,169843,1,0,0:0:0:0:
64,192,169950,128,0,170057:0:0:0:0:
192,192,170057,1,2,0:0:0:0:
448,192,170057,1,8,0:0:0:0:
320,192,170164,128,0,170272:0:0:0:0:
448,192,170272,128,0,170379:0:0:0:0:
192,192,170379,128,0,170486:0:0:0:0:
64,192,170486,1,2,0:0:0:0:
448,192,170486,1,0,0:0:0:0:
320,192,170593,128,0,170700:0:0:0:0:
64,192,170700,1,0,0:0:0:0:
448,192,170807,128,0,170914:0:0:0:0:
192,192,170914,128,8,171022:0:0:0:0:
320,192,170914,1,2,0:0:0:0:
64,192,171022,1,0,0:0:0:0:
320,192,171129,128,0,171236:0:0:0:0:
448,192,171236,1,0,0:0:0:0:
64,192,171343,1,2,0:0:0:0:
192,192,171343,1,0,0:0:0:0:
320,192,171450,1,0,0:0:0:0:
64,192,171557,128,0,171664:0:0:0:70:Ultimate Snare 1 - C.wav
192,192,171664,128,0,171772:0:0:0:70:Ultimate Snare 1 - C.wav
320,192,171772,1,10,0:0:0:0:
448,192,171772,128,0,171879:0:0:0:70:tom01.wav
64,192,171879,1,0,0:0:0:70:tom02.wav
192,192,171986,1,0,0:0:0:70:tom03.wav
320,192,172093,1,0,0:0:0:70:tom04.wav
64,192,172200,1,2,0:0:0:0:
448,192,172200,128,4,172414:0:0:0:0:
192,192,172414,1,0,0:0:0:0:
320,192,172414,128,0,172629:0:0:0:0:
64,192,172629,128,2,172736:0:0:0:0:
192,192,172629,1,8,0:0:0:0:
448,192,172736,128,0,172950:0:0:0:0:
192,192,172950,128,0,173272:0:0:0:0:
320,192,173057,1,2,0:0:0:0:
448,192,173057,1,0,0:0:0:0:
64,192,173164,1,0,0:0:0:0:
320,192,173272,128,0,173486:0:0:0:0:
192,192,173379,1,0,0:0:0:0:
64,192,173486,1,2,0:0:0:0:
448,192,173486,128,8,173700:0:0:0:0:
64,192,173700,128,0,174129:0:0:0:0:
192,192,173700,1,0,0:0:0:0:
320,192,173914,1,2,0:0:0:0:
448,192,173914,1,0,0:0:0:0:
192,192,174129,1,0,0:0:0:0:
320,192,174129,1,0,0:0:0:0:
64,192,174343,1,2,0:0:0:0:
448,192,174343,1,8,0:0:0:0:
192,192,174450,1,0,0:0:0:0:
320,192,174557,1,0,0:0:0:0:
192,192,174664,1,0,0:0:0:0:
64,192,174772,1,2,0:0:0:0:
448,192,174772,1,0,0:0:0:0:
320,192,174879,1,0,0:0:0:0:
192,192,174986,1,0,0:0:0:0:
320,192,175093,1,0,0:0:0:0:
64,192,175200,1,8,0:0:0:0:
448,192,175200,1,2,0:0:0:0:
192,192,175307,1,0,0:0:0:0:
320,192,175414,1,0,0:0:0:0:
448,192,175522,1,0,0:0:0:0:
64,192,175629,128,2,175789:0:0:0:0:
320,192,175629,1,0,0:0:0:0:
192,192,175789,128,0,175950:0:0:0:0:
448,192,175843,1,0,0:0:0:0:
320,192,175950,128,0,176164:0:0:0:0:
192,192,176057,1,2,0:0:0:0:
448,192,176057,1,8,0:0:0:0:
64,192,176164,128,0,176379:0:0:0:0:
448,192,176379,128,0,176754:0:0:0:0:
192,192,176486,1,2,0:0:0:0:
320,192,176486,1,0,0:0:0:0:
64,192,176593,1,0,0:0:0:0:
192,192,176700,1,0,0:0:0:0:
64,192,176914,1,2,0:0:0:0:
192,192,176914,128,8,177022:0:0:0:0:
448,192,177022,128,0,177129:0:0:0:0:
320,192,177129,128,0,177236:0:0:0:0:
64,192,177236,128,0,177343:0:0:0:0:
192,192,177343,1,2,0:0:0:0:
448,192,177343,128,0,177477:0:0:0:0:
320,192,177477,128,0,177664:0:0:0:0:
64,192,177557,1,0,0:0:0:0:
192,192,177664,128,0,177879:0:0:0:0:
320,192,177772,1,2,0:0:0:0:
448,192,177772,1,8,0:0:0:0:
64,192,177879,128,0,178093:0:0:0:0:
448,192,178093,128,0,178414:0:0:0:0:
192,192,178200,1,2,0:0:0:0:
320,192,178200,1,0,0:0:0:0:
64,192,178307,1,0,0:0:0:0:
192,192,178414,1,0,0:0:0:0:
448,192,178522,1,0,0:0:0:0:
64,192,178629,1,8,0:0:0:0:
320,192,178629,128,2,178843:0:0:0:0:
64,192,178843,128,0,179486:0:0:0:0:
192,192,178843,1,0,0:0:0:0:
320,192,179057,1,2,0:0:0:0:
448,192,179057,1,4,0:0:0:0:
192,192,179272,1,0,0:0:0:0:
320,192,179272,1,0,0:0:0:0:
320,192,179486,1,2,0:0:0:0:
448,192,179486,1,8,0:0:0:0:
192,192,179593,1,0,0:0:0:0:
64,192,179700,1,0,0:0:0:0:
320,192,179807,1,0,0:0:0:0:
64,192,179914,1,2,0:0:0:0:
192,192,179914,1,0,0:0:0:0:
320,192,180022,1,0,0:0:0:0:
448,192,180129,1,0,0:0:0:0:
192,192,180236,1,0,0:0:0:0:
320,192,180343,1,8,0:0:0:0:
448,192,180343,1,2,0:0:0:0:
192,192,180450,1,0,0:0:0:0:
64,192,180557,1,0,0:0:0:0:
320,192,180664,1,0,0:0:0:0:
64,192,180772,1,2,0:0:0:0:
448,192,180772,128,0,180905:0:0:0:0:
320,192,180905,128,0,181093:0:0:0:0:
192,192,180986,1,0,0:0:0:0:
64,192,181093,128,0,181307:0:0:0:0:
192,192,181200,1,8,0:0:0:0:
320,192,181200,1,2,0:0:0:0:
448,192,181307,128,0,181414:0:0:0:0:
320,192,181414,128,0,181522:0:0:0:0:
192,192,181522,128,0,181843:0:0:0:0:
320,192,181629,1,2,0:0:0:0:
448,192,181629,1,0,0:0:0:0:
64,192,181736,1,0,0:0:0:0:
320,192,181843,1,0,0:0:0:0:
192,192,182057,1,8,0:0:0:0:
448,192,182057,128,2,182272:0:0:0:0:
64,192,182272,128,0,182700:0:0:0:0:
320,192,182272,1,0,0:0:0:0:
192,192,182486,1,2,0:0:0:0:
448,192,182486,1,0,0:0:0:0:
320,192,182700,1,0,0:0:0:0:
448,192,182700,1,0,0:0:0:0:
320,192,182914,1,2,0:0:0:0:
448,192,182914,1,8,0:0:0:0:
192,192,183022,1,0,0:0:0:0:
320,192,183129,1,0,0:0:0:0:
448,192,183236,1,0,0:0:0:0:
64,192,183343,1,2,0:0:0:0:
192,192,183343,1,0,0:0:0:0:
320,192,183450,1,0,0:0:0:0:
192,192,183557,1,0,0:0:0:0:
64,192,183664,1,0,0:0:0:0:
320,192,183772,128,8,183986:0:0:0:0:
448,192,183772,1,2,0:0:0:0:
64,192,183986,128,0,184522:0:0:0:0:
192,192,183986,1,0,0:0:0:0:
320,192,184200,1,2,0:0:0:0:
448,192,184200,1,0,0:0:0:0:
192,192,184414,1,0,0:0:0:0:
320,192,184414,1,0,0:0:0:0:
320,192,184629,1,2,0:0:0:0:
448,192,184629,1,8,0:0:0:0:
64,192,184736,1,0,0:0:0:0:
192,192,184843,1,0,0:0:0:0:
320,192,184950,1,0,0:0:0:0:
64,192,185057,1,2,0:0:0:0:
192,192,185057,1,0,0:0:0:0:
448,192,185164,1,0,0:0:0:0:
320,192,185272,1,8,0:0:0:0:
192,192,185379,1,0,0:0:0:70:Ultimate Snare 1 - C.wav
320,192,185486,1,10,0:0:0:0:
448,192,185486,1,0,0:0:0:70:tom01.wav
64,192,185593,1,0,0:0:0:70:tom02.wav
320,192,185700,1,0,0:0:0:70:tom03.wav
192,192,185807,1,0,0:0:0:70:tom04.wav
64,192,185914,128,4,186129:0:0:0:0:
448,192,185914,128,2,186129:0:0:0:0:
192,192,186129,1,0,0:0:0:0:
320,192,186129,1,0,0:0:0:0:
320,192,186343,1,2,0:0:0:0:
448,192,186343,1,0,0:0:0:0:
192,192,186557,128,0,186664:0:0:0:0:
64,192,186664,1,0,0:0:0:0:
192,192,186772,1,2,0:0:0:0:
448,192,186772,1,0,0:0:0:0:
320,192,186879,128,0,186986:0:0:0:0:
192,192,186986,1,2,0:0:0:0:
64,192,187093,128,0,187200:0:0:0:0:
320,192,187200,1,2,0:0:0:0:
448,192,187200,1,0,0:0:0:0:
320,192,187414,128,0,187522:0:0:0:0:
192,192,187522,128,0,187629:0:0:0:0:
64,192,187629,128,2,187843:0:0:0:0:
448,192,187629,128,0,187843:0:0:0:0:
192,192,187843,1,0,0:0:0:0:
320,192,187843,1,0,0:0:0:0:
64,192,188057,1,2,0:0:0:0:
448,192,188057,1,0,0:0:0:0:
320,192,188272,128,0,188379:0:0:0:0:
192,192,188379,1,0,0:0:0:0:
64,192,188486,1,2,0:0:0:0:
448,192,188486,1,0,0:0:0:0:
320,192,188700,128,2,188807:0:0:0:0:
192,192,188807,128,0,188914:0:0:0:0:
64,192,188914,1,2,0:0:0:0:
448,192,188914,1,0,0:0:0:0:
320,192,189129,128,0,189343:0:0:0:0:
448,192,189129,128,0,189343:0:0:0:0:
64,192,189343,128,2,189557:0:0:0:0:
192,192,189343,128,0,189557:0:0:0:0:
320,192,189557,1,0,0:0:0:0:
448,192,189557,1,0,0:0:0:0:
64,192,189772,1,2,0:0:0:0:
192,192,189772,1,0,0:0:0:0:
320,192,189986,128,0,190093:0:0:0:0:
64,192,190093,1,0,0:0:0:0:
192,192,190200,1,2,0:0:0:0:
320,192,190200,1,0,0:0:0:0:
448,192,190307,128,0,190414:0:0:0:0:
64,192,190414,1,2,0:0:0:0:
320,192,190522,128,0,190629:0:0:0:0:
192,192,190629,1,2,0:0:0:0:
448,192,190629,1,0,0:0:0:0:
320,192,190843,128,0,190950:0:0:0:0:
192,192,190950,128,0,191057:0:0:0:0:
64,192,191057,128,2,191272:0:0:0:0:
448,192,191057,128,0,191272:0:0:0:0:
192,192,191272,1,0,0:0:0:0:
320,192,191272,1,0,0:0:0:0:
64,192,191486,1,2,0:0:0:0:
448,192,191486,1,0,0:0:0:0:
320,192,191700,128,0,191807:0:0:0:0:
192,192,191807,1,0,0:0:0:0:
64,192,191914,1,2,0:0:0:0:
448,192,191914,1,0,0:0:0:0:
320,192,192129,128,2,192236:0:0:0:0:
192,192,192236,128,0,192343:0:0:0:0:
64,192,192343,1,2,0:0:0:0:
448,192,192343,1,0,0:0:0:0:
192,192,192557,128,0,192772:0:0:0:0:
320,192,192557,128,0,192772:0:0:0:0:
64,192,192772,128,2,192986:0:0:0:0:
448,192,192772,128,4,192986:0:0:0:0:
192,192,192986,1,0,0:0:0:0:
320,192,192986,1,0,0:0:0:0:
320,192,193200,1,2,0:0:0:0:
448,192,193200,1,8,0:0:0:0:
192,192,193414,128,0,193522:0:0:0:0:
64,192,193522,1,0,0:0:0:0:
192,192,193629,1,2,0:0:0:0:
448,192,193629,1,0,0:0:0:0:
320,192,193736,128,0,193843:0:0:0:0:
192,192,193843,1,2,0:0:0:0:
64,192,193950,128,0,194057:0:0:0:0:
320,192,194057,1,2,0:0:0:0:
448,192,194057,1,8,0:0:0:0:
320,192,194272,128,0,194379:0:0:0:0:
192,192,194379,128,0,194486:0:0:0:0:
64,192,194486,128,2,194700:0:0:0:0:
448,192,194486,128,0,194700:0:0:0:0:
192,192,194700,1,0,0:0:0:0:
320,192,194700,1,0,0:0:0:0:
64,192,194914,1,2,0:0:0:0:
448,192,194914,1,8,0:0:0:0:
320,192,195129,128,0,195236:0:0:0:0:
192,192,195236,1,0,0:0:0:0:
64,192,195343,1,2,0:0:0:0:
448,192,195343,1,0,0:0:0:0:
64,192,195557,1,2,0:0:0:0:
320,192,195557,128,0,195664:0:0:0:0:
448,192,195664,1,0,0:0:0:0:
192,192,195772,128,2,195986:0:0:0:0:
320,192,195772,1,8,0:0:0:0:
448,192,195986,128,0,196093:0:0:0:0:
320,192,196093,128,0,196200:0:0:0:0:
64,192,196200,128,2,196414:0:0:0:0:
192,192,196200,128,0,196414:0:0:0:0:
320,192,196414,1,0,0:0:0:0:
448,192,196414,1,0,0:0:0:0:
64,192,196629,1,2,0:0:0:0:
448,192,196629,1,8,0:0:0:0:
192,192,196843,128,0,196950:0:0:0:0:
64,192,196950,1,0,0:0:0:0:
192,192,197057,1,2,0:0:0:0:
448,192,197057,1,0,0:0:0:0:
320,192,197164,128,0,197272:0:0:0:0:
192,192,197272,1,2,0:0:0:0:
448,192,197379,128,0,197486:0:0:0:0:
64,192,197486,1,2,0:0:0:0:
320,192,197486,1,8,0:0:0:0:
320,192,197700,128,0,197807:0:0:0:0:
192,192,197807,128,0,197914:0:0:0:0:
64,192,197914,128,2,198129:0:0:0:0:
448,192,197914,128,0,198129:0:0:0:0:
192,192,198129,1,0,0:0:0:0:
320,192,198129,1,0,0:0:0:0:
64,192,198343,1,8,0:0:0:0:
448,192,198343,1,2,0:0:0:0:
320,192,198557,128,0,198664:0:0:0:0:
192,192,198664,1,0,0:0:0:70:Ultimate Snare 1 - C.wav
64,192,198772,1,2,0:0:0:0:
448,192,198772,1,0,0:0:0:0:
320,192,198986,128,2,199093:0:0:0:0:
448,192,198986,128,0,199093:0:0:0:0:
64,192,199093,128,0,199200:0:0:0:70:Ultimate Snare 1 - C.wav
192,192,199093,128,0,199200:0:0:0:0:
320,192,199200,1,6,0:0:0:0:
448,192,199200,1,8,0:0:0:0:
64,192,199414,1,0,0:0:0:70:tom02.wav
192,192,199414,128,0,199629:0:0:0:0:
320,192,199522,128,0,199629:0:0:0:70:tom03.wav
448,192,199522,1,0,0:0:0:0:
