osu file format v14

[General]
AudioFilename: audio.mp3
AudioLeadIn: 0
PreviewTime: 13268
Countdown: 0
SampleSet: Soft
StackLeniency: 0.2
Mode: 0
LetterboxInBreaks: 0
WidescreenStoryboard: 0

[Editor]
Bookmarks: 2643,7976,13310,18643,23976,29310,34643,39976,45310,50643,55976,61310,66643,71976,77310,82643,87976,93310,98643,103976,109310
DistanceSpacing: 0.9
BeatDivisor: 4
GridSize: 32
TimelineZoom: 1.54

[Metadata]
Title:Cosy Catastrophe
TitleUnicode:Cosy Catastrophe
Artist:SYUNN
ArtistUnicode:SYUNN
Creator:Ritzeh
Version:Collab
Source:DanceDanceRevolution A
Tags:axarious Shunsuke Sato ddr
BeatmapID:1738259
BeatmapSetID:829692

[Difficulty]
HPDrainRate:6
CircleSize:4
OverallDifficulty:8
ApproachRate:9.5
SliderMultiplier:1.8
SliderTickRate:1

[Events]
//Background and Video events
0,0,"bg-cs.png",0,0
//Break Periods
//Storyboard Layer 0 (Background)
//Storyboard Layer 1 (Fail)
//Storyboard Layer 2 (Pass)
//Storyboard Layer 3 (Foreground)
//Storyboard Sound Samples

[TimingPoints]
2643.52486187845,333.333333333333,4,2,0,85,1,0
12643,-333.333333333333,4,2,0,85,0,0
12976,-100,4,2,0,85,0,0
13310,-133.333333333333,4,2,0,85,0,0
14643,-100,4,2,0,85,0,0
15976,-80,4,2,0,85,0,0
16476,-74.0740740740741,4,2,0,85,0,0
16976,-62.5,4,2,0,85,0,0
17310,-57.1428571428571,4,2,0,85,0,0
17560,-40,4,2,0,85,0,0
17810,-44.4444444444445,4,2,0,85,0,0
18060,-33.3333333333333,4,2,0,85,0,0
18310,-100,4,2,0,85,0,0
22643,-133.333333333333,4,2,0,85,0,0
23643,-100,4,2,0,85,0,0
24310,-50,4,2,0,85,0,0
24643,-40,4,2,0,85,0,0
25143,-100,4,2,0,85,0,0
25310,-33.3333333333333,4,2,0,85,0,0
25976,-100,4,2,0,85,0,0
26143,-50,4,2,0,85,0,0
26310,-33.3333333333333,4,2,0,85,0,0
26643,-66.6666666666667,4,2,0,85,0,0
26976,-33.3333333333333,4,2,0,85,0,0
27560,-50,4,2,0,85,0,0
27810,-200,4,2,0,85,0,0
28143,-100,4,2,0,85,0,0
28643,-33.3333333333333,4,2,0,85,0,0
29310,-50,4,2,0,85,0,0
29643,-50,4,2,0,85,0,0
30476,-250,4,2,0,85,0,0
30643,-40,4,2,0,85,0,0
30976,-30.7692307692308,4,2,0,85,0,0
31476,-100,4,2,0,85,0,0
31643,-50,4,2,0,85,0,0
31976,-66.6666666666667,4,2,0,85,0,0
32476,-100,4,2,0,85,0,0
32976,-133.333333333333,4,2,0,85,0,0
33310,-66.6666666666667,4,2,0,85,0,0
33810,-100,4,2,0,85,0,0
34643,-100,4,2,0,85,0,0
34976,-83.3333333333333,4,2,0,85,0,0
35310,-66.6666666666667,4,2,0,85,0,0
35476,-40,4,2,0,85,0,0
35643,-50,4,2,0,85,0,0
35976,-50,4,2,0,85,0,0
36310,-66.6666666666667,4,2,0,85,0,0
36643,-200,4,2,0,85,0,0
36976,-100,4,2,0,85,0,0
37310,-50,4,2,0,85,0,0
37643,-66.6666666666667,4,2,0,85,0,0
37976,-33.3333333333333,4,2,0,85,0,0
38143,-66.6666666666667,4,2,0,85,0,0
38976,-40,4,2,0,85,0,0
39310,-133.333333333333,4,2,0,85,0,0
39976,-100,4,2,0,85,0,0
40310,-66.6666666666667,4,2,0,85,0,0
40810,-40,4,2,0,85,0,0
40976,-50,4,2,0,85,0,0
41310,-66.6666666666667,4,2,0,85,0,0
41643,-100,4,2,0,85,0,0
41976,-50,4,2,0,85,0,0
42476,-100,4,2,0,85,0,0
42643,-40,4,2,0,85,0,0
43476,-66.6666666666667,4,2,0,85,0,0
43643,-40,4,2,0,85,0,0
43976,-100,4,2,0,85,0,0
51643,-133.333333333333,4,2,0,85,0,0
52643,-100,4,2,0,85,0,0
54310,-133.333333333333,4,2,0,85,0,0
55310,-100,4,2,0,85,0,0
55976,-200,4,2,0,85,0,0
63976,-133.333333333333,4,2,0,85,0,0
66643,-100,4,2,0,85,0,0
76476,-80,4,2,0,85,0,0
77310,-50,4,2,0,85,0,0
77643,-100,4,2,0,85,0,0
77976,-50,4,2,0,85,0,0
78976,-33.3333333333333,4,2,0,85,0,0
79310,-50,4,2,0,85,0,0
79976,-33.3333333333333,4,2,0,85,0,0
80976,-100,4,2,0,85,0,0
81643,-40,4,2,0,85,0,0
81976,-50,4,2,0,85,0,0
82310,-33.3333333333333,4,2,0,85,0,0
82643,-50,4,2,0,85,0,0
82976,-100,4,2,0,85,0,0
83310,-50,4,2,0,85,0,0
84310,-33.3333333333333,4,2,0,85,0,0
84643,-50,4,2,0,85,0,0
84976,-33.3333333333333,4,2,0,85,0,0
85310,-100,4,2,0,85,0,0
87143,-50,4,2,0,85,0,0
87310,-100,4,2,0,85,0,0
87976,-33.3333333333333,4,2,0,85,0,0
90310,-50,4,2,0,85,0,0
90643,-200,4,2,0,85,0,0
90976,-100,4,2,0,85,0,0
91310,-50,4,2,0,85,0,0
93310,-33.3333333333333,4,2,0,85,0,0
93560,-100,4,2,0,85,0,0
93810,-33.3333333333333,4,2,0,85,0,0
95310,-40,4,2,0,85,0,0
95976,-100,4,2,0,85,0,0

[HitObjects]
19,210,2060,6,0,L|25:254,1,45,0|0,3:0|3:0,3:0:0:0:
86,101,2226,1,0,3:0:0:0:
85,107,2310,2,0,L|80:151,3,45,8|0|0|0,1:0|3:0|3:0|3:0,3:0:0:0:
88,305,2643,6,0,L|357:321,1,270,4|0,0:0|0:0,0:0:0:0:
411,22,3310,2,0,B|399:2|399:2|391:68,1,90,8|0,0:0|0:0,0:0:0:0:
361,243,3643,2,0,L|495:223,1,135
495,223,3976,6,0,L|487:178,1,45,2|0,0:0|0:0,0:0:0:0:
361,112,4226,6,0,L|353:67,1,45,2|0,0:0|0:0,0:0:0:0:
291,305,4476,6,0,L|283:260,1,45,2|0,0:0|0:0,0:0:0:0:
205,212,4643,6,0,B|214:222|214:222|146:218|109:271,1,135,8|0,0:0|0:0,0:0:0:0:
51,329,4976,2,0,P|28:328|7:320,1,45
35,178,5143,2,0,P|57:178|78:186,1,45
175,314,5310,6,0,L|191:45,1,270
486,59,5976,2,0,B|496:67|496:67|419:60,1,90,8|0,0:0|0:0,0:0:0:0:
295,206,6310,2,0,P|342:252|408:255,1,135
408,255,6643,6,0,L|451:243,1,45,2|0,0:0|0:0,0:0:0:0:
253,136,6893,6,0,L|296:124,1,45,2|0,0:0|0:0,0:0:0:0:
175,314,7143,6,0,L|218:302,1,45,2|0,0:0|0:0,0:0:0:0:
295,206,7310,6,0,P|325:264|308:328,1,135,8|0,0:0|0:0,0:0:0:0:
237,384,7643,1,0,0:0:0:0:
192,381,7726,1,0,0:0:0:0:
147,378,7809,1,0,0:0:0:0:
102,376,7892,1,0,0:0:0:0:
40,309,7976,6,0,P|35:174|76:42,1,270,4|0,2:0|0:0,0:0:0:0:
290,30,8643,2,0,B|273:48|273:48|204:63,1,90,8|0,0:0|0:0,0:0:0:0:
351,104,8976,2,0,L|220:134,1,135
219,134,9310,5,2,0:0:0:0:
201,139,9394,1,0,0:0:0:0:
381,174,9560,1,2,0:0:0:0:
399,170,9644,1,0,0:0:0:0:
152,217,9810,2,0,L|161:275,1,45,2|0,0:0|0:0,0:0:0:0:
361,265,9976,2,0,B|370:247|370:247|316:224|253:243,1,135
164,341,10310,1,0,0:0:0:0:
361,265,10476,1,0,0:0:0:0:
152,217,10643,5,0,0:0:0:0:
347,346,10810,1,2,0:0:0:0:
342,362,10893,1,0,0:0:0:0:
431,241,11060,1,2,0:0:0:0:
434,257,11143,1,0,0:0:0:0:
356,132,11310,1,10,0:0:0:0:
366,144,11393,1,0,0:0:0:0:
370,161,11476,1,0,0:0:0:0:
268,294,11643,1,0,0:0:0:0:
171,256,11810,2,0,L|164:309,1,45
463,109,11976,5,2,0:0:0:0:
195,157,12143,1,0,0:0:0:0:
202,135,12226,1,2,0:0:0:0:
336,183,12393,1,0,0:0:0:0:
329,137,12476,1,2,0:0:0:0:
323,92,12559,1,2,0:0:0:0:
317,47,12643,6,0,P|308:28|279:24,1,40.4999987640381,0|0,1:0|2:0,2:0:0:0:
17,37,12976,5,0,0:0:0:0:
72,45,13059,1,0,0:0:0:0:
127,53,13142,1,0,0:0:0:0:
182,61,13226,1,0,0:0:0:0:
220,94,13310,6,0,P|239:121|244:154,1,67.5000025749208,2|0,0:0|0:0,0:0:0:0:
287,215,13560,2,0,P|311:239|342:250,1,67.5000025749208
151,195,13810,6,0,P|183:186|216:191,1,67.5000025749208,8|0,0:0|0:0,0:0:0:0:
288,169,14060,2,0,P|317:154|338:127,1,67.5000025749208
227,292,14310,6,0,P|228:258|243:229,1,67.5000025749208
279,5,14643,6,0,P|284:50|269:92,1,90,2|0,0:0|0:0,0:0:0:0:
303,280,14893,2,0,P|315:322|344:356,1,90
439,158,15143,6,0,P|398:176|354:174,1,90,8|0,0:0|0:0,0:0:0:0:
166,148,15393,2,0,P|131:120|87:111,1,90
127,327,15643,5,8,1:0:0:0:
140,300,15726,1,0,0:0:0:0:
160,278,15809,1,8,1:0:0:0:
186,263,15893,1,0,0:0:0:0:
185,235,15976,6,0,B|194:236|194:236|186:222|186:222|170:236|170:236|106:232,1,112.5,2|0,0:0|0:0,0:0:0:0:
29,202,16226,2,0,B|18:200|18:200|29:187|29:187|42:204|42:204|107:207,1,112.5
249,156,16476,6,0,B|259:156|259:156|250:142|250:142|234:156|234:156|161:152,1,121.500000463486,8|0,0:0|0:0,0:0:0:0:
11,95,16726,2,0,B|0:93|0:93|11:80|11:80|24:97|24:97|98:102,1,121.500000463486
273,70,16976,6,0,B|286:71|286:71|275:57|275:57|263:71|263:71|168:65,1,144
204,153,17226,1,0,0:0:0:0:
249,156,17310,6,0,B|266:157|266:157|293:215|293:215|259:267|259:267|244:266,1,157.500001502037,2|0,0:0|0:0,0:0:0:0:
349,305,17560,2,0,B|332:303|332:303|382:219|382:219|346:133|346:133|362:134,1,225
399,369,17810,6,0,B|375:384|375:384|227:369|227:369|207:352,1,202.500007724762,8|0,0:0|0:0,0:0:0:0:
171,66,18060,2,0,B|221:69|221:69|250:49|250:49|402:60|402:60|426:83,1,270.000010299683
512,7,18310,5,8,0:0:0:0:
509,60,18393,1,0,0:0:0:0:
507,113,18476,1,8,0:0:0:0:
503,167,18559,1,0,0:0:0:0:
499,221,18644,5,2,0:0:0:0:
290,261,18810,1,0,0:0:0:0:
427,178,18976,1,8,0:0:0:0:
216,218,19143,1,0,0:0:0:0:
146,24,19310,5,2,0:0:0:0:
58,300,19476,1,0,0:0:0:0:
206,125,19643,1,8,0:0:0:0:
0,202,19810,1,0,0:0:0:0:
460,212,19976,5,2,0:0:0:0:
175,207,20143,2,0,L|218:225,1,45
429,295,20310,1,8,0:0:0:0:
206,125,20476,1,0,0:0:0:0:
460,212,20643,2,0,L|416:195,1,45,2|0,0:0|0:0,0:0:0:0:
80,300,20810,5,0,0:0:0:0:
108,10,20976,1,8,0:0:0:0:
185,245,21143,1,0,0:0:0:0:
108,104,21310,5,0,0:0:0:0:
111,95,21393,1,0,0:0:0:0:
117,82,21476,1,0,0:0:0:0:
129,69,21560,1,0,0:0:0:0:
145,54,21643,1,8,0:0:0:0:
166,37,21726,1,0,0:0:0:0:
197,26,21810,1,0,0:0:0:0:
231,21,21893,1,0,0:0:0:0:
246,58,21976,5,0,0:0:0:0:
291,54,22060,1,0,0:0:0:0:
339,67,22143,1,0,0:0:0:0:
381,99,22226,1,0,0:0:0:0:
410,151,22310,1,8,0:0:0:0:
414,214,22393,1,0,0:0:0:0:
387,274,22476,1,8,0:0:0:0:
328,319,22560,1,0,0:0:0:0:
252,342,22643,6,0,P|222:348|177:345,1,67.5000025749208,2|0,2:0|2:0,2:0:0:0:
80,275,22893,2,0,P|110:278|154:271,1,67.5000025749208,0|0,2:0|2:0,0:0:0:0:
295,225,23143,6,0,L|216:245,1,67.5000025749208,0|0,2:0|2:0,2:0:0:0:
22,205,23393,2,0,L|88:194,1,67.5000025749208,0|0,2:0|2:0,2:0:0:0:
110,188,23643,1,0,2:0:0:0:
131,177,23726,1,0,2:0:0:0:
158,156,23810,1,8,2:0:0:0:
182,112,23893,1,0,3:0:0:0:
189,50,23976,6,0,L|178:139,1,90,6|0,0:0|0:0,0:0:0:0:
182,112,24310,6,0,B|252:119|252:119|271:114,1,90,8|0,0:0|0:0,0:0:0:0:
383,109,24476,2,0,B|313:102|313:102|293:106,1,90
132,171,24643,6,0,P|183:189|234:167,1,112.5,2|0,0:0|0:0,0:0:0:0:
432,49,24810,2,0,P|380:31|329:52,1,112.5
254,189,24976,5,8,0:0:0:0:
254,189,25060,1,8,0:0:0:0:
243,194,25143,6,0,L|254:151,1,45,8|0,0:0|0:0,0:0:0:0:
284,268,25310,6,0,B|296:286|296:286|271:372|271:372|248:377,1,135.000005149842,2|0,0:0|0:0,0:0:0:0:
134,344,25476,2,0,B|122:326|122:326|147:240|147:240|169:234,1,135.000005149842
343,299,25643,6,0,B|299:306|299:306|260:295|260:295|211:304,1,135.000005149842,8|0,0:0|0:0,0:0:0:0:
78,308,25810,2,0,B|123:302|123:302|162:313|162:313|211:304,1,135.000005149842
420,269,25976,6,0,B|432:289|432:289|424:309,1,45,2|0,0:0|0:0,0:0:0:0:
359,378,26143,6,0,P|302:368|268:320,1,120
299,114,26310,6,0,B|297:149|297:149|314:179|314:179|306:289,1,180.000006866455,8|0,0:0|0:0,0:0:0:0:
120,251,26476,2,0,B|127:140|127:140|110:110|110:110|112:75,1,180.000006866455,8|0,0:0|0:0,0:0:0:0:
217,208,26643,6,0,L|207:343,1,135.000005149842
192,80,26976,6,2,B|219:45|259:66|259:66|299:51|325:84|325:84|370:86|383:130|383:130|424:148|416:192|416:192|424:192|424:192|424:208|424:208|432:208|432:208|424:216|424:216|432:216|432:216|424:224|424:224|432:224|432:224|424:232|424:232|432:232|432:232|424:240|424:240|432:240|432:240|424:248|424:248|424:270,1,450.000017166138,2|0,0:0|3:0,0:0:0:0:
512,344,27310,6,2,B|480:344|480:344|464:360|464:360|384:360|384:360|344:320|344:320|264:320,1,270.000010299683,2|2,0:0|3:0,0:0:0:0:
192,368,27560,2,2,B|144:368|144:368|128:384|128:384|48:384|48:384|24:360,1,180,2|2,0:0|3:0,0:0:0:0:
11,283,27810,6,0,P|-3:266|0:244,1,45,0|0,0:0|2:0,0:0:0:0:
45,169,28060,1,0,2:0:0:0:
45,169,28143,6,0,P|61:155|83:158,1,45
159,203,28310,6,0,P|173:220|170:242,1,45,8|0,0:0|0:0,0:0:0:0:
125,317,28476,6,0,P|108:330|86:327,1,45
85,243,28643,6,0,B|110:236|110:236|113:243|113:243|134:229|134:229|144:234|144:234|159:214|159:214|168:222|168:222|174:196|174:196|184:202|184:202|182:174|182:174|192:179|192:179|182:145|182:145|195:148|195:148|176:120|176:120|203:123|203:123|145:129|169:32|229:26|229:26|240:31|240:31|242:12|242:12|252:27|252:27|255:14|255:14|263:23|263:23|265:16|265:16|273:21|273:21|281:16|281:16|295:35|313:27|313:27|325:23|325:23|331:28|331:28|337:18|337:18|341:31|341:31|351:13|351:13|353:36|353:36|365:8|365:8|368:43|368:43|380:2|380:2|386:23|386:23|441:-6|491:40|481:86,1,945.000036048891,2|0,0:0|0:0,0:0:0:0:
406,288,29310,6,0,B|422:324|422:324|475:214|426:179,1,180,2|0,3:0|0:0,0:0:0:0:
109,96,29643,6,0,B|123:81|144:123|159:168,1,90,8|0,0:0|0:0,0:0:0:0:
229,297,29810,2,0,B|214:311|193:269|181:231,1,90
213,30,29976,6,0,B|198:21|198:21|187:104,1,90,2|0,0:0|0:0,0:0:0:0:
128,366,30143,2,0,B|142:374|142:374|153:291,1,90
80,214,30310,5,8,0:0:0:0:
67,215,30393,1,8,0:0:0:0:
55,216,30476,2,0,L|37:217,1,18,8|0,0:0|0:0,0:0:0:0:
462,128,30643,6,0,B|439:122|439:122|365:150|365:150|334:144,1,112.5,2|0,0:0|0:0,0:0:0:0:
216,246,30810,2,0,B|238:251|238:251|312:223|312:223|343:229,1,112.5
512,243,30976,6,0,B|524:252|524:252|450:265|407:212,1,146.250004184246,8|0,0:0|0:0,0:0:0:0:
169,125,31143,2,0,B|156:115|156:115|230:102|273:155,1,146.250004184246
473,324,31310,6,0,B|490:295|490:295|430:287|369:287,1,146.250004184246,2|0,0:0|0:0,0:0:0:0:
145,300,31476,6,0,B|139:325|139:325|151:353,1,45
306,305,31643,6,0,B|260:320|260:320|206:321,1,90,8|0,0:0|3:0,0:0:0:0:
439,225,31810,2,0,B|393:210|393:210|339:209,1,90,8|0,0:0|3:0,0:0:0:0:
139,251,31976,6,0,B|157:217|157:217|137:149|137:149|149:114,1,135.000005149842,2|0,0:0|0:0,0:0:0:0:
225,20,32226,2,0,B|207:54|207:54|227:122|227:122|215:157,1,135.000005149842
69,189,32476,6,0,P|55:150|71:101,1,90,8|0,0:0|0:0,0:0:0:0:
296,84,32726,2,0,P|309:122|293:171,1,90
141,57,32976,6,0,L|146:135,1,67.5000025749208,0|0,3:0|3:0,3:0:0:0:
412,237,33310,6,0,P|362:229|305:328,1,135.000005149842,2|0,0:0|0:0,0:0:0:0:
137,262,33560,2,0,P|186:269|243:170,1,135.000005149842
355,341,33810,6,0,B|316:368|316:368|258:345,1,90,8|0,0:0|0:0,0:0:0:0:
194,161,34060,2,0,B|234:132|234:132|295:155,1,90
295,162,34310,1,8,0:0:0:0:
311,197,34393,1,0,0:0:0:0:
315,248,34476,1,8,0:0:0:0:
282,305,34560,1,0,0:0:0:0:
212,319,34643,6,0,L|203:230,1,90,6|0,0:0|0:0,0:0:0:0:
89,180,34976,6,0,B|115:191|115:191|139:182,1,53.9999983520508,8|0,0:0|0:0,0:0:0:0:
208,150,35143,2,0,B|180:146|180:146|158:160,1,53.9999983520508
13,291,35310,6,0,P|11:307|23:319,1,33.7500012874604,2|0,0:0|0:0,0:0:0:0:
32,268,35393,2,0,P|18:257|3:262,1,33.7500012874604
53,284,35476,6,0,P|113:252|85:189,1,150,0|0,0:0|3:0,0:0:0:0:
35,125,35643,6,2,B|30:80|30:80|115:112|115:112|206:106|206:106|186:144,1,270,8|0,0:0|0:0,0:0:0:0:
155,215,35976,6,0,P|150:258|185:283,1,90,2|0,0:0|0:0,0:0:0:0:
274,120,36143,1,0,0:0:0:0:
282,138,36226,1,0,0:0:0:0:
296,143,36310,6,0,P|327:132|345:103,1,67.5000025749208,8|0,0:0|0:0,0:0:0:0:
197,27,36476,2,0,L|129:31,1,67.5000025749208
35,125,36643,6,0,L|34:143,1,22.5,2|0,0:0|0:0,0:0:0:0:
275,39,36810,2,0,L|271:61,1,22.5
35,125,36976,6,0,L|79:120,1,45,8|0,0:0|0:0,0:0:0:0:
134,288,37143,2,0,L|128:332,1,45,8|0,0:0|0:0,0:0:0:0:
47,196,37310,6,0,B|69:197|88:213|88:213|110:203|132:209,1,90,2|0,2:0|0:0,0:0:0:0:
204,246,37476,2,0,B|218:262|220:287|220:287|243:295|255:315,1,90,2|0,2:0|0:0,0:0:0:0:
331,346,37643,2,0,B|367:341|396:364|396:364|412:331|447:326,1,135.000005149842,2|0,3:0|0:0,0:0:0:0:
500,224,37893,1,0,0:0:0:0:
496,248,37976,6,0,L|361:248,1,135.000005149842,2|0,1:0|0:0,0:0:0:0:
288,320,38143,2,0,L|220:320,1,67.5000025749208,2|0,1:0|0:0,0:0:0:0:
160,384,38310,2,0,L|25:384,1,135.000005149842,2|0,2:0|0:0,0:0:0:0:
24,288,38560,1,0,0:0:0:0:
48,287,38643,6,0,B|64:255|64:255|56:224,1,67.5000025749208,2|0,0:0|0:0,0:0:0:0:
185,357,38810,2,0,B|169:325|169:325|177:294,1,67.5000025749208
236,192,38976,6,0,B|270:146|270:146|258:91,1,112.5,8|0,0:0|0:0,0:0:0:0:
471,280,39143,2,0,B|437:234|437:234|449:180,1,112.5
330,197,39310,6,0,L|363:202,1,33.7500012874604,2|0,0:0|0:0,0:0:0:0:
379,125,39476,2,0,L|345:119,1,33.7500012874604
178,132,39643,5,8,0:0:0:0:
142,135,39726,1,0,0:0:0:0:
106,138,39810,1,8,0:0:0:0:
70,141,39893,1,0,0:0:0:0:
0,201,39976,6,0,L|7:300,1,90,2|0,3:0|3:0,3:0:0:0:
305,274,40310,6,0,B|261:292|261:292|240:290,1,67.5000025749208,8|0,0:0|0:0,0:0:0:0:
83,273,40476,2,0,B|126:255|126:255|147:259,1,67.5000025749208
305,274,40643,6,0,L|298:240,1,33.7500012874604,2|0,0:0|0:0,0:0:0:0:
326,259,40726,2,0,L|333:293,1,33.7500012874604
343,246,40810,6,0,B|370:218|362:174|362:174|331:155|331:155|271:169,1,150
207,180,40976,6,0,B|175:177|148:110|148:110|72:188|12:164|12:164|26:140,1,270,2|0,3:0|0:0,0:0:0:0:
97,34,41310,6,0,P|77:73|38:87,1,67.5000025749208,2|0,0:0|0:0,0:0:0:0:
343,42,41476,1,0,0:0:0:0:
326,44,41559,1,0,0:0:0:0:
309,46,41643,6,0,L|243:53,1,45,8|0,0:0|0:0,0:0:0:0:
148,110,41810,2,0,L|191:99,1,45
449,28,41976,6,0,B|466:23|466:23|464:58|438:124,1,90,2|0,0:0|0:0,0:0:0:0:
461,257,42143,2,0,B|478:261|478:261|476:226|450:160,1,90
343,42,42310,1,8,0:0:0:0:
345,59,42393,1,0,0:0:0:0:
347,76,42477,2,0,L|354:142,1,45,8|0,0:0|0:0,0:0:0:0:
411,330,42643,6,0,B|388:310|376:287|376:287|348:296|320:295,1,112.5,2|0,3:0|0:0,0:0:0:0:
104,323,42810,2,0,B|126:342|138:365|138:365|166:356|194:357,1,112.5,2|0,3:0|0:0,3:0:0:0:
373,210,42976,6,0,B|383:180|383:180|342:190|294:194|294:194|253:187|219:172|219:172|214:197,1,225,8|0,3:0|3:0,3:0:0:0:
210,288,43226,1,0,0:0:0:0:
209,307,43310,2,2,B|199:324|199:324|184:288|153:274|153:274|161:233,1,112.5,6|2,0:0|0:0,0:0:0:0:
298,114,43476,6,0,B|296:77|296:77|272:38,1,67.5000025749208
10,102,43643,6,2,B|25:97|25:97|59:105|100:119|100:119|117:104,1,112.5
302,194,43810,2,0,B|283:193|283:193|244:177|210:165|210:165|198:177,1,112.5,2|0,0:0|0:0,0:0:0:0:
2,278,43976,6,0,B|-22:251|36:254|73:271,1,90,0|0,3:0|3:0,3:0:0:0:
176,319,44226,2,0,B|205:337|147:349|107:343,1,90,0|0,3:0|3:0,3:0:0:0:
222,259,44476,6,0,B|259:277|287:303|287:303|285:313,1,90,0|0,2:0|2:0,2:0:0:0:
396,300,44726,2,0,B|360:279|335:251|335:251|341:227,1,90,0|0,2:0|2:0,2:0:0:0:
352,213,44976,1,2,3:0:0:0:
384,199,45060,1,0,3:0:0:0:
433,199,45143,1,8,3:0:0:0:
483,236,45226,1,4,3:0:0:0:
489,309,45310,6,0,B|442:330|442:330|421:163|421:163|496:134|496:134|505:214|505:214|284:304|284:304|263:139|263:139|75:214|75:214|85:296|85:296|344:192,1,1350,4|0,2:0|2:0,2:0:0:0:
325,6,47976,6,0,B|335:88|335:88|158:44|158:44|153:6|153:6|408:71|408:71|416:133,1,630,0|0,2:0|2:0,2:0:0:0:
330,283,49310,6,0,B|323:327|323:327|246:337|246:337|256:241|256:241|165:218|165:218|145:373|145:373|36:389|36:389|44:338,1,630,0|0,2:0|2:0,2:0:0:0:
52,103,50643,6,0,B|23:137|23:137|29:226|29:226|66:254,1,180
263,250,51143,2,0,B|291:216|291:216|285:127|285:127|248:99,1,180
98,157,51643,6,0,B|99:189|99:189|140:214|140:214|143:270,1,135
215,195,52143,2,0,B|213:162|213:162|173:137|173:137|170:81,1,135
388,270,52643,6,0,B|342:278|342:278|316:313,1,90
216,271,52976,2,0,B|260:263|260:263|297:214,1,90
454,139,53310,6,0,B|413:147|413:147|346:73|346:73|307:75,1,180
187,143,53810,2,0,B|217:167|217:167|314:146|314:146|342:177,1,180,0|0,0:0|0:0,0:0:0:0:
309,1,54310,6,0,B|245:22|245:22|232:98,1,135.000005149842
344,255,54810,2,0,B|407:233|407:233|420:157,1,135.000005149842
179,246,55310,6,0,P|226:244|272:223,1,90
57,303,55643,2,0,P|104:305|150:326,1,90
86,138,55976,6,0,L|89:182,1,45
73,208,56310,1,0,0:0:0:0:
152,245,56476,2,0,L|155:289,1,45
139,315,56810,1,0,0:0:0:0:
63,335,56976,6,0,P|40:333|20:324,1,45
139,315,57310,1,0,0:0:0:0:
196,368,57476,2,0,P|216:376|238:378,1,45
63,335,57810,1,0,0:0:0:0:
316,368,57976,1,0,0:0:0:0:
152,245,58143,1,0,0:0:0:0:
196,368,58310,1,0,0:0:0:0:
360,245,58476,1,0,0:0:0:0:
449,335,58643,6,0,P|471:333|491:324,1,45
373,315,58976,1,0,0:0:0:0:
316,368,59143,2,0,P|295:376|273:378,1,45
373,315,59476,1,0,0:0:0:0:
360,245,59643,6,0,L|356:289,1,45
426,138,59976,2,0,L|422:182,1,45
439,208,60310,1,0,0:0:0:0:
256,104,60476,2,0,L|256:149,1,45
256,224,60810,1,0,0:0:0:0:
86,138,60976,2,0,L|90:182,1,45
328,324,61310,6,0,L|278:320,1,45
202,311,61643,1,0,0:0:0:0:
336,249,61810,2,0,L|386:253,1,45
462,261,62143,1,0,0:0:0:0:
320,56,62310,6,0,P|321:86|315:110,1,45
281,174,62643,1,0,0:0:0:0:
160,200,62810,2,0,P|185:184|209:177,1,45
336,249,63143,1,0,0:0:0:0:
320,56,63310,1,0,0:0:0:0:
160,200,63476,1,0,0:0:0:0:
322,84,63643,1,0,0:0:0:0:
489,173,63809,1,0,0:0:0:0:
160,200,63976,6,0,L|169:271,1,67.5000025749208
179,341,64310,1,0,0:0:0:0:
100,146,64476,2,0,L|84:215,1,67.5000025749208
73,285,64810,1,0,0:0:0:0:
57,82,64976,2,0,L|16:141,1,67.5000025749208
108,356,65310,6,0,P|136:334|150:303,1,67.5000025749208
129,233,65643,1,0,0:0:0:0:
144,113,65810,2,0,P|115:134|101:165,1,67.5000025749208
236,208,66143,1,0,0:0:0:0:
201,60,66310,2,0,P|170:40|137:37,1,67.5000025749208
57,277,66643,5,4,0:0:0:0:
93,248,66726,1,0,0:0:0:0:
139,244,66810,1,0,0:0:0:0:
182,267,66893,1,0,0:0:0:0:
177,281,66976,6,0,B|200:274|200:274|264:287,1,90,8|0,0:0|0:0,0:0:0:0:
341,270,67226,1,0,0:0:0:0:
395,331,67310,5,0,0:0:0:0:
428,311,67393,1,0,0:0:0:0:
443,279,67476,1,0,0:0:0:0:
446,245,67560,1,0,0:0:0:0:
384,202,67643,6,0,L|379:157,1,45,8|0,0:0|0:0,0:0:0:0:
493,173,67810,2,0,L|488:128,1,45,8|0,0:0|0:0,0:0:0:0:
335,89,67976,5,2,0:0:0:0:
492,36,68143,1,0,0:0:0:0:
399,21,68310,5,8,0:0:0:0:
353,169,68476,1,0,0:0:0:0:
245,61,68643,2,0,P|201:50|157:58,1,90
72,156,68893,1,0,0:0:0:0:
83,174,68976,2,0,L|78:218,1,45,8|0,0:0|0:0,0:0:0:0:
197,135,69143,2,0,L|192:179,1,45,8|0,0:0|0:0,0:0:0:0:
152,256,69310,6,0,B|163:302|163:302|138:337,1,90,4|0,2:0|0:0,0:0:0:0:
119,342,69560,1,0,0:0:0:0:
100,347,69643,2,0,L|55:339,1,45,8|0,0:0|0:0,0:0:0:0:
178,251,69810,2,0,L|223:259,1,45
287,317,69976,5,0,0:0:0:0:
330,329,70059,1,0,0:0:0:0:
374,321,70142,1,0,0:0:0:0:
408,292,70225,1,0,0:0:0:0:
397,275,70310,6,0,P|404:253|400:231,1,45,8|0,0:0|0:0,0:0:0:0:
313,185,70476,1,0,0:0:0:0:
294,196,70560,1,0,0:0:0:0:
272,198,70643,6,0,P|246:161|254:118,1,90
409,23,70976,2,0,L|396:66,1,45,8|0,0:0|0:0,0:0:0:0:
404,95,71143,2,0,L|493:107,1,90
323,251,71476,1,0,0:0:0:0:
323,251,71560,1,0,0:0:0:0:
323,251,71643,2,0,L|233:238,1,90,8|8,0:0|0:0,0:0:0:0:
31,197,71976,5,4,2:0:0:0:
75,193,72059,1,0,0:0:0:0:
114,171,72142,1,0,0:0:0:0:
139,134,72225,1,0,0:0:0:0:
145,88,72310,6,0,B|175:110|175:110|185:134|185:134|214:151,1,90,8|0,0:0|0:0,0:0:0:0:
280,201,72560,1,0,0:0:0:0:
343,137,72643,5,0,0:0:0:0:
385,151,72726,1,0,0:0:0:0:
415,183,72809,1,0,0:0:0:0:
426,226,72892,1,0,0:0:0:0:
323,268,72976,6,0,L|367:275,1,45,8|0,0:0|0:0,0:0:0:0:
512,298,73143,2,0,L|467:290,1,45
394,362,73310,5,0,0:0:0:0:
512,172,73476,1,0,0:0:0:0:
248,301,73643,1,8,0:0:0:0:
394,268,73810,1,0,0:0:0:0:
282,92,73976,6,0,P|293:133|295:186,1,90
131,229,74226,1,0,0:0:0:0:
136,207,74310,2,0,L|198:189,1,45,8|0,0:0|0:0,0:0:0:0:
325,80,74476,2,0,L|281:91,1,45,8|0,0:0|0:0,0:0:0:0:
52,149,74643,6,0,B|57:168|57:168|81:138|89:89,1,90,4|0,2:0|0:0,0:0:0:0:
90,82,74893,1,0,0:0:0:0:
86,59,74976,2,0,L|72:3,1,45,8|0,0:0|0:0,0:0:0:0:
177,69,75143,2,0,L|187:112,1,45
251,228,75310,5,0,0:0:0:0:
205,226,75393,1,0,0:0:0:0:
162,239,75476,1,0,0:0:0:0:
124,264,75559,1,0,0:0:0:0:
90,294,75643,6,0,B|76:314|76:314|101:332,1,45,8|0,0:0|0:0,0:0:0:0:
298,293,75810,1,0,0:0:0:0:
275,295,75893,1,0,0:0:0:0:
254,303,75976,6,0,P|227:347|262:392,1,90
489,302,76310,2,0,L|433:290,1,45,8|0,0:0|0:0,0:0:0:0:
373,278,76476,2,0,B|407:286|407:286|444:245|444:245|479:248,1,112.5
250,235,76810,1,0,0:0:0:0:
250,235,76893,1,0,0:0:0:0:
250,235,76976,2,0,B|328:197|328:197|361:200,1,112.5,8|8,0:0|0:0,0:0:0:0:
83,110,77310,6,0,B|97:93|97:93|114:100|129:88|129:88|147:95|163:87|163:87|178:98|197:95|197:95|207:110|226:108|226:108|235:124,1,180,6|4,0:0|2:0,2:0:0:0:
396,326,77643,6,0,B|412:342|412:342|479:333,1,90,8|0,0:0|0:0,0:0:0:0:
314,127,77976,6,0,P|336:120|358:124,1,45,2|2,2:0|2:0,2:0:0:0:
323,160,78060,2,2,P|343:170|356:188,1,45,2|2,2:0|2:0,2:0:0:0:
307,189,78143,2,0,P|314:210|310:232,1,45,2|2,2:0|2:0,2:0:0:0:
276,198,78226,2,0,P|267:217|248:230,1,45,0|0,2:0|2:0,2:0:0:0:
247,214,78310,6,0,L|157:204,1,90,4|4,0:0|0:0,0:0:0:0:
36,274,78476,2,0,L|125:283,1,90
261,236,78643,6,0,P|284:199|274:156,1,90
99,257,78810,2,0,P|75:294|85:337,1,90
262,327,78976,6,0,B|305:310|305:310|299:321|299:321|353:315|353:315|336:322|336:322|395:329|395:329|374:333|374:333|405:338|423:359,1,270.000010299683,2|0,0:0|0:0,0:0:0:0:
492,316,79226,1,0,0:0:0:0:
502,331,79310,6,0,P|516:305|511:276,1,60,4|0,0:0|0:0,0:0:0:0:
451,141,79476,6,0,P|405:106|347:112,1,120
222,65,79643,6,0,B|235:29|197:8|172:33|172:33|161:74|201:68|156:40|131:51|131:51|107:82|138:77|101:48|85:63|85:63|83:73|83:73|61:57|51:61,1,270,4|0,0:0|0:0,0:0:0:0:
24,152,79976,6,2,B|0:176|24:216|56:208|56:208|64:200|64:200|80:200|88:208|88:208|96:200|96:192|96:192|112:200|120:216|120:216|136:208|136:184|136:184|168:208|176:240|176:240|200:208|200:168|200:168|256:136|256:136|272:144|272:144|280:136|280:128|280:128|296:128|296:144|296:144|304:128|304:112|304:112|320:128|320:144|320:144|360:160|401:120|386:79,1,675.000025749208
456,24,80476,6,2,B|464:8|464:8|472:72|472:72|480:64|480:64|472:128|472:128|480:120|480:120|464:184|464:184|472:184|472:184|440:232|440:232|448:232|448:232|400:272|400:272|408:280|408:280|384:280,1,405.000015449525
321,343,80810,6,0,B|310:256|310:256|270:232,1,135.000005149842
81,340,80976,6,2,B|8:332|8:332|15:346,1,90,2|0,0:0|0:0,0:0:0:0:
225,352,81226,1,0,0:0:0:0:
246,356,81310,6,0,L|240:311,1,45
24,260,81476,2,0,L|18:215,1,45
158,371,81643,6,2,B|169:354|161:333|161:333|157:336|157:336|166:314|166:294|166:294|159:296|159:296|168:278|171:258|171:258|162:258|162:258|172:240|177:220|177:220|163:219|163:219|172:210|176:197,1,225,2|0,0:0|0:0,0:0:0:0:
198,13,81893,1,0,0:0:0:0:
180,22,81976,6,2,L|139:40,1,45,2|2,2:0|2:0,2:0:0:0:
178,55,82060,2,2,L|162:97,1,45,2|2,2:0|2:0,2:0:0:0:
199,79,82143,2,2,L|217:119,1,45,2|2,2:0|2:0,2:0:0:0:
230,81,82226,2,0,L|272:96,1,45,0|0,2:0|2:0,2:0:0:0:
247,72,82310,6,2,B|285:44|339:96|319:127|319:127|297:94|345:15|428:71|398:122|398:122|439:95|472:129|460:169,1,405.000015449525
400,318,82643,6,0,B|389:335|389:335|392:301|387:285|387:285|376:256|376:256|388:267|388:267|386:240|386:240|372:187,1,180,2|4,2:0|2:0,2:0:0:0:
322,24,82976,2,0,B|331:49|331:49|319:100|302:116,1,90
81,235,83310,2,2,P|59:241|38:237,1,45,2|2,2:0|2:0,2:0:0:0:
81,199,83393,2,2,P|61:188|49:169,1,45,2|2,2:0|2:0,2:0:0:0:
98,165,83476,2,2,P|90:143|95:121,1,45,2|2,2:0|2:0,2:0:0:0:
128,142,83560,2,0,P|143:125|164:119,1,45,0|0,2:0|2:0,2:0:0:0:
185,144,83643,6,0,B|198:152|198:152|286:139,1,90,8|0,0:0|0:0,0:0:0:0:
362,226,83810,2,0,B|288:215|288:215|275:223,1,90
206,65,83976,6,0,B|244:81|244:81|278:171,1,90
341,305,84143,2,0,B|302:288|302:288|268:198,1,90
317,58,84310,6,0,B|313:41|313:41|353:33|353:33|336:40|336:40|387:28|387:28|369:37|369:37|422:26|422:26|402:35|402:35|447:28|447:28|468:28,1,270.000010299683,8|0,0:0|0:0,0:0:0:0:
185,144,84560,1,0,0:0:0:0:
170,152,84643,6,0,P|161:182|182:209,1,60,2|0,0:0|0:0,0:0:0:0:
493,185,84810,6,0,B|484:190|484:190|397:156|357:184,1,120
112,283,84976,6,0,B|132:269|132:269|164:280|164:280|142:264|142:264|207:284|233:304|233:304|255:277|255:277|268:307|268:307|298:321,1,270.000010299683,8|0,0:0|0:0,0:0:0:0:
295,83,85226,1,0,0:0:0:0:
283,96,85310,6,0,B|277:104|277:104|307:169|288:185,1,90,2|0,0:0|0:0,0:0:0:0:
282,195,85560,1,0,0:0:0:0:
266,202,85643,2,0,L|216:213,1,45
134,146,85810,2,0,L|177:136,1,45
443,79,85976,1,0,0:0:0:0:
402,63,86059,1,0,0:0:0:0:
366,87,86142,1,0,0:0:0:0:
366,130,86225,1,0,0:0:0:0:
400,155,86310,6,0,B|423:160|423:160|463:139,1,45
280,83,86476,1,0,0:0:0:0:
277,105,86559,1,0,0:0:0:0:
280,127,86643,6,0,P|277:176|252:211,1,90,2|0,0:0|0:0,2:0:0:0:
143,328,86976,2,0,L|133:285,1,45
110,207,87143,2,0,B|105:195|105:195|31:178,1,90,8|0,0:0|0:0,0:0:0:0:
174,146,87310,5,0,2:0:0:0:
89,107,87476,1,0,2:0:0:0:
289,181,87643,1,2,3:0:0:0:
277,155,87726,1,0,3:0:0:0:
262,121,87810,1,8,3:0:0:0:
242,79,87893,1,8,3:0:0:0:
217,16,87976,5,6,3:0:0:0:
257,0,88060,1,0,3:0:0:0:
273,16,88143,1,0,3:0:0:0:
313,0,88226,1,0,3:0:0:0:
329,16,88310,1,0,3:0:0:0:
369,0,88393,1,0,3:0:0:0:
385,16,88476,2,2,P|445:42|466:104,1,135.000005149842,2|0,1:0|1:0,1:0:0:0:
376,176,88643,5,0,3:0:0:0:
344,144,88726,1,0,3:0:0:0:
296,152,88810,1,0,3:0:0:0:
256,128,88893,1,0,3:0:0:0:
216,152,88976,1,0,3:0:0:0:
168,144,89060,1,0,3:0:0:0:
136,176,89143,1,0,3:0:0:0:
88,176,89226,1,0,3:0:0:0:
64,215,89310,6,2,P|12:241|2:184,1,135.000005149842,2|0,0:0|0:0,0:0:0:0:
42,57,89476,1,0,3:0:0:0:
62,95,89560,1,0,3:0:0:0:
106,100,89643,1,0,3:0:0:0:
137,67,89726,1,0,3:0:0:0:
123,24,89810,6,2,P|184:7|216:62,1,135.000005149842,2|0,0:0|0:0,0:0:0:0:
194,224,89976,2,2,P|220:259|264:258,1,90.0000034332277,2|0,0:0|2:0,0:0:0:0:
385,144,90143,2,2,P|469:156|489:239,1,180.000006866455,2|0,0:0|0:0,0:0:0:0:
474,378,90310,6,0,P|478:334|448:301,1,90
384,352,90477,2,0,L|296:336,1,90
81,324,90643,6,0,L|86:345,1,22.5,0|0,3:0|3:0,3:0:0:0:
219,353,90810,2,0,L|224:374,1,22.5,0|0,3:0|3:0,3:0:0:0:
336,222,90976,6,0,L|328:267,1,45,0|0,3:0|3:0,3:0:0:0:
167,245,91143,2,0,L|159:290,1,45,0|0,3:0|3:0,3:0:0:0:
32,60,91310,6,0,L|48:148,1,90
228,89,91476,2,0,L|244:177,1,90
70,110,91643,6,0,B|159:126|159:126|183:110,1,120,0|0,3:0|3:0,3:0:0:0:
249,57,91810,2,0,B|338:73|338:73|362:57,1,120,0|0,3:0|3:0,3:0:0:0:
428,4,91976,6,0,B|428:100|428:100|444:140|444:140|433:179,1,180,0|0,3:0|3:0,3:0:0:0:
416,280,92226,1,0,0:0:0:0:
424,256,92310,6,0,B|488:256|488:256|510:270,1,90,0|0,3:0|3:0,3:0:0:0:
352,312,92476,1,0,0:0:0:0:
344,336,92560,1,0,0:0:0:0:
336,360,92643,6,0,B|272:360|272:360|250:374,1,90,0|0,3:0|3:0,3:0:0:0:
168,360,92810,2,0,B|104:360|104:360|82:374,1,90,0|0,3:0|3:0,3:0:0:0:
0,360,92976,5,2,3:0:0:0:
0,312,93060,1,0,3:0:0:0:
0,264,93143,1,8,3:0:0:0:
0,216,93226,1,8,3:0:0:0:
65,162,93310,6,0,B|96:152|133:114|133:114|130:145|130:145|137:130|137:130|133:162|133:162|159:170|172:207|170:238|170:238|146:216,1,270.000010299683,4|0,3:0|0:0,0:0:0:0:
212,128,93560,1,0,3:0:0:0:
226,111,93643,2,0,L|284:121,1,45,0|0,3:0|3:0,3:0:0:0:
512,158,93810,2,2,B|517:138|481:115|392:139,1,135.000005149842,2|0,0:0|0:0,0:0:0:0:
243,267,93976,5,0,3:0:0:0:
274,254,94059,1,0,3:0:0:0:
307,250,94142,1,0,3:0:0:0:
340,254,94225,1,0,3:0:0:0:
351,286,94310,1,0,3:0:0:0:
391,280,94393,1,0,3:0:0:0:
432,286,94476,1,0,3:0:0:0:
468,300,94559,1,0,3:0:0:0:
471,330,94643,6,2,P|517:288|487:233,1,135.000005149842,2|0,0:0|0:0,0:0:0:0:
184,311,94810,5,0,3:0:0:0:
173,279,94893,1,0,3:0:0:0:
207,255,94976,1,0,3:0:0:0:
209,221,95059,1,0,3:0:0:0:
140,190,95143,6,2,B|111:170|111:170|250:133,1,135.000005149842,2|0,0:0|0:0,0:0:0:0:
478,135,95310,6,0,B|468:133|468:133|420:154|420:154|408:151,1,75,0|0,3:0|3:0,3:0:0:0:
209,31,95476,2,0,B|216:57|216:57|267:99|267:99|274:118,1,112.5,0|0,3:0|3:0,3:0:0:0:
303,270,95643,6,0,B|288:228|308:197|308:197|340:179,1,112.5
478,244,95810,2,0,B|464:256|464:256|384:254|384:254|371:243,1,112.5
336,2,95976,6,0,P|350:47|351:100,1,90,0|0,3:0|3:0,3:0:0:0:
340,179,96310,1,0,0:0:0:0:
310,360,96476,2,0,P|295:314|294:261,1,90,0|0,3:0|3:0,3:0:0:0:
368,178,96810,1,0,0:0:0:0:
169,83,96976,2,0,L|158:146,1,45,8|0,0:0|0:0,0:0:0:0:
196,264,97143,2,0,L|203:219,1,45,8|0,0:0|0:0,0:0:0:0:
394,191,97310,6,0,P|441:214|471:246,1,90,2|0,1:0|0:0,0:0:0:0:
329,88,97560,1,0,0:0:0:0:
324,106,97643,2,0,P|324:131|336:156,1,45,8|0,0:0|0:0,0:0:0:0:
409,291,97810,2,0,P|391:273|365:262,1,45,8|0,0:0|0:0,0:0:0:0:
144,286,97976,5,0,2:0:0:0:
271,315,98143,1,0,0:0:0:0:
66,242,98310,5,0,0:0:0:0:
224,206,98477,1,0,0:0:0:0:
184,16,98643,5,6,0:0:0:0:
256,48,98810,1,0,0:0:0:0:
328,16,98977,1,8,0:0:0:0:
168,32,99143,5,0,0:0:0:0:
256,64,99310,1,0,0:0:0:0:
344,32,99476,1,0,0:0:0:0:
104,120,99643,5,8,0:0:0:0:
256,96,99810,1,0,0:0:0:0:
408,120,99976,1,2,0:0:0:0:
160,216,100143,5,0,0:0:0:0:
256,144,100310,1,8,0:0:0:0:
352,216,100476,1,0,0:0:0:0:
72,208,100643,5,0,0:0:0:0:
256,232,100810,1,0,0:0:0:0:
440,208,100976,1,8,0:0:0:0:
256,232,101143,1,0,0:0:0:0:
216,264,101226,1,0,0:0:0:0:
176,296,101310,5,6,0:0:0:0:
72,160,101476,1,0,0:0:0:0:
128,0,101643,1,8,0:0:0:0:
112,344,101810,5,0,0:0:0:0:
40,144,101976,1,0,0:0:0:0:
200,8,102143,1,0,0:0:0:0:
256,304,102310,5,8,0:0:0:0:
256,88,102476,1,0,0:0:0:0:
400,344,102643,5,2,0:0:0:0:
472,144,102809,1,0,0:0:0:0:
312,8,102976,1,8,0:0:0:0:
336,296,103143,5,0,0:0:0:0:
440,160,103309,1,0,0:0:0:0:
384,0,103476,1,0,0:0:0:0:
208,176,103643,5,8,0:0:0:0:
216,216,103726,1,0,0:0:0:0:
296,216,103810,1,8,0:0:0:0:
304,176,103893,1,0,0:0:0:0:
256,88,103976,5,4,0:0:0:0:
108,200,104142,1,0,0:0:0:0:
169,376,104309,1,8,0:0:0:0:
306,136,104476,5,0,0:0:0:0:
83,162,104642,1,0,0:0:0:0:
41,382,104809,1,0,0:0:0:0:
427,371,104976,5,8,0:0:0:0:
256,296,105143,1,0,0:0:0:0:
84,371,105310,1,2,0:0:0:0:
386,259,105476,5,0,0:0:0:0:
256,251,105643,1,8,0:0:0:0:
126,259,105810,1,0,0:0:0:0:
439,131,105976,5,0,0:0:0:0:
256,206,106143,1,0,0:0:0:0:
73,131,106310,1,8,0:0:0:0:
256,206,106476,1,0,0:0:0:0:
256,251,106559,1,0,0:0:0:0:
256,296,106642,5,6,0:0:0:0:
256,87,106810,1,0,0:0:0:0:
447,10,106976,1,8,0:0:0:0:
177,293,107143,5,0,0:0:0:0:
281,112,107311,1,2,0:0:0:0:
485,140,107477,1,0,0:0:0:0:
432,348,107643,5,8,0:0:0:0:
308,139,107809,1,0,0:0:0:0:
65,10,107976,5,2,0:0:0:0:
256,87,108142,1,0,0:0:0:0:
256,296,108310,1,8,0:0:0:0:
27,140,108477,5,0,0:0:0:0:
231,112,108643,1,2,0:0:0:0:
335,293,108811,1,0,0:0:0:0:
80,348,108976,5,8,0:0:0:0:
207,139,109143,1,8,0:0:0:0:
256,87,109226,1,0,0:0:0:0:
305,139,109310,1,0,2:0:0:0:
