osu file format v14

[General]
AudioFilename: audio.mp3
AudioLeadIn: 0
PreviewTime: 113077
Countdown: 0
SampleSet: Soft
StackLeniency: 0.4
Mode: 0
LetterboxInBreaks: 0
WidescreenStoryboard: 1

[Editor]
Bookmarks: 1556,11990,22425,38077,58947,69382,77208,98077,113729,134599,155469,176338,191990,212860,238947,254599,298947,322425,326338
DistanceSpacing: 0.7
BeatDivisor: 4
GridSize: 32
TimelineZoom: 1.6

[Metadata]
Title:REASON
TitleUnicode:REASON
Artist:SYU (from GALNERYUS)
ArtistUnicode:SYU(from GALNERYUS)
Creator:hehe
Version:Meaning of Life
Source:
Tags:handsome Japanese Symphonic Power Metal Fuki Commune Vorvados
BeatmapID:3671976
BeatmapSetID:1791832

[Difficulty]
HPDrainRate:4
CircleSize:4
OverallDifficulty:9.4
ApproachRate:9.4
SliderMultiplier:1.4
SliderTickRate:1

[Events]
//Background and Video events
0,0,"76852774_p0.jpg",0,0
//Break Periods
//Storyboard Layer 0 (Background)
//Storyboard Layer 1 (Fail)
//Storyboard Layer 2 (Pass)
//Storyboard Layer 3 (Foreground)
//Storyboard Layer 4 (Overlay)
//Storyboard Sound Samples

[TimingPoints]
1556,326.086956521739,4,2,1,50,1,0
1556,-125,4,2,1,50,0,0
9382,-83.3333333333333,4,2,1,60,0,0
11990,-62.5,4,2,1,70,0,0
30251,-55.5555555555556,4,2,1,80,0,0
38077,-71.4285714285714,4,2,1,60,0,0
58947,-100,4,2,1,60,0,0
64164,-83.3333333333333,4,2,1,70,0,0
69382,-62.5,4,2,1,70,0,0
77208,-71.4285714285714,4,2,1,70,0,0
98077,-83.3333333333333,4,2,1,60,0,0
103295,-71.4285714285714,4,2,1,70,0,0
113077,-100,4,2,1,70,0,0
113729,-55.5555555555556,4,2,1,90,0,1
134599,-125,4,2,1,60,0,0
142425,-83.3333333333333,4,2,1,70,0,0
145034,-100,4,2,1,70,0,0
155469,-83.3333333333333,4,2,1,60,0,0
191990,-71.4285714285714,4,2,1,70,0,0
202425,-62.5,4,2,1,70,0,0
212860,-55.5555555555556,4,2,1,80,0,0
238947,-83.3333333333333,4,2,1,60,0,0
244164,-71.4285714285714,4,2,1,70,0,0
254599,-100,4,2,1,70,0,0
263729,-71.4285714285714,4,2,1,70,0,0
265034,-55.5555555555556,4,2,1,90,0,1
285903,-50,4,2,1,100,0,1
298947,-62.5,4,2,1,80,0,0
323729,-50,4,2,1,80,0,0

[Colours]
Combo1 : 160,207,207
Combo2 : 106,145,175
Combo3 : 65,250,255
Combo4 : 34,164,255
Combo5 : 255,99,113
Combo6 : 255,31,31
Combo7 : 224,243,38
Combo8 : 255,185,0

[HitObjects]
252,318,1556,118,0,B|275:263|275:263|208:178|270:95,1,224,4|4,3:1|0:0,0:0:0:0:
259,110,2534,1,4,3:0:0:0:
419,194,2697,1,4,3:0:0:0:
409,13,2860,6,0,P|411:93|330:100,1,168,4|0,3:1|0:0,0:0:0:0:
260,66,3512,1,8,3:2:0:0:
260,66,3594,1,8,3:2:0:0:
260,66,3675,1,8,3:2:0:0:
260,66,3757,1,8,3:2:0:0:
260,66,3838,1,4,3:0:0:0:
260,66,3920,1,4,3:0:0:0:
260,66,4001,1,4,3:0:0:0:
260,66,4083,1,4,3:0:0:0:
260,66,4164,102,0,B|237:121|237:121|304:206|242:289,1,224,4|4,3:1|0:0,0:0:0:0:
253,274,5142,1,4,3:0:0:0:
93,190,5305,1,4,3:0:0:0:
103,371,5468,6,0,P|118:313|119:252,1,112,4|0,3:1|0:0,0:0:0:0:
167,158,5958,1,0,3:0:0:0:
167,158,6039,1,0,3:0:0:0:
167,158,6121,2,0,L|209:146,1,28,8|8,3:2|3:2,0:0:0:0:
119,90,6284,2,0,L|77:78,1,28,8|8,3:2|3:2,0:0:0:0:
11,136,6447,2,0,L|32:215,1,56,12|0,3:2|0:0,0:0:0:0:
25,190,6773,102,0,P|-16:267|63:373,1,224,4|4,3:1|0:0,0:0:0:0:
53,370,7751,1,4,3:0:0:0:
197,266,7914,1,4,3:0:0:0:
359,336,8077,6,0,B|392:308|392:308|459:347|511:300,1,168,4|0,3:1|0:0,0:0:0:0:
463,241,8729,2,0,L|413:253,1,28,0|0,3:0|0:0,0:0:0:0:
379,195,8892,101,0,3:0:0:0:
379,195,8974,1,0,3:0:0:0:
379,195,9055,1,0,3:0:0:0:
379,195,9137,1,0,3:0:0:0:
379,195,9219,1,0,3:0:0:0:
379,195,9300,1,0,3:0:0:0:
379,195,9382,2,0,L|364:137,1,41.9999987182618,4|0,3:0|0:0,0:0:0:0:
429,104,9545,5,8,3:2:0:0:
435,76,9626,1,8,3:2:0:0:
430,49,9708,1,0,3:0:0:0:
414,26,9789,1,0,3:0:0:0:
390,12,9871,1,0,3:0:0:0:
362,8,9952,1,0,3:0:0:0:
336,16,10034,2,0,L|276:2,3,41.9999987182618,8|8|0|0,3:2|3:2|3:0|3:0,0:0:0:0:
232,50,10360,102,0,L|244:112,1,41.9999987182618,8|0,3:2|0:0,0:0:0:0:
163,85,10523,2,0,L|175:147,1,41.9999987182618,8|0,3:2|0:0,0:0:0:0:
223,376,10686,5,0,3:0:0:0:
10,296,10849,2,0,L|18:243,1,41.9999987182618,8|0,3:2|0:0,0:0:0:0:
63,196,11012,101,8,3:2:0:0:
63,196,11094,1,8,3:2:0:0:
63,196,11175,1,8,3:2:0:0:
63,196,11257,1,8,3:2:0:0:
63,196,11338,1,8,3:2:0:0:
63,196,11420,1,8,3:2:0:0:
63,196,11501,1,8,3:2:0:0:
63,196,11583,1,8,3:2:0:0:
63,196,11664,2,0,L|119:184,3,41.9999987182618,0|0|0|0,3:0|3:0|3:0|3:0,0:0:0:0:
153,125,11990,21,12,3:2:0:0:
190,101,12071,1,0,3:0:0:0:
234,99,12153,1,0,3:0:0:0:
273,121,12234,1,0,3:0:0:0:
295,159,12316,2,0,L|284:222,3,56,8|0|0|0,3:2|3:0|3:0|3:0,0:0:0:0:
271,300,12642,5,8,3:2:0:0:
304,330,12724,1,0,3:0:0:0:
347,341,12806,1,0,3:0:0:0:
390,330,12887,1,0,3:0:0:0:
423,300,12969,2,0,L|410:232,1,56,10|0,3:2|3:0,0:0:0:0:
505,308,13132,2,0,L|491:239,1,56,2|0,3:2|3:0,0:0:0:0:
505,81,13295,101,12,3:2:0:0:
505,81,13376,1,0,3:0:0:0:
505,81,13458,1,0,3:0:0:0:
505,81,13539,1,0,3:0:0:0:
505,81,13621,1,8,3:2:0:0:
505,81,13702,1,0,3:0:0:0:
505,81,13784,1,0,3:0:0:0:
505,81,13865,1,0,3:0:0:0:
505,81,13947,1,8,3:2:0:0:
505,81,14028,1,0,3:0:0:0:
505,81,14110,1,0,3:0:0:0:
505,81,14191,1,0,3:0:0:0:
505,81,14273,2,0,L|514:14,3,56,10|0|2|0,3:2|3:0|3:2|3:0,0:0:0:0:
492,161,14599,5,12,3:2:0:0:
468,197,14680,1,0,3:0:0:0:
427,213,14762,1,0,3:0:0:0:
384,202,14843,1,0,3:0:0:0:
356,168,14925,2,0,L|364:107,3,56,8|0|0|0,3:2|3:0|3:0|3:0,0:0:0:0:
286,44,15251,101,8,3:2:0:0:
242,40,15333,1,0,3:0:0:0:
204,61,15414,1,0,3:0:0:0:
183,101,15496,1,0,3:0:0:0:
188,145,15577,2,0,L|204:218,1,56,10|0,3:2|3:0,0:0:0:0:
272,152,15740,2,0,L|288:225,1,56,2|0,3:2|3:0,0:0:0:0:
353,352,15903,5,12,3:2:0:0:
353,352,15985,1,0,3:0:0:0:
353,352,16066,1,0,3:0:0:0:
353,352,16148,1,0,3:0:0:0:
353,352,16229,1,8,3:2:0:0:
353,352,16311,1,0,3:0:0:0:
353,352,16392,1,0,3:0:0:0:
353,352,16474,1,0,3:0:0:0:
353,352,16555,1,8,3:2:0:0:
353,352,16637,1,0,3:0:0:0:
353,352,16719,1,0,3:0:0:0:
353,352,16800,1,0,3:0:0:0:
353,352,16882,2,0,L|365:272,3,56,10|0|2|0,3:2|3:0|3:2|3:0,0:0:0:0:
276,302,17208,101,12,3:2:0:0:
243,332,17289,1,0,3:0:0:0:
201,348,17371,1,0,3:0:0:0:
157,348,17452,1,0,3:0:0:0:
115,331,17534,1,8,3:2:0:0:
83,301,17615,1,0,3:0:0:0:
64,261,17697,1,0,3:0:0:0:
60,216,17778,1,0,3:0:0:0:
74,174,17860,1,8,3:2:0:0:
101,139,17941,1,0,3:0:0:0:
140,117,18023,1,0,3:0:0:0:
184,110,18104,1,0,3:0:0:0:
228,120,18186,1,8,3:2:0:0:
264,145,18267,1,0,3:0:0:0:
292,180,18348,1,0,3:0:0:0:
332,199,18430,1,0,3:0:0:0:
376,198,18512,6,0,L|391:126,3,56,10|0|0|0,3:2|3:0|3:0|3:0,0:0:0:0:
449,231,18838,2,0,L|464:159,3,56,8|0|0|0,3:2|3:0|3:0|3:0,0:0:0:0:
189,304,19164,102,0,L|173:232,3,56,10|0|0|0,3:2|3:0|3:0|3:0,0:0:0:0:
116,336,19490,2,0,L|100:264,3,56,8|0|0|0,3:2|3:0|3:0|3:0,0:0:0:0:
263,359,19816,5,10,3:2:0:0:
387,240,19979,2,0,L|363:125,1,112,2|8,3:2|3:2,0:0:0:0:
449,334,20305,101,2,3:2:0:0:
449,334,20387,1,0,3:0:0:0:
449,334,20469,2,0,P|394:319|332:320,1,112,10|0,3:2|3:0,0:0:0:0:
364,130,20795,2,0,P|418:144|481:144,1,112,8|0,3:2|3:0,0:0:0:0:
259,0,21121,5,10,3:2:0:0:
265,27,21202,1,0,3:0:0:0:
271,54,21284,1,0,3:0:0:0:
276,82,21365,1,0,3:0:0:0:
283,109,21447,2,0,L|220:123,3,56,8|0|0|0,3:2|3:0|3:0|3:0,0:0:0:0:
169,68,21773,101,10,3:2:0:0:
116,50,21854,1,8,3:2:0:0:
62,62,21936,1,8,3:2:0:0:
24,102,22017,1,8,3:2:0:0:
12,156,22099,1,8,3:2:0:0:
31,208,22180,1,8,3:2:0:0:
75,241,22262,1,8,3:2:0:0:
130,247,22343,1,8,3:2:0:0:
179,222,22425,6,0,L|161:143,3,56,0|0|8|0,3:1|3:0|3:2|3:0,0:0:0:0:
153,82,22751,101,4,3:2:0:0:
169,85,22832,1,0,3:0:0:0:
185,89,22914,1,8,3:2:0:0:
202,93,22995,1,0,3:0:0:0:
218,97,23077,1,0,3:0:0:0:
234,101,23158,1,0,3:0:0:0:
251,105,23240,6,0,L|330:80,3,56,12|0|0|0,3:2|3:0|3:0|3:0,0:0:0:0:
294,176,23566,2,0,L|373:151,3,56,12|0|0|0,3:2|3:0|3:0|3:0,0:0:0:0:
412,210,23892,102,0,L|400:276,1,56,12|0,3:2|3:0,0:0:0:0:
383,344,24055,1,4,3:2:0:0:
348,372,24136,1,0,3:0:0:0:
306,386,24218,1,8,3:2:0:0:
262,383,24299,1,0,3:0:0:0:
221,364,24381,1,0,3:0:0:0:
191,332,24462,1,0,3:0:0:0:
175,290,24544,1,8,3:2:0:0:
175,246,24625,1,0,3:0:0:0:
192,205,24708,6,0,L|269:187,3,56,4|0|8|0,3:2|3:0|3:2|3:0,0:0:0:0:
142,136,25034,2,0,L|218:117,3,56,0|0|12|0,3:0|3:0|3:2|3:0,0:0:0:0:
222,48,25360,101,0,3:0:0:0:
98,22,25523,2,0,L|84:84,1,56,10|0,3:2|3:0,0:0:0:0:
308,145,25686,2,0,L|322:83,1,56,2|0,3:2|3:0,0:0:0:0:
142,136,25849,2,0,L|160:207,1,56,10|0,3:2|3:0,0:0:0:0:
192,266,26012,5,0,3:0:0:0:
450,232,26175,1,8,3:2:0:0:
450,232,26257,1,8,3:2:0:0:
450,232,26338,2,0,L|455:156,3,56,0|0|8|0,3:1|3:0|3:2|3:0,0:0:0:0:
464,98,26664,101,4,3:2:0:0:
467,114,26745,1,0,3:0:0:0:
470,130,26827,1,8,3:2:0:0:
473,147,26908,1,0,3:0:0:0:
477,163,26990,1,0,3:0:0:0:
480,180,27071,1,0,3:0:0:0:
483,196,27153,6,0,L|419:174,3,56,12|0|0|0,3:2|3:0|3:0|3:0,0:0:0:0:
446,267,27479,2,0,L|382:245,3,56,12|0|0|0,3:2|3:0|3:0|3:0,0:0:0:0:
228,216,27805,102,0,L|246:291,1,56,12|0,3:2|3:0,0:0:0:0:
260,349,27968,1,4,3:2:0:0:
215,352,28049,1,0,3:0:0:0:
172,340,28132,1,8,3:2:0:0:
136,314,28212,1,0,3:0:0:0:
111,278,28294,1,0,3:0:0:0:
99,235,28375,1,0,3:0:0:0:
103,190,28457,1,8,3:2:0:0:
122,150,28538,1,0,3:0:0:0:
153,118,28621,6,0,L|139:40,3,56,4|0|8|0,3:2|3:0|3:2|3:0,0:0:0:0:
238,138,28947,2,0,L|224:60,3,56,0|0|12|0,3:0|3:0|3:2|3:0,0:0:0:0:
279,17,29273,101,0,3:0:0:0:
413,191,29436,1,8,3:2:0:0:
385,197,29517,1,8,3:2:0:0:
358,203,29599,1,8,3:2:0:0:
331,209,29680,1,0,3:0:0:0:
303,216,29762,2,0,L|314:160,1,56,0|0,3:0|3:0,0:0:0:0:
228,82,29925,1,8,3:2:0:0:
172,75,30006,1,8,3:2:0:0:
116,68,30088,1,8,3:2:0:0:
61,62,30169,1,0,3:0:0:0:
4,54,30251,54,0,P|22:81|30:111,3,62.9999980773926,0|0|8|0,3:1|3:0|3:2|3:0,0:0:0:0:
107,154,30577,5,4,3:2:0:0:
160,170,30658,1,0,3:0:0:0:
212,194,30740,1,8,3:2:0:0:
257,228,30821,1,0,3:0:0:0:
298,267,30903,1,0,3:0:0:0:
334,311,30984,1,0,3:0:0:0:
362,361,31066,102,0,P|376:330|388:274,3,62.9999980773926,12|0|0|0,3:2|3:0|3:0|3:0,0:0:0:0:
455,262,31392,2,0,P|452:227|434:174,3,62.9999980773926,12|0|0|0,3:2|3:0|3:0|3:0,0:0:0:0:
476,120,31719,6,0,P|448:115|406:90,1,62.9999980773926,12|0,3:2|3:0,0:0:0:0:
382,6,31882,1,4,3:2:0:0:
325,12,31963,1,0,3:0:0:0:
270,26,32045,1,8,3:2:0:0:
219,49,32126,1,0,3:0:0:0:
170,79,32208,1,0,3:0:0:0:
127,116,32289,1,0,3:0:0:0:
90,159,32371,1,8,3:2:0:0:
60,207,32452,1,0,3:0:0:0:
37,258,32534,102,0,P|59:283|77:335,3,62.9999980773926,4|0|8|0,3:2|3:0|3:2|3:0,0:0:0:0:
150,277,32860,2,0,P|156:308|145:362,3,62.9999980773926,0|0|12|0,3:0|3:0|3:2|3:0,0:0:0:0:
191,195,33186,5,0,3:0:0:0:
223,384,33349,2,0,P|240:357|286:326,1,62.9999980773926,10|0,3:2|3:0,0:0:0:0:
445,168,33512,2,0,P|447:199|441:230,1,62.9999980773926,2|0,3:2|3:0,0:0:0:0:
258,252,33675,2,0,P|289:245|343:256,1,62.9999980773926,10|0,3:2|3:0,0:0:0:0:
476,298,33838,101,0,3:0:0:0:
389,81,34001,1,8,3:2:0:0:
389,81,34083,1,8,3:2:0:0:
389,80,34164,2,0,P|372:107|365:138,3,62.9999980773926,0|0|8|0,3:1|3:0|3:2|3:0,0:0:0:0:
322,23,34490,5,4,3:2:0:0:
274,51,34571,1,0,3:0:0:0:
228,85,34653,1,8,3:2:0:0:
186,123,34734,1,0,3:0:0:0:
148,165,34816,1,0,3:0:0:0:
115,211,34897,1,0,3:0:0:0:
87,260,34979,102,0,P|81:228|86:187,3,62.9999980773926,12|0|0|0,3:2|3:0|3:0|3:0,0:0:0:0:
0,193,35305,2,0,P|10:162|35:129,3,62.9999980773926,12|0|0|0,3:2|3:0|3:0|3:0,0:0:0:0:
47,9,35632,6,0,P|57:44|82:79,1,62.9999980773926,12|0,3:2|3:0,0:0:0:0:
165,47,35795,1,4,3:2:0:0:
221,50,35876,1,0,3:0:0:0:
276,63,35958,1,8,3:2:0:0:
328,85,36039,1,0,3:0:0:0:
376,115,36121,1,0,3:0:0:0:
419,153,36202,1,0,3:0:0:0:
454,197,36284,1,8,3:2:0:0:
482,246,36365,1,0,3:0:0:0:
501,299,36447,102,0,P|473:313|450:334,3,62.9999980773926,4|0|8|0,3:2|3:0|3:2|3:0,0:0:0:0:
369,321,36773,2,0,P|352:347|342:377,3,62.9999980773926,0|0|12|0,3:0|3:0|3:2|3:0,0:0:0:0:
314,247,37099,5,8,3:2:0:0:
298,219,37180,1,8,3:2:0:0:
274,198,37262,1,8,3:2:0:0:
246,185,37343,1,8,3:2:0:0:
215,182,37425,2,0,P|212:153|194:112,1,62.9999980773926,0|0,3:0|3:0,0:0:0:0:
268,79,37588,101,8,3:2:0:0:
321,62,37669,1,8,3:2:0:0:
377,68,37751,1,8,3:2:0:0:
427,95,37832,1,8,3:2:0:0:
461,140,37914,2,0,P|450:156|433:203,1,62.9999980773926,0|0,3:0|3:0,0:0:0:0:
434,376,38077,54,0,L|415:264,1,97.9999970092774,4|8,3:2|0:0,0:0:0:0:
490,88,38403,1,0,3:0:0:0:
490,88,38485,1,0,3:0:0:0:
490,88,38566,2,0,P|445:113|461:185,1,97.9999970092774,8|0,0:0|3:0,0:0:0:0:
346,230,38892,5,8,0:0:0:0:
346,230,38974,1,0,3:0:0:0:
310,43,39137,1,0,3:0:0:0:
310,43,39219,1,8,0:0:0:0:
257,102,39382,102,0,L|157:87,1,97.9999970092774,0|8,3:2|0:0,0:0:0:0:
26,256,39708,1,0,3:0:0:0:
26,256,39789,1,0,3:0:0:0:
26,256,39871,2,0,P|15:306|88:332,1,97.9999970092774,8|0,0:0|3:0,0:0:0:0:
146,104,40197,5,8,0:0:0:0:
146,104,40278,1,0,3:0:0:0:
122,318,40441,1,0,3:0:0:0:
122,318,40523,1,8,0:0:0:0:
192,268,40686,101,0,3:2:0:0:
317,369,40849,2,0,L|435:345,1,97.9999970092774,8|0,0:0|3:0,0:0:0:0:
487,374,41094,1,0,3:0:0:0:
487,374,41175,2,0,P|507:315|478:273,1,97.9999970092774,8|0,0:0|3:0,0:0:0:0:
248,346,41501,5,8,0:0:0:0:
248,346,41583,1,0,3:0:0:0:
351,155,41745,1,0,3:0:0:0:
351,155,41827,1,8,0:0:0:0:
284,103,41990,101,0,3:2:0:0:
305,293,42153,2,0,L|282:173,1,97.9999970092774,8|0,0:0|3:0,0:0:0:0:
221,155,42398,1,0,3:0:0:0:
221,155,42479,2,0,P|161:191|168:241,1,97.9999970092774,8|0,0:0|3:0,0:0:0:0:
148,349,42805,5,8,0:0:0:0:
384,222,42969,1,0,3:0:0:0:
155,63,43132,1,8,0:0:0:0:
10,308,43295,102,0,L|107:290,1,97.9999970092774,0|8,3:2|0:0,0:0:0:0:
312,141,43621,1,0,3:0:0:0:
312,141,43702,1,0,3:0:0:0:
312,141,43784,2,0,P|308:202|241:232,1,97.9999970092774,8|0,0:0|3:0,0:0:0:0:
40,127,44110,5,8,0:0:0:0:
40,127,44191,1,0,3:0:0:0:
238,37,44354,1,0,3:0:0:0:
238,37,44436,1,8,0:0:0:0:
190,95,44599,102,0,L|178:199,1,97.9999970092774,0|8,3:2|0:0,0:0:0:0:
1,57,44925,1,0,3:0:0:0:
1,57,45007,1,0,3:0:0:0:
1,57,45088,2,0,P|39:6|94:5,1,97.9999970092774,8|0,0:0|3:0,0:0:0:0:
117,242,45414,5,8,0:0:0:0:
117,242,45496,1,0,3:0:0:0:
305,94,45659,1,0,3:0:0:0:
305,94,45740,1,8,0:0:0:0:
266,164,45903,102,0,L|286:288,1,97.9999970092774,0|8,3:2|0:0,0:0:0:0:
454,383,46229,1,0,3:0:0:0:
454,383,46311,1,0,3:0:0:0:
454,383,46392,2,0,P|504:358|508:307,1,97.9999970092774,8|0,0:0|3:0,0:0:0:0:
371,345,46719,5,8,0:0:0:0:
371,345,46800,1,0,3:0:0:0:
442,161,46964,1,0,3:0:0:0:
442,161,47045,1,8,0:0:0:0:
490,226,47208,101,0,3:0:0:0:
274,284,47371,1,8,0:0:0:0:
386,93,47534,1,0,3:0:0:0:
445,290,47697,1,8,0:0:0:0:
212,226,47860,5,8,3:2:0:0:
215,201,47941,1,8,3:2:0:0:
219,177,48023,1,0,3:0:0:0:
223,153,48104,1,0,3:0:0:0:
226,129,48186,1,8,3:2:0:0:
230,104,48267,1,0,3:0:0:0:
234,80,48349,1,8,3:2:0:0:
238,56,48430,1,8,3:2:0:0:
241,32,48512,102,0,L|123:50,1,97.9999970092774,4|8,3:2|0:0,0:0:0:0:
351,196,48838,1,0,3:0:0:0:
351,196,48920,1,0,3:0:0:0:
351,196,49001,2,0,P|411:167|415:116,1,97.9999970092774,8|0,0:0|3:0,0:0:0:0:
131,207,49327,5,8,0:0:0:0:
131,207,49409,1,0,3:0:0:0:
313,88,49572,1,0,3:0:0:0:
313,88,49653,1,8,0:0:0:0:
266,152,49816,102,0,L|262:273,1,97.9999970092774,0|8,3:2|0:0,0:0:0:0:
57,280,50142,1,0,3:0:0:0:
57,280,50224,1,0,3:0:0:0:
57,280,50305,2,0,P|3:244|20:189,1,97.9999970092774,8|0,0:0|3:0,0:0:0:0:
305,283,50632,5,8,0:0:0:0:
305,283,50713,1,0,3:0:0:0:
99,352,50877,1,0,3:0:0:0:
99,352,50958,1,8,0:0:0:0:
172,376,51121,101,0,3:2:0:0:
194,169,51284,2,0,L|177:56,1,97.9999970092774,8|0,0:0|3:0,0:0:0:0:
116,30,51528,1,0,3:0:0:0:
116,30,51610,2,0,P|47:55|48:110,1,97.9999970092774,8|0,0:0|3:0,0:0:0:0:
271,198,51936,5,8,0:0:0:0:
271,198,52017,1,0,3:0:0:0:
26,291,52180,1,0,3:0:0:0:
26,291,52262,1,8,0:0:0:0:
70,222,52425,101,0,3:2:0:0:
231,367,52588,2,0,L|364:347,1,97.9999970092774,8|0,0:0|3:0,0:0:0:0:
400,375,52833,1,0,3:0:0:0:
400,375,52914,2,0,P|465:342|451:284,1,97.9999970092774,8|0,0:0|3:0,0:0:0:0:
306,152,53240,5,8,0:0:0:0:
512,267,53403,1,0,0:0:0:0:
432,38,53566,1,8,0:0:0:0:
366,202,53729,102,0,L|387:312,1,97.9999970092774,0|8,3:2|0:0,0:0:0:0:
512,30,54055,1,0,3:0:0:0:
512,30,54137,1,0,3:0:0:0:
512,30,54219,2,0,P|497:91|430:108,1,97.9999970092774,8|0,0:0|3:0,0:0:0:0:
298,236,54545,5,8,0:0:0:0:
298,236,54626,1,0,3:0:0:0:
138,82,54790,1,0,3:0:0:0:
138,82,54871,1,8,0:0:0:0:
177,17,55034,102,0,L|290:6,1,97.9999970092774,0|8,3:2|0:0,0:0:0:0:
311,17,55278,1,2,0:2:0:0:
340,43,55360,1,2,3:2:0:0:
355,79,55441,1,2,3:2:0:0:
351,118,55523,1,10,0:2:0:0:
331,151,55604,1,2,0:2:0:0:
298,172,55686,1,2,3:2:0:0:
259,175,55767,1,2,0:2:0:0:
223,161,55849,1,10,0:2:0:0:
186,150,55930,1,2,3:2:0:0:
151,165,56012,1,2,0:2:0:0:
132,198,56093,1,2,3:2:0:0:
137,236,56175,1,10,0:2:0:0:
166,262,56256,1,2,0:2:0:0:
204,265,56338,6,0,L|222:374,1,97.9999970092774,0|8,3:2|0:0,0:0:0:0:
446,384,56664,1,0,3:0:0:0:
446,384,56746,1,0,3:0:0:0:
446,384,56827,1,8,0:0:0:0:
299,250,56990,1,0,3:0:0:0:
502,194,57153,101,8,0:0:0:0:
344,330,57316,1,0,3:0:0:0:
210,172,57479,1,8,0:0:0:0:
290,170,57642,6,0,L|298:112,1,48.9999985046387,0|0,3:0|0:0,0:0:0:0:
316,47,57805,1,8,3:2:0:0:
276,19,57886,1,8,3:2:0:0:
228,18,57968,1,0,3:0:0:0:
187,44,58049,1,8,3:2:0:0:
167,88,58131,1,0,3:2:0:0:
175,135,58212,1,0,3:2:0:0:
210,172,58295,102,0,L|241:324,2,146.999995513916,6|6|6,3:0|3:0|3:0,0:0:0:0:
318,326,58947,85,4,3:2:0:0:
318,326,59110,1,0,3:0:0:0:
43,371,59599,5,4,3:2:0:0:
43,371,59762,1,0,3:0:0:0:
105,125,60088,102,0,P|114:50|170:34,2,140,0|0|0,3:0|3:0|3:0,0:0:0:0:
252,232,60903,5,8,3:2:0:0:
286,226,60984,1,8,3:2:0:0:
321,220,61066,1,0,3:0:0:0:
355,214,61147,1,0,3:0:0:0:
390,209,61229,2,0,L|398:148,3,35,8|0|0|0,3:2|0:0|0:0|0:0,0:0:0:0:
450,261,61555,101,4,3:2:0:0:
450,261,61719,1,0,3:0:0:0:
491,17,62208,5,4,3:2:0:0:
491,17,62371,1,0,3:0:0:0:
323,75,62697,102,0,L|338:143,1,70,0|0,3:0|0:0,0:0:0:0:
409,186,63023,1,0,3:0:0:0:
247,260,63186,1,0,0:0:0:0:
397,358,63349,1,0,3:0:0:0:
322,283,63512,5,8,3:2:0:0:
287,288,63593,1,8,3:2:0:0:
252,294,63675,1,0,3:0:0:0:
218,300,63756,1,0,3:0:0:0:
183,305,63838,1,8,3:2:0:0:
149,311,63919,1,8,3:2:0:0:
114,317,64001,1,8,3:2:0:0:
80,323,64082,1,8,3:2:0:0:
45,328,64164,101,4,3:2:0:0:
180,384,64327,1,0,3:0:0:0:
102,240,64490,2,0,L|130:350,1,83.9999974365235,8|0,0:0|0:0,0:0:0:0:
160,182,64816,5,0,3:0:0:0:
12,114,64979,2,0,L|23:13,1,83.9999974365235,0|8,3:0|0:0,0:0:0:0:
232,215,65305,102,0,P|288:194|271:115,1,125.999996154785,0|0,3:0|0:0,0:0:0:0:
290,134,65632,2,0,L|180:117,1,83.9999974365235,0|8,3:0|0:0,0:0:0:0:
357,74,65958,5,0,3:0:0:0:
253,294,66121,1,0,3:0:0:0:
153,64,66284,1,0,3:0:0:0:
251,308,66447,2,0,L|229:208,1,83.9999974365235,8|0,0:0|0:0,0:0:0:0:
300,137,66773,101,0,3:0:0:0:
162,193,66936,1,0,3:0:0:0:
336,213,67099,5,0,3:0:0:0:
157,112,67262,1,0,3:0:0:0:
146,380,67425,102,0,L|133:319,1,41.9999987182618,8|0,3:2|0:0,0:0:0:0:
390,310,67588,2,0,L|395:255,1,41.9999987182618,8|0,3:2|0:0,0:0:0:0:
86,65,67751,6,0,L|73:134,1,41.9999987182618,8|0,3:2|0:0,0:0:0:0:
437,177,67914,2,0,L|452:237,1,41.9999987182618,8|0,3:2|0:0,0:0:0:0:
264,285,68077,102,0,L|163:270,1,83.9999974365235,0|8,3:0|3:2,0:0:0:0:
161,229,68322,1,8,3:2:0:0:
157,181,68404,1,0,3:0:0:0:
171,135,68485,1,0,3:0:0:0:
199,97,68567,1,8,3:2:0:0:
239,70,68648,1,8,3:2:0:0:
285,59,68730,1,4,3:0:0:0:
333,65,68811,1,4,3:0:0:0:
375,87,68893,1,4,3:0:0:0:
408,122,68974,1,4,3:0:0:0:
426,166,69056,1,4,3:0:0:0:
428,214,69137,1,4,3:0:0:0:
413,259,69219,1,4,3:0:0:0:
384,297,69300,1,4,3:0:0:0:
343,322,69382,22,0,L|349:247,3,56,0|0|8|0,3:1|3:0|3:2|3:0,0:0:0:0:
291,211,69708,1,4,3:2:0:0:
247,195,69789,1,0,3:0:0:0:
201,200,69871,1,8,3:2:0:0:
162,225,69952,1,0,3:0:0:0:
137,264,70034,1,0,3:0:0:0:
131,310,70115,1,0,3:0:0:0:
147,353,70197,6,0,L|214:361,3,56,12|0|0|0,3:2|3:0|3:0|3:0,0:0:0:0:
169,276,70523,2,0,L|236:284,3,56,12|0|0|0,3:2|3:0|3:0|3:0,0:0:0:0:
106,227,70849,102,0,L|92:158,1,56,12|0,3:2|3:0,0:0:0:0:
73,53,71012,1,4,3:2:0:0:
104,21,71093,1,0,3:0:0:0:
145,5,71175,1,8,3:2:0:0:
190,7,71256,1,0,3:0:0:0:
229,28,71338,1,0,3:0:0:0:
257,62,71419,1,0,3:0:0:0:
268,105,71501,1,8,3:2:0:0:
261,149,71582,1,0,3:0:0:0:
236,186,71664,6,0,L|176:177,3,56,4|0|8|0,3:2|3:0|3:2|3:0,0:0:0:0:
248,271,71990,2,0,L|188:262,3,56,0|0|12|0,3:0|3:0|3:2|3:0,0:0:0:0:
309,328,72316,101,0,3:0:0:0:
505,214,72479,2,0,L|487:136,1,56,10|0,3:2|3:0,0:0:0:0:
358,203,72642,2,0,L|348:285,1,56,2|0,3:2|3:0,0:0:0:0:
446,358,72805,2,0,L|366:341,1,56,10|0,3:2|3:0,0:0:0:0:
223,309,72969,5,0,3:0:0:0:
299,141,73132,1,8,3:2:0:0:
299,141,73213,1,8,3:2:0:0:
299,141,73295,2,0,L|282:74,3,56,0|0|8|0,3:1|3:0|3:2|3:0,0:0:0:0:
208,92,73621,101,4,3:2:0:0:
189,132,73702,1,0,3:0:0:0:
191,176,73784,1,8,3:2:0:0:
213,214,73865,1,0,3:0:0:0:
251,237,73947,1,0,3:0:0:0:
296,239,74028,1,0,3:0:0:0:
336,220,74110,6,0,L|321:154,3,56,12|0|0|0,3:2|3:0|3:0|3:0,0:0:0:0:
415,225,74436,2,0,L|399:158,3,56,12|0|0|0,3:2|3:0|3:0|3:0,0:0:0:0:
344,298,74762,102,0,L|263:326,1,56,12|0,3:2|3:0,0:0:0:0:
37,378,74925,1,4,3:2:0:0:
15,338,75006,1,0,3:0:0:0:
8,294,75088,1,8,3:2:0:0:
15,251,75169,1,0,3:0:0:0:
37,212,75251,1,0,3:0:0:0:
71,182,75332,1,0,3:0:0:0:
112,165,75414,1,8,3:2:0:0:
157,163,75495,1,0,3:0:0:0:
199,176,75577,2,0,L|209:248,3,56,4|0|8|0,3:2|3:0|3:2|3:0,0:0:0:0:
136,264,75903,6,0,L|67:298,1,56,0|0,3:0|3:0,0:0:0:0:
149,342,76066,2,0,L|80:376,1,56,12|0,3:2|3:0,0:0:0:0:
288,384,76229,101,8,3:2:0:0:
297,328,76310,1,8,3:2:0:0:
306,273,76392,1,8,3:2:0:0:
315,218,76473,1,8,3:2:0:0:
325,163,76555,2,0,L|393:148,1,56,0|0,3:0|3:0,0:0:0:0:
512,261,76719,5,8,3:2:0:0:
502,205,76800,1,8,3:2:0:0:
493,150,76882,1,8,3:2:0:0:
484,95,76963,1,8,3:2:0:0:
474,40,77045,2,0,L|406:24,1,56,0|0,3:0|3:0,0:0:0:0:
330,0,77208,102,0,L|349:118,1,97.9999970092774,4|0,3:2|3:0,0:0:0:0:
345,96,77452,1,0,3:0:0:0:
345,96,77534,1,8,0:0:0:0:
281,193,77697,2,0,L|289:126,2,48.9999985046387,0|0|0,3:0|3:0|3:0,0:0:0:0:
390,331,78023,1,0,3:0:0:0:
390,331,78104,1,0,3:0:0:0:
390,331,78186,1,8,0:0:0:0:
487,257,78349,2,0,L|408:271,1,48.9999985046387,0|0,3:0|3:0,0:0:0:0:
319,287,78512,6,0,P|278:339|291:381,1,97.9999970092774,0|0,3:2|3:0,0:0:0:0:
282,366,78757,1,0,3:0:0:0:
282,366,78838,1,8,0:0:0:0:
142,213,79001,2,0,L|83:202,2,48.9999985046387,0|0|0,3:0|3:0|3:0,0:0:0:0:
1,338,79327,1,0,3:0:0:0:
1,338,79409,1,0,3:0:0:0:
1,338,79490,1,8,0:0:0:0:
89,384,79653,2,0,L|77:316,1,48.9999985046387,0|0,3:0|3:0,0:0:0:0:
210,276,79816,102,0,L|227:166,1,97.9999970092774,0|0,3:2|3:0,0:0:0:0:
224,179,80061,1,0,3:0:0:0:
224,179,80142,1,8,0:0:0:0:
286,312,80305,2,0,L|346:289,2,48.9999985046387,0|0|0,3:0|3:0|3:0,0:0:0:0:
368,58,80632,1,0,3:0:0:0:
368,58,80713,1,0,3:0:0:0:
368,58,80795,1,8,0:0:0:0:
512,103,80958,5,0,3:0:0:0:
512,103,81039,1,0,3:0:0:0:
512,103,81121,2,0,L|394:124,1,97.9999970092774,0|0,3:2|3:0,0:0:0:0:
363,179,81365,1,0,3:0:0:0:
363,179,81447,2,0,P|300:141|309:94,1,97.9999970092774,8|0,0:0|3:0,0:0:0:0:
298,124,81691,1,0,3:0:0:0:
298,124,81773,1,0,3:0:0:0:
125,75,81936,102,0,L|111:140,1,48.9999985046387,2|0,3:2|3:0,0:0:0:0:
178,172,82099,2,0,L|250:146,1,48.9999985046387,10|0,0:2|0:0,0:0:0:0:
45,84,82262,2,0,L|27:152,1,48.9999985046387,2|0,3:2|3:0,0:0:0:0:
2,271,82425,6,0,L|114:244,1,97.9999970092774,4|0,3:2|3:0,0:0:0:0:
97,248,82670,1,0,3:0:0:0:
97,248,82751,1,8,0:0:0:0:
317,326,82914,2,0,L|307:383,2,48.9999985046387,0|0|0,3:0|3:0|3:0,0:0:0:0:
172,375,83240,1,0,3:0:0:0:
172,375,83322,1,0,3:0:0:0:
172,375,83403,1,8,0:0:0:0:
257,257,83566,2,0,L|248:201,1,48.9999985046387,0|0,3:0|3:0,0:0:0:0:
225,19,83729,102,0,P|281:18|320:67,1,97.9999970092774,0|0,3:2|3:0,0:0:0:0:
310,43,83974,1,0,3:0:0:0:
310,43,84055,1,8,0:0:0:0:
179,167,84219,2,0,L|116:156,2,48.9999985046387,0|0|0,3:0|3:0|3:0,0:0:0:0:
462,212,84545,1,0,3:0:0:0:
462,212,84626,1,0,3:0:0:0:
462,212,84708,1,8,0:0:0:0:
397,299,84871,2,0,L|388:233,1,48.9999985046387,0|0,3:0|3:0,0:0:0:0:
512,43,85034,6,0,L|499:162,1,97.9999970092774,0|0,3:2|3:0,0:0:0:0:
501,140,85278,1,0,3:0:0:0:
501,140,85360,1,8,0:0:0:0:
325,217,85523,1,0,3:0:0:0:
304,204,85604,1,0,3:0:0:0:
303,180,85686,1,0,3:0:0:0:
364,42,85849,1,0,3:0:0:0:
370,90,85930,1,0,3:0:0:0:
376,139,86012,1,8,0:0:0:0:
234,130,86175,2,0,L|168:118,1,48.9999985046387,0|0,3:0|3:0,0:0:0:0:
426,205,86338,102,0,P|407:248|438:296,1,97.9999970092774,0|0,3:0|3:0,0:0:0:0:
429,290,86583,1,0,3:0:0:0:
429,290,86664,1,8,0:0:0:0:
192,342,86827,2,0,L|127:357,1,48.9999985046387,0|0,3:0|3:0,0:0:0:0:
272,375,86990,5,8,3:2:0:0:
294,332,87071,1,8,3:2:0:0:
283,286,87153,1,0,3:2:0:0:
244,258,87234,1,0,3:2:0:0:
196,263,87316,2,0,L|131:278,1,48.9999985046387,8|0,3:2|0:0,0:0:0:0:
257,20,87479,101,8,3:2:0:0:
257,20,87561,1,8,3:2:0:0:
257,20,87642,1,4,3:2:0:0:
252,56,87723,1,0,3:0:0:0:
248,93,87805,1,0,3:0:0:0:
244,129,87886,1,0,3:0:0:0:
240,166,87968,1,8,3:2:0:0:
38,111,88132,5,0,3:0:0:0:
38,111,88213,1,0,3:0:0:0:
38,111,88295,2,0,P|58:53|119:48,1,97.9999970092774,0|0,3:0|3:0,0:0:0:0:
88,41,88539,1,0,3:0:0:0:
88,41,88621,1,8,0:0:0:0:
326,133,88784,2,0,L|380:112,1,48.9999985046387,0|0,3:0|3:0,0:0:0:0:
180,15,88947,102,0,L|156:128,1,97.9999970092774,0|0,3:2|3:0,0:0:0:0:
159,110,89191,1,0,3:0:0:0:
159,110,89273,1,8,0:0:0:0:
0,178,89436,2,0,L|16:248,2,48.9999985046387,0|0|0,3:0|3:0|3:0,0:0:0:0:
249,281,89762,1,0,3:0:0:0:
249,281,89844,1,0,3:0:0:0:
249,281,89925,1,8,0:0:0:0:
166,366,90088,2,0,L|179:298,1,48.9999985046387,0|0,3:0|3:0,0:0:0:0:
474,292,90251,6,0,L|456:182,1,97.9999970092774,0|0,3:2|3:0,0:0:0:0:
458,195,90496,1,0,3:0:0:0:
458,195,90577,1,8,0:0:0:0:
286,372,90740,2,0,L|209:393,2,48.9999985046387,0|0|0,3:0|3:0|3:0,0:0:0:0:
448,120,91066,1,0,3:0:0:0:
448,120,91148,1,0,3:0:0:0:
448,120,91229,1,8,0:0:0:0:
384,18,91392,2,0,L|371:95,1,48.9999985046387,0|0,3:0|3:0,0:0:0:0:
326,265,91555,101,0,3:0:0:0:
142,225,91719,1,8,0:0:0:0:
130,204,91800,1,8,0:0:0:0:
138,182,91882,1,0,3:0:0:0:
197,373,92045,1,8,0:0:0:0:
204,324,92126,1,8,0:0:0:0:
212,276,92208,1,0,3:0:0:0:
6,231,92371,6,0,L|57:216,1,48.9999985046387,0|0,3:0|0:0,0:0:0:0:
207,129,92534,1,8,3:2:0:0:
255,135,92615,1,8,3:2:0:0:
304,141,92697,1,0,3:0:0:0:
352,147,92778,1,0,3:0:0:0:
401,153,92860,102,0,P|447:182|449:249,1,97.9999970092774,4|0,3:2|3:0,0:0:0:0:
457,222,93104,1,0,3:0:0:0:
457,222,93186,1,8,0:0:0:0:
512,19,93349,2,0,L|429:41,2,48.9999985046387,0|0|0,3:0|3:0|3:0,0:0:0:0:
301,71,93675,1,0,3:0:0:0:
301,71,93757,1,0,3:0:0:0:
301,71,93838,1,8,0:0:0:0:
241,231,94001,2,0,L|162:219,1,48.9999985046387,0|0,3:0|3:0,0:0:0:0:
30,211,94164,6,0,L|12:111,1,97.9999970092774,0|0,3:2|3:0,0:0:0:0:
12,114,94409,1,0,3:0:0:0:
12,114,94490,1,8,0:0:0:0:
306,177,94653,1,0,3:0:0:0:
306,177,94735,1,0,3:0:0:0:
306,177,94816,2,0,P|336:224|323:282,1,97.9999970092774,0|0,3:0|3:0,0:0:0:0:
269,309,95061,1,0,3:0:0:0:
269,309,95142,2,0,L|288:370,3,48.9999985046387,8|8|0|0,3:2|3:2|3:0|3:0,0:0:0:0:
363,384,95469,101,0,3:0:0:0:
143,335,95632,2,0,L|196:319,1,48.9999985046387,12|0,3:2|0:0,0:0:0:0:
436,274,95795,1,0,3:0:0:0:
428,226,95876,1,0,3:0:0:0:
389,198,95958,1,0,3:0:0:0:
342,203,96039,1,0,3:0:0:0:
311,240,96121,1,0,3:0:0:0:
76,206,96284,6,0,L|155:219,1,48.9999985046387,4|0,3:2|0:0,0:0:0:0:
311,240,96447,1,0,3:0:0:0:
340,292,96528,1,0,3:0:0:0:
312,343,96610,1,0,3:0:0:0:
254,348,96691,1,0,3:0:0:0:
218,301,96773,1,0,3:0:0:0:
389,91,96936,102,0,L|396:37,2,48.9999985046387,8|8|0,0:0|0:0|3:0,0:0:0:0:
163,240,97262,2,0,L|156:186,2,48.9999985046387,8|8|0,0:0|0:0|3:0,0:0:0:0:
251,384,97588,5,8,0:0:0:0:
251,384,97670,1,0,3:0:0:0:
317,179,97833,1,8,0:0:0:0:
317,179,97915,1,0,3:0:0:0:
248,116,98077,69,4,3:2:0:0:
248,116,98240,1,0,3:0:0:0:
11,277,98729,5,8,3:2:0:0:
11,277,98892,1,0,3:0:0:0:
217,380,99219,102,0,L|236:203,2,167.999994873047,0|0|0,3:0|3:0|3:0,0:0:0:0:
311,192,100034,5,8,3:2:0:0:
351,201,100115,1,8,3:2:0:0:
389,186,100197,1,0,3:0:0:0:
412,151,100278,1,0,3:0:0:0:
410,110,100360,2,0,L|426:46,3,41.9999987182618,8|0|0|0,3:2|3:0|3:0|3:0,0:0:0:0:
376,3,100686,101,4,3:2:0:0:
376,3,100849,2,0,L|192:29,1,167.999994873047,0|0,3:0|0:0,0:0:0:0:
128,41,101338,5,4,3:2:0:0:
128,41,101501,1,0,3:0:0:0:
255,264,101827,101,0,3:0:0:0:
255,264,101909,1,0,3:0:0:0:
255,264,101990,2,0,L|244:166,1,83.9999974365235,8|0,3:2|0:0,0:0:0:0:
200,317,102235,1,0,3:0:0:0:
200,317,102316,2,0,L|92:343,1,83.9999974365235,4|0,3:0|0:0,0:0:0:0:
311,361,102561,1,0,3:0:0:0:
311,361,102642,2,0,L|419:387,1,83.9999974365235,8|0,3:2|0:0,0:0:0:0:
434,381,102887,1,0,3:0:0:0:
468,359,102969,1,8,3:2:0:0:
485,321,103050,1,8,3:2:0:0:
477,280,103132,1,0,3:0:0:0:
447,251,103213,1,0,3:0:0:0:
407,243,103295,21,12,3:2:0:0:
381,21,103458,1,0,3:0:0:0:
497,147,103621,1,8,3:2:0:0:
296,259,103784,1,0,3:0:0:0:
432,83,103947,5,8,3:2:0:0:
230,200,104110,2,0,L|247:93,1,97.9999970092774,0|8,3:0|3:2,0:0:0:0:
167,18,104436,102,0,L|49:33,1,97.9999970092774,0|8,3:0|3:2,0:0:0:0:
107,310,104762,2,0,L|225:295,1,97.9999970092774,0|8,3:0|3:2,0:0:0:0:
40,263,105088,1,0,3:0:0:0:
7,80,105251,1,8,3:2:0:0:
184,209,105414,1,0,3:0:0:0:
266,24,105577,6,0,P|340:24|351:147,1,195.999994018555,12|8,3:2|3:2,0:0:0:0:
236,95,106066,1,0,3:0:0:0:
427,280,106229,2,0,L|438:159,1,97.9999970092774,8|0,3:2|3:0,0:0:0:0:
357,319,106555,1,8,3:2:0:0:
170,249,106719,2,0,L|179:152,1,97.9999970092774,0|8,3:0|3:2,0:0:0:0:
71,371,107045,102,0,L|52:250,1,97.9999970092774,0|8,3:0|3:2,0:0:0:0:
222,348,107371,1,0,3:0:0:0:
86,150,107534,1,8,3:2:0:0:
263,54,107697,1,0,3:0:0:0:
236,277,107860,1,8,3:2:0:0:
415,235,108023,1,0,3:0:0:0:
370,100,108186,1,8,3:2:0:0:
370,100,108267,1,0,3:0:0:0:
370,100,108349,1,0,3:0:0:0:
512,146,108512,6,0,L|393:164,1,97.9999970092774,0|0,3:2|0:0,0:0:0:0:
64,198,108838,1,2,0:0:0:0:
64,198,109164,1,8,0:0:0:0:
104,132,109327,1,0,0:0:0:0:
175,101,109490,1,0,0:0:0:0:
251,116,109653,1,0,0:0:0:0:
305,171,109816,1,0,3:0:0:0:
318,247,109979,101,0,3:0:0:0:
310,249,110060,1,0,3:0:0:0:
302,252,110142,1,0,3:0:0:0:
295,255,110223,1,0,3:0:0:0:
287,258,110305,1,0,3:0:0:0:
279,261,110386,1,0,3:0:0:0:
272,264,110469,2,0,L|261:371,1,97.9999970092774,8|0,3:2|0:0,0:0:0:0:
436,328,110795,5,8,3:2:0:0:
456,314,110876,1,8,3:2:0:0:
469,294,110958,1,0,3:0:0:0:
472,270,111039,1,0,3:0:0:0:
466,246,111121,1,4,3:2:0:0:
486,131,111284,101,8,3:2:0:0:
458,154,111365,1,8,3:2:0:0:
426,172,111447,1,0,3:0:0:0:
391,183,111528,1,0,3:0:0:0:
354,187,111610,1,4,3:2:0:0:
224,32,111773,5,8,3:2:0:0:
246,75,111854,1,8,3:2:0:0:
262,121,111936,1,0,3:0:0:0:
273,169,112017,1,0,3:0:0:0:
277,218,112099,1,4,3:2:0:0:
54,281,112262,101,8,3:2:0:0:
31,237,112343,1,8,3:2:0:0:
15,191,112425,1,0,3:0:0:0:
4,143,112506,1,0,3:0:0:0:
0,94,112588,1,4,3:2:0:0:
132,243,112751,5,8,3:2:0:0:
132,243,112833,1,8,3:2:0:0:
132,243,112914,1,0,3:0:0:0:
132,243,112996,1,0,3:0:0:0:
132,243,113077,2,0,B|246:213|204:320|326:284,1,210,4|0,3:2|0:0,0:0:0:0:
429,264,113729,5,4,3:1:0:0:
433,232,113810,1,0,3:0:0:0:
438,201,113892,1,0,3:0:0:0:
443,170,113973,1,0,3:0:0:0:
448,139,114055,2,0,L|518:120,3,62.9999980773926,8|0|0|0,3:2|3:0|3:0|3:0,0:0:0:0:
396,75,114382,5,12,3:2:0:0:
351,41,114463,1,0,3:0:0:0:
296,46,114545,1,0,3:0:0:0:
258,86,114626,1,0,3:0:0:0:
258,141,114708,2,0,L|270:217,3,62.9999980773926,8|0|0|0,3:2|3:0|3:0|3:0,0:0:0:0:
278,281,115034,101,12,3:2:0:0:
233,315,115115,1,0,3:0:0:0:
178,310,115197,1,0,3:0:0:0:
140,270,115278,1,0,3:0:0:0:
140,215,115360,2,0,L|152:139,3,62.9999980773926,8|0|0|0,3:2|3:0|3:0|3:0,0:0:0:0:
161,77,115686,5,12,3:2:0:0:
116,43,115767,1,0,3:0:0:0:
61,48,115849,1,0,3:0:0:0:
23,88,115930,1,0,3:0:0:0:
23,143,116012,2,0,L|35:219,3,62.9999980773926,8|0|0|0,3:2|3:0|3:0|3:0,0:0:0:0:
45,287,116338,101,10,3:2:0:0:
64,290,116419,1,0,3:0:0:0:
83,293,116501,1,0,3:0:0:0:
103,296,116582,1,0,3:0:0:0:
122,300,116664,1,8,3:2:0:0:
142,303,116745,1,0,3:0:0:0:
161,306,116827,1,2,3:2:0:0:
180,309,116908,1,0,3:0:0:0:
200,313,116990,1,8,3:2:0:0:
219,316,117071,1,0,3:0:0:0:
239,319,117153,1,0,3:0:0:0:
258,322,117234,1,0,3:0:0:0:
277,326,117316,1,10,3:2:0:0:
297,329,117397,1,0,3:0:0:0:
316,332,117479,1,0,3:0:0:0:
336,335,117560,1,0,3:0:0:0:
355,339,117642,6,0,L|339:278,3,62.9999980773926,8|0|0|0,3:2|3:0|3:0|3:0,0:0:0:0:
424,303,117969,2,0,L|408:242,3,62.9999980773926,8|0|0|0,3:2|3:2|3:2|3:2,0:0:0:0:
488,384,118295,101,8,3:2:0:0:
491,368,118376,1,0,3:0:0:0:
494,353,118458,1,0,3:0:0:0:
497,337,118539,1,0,3:0:0:0:
500,322,118621,2,0,L|419:341,1,62.9999980773926,10|0,3:2|3:0,0:0:0:0:
377,384,118784,2,0,L|296:365,1,62.9999980773926,2|0,3:2|3:0,0:0:0:0:
123,328,118947,5,12,3:2:0:0:
82,299,119028,1,0,3:0:0:0:
57,255,119110,1,0,3:0:0:0:
54,205,119191,1,0,3:0:0:0:
73,159,119273,1,8,3:2:0:0:
110,125,119354,1,0,3:0:0:0:
158,111,119436,1,0,3:0:0:0:
207,119,119517,1,0,3:0:0:0:
242,145,119599,102,0,P|242:203|216:292,1,125.999996154785,10|0,3:2|3:0,0:0:0:0:
318,280,119844,2,0,P|318:222|344:133,1,125.999996154785,2|0,3:2|3:0,0:0:0:0:
419,190,120088,2,0,L|405:109,1,62.9999980773926,2|0,3:2|3:0,0:0:0:0:
353,68,120251,2,0,L|364:-4,7,62.9999980773926,12|0|0|0|8|0|0|0,3:2|3:0|3:0|3:0|3:2|3:0|3:0|3:0,0:0:0:0:
270,92,120903,6,0,P|202:76|129:115,1,125.999996154785,10|0,3:2|3:0,0:0:0:0:
74,57,121148,2,0,P|51:139|6:193,1,125.999996154785,2|0,3:2|3:0,0:0:0:0:
2,259,121392,2,0,L|83:237,1,62.9999980773926,2|0,3:2|3:0,0:0:0:0:
234,356,121555,2,0,L|305:368,7,62.9999980773926,12|0|0|0|8|0|0|0,3:2|3:0|3:0|3:0|3:2|3:0|3:0|3:0,0:0:0:0:
379,370,122208,102,0,P|324:339|293:285,1,125.999996154785,10|0,3:2|3:0,0:0:0:0:
353,218,122452,2,0,P|407:248|438:302,1,125.999996154785,2|0,3:2|3:0,0:0:0:0:
487,220,122697,2,0,L|496:138,1,62.9999980773926,2|0,3:2|3:0,0:0:0:0:
303,69,122860,2,0,L|317:158,7,62.9999980773926,12|0|0|0|8|0|0|0,3:2|3:0|3:0|3:0|3:2|3:0|3:0|3:0,0:0:0:0:
340,260,123512,5,8,3:2:0:0:
294,279,123593,1,8,3:2:0:0:
245,270,123675,1,8,3:2:0:0:
209,236,123756,1,8,3:2:0:0:
197,187,123838,1,8,3:2:0:0:
221,144,123919,1,8,3:2:0:0:
206,97,124001,1,8,3:2:0:0:
163,74,124082,1,8,3:2:0:0:
116,89,124164,101,4,3:1:0:0:
147,93,124245,1,0,3:0:0:0:
178,98,124327,1,8,3:2:0:0:
210,103,124408,1,0,3:0:0:0:
241,108,124490,2,0,L|233:37,3,62.9999980773926,0|0|8|0,3:2|3:0|3:2|3:0,0:0:0:0:
302,2,124816,5,4,3:2:0:0:
357,1,124897,1,0,3:0:0:0:
401,35,124979,1,8,3:2:0:0:
413,90,125060,1,0,3:0:0:0:
388,139,125142,2,0,L|397:68,3,62.9999980773926,0|0|8|0,3:2|3:0|3:2|3:0,0:0:0:0:
315,94,125469,101,4,3:2:0:0:
259,93,125550,1,0,3:0:0:0:
215,127,125632,1,8,3:2:0:0:
203,182,125713,1,0,3:0:0:0:
228,231,125795,2,0,L|219:159,3,62.9999980773926,0|0|8|0,3:2|3:0|3:2|3:0,0:0:0:0:
301,190,126121,5,4,3:2:0:0:
356,189,126202,1,0,3:0:0:0:
400,223,126284,1,8,3:2:0:0:
412,278,126365,1,0,3:0:0:0:
387,327,126447,2,0,L|395:255,3,62.9999980773926,0|0|8|0,3:2|3:0|3:2|3:0,0:0:0:0:
312,335,126773,101,4,3:2:0:0:
277,370,126854,1,0,3:0:0:0:
229,384,126936,1,8,3:2:0:0:
181,372,127017,1,0,3:0:0:0:
145,337,127099,1,0,3:2:0:0:
132,289,127180,1,0,3:0:0:0:
145,241,127262,1,12,3:2:0:0:
180,206,127343,1,0,3:0:0:0:
228,193,127425,1,0,3:2:0:0:
269,165,127506,1,0,3:0:0:0:
291,120,127588,1,8,3:2:0:0:
286,71,127669,1,0,3:0:0:0:
256,31,127751,1,4,3:2:0:0:
209,13,127832,1,0,3:0:0:0:
160,22,127914,1,8,3:2:0:0:
123,54,127995,1,0,3:0:0:0:
108,102,128077,6,0,L|198:85,3,62.9999980773926,4|0|8|0,3:2|3:0|3:2|3:0,0:0:0:0:
81,30,128403,2,0,L|170:12,3,62.9999980773926,0|0|8|0,3:2|3:0|3:2|3:0,0:0:0:0:
36,139,128729,101,0,3:2:0:0:
36,139,128811,1,0,3:0:0:0:
36,139,128892,2,0,L|46:215,1,62.9999980773926,10|0,3:2|3:0,0:0:0:0:
256,264,129055,2,0,L|330:296,1,62.9999980773926,2|0,3:2|3:0,0:0:0:0:
115,146,129219,2,0,L|125:222,1,62.9999980773926,10|0,3:2|3:0,0:0:0:0:
386,316,129382,5,0,3:2:0:0:
440,302,129463,1,0,3:0:0:0:
483,265,129545,1,8,3:2:0:0:
504,213,129626,1,0,3:0:0:0:
499,157,129708,1,0,3:2:0:0:
469,110,129789,1,0,3:0:0:0:
420,81,129871,1,8,3:2:0:0:
364,78,129952,1,0,3:0:0:0:
315,101,130034,1,0,3:2:0:0:
277,144,130115,1,0,3:0:0:0:
265,198,130197,1,8,3:2:0:0:
224,236,130278,1,0,3:0:0:0:
169,243,130360,1,0,3:2:0:0:
120,216,130441,1,0,3:0:0:0:
96,166,130523,1,8,3:2:0:0:
107,111,130604,1,0,3:0:0:0:
148,73,130686,102,0,L|135:2,3,62.9999980773926,0|0|8|0,3:2|3:0|3:2|3:0,0:0:0:0:
226,77,131012,2,0,L|212:5,3,62.9999980773926,4|0|8|0,3:2|3:0|3:2|3:0,0:0:0:0:
300,112,131338,6,0,P|361:75|437:98,1,125.999996154785,2|8,3:2|3:2,0:0:0:0:
446,155,131583,2,0,P|398:207|411:288,1,125.999996154785,10|8,3:2|3:2,0:0:0:0:
346,374,131827,2,0,L|326:285,1,62.9999980773926,10|8,3:2|3:2,0:0:0:0:
272,252,131990,101,0,3:2:0:0:
235,275,132071,1,0,3:0:0:0:
192,285,132153,1,8,3:2:0:0:
149,280,132234,1,0,3:0:0:0:
110,259,132316,1,0,3:2:0:0:
80,227,132398,1,0,3:0:0:0:
64,186,132479,1,8,3:2:0:0:
62,142,132560,1,0,3:0:0:0:
76,101,132642,1,0,3:2:0:0:
104,67,132723,1,0,3:0:0:0:
142,44,132805,1,8,3:2:0:0:
185,36,132886,1,0,3:0:0:0:
228,43,132969,2,0,L|239:125,3,62.9999980773926,0|0|8|0,3:2|3:0|3:2|3:0,0:0:0:0:
294,6,133295,5,8,3:2:0:0:
356,10,133376,1,0,3:0:0:0:
407,45,133458,1,0,3:0:0:0:
432,102,133539,1,0,3:0:0:0:
424,164,133621,1,8,3:2:0:0:
386,213,133702,1,0,3:0:0:0:
327,235,133784,1,0,3:0:0:0:
266,223,133865,1,0,3:0:0:0:
220,182,133947,102,0,L|233:110,1,62.9999980773926,10|0,3:2|3:0,0:0:0:0:
364,113,134110,2,0,L|377:41,1,62.9999980773926,2|0,3:2|3:0,0:0:0:0:
155,217,134273,6,0,L|168:289,1,62.9999980773926,10|0,3:2|3:0,0:0:0:0:
429,298,134436,2,0,L|442:370,1,62.9999980773926,2|0,3:2|3:0,0:0:0:0:
12,189,134599,38,0,B|67:166|67:166|152:233|235:171,1,224,4|4,3:1|0:0,0:0:0:0:
219,181,135577,1,4,3:0:0:0:
355,240,135740,1,4,3:0:0:0:
387,51,135903,6,0,P|314:42|278:131,1,168,4|0,3:1|0:0,0:0:0:0:
500,195,136555,1,8,3:2:0:0:
500,195,136637,1,8,3:2:0:0:
500,195,136719,1,8,3:2:0:0:
500,195,136800,1,8,3:2:0:0:
500,195,136882,1,4,3:0:0:0:
500,195,136963,1,4,3:0:0:0:
500,195,137045,1,4,3:0:0:0:
500,195,137126,1,4,3:0:0:0:
500,195,137208,102,0,B|445:218|445:218|360:151|277:213,1,224,4|4,3:1|0:0,0:0:0:0:
292,202,138186,1,4,3:0:0:0:
406,112,138349,1,4,3:0:0:0:
270,10,138512,6,0,P|286:55|298:125,1,112,4|0,3:1|0:0,0:0:0:0:
208,106,139001,1,0,3:0:0:0:
208,106,139083,1,0,3:0:0:0:
208,106,139164,2,0,L|217:61,1,28,8|8,3:2|3:2,0:0:0:0:
136,16,139327,2,0,L|145:61,1,28,8|8,3:2|3:2,0:0:0:0:
43,236,139490,2,0,L|121:221,1,56,12|0,3:2|0:0,0:0:0:0:
142,159,139816,102,0,P|180:102|337:119,1,224,4|4,3:1|0:0,0:0:0:0:
322,104,140795,1,4,3:0:0:0:
472,7,140958,1,4,3:0:0:0:
478,254,141121,6,0,B|475:164|408:210|400:95,1,168,4|0,3:1|0:0,0:0:0:0:
494,88,141773,2,0,L|478:134,1,28,0|0,3:0|0:0,0:0:0:0:
429,321,141936,101,0,3:0:0:0:
429,321,142017,1,0,3:0:0:0:
429,321,142099,1,0,3:0:0:0:
429,321,142180,1,0,3:0:0:0:
429,321,142262,1,0,3:0:0:0:
429,321,142344,1,0,3:0:0:0:
429,321,142425,2,0,L|371:335,1,41.9999987182618,0|0,3:0|3:0,0:0:0:0:
238,375,142588,5,8,3:2:0:0:
196,378,142669,1,8,3:2:0:0:
161,356,142751,1,0,3:0:0:0:
147,317,142832,1,0,3:0:0:0:
158,278,142914,2,0,L|217:287,1,41.9999987182618,8|0,3:2|3:0,0:0:0:0:
287,291,143077,101,8,3:2:0:0:
318,264,143158,1,8,3:2:0:0:
327,223,143240,1,0,3:0:0:0:
309,186,143321,1,0,3:0:0:0:
274,166,143403,2,0,L|220:185,1,41.9999987182618,8|0,3:2|3:0,0:0:0:0:
19,250,143566,5,8,3:2:0:0:
21,239,143647,1,8,3:2:0:0:
23,229,143729,1,0,3:0:0:0:
25,219,143810,1,0,3:0:0:0:
27,208,143892,2,0,L|83:224,1,41.9999987182618,8|0,3:2|0:0,0:0:0:0:
35,292,144055,2,0,L|91:308,1,41.9999987182618,8|0,0:2|0:0,0:0:0:0:
301,371,144219,101,8,3:2:0:0:
301,371,144300,1,8,3:2:0:0:
301,371,144382,1,8,3:2:0:0:
368,145,144545,1,8,3:2:0:0:
142,78,144708,1,8,3:2:0:0:
75,303,144871,1,8,3:2:0:0:
301,371,145034,22,0,L|283:216,1,140,4|0,3:1|3:0,0:0:0:0:
387,283,145523,1,0,3:0:0:0:
416,52,145686,2,0,P|482:59|503:151,1,140,8|2,0:0|0:0,0:0:0:0:
433,217,146175,1,2,0:0:0:0:
334,40,146338,6,0,L|256:29,1,70,2|8,3:2|0:0,0:0:0:0:
118,81,146664,2,0,L|108:125,1,35,0|0,3:0|0:0,0:0:0:0:
288,160,146827,2,0,L|294:211,1,35,0|0,3:0|0:0,0:0:0:0:
240,263,146990,1,8,0:0:0:0:
240,263,147316,2,0,L|152:248,1,70,0|0,3:0|0:0,0:0:0:0:
384,341,147642,102,0,L|212:358,1,140,4|0,3:2|3:0,0:0:0:0:
54,376,148132,1,0,3:0:0:0:
215,186,148295,2,0,P|154:186|138:278,1,140,8|2,0:0|0:0,0:0:0:0:
244,354,148784,1,2,0:0:0:0:
301,163,148947,5,2,3:2:0:0:
490,254,149110,1,8,0:0:0:0:
358,251,149273,2,0,L|362:205,1,35,0|0,3:0|0:0,0:0:0:0:
450,118,149436,2,0,L|445:73,1,35,0|0,3:0|0:0,0:0:0:0:
437,6,149599,1,8,0:0:0:0:
437,6,149925,2,0,L|353:25,1,70,0|0,3:0|0:0,0:0:0:0:
200,80,150251,102,0,L|360:104,1,140,4|0,3:2|3:0,0:0:0:0:
167,7,150740,1,0,3:0:0:0:
134,245,150903,2,0,P|83:238|64:152,1,140,8|2,0:0|0:0,0:0:0:0:
264,128,151392,1,2,0:0:0:0:
221,290,151555,6,0,L|211:202,1,70,2|8,3:2|0:0,0:0:0:0:
384,220,151882,2,0,L|346:203,1,35,0|0,3:0|0:0,0:0:0:0:
151,103,152045,2,0,L|189:86,1,35,0|0,3:0|0:0,0:0:0:0:
266,47,152208,1,8,0:0:0:0:
266,47,152534,2,0,L|260:129,1,70,0|0,3:0|0:0,0:0:0:0:
252,213,152860,101,12,0:2:0:0:
396,268,153023,1,0,3:0:0:0:
453,124,153186,1,4,3:0:0:0:
374,142,153349,1,0,3:0:0:0:
504,299,153512,5,4,3:0:0:0:
396,65,153675,1,0,3:0:0:0:
279,290,153838,1,8,0:2:0:0:
193,128,154001,1,0,3:0:0:0:
14,234,154164,102,0,L|68:242,1,35,8|0,3:2|0:0,0:0:0:0:
203,261,154327,1,8,3:2:0:0:
203,261,154409,1,8,3:2:0:0:
203,261,154490,1,8,3:2:0:0:
171,54,154653,2,0,L|224:44,1,35,8|0,3:2|0:0,0:0:0:0:
401,109,154816,5,8,3:2:0:0:
346,338,154979,1,8,3:2:0:0:
116,283,155142,1,8,3:2:0:0:
171,54,155305,1,8,3:2:0:0:
401,109,155469,102,0,P|376:55|290:45,1,125.999996154785,4|0,3:1|0:0,0:0:0:0:
315,36,155795,1,0,3:0:0:0:
221,192,155958,1,0,3:0:0:0:
85,64,156121,2,0,L|68:168,1,83.9999974365235,8|0,0:0|0:0,0:0:0:0:
83,154,156365,1,2,0:2:0:0:
95,161,156447,1,2,3:2:0:0:
106,169,156528,1,2,0:2:0:0:
118,177,156610,1,2,0:2:0:0:
130,184,156691,1,2,0:2:0:0:
142,192,156773,5,2,3:2:0:0:
10,287,156936,1,8,0:0:0:0:
176,350,157099,1,0,3:0:0:0:
223,166,157262,1,0,3:0:0:0:
106,384,157425,102,0,L|84:203,1,167.999994873047,8|0,0:0|3:0,0:0:0:0:
302,207,157914,1,0,3:0:0:0:
203,272,158077,6,0,L|217:106,1,125.999996154785,4|0,3:2|0:0,0:0:0:0:
213,146,158403,1,0,3:0:0:0:
384,234,158566,1,0,3:0:0:0:
450,58,158729,2,0,P|396:38|345:56,1,83.9999974365235,8|0,0:0|0:0,0:0:0:0:
480,164,159055,2,0,L|429:175,1,41.9999987182618,2|0,3:2|0:0,0:0:0:0:
320,106,159219,2,0,L|269:95,1,41.9999987182618,2|0,0:0|0:0,0:0:0:0:
199,79,159382,101,2,3:2:0:0:
371,42,159545,1,8,0:0:0:0:
304,269,159708,1,0,3:0:0:0:
156,162,159871,1,0,3:0:0:0:
429,101,160034,6,0,P|496:115|505:215,1,167.999994873047,8|0,0:0|3:0,0:0:0:0:
365,147,160523,1,0,3:0:0:0:
502,284,160686,102,0,P|432:302|364:347,1,125.999996154785,4|0,3:2|0:0,0:0:0:0:
385,328,161012,1,0,3:0:0:0:
164,380,161175,1,0,3:0:0:0:
323,372,161338,2,0,L|226:349,1,83.9999974365235,8|0,0:0|0:0,0:0:0:0:
245,184,161664,2,0,L|253:231,1,41.9999987182618,2|0,3:2|0:0,0:0:0:0:
45,266,161827,2,0,L|32:316,1,41.9999987182618,2|0,0:0|0:0,0:0:0:0:
11,384,161990,5,2,3:2:0:0:
196,274,162153,1,8,0:0:0:0:
14,175,162316,1,0,3:0:0:0:
126,318,162479,1,0,3:0:0:0:
212,113,162642,102,0,L|44:99,1,167.999994873047,8|0,0:0|3:0,0:0:0:0:
281,58,163132,1,0,3:0:0:0:
90,12,163295,6,0,P|114:60|138:150,1,125.999996154785,4|0,3:2|0:0,0:0:0:0:
134,129,163621,1,0,3:0:0:0:
69,273,163784,1,0,3:0:0:0:
238,351,163947,2,0,P|230:288|231:243,1,83.9999974365235,8|0,0:0|0:0,0:0:0:0:
274,154,164273,2,0,L|282:211,1,41.9999987182618,2|0,3:2|0:0,0:0:0:0:
467,300,164436,2,0,L|474:250,1,41.9999987182618,2|0,0:2|0:0,0:0:0:0:
489,176,164599,101,2,3:2:0:0:
350,239,164762,1,8,0:0:0:0:
505,88,164925,1,0,3:0:0:0:
259,32,165088,1,0,3:0:0:0:
407,15,165251,6,0,L|415:68,1,41.9999987182618,8|0,0:0|0:0,0:0:0:0:
434,152,165414,1,0,3:0:0:0:
189,77,165577,102,0,L|181:138,1,41.9999987182618,8|0,0:0|0:0,0:0:0:0:
159,329,165740,1,0,3:0:0:0:
416,234,165903,6,0,P|339:224|320:174,1,125.999996154785,4|0,3:2|0:0,0:0:0:0:
320,186,166229,1,0,3:0:0:0:
424,49,166392,1,0,3:0:0:0:
512,197,166555,2,0,P|495:248|485:295,1,83.9999974365235,8|0,0:0|0:0,0:0:0:0:
341,272,166882,2,0,L|294:286,1,41.9999987182618,2|0,3:2|0:0,0:0:0:0:
454,141,167045,2,0,L|407:127,1,41.9999987182618,2|0,0:2|0:0,0:0:0:0:
339,108,167208,101,2,3:2:0:0:
417,318,167371,1,8,0:0:0:0:
183,363,167534,1,0,3:0:0:0:
280,165,167697,1,0,3:0:0:0:
104,96,167860,6,0,L|133:280,1,167.999994873047,8|0,0:0|3:0,0:0:0:0:
285,261,168349,1,0,3:0:0:0:
221,8,168512,102,0,P|195:60|213:152,1,125.999996154785,4|0,3:2|0:0,0:0:0:0:
199,126,168838,1,0,3:0:0:0:
397,216,169001,1,0,3:0:0:0:
365,33,169164,2,0,P|370:95|343:151,1,125.999996154785,8|0,0:2|0:0,0:0:0:0:
343,151,169490,2,0,L|289:139,1,41.9999987182618,2|0,3:2|0:0,0:0:0:0:
144,268,169653,2,0,L|196:255,1,41.9999987182618,2|0,0:2|0:0,0:0:0:0:
265,235,169816,5,2,3:2:0:0:
81,117,169979,1,8,0:0:0:0:
298,27,170142,1,0,3:0:0:0:
226,161,170305,1,0,3:0:0:0:
59,27,170469,102,0,P|37:86|52:206,1,167.999994873047,8|0,0:0|3:0,0:0:0:0:
233,79,170958,1,0,3:0:0:0:
424,153,171121,6,0,L|284:135,1,125.999996154785,4|0,3:2|0:0,0:0:0:0:
299,136,171447,1,0,3:0:0:0:
406,247,171610,1,0,3:0:0:0:
224,348,171773,2,0,L|132:358,1,83.9999974365235,8|0,0:0|0:0,0:0:0:0:
294,384,172099,1,0,3:0:0:0:
380,169,172262,1,0,3:0:0:0:
120,157,172425,102,0,P|142:206|153:254,1,83.9999974365235,4|8,3:2|0:0,0:0:0:0:
38,150,172751,1,0,3:0:0:0:
38,150,172914,1,0,3:0:0:0:
258,114,173077,6,0,P|269:55|288:18,1,83.9999974365235,12|0,0:2|0:0,0:0:0:0:
395,245,173403,1,0,3:0:0:0:
395,245,173566,1,0,3:0:0:0:
488,116,173729,101,12,3:2:0:0:
281,190,173892,1,0,3:0:0:0:
411,356,174055,1,4,3:0:0:0:
465,197,174219,1,0,3:0:0:0:
177,184,174382,5,4,3:0:0:0:
343,304,174545,1,0,3:0:0:0:
294,70,174708,1,8,3:2:0:0:
85,200,174871,1,0,3:0:0:0:
131,358,175034,102,0,L|196:343,1,41.9999987182618,8|8,3:2|3:2,0:0:0:0:
343,304,175197,1,8,3:2:0:0:
343,304,175278,1,8,3:2:0:0:
343,304,175360,1,8,3:2:0:0:
217,283,175523,5,8,3:2:0:0:
219,262,175604,1,8,3:2:0:0:
222,241,175686,1,8,3:2:0:0:
224,220,175767,1,8,3:2:0:0:
227,199,175849,1,8,3:2:0:0:
384,192,176012,101,8,3:2:0:0:
378,150,176093,1,8,3:2:0:0:
372,108,176175,1,8,3:2:0:0:
366,67,176256,1,8,3:2:0:0:
360,25,176338,1,12,3:3:0:0:
52,62,177642,5,0,3:0:0:0:
277,18,177805,2,0,L|265:81,1,41.9999987182618,8|0,3:2|0:0,0:0:0:0:
373,185,177969,1,8,3:2:0:0:
369,153,178050,1,8,3:2:0:0:
365,122,178132,1,4,3:0:0:0:
361,91,178213,1,4,3:0:0:0:
357,59,178295,1,0,3:2:0:0:
450,258,179599,101,0,3:0:0:0:
208,339,179762,2,0,L|147:332,1,41.9999987182618,8|0,3:2|0:0,0:0:0:0:
383,200,179925,1,8,3:2:0:0:
331,193,180006,1,8,3:2:0:0:
288,221,180088,1,8,3:2:0:0:
272,270,180169,1,8,3:2:0:0:
291,317,180251,1,0,3:2:0:0:
26,269,181229,5,8,3:2:0:0:
28,258,181310,1,8,3:2:0:0:
31,248,181392,1,4,3:0:0:0:
34,238,181473,1,4,3:0:0:0:
37,228,181555,1,0,3:0:0:0:
167,187,181719,102,0,L|-33:214,1,167.999994873047,12|0,0:0|0:0,0:0:0:0:
295,348,182208,2,0,L|495:375,1,167.999994873047,4|0,0:0|0:0,0:0:0:0:
461,370,182860,5,0,0:0:0:0:
512,296,183023,2,0,L|498:240,1,41.9999987182618,8|0,3:0|0:0,0:0:0:0:
351,221,183186,1,8,0:0:0:0:
354,189,183267,1,8,0:0:0:0:
358,158,183349,1,8,0:0:0:0:
361,127,183430,1,8,0:0:0:0:
365,95,183512,1,0,3:0:0:0:
483,124,183675,102,0,L|425:142,1,41.9999987182618,8|0,0:0|0:0,0:0:0:0:
311,26,183838,1,8,0:0:0:0:
262,9,183919,1,8,0:0:0:0:
213,26,184001,1,8,0:0:0:0:
184,69,184082,1,8,0:0:0:0:
188,120,184164,2,0,L|207:218,1,83.9999974365235,0|0,3:0|0:0,0:0:0:0:
43,156,184490,6,0,L|90:167,1,41.9999987182618,8|0,0:0|0:0,0:0:0:0:
302,166,184653,1,8,0:0:0:0:
296,193,184734,1,8,0:0:0:0:
291,220,184816,1,8,0:0:0:0:
285,248,184897,1,8,0:0:0:0:
280,275,184979,2,0,L|295:341,3,41.9999987182618
241,103,185305,101,0,3:0:0:0:
241,103,185387,1,0,3:0:0:0:
241,103,185469,1,0,3:0:0:0:
381,191,185632,2,0,L|430:201,1,41.9999987182618,8|0,0:0|0:0,0:0:0:0:
203,304,185795,2,0,L|154:314,1,41.9999987182618,8|0,0:0|0:0,0:0:0:0:
512,225,185958,5,0,3:0:0:0:
512,225,186039,1,0,3:0:0:0:
512,225,186121,2,0,L|492:323,1,83.9999974365235,0|0,3:0|0:0,0:0:0:0:
454,152,186447,102,0,L|445:92,1,41.9999987182618,8|0,0:0|0:0,0:0:0:0:
339,250,186610,1,8,0:0:0:0:
299,260,186691,1,8,0:0:0:0:
260,245,186773,1,8,0:0:0:0:
239,210,186854,1,8,0:0:0:0:
242,169,186936,1,8,0:0:0:0:
270,138,187017,1,8,0:0:0:0:
310,129,187099,1,8,0:0:0:0:
338,100,187180,1,8,0:0:0:0:
335,59,187262,1,8,0:0:0:0:
303,33,187343,1,8,0:0:0:0:
263,38,187425,6,0,L|256:100,1,41.9999987182618,8|0,0:0|3:0,0:0:0:0:
347,30,187588,2,0,L|339:91,1,41.9999987182618,8|0,0:0|3:0,0:0:0:0:
329,180,187751,101,8,0:0:0:0:
278,167,187832,1,8,0:0:0:0:
227,154,187914,1,8,0:0:0:0:
176,141,187995,1,8,0:0:0:0:
125,128,188077,1,0,3:0:0:0:
125,128,188403,5,0,3:0:0:0:
152,226,188566,1,0,3:0:0:0:
195,63,188729,1,0,3:0:0:0:
241,255,188892,1,0,3:0:0:0:
334,173,189055,102,0,L|393:186,1,41.9999987182618,8|0,0:0|0:0,0:0:0:0:
125,128,189219,2,0,L|66:115,1,41.9999987182618,8|0,0:0|0:0,0:0:0:0:
296,98,189382,1,0,3:0:0:0:
235,382,189545,6,0,L|245:329,1,41.9999987182618,8|0,0:0|0:0,0:0:0:0:
465,239,189708,2,0,L|453:188,3,41.9999987182618
296,98,190034,101,2,3:2:0:0:
296,56,190115,1,2,3:2:0:0:
318,21,190197,1,2,3:2:0:0:
356,4,190278,1,2,3:2:0:0:
397,11,190360,1,10,3:2:0:0:
428,38,190441,1,2,3:2:0:0:
439,78,190523,1,10,3:2:0:0:
426,118,190604,1,10,3:2:0:0:
394,144,190686,2,0,L|399:87,3,41.9999987182618,10|10|10|10,3:2|3:2|3:2|3:2,0:0:0:0:
473,287,191012,5,10,3:2:0:0:
440,324,191093,1,10,3:2:0:0:
392,337,191175,1,2,3:2:0:0:
345,321,191256,1,2,3:2:0:0:
314,282,191338,1,10,3:2:0:0:
312,232,191419,1,10,3:2:0:0:
322,183,191501,1,2,3:2:0:0:
310,134,191583,1,2,3:2:0:0:
279,95,191664,1,10,3:2:0:0:
234,73,191746,1,10,3:2:0:0:
184,72,191827,1,2,3:2:0:0:
138,93,191909,1,2,3:2:0:0:
106,131,191990,102,0,P|115:196|117:242,1,97.9999970092774,4|8,3:1|0:0,0:0:0:0:
405,206,192316,2,0,P|396:141|394:95,1,97.9999970092774,0|8,3:0|0:0,0:0:0:0:
394,108,192642,1,0,3:0:0:0:
492,233,192805,1,10,0:2:0:0:
333,268,192969,1,2,3:2:0:0:
483,96,193132,1,10,0:2:0:0:
322,35,193295,6,0,L|307:142,1,97.9999970092774,0|8,3:0|0:0,0:0:0:0:
79,97,193621,2,0,L|94:-10,1,97.9999970092774,0|8,3:0|0:0,0:0:0:0:
33,286,193947,2,0,P|96:282|127:223,1,97.9999970092774,2|8,3:2|0:0,0:0:0:0:
90,186,194191,2,0,P|27:190|-4:249,1,97.9999970092774,2|0,3:2|3:0,0:0:0:0:
193,303,194436,2,0,L|201:246,1,48.9999985046387,10|0,0:2|0:0,0:0:0:0:
496,238,194599,102,0,L|516:357,1,97.9999970092774,2|8,3:2|0:0,0:0:0:0:
512,334,194925,1,0,3:0:0:0:
334,275,195088,2,0,L|342:168,1,97.9999970092774,10|0,0:2|3:0,0:0:0:0:
405,326,195414,1,8,0:0:0:0:
121,377,195577,2,0,L|109:272,1,97.9999970092774,2|8,3:2|0:0,0:0:0:0:
91,32,195903,6,0,P|62:84|60:138,1,97.9999970092774,0|8,3:0|0:0,0:0:0:0:
328,206,196229,2,0,P|357:154|359:100,1,97.9999970092774,0|8,3:0|0:0,0:0:0:0:
360,116,196555,1,0,3:0:0:0:
168,18,196719,2,0,L|177:73,1,48.9999985046387,10|0,0:2|0:0,0:0:0:0:
283,86,196882,2,0,L|277:140,1,48.9999985046387,2|0,3:2|0:0,0:0:0:0:
8,187,197045,2,0,L|19:239,1,48.9999985046387,10|0,0:2|0:0,0:0:0:0:
41,316,197208,101,2,3:2:0:0:
81,340,197289,1,2,0:0:0:0:
127,328,197371,1,10,0:0:0:0:
148,285,197452,1,2,0:0:0:0:
132,241,197534,1,2,3:2:0:0:
146,195,197615,1,2,0:0:0:0:
189,174,197697,1,10,0:0:0:0:
233,191,197778,1,2,0:0:0:0:
252,235,197860,6,0,L|314:244,3,48.9999985046387,2|2|10|2,3:2|0:0|0:0|3:2,0:0:0:0:
263,315,198186,2,0,L|324:323,3,48.9999985046387,2|2|10|2,0:2|3:2|0:0|0:0,0:0:0:0:
384,374,198512,101,2,3:2:0:0:
431,380,198593,1,2,0:0:0:0:
468,350,198675,1,10,0:0:0:0:
473,303,198756,1,2,0:0:0:0:
442,266,198838,1,2,3:2:0:0:
395,263,198919,1,2,0:0:0:0:
367,224,199001,1,10,0:0:0:0:
387,182,199083,1,2,0:0:0:0:
434,178,199164,6,0,L|444:117,3,48.9999985046387,2|2|10|2,3:2|0:0|0:0|3:2,0:0:0:0:
358,147,199490,2,0,L|367:85,3,48.9999985046387,2|2|10|2,0:2|3:2|0:0|0:0,0:0:0:0:
321,28,199816,102,0,L|257:41,1,48.9999985046387,2|0,3:2|0:0,0:0:0:0:
122,163,199979,1,10,0:0:0:0:
122,163,200061,1,2,0:0:0:0:
122,163,200142,2,0,L|51:152,1,48.9999985046387,2|0,3:2|0:0,0:0:0:0:
146,302,200305,1,10,0:0:0:0:
146,302,200387,1,2,0:0:0:0:
146,302,200468,2,0,L|75:313,1,48.9999985046387,2|0,3:2|0:0,0:0:0:0:
51,376,200632,1,10,0:0:0:0:
51,376,200714,1,2,0:0:0:0:
51,376,200795,2,0,L|-20:365,1,48.9999985046387,2|0,3:2|0:0,0:0:0:0:
290,296,200958,5,10,0:0:0:0:
290,296,201039,1,2,0:0:0:0:
290,296,201121,2,0,L|276:228,3,48.9999985046387,2|0|8|0,3:2|0:0|0:0|0:0,0:0:0:0:
221,179,201447,2,0,L|172:172,3,48.9999985046387,0|0|8|0,3:0|0:0|0:0|0:0,0:0:0:0:
364,265,201773,2,0,L|350:197,3,48.9999985046387,0|0|8|0,3:0|0:0|0:0|0:0,0:0:0:0:
423,167,202099,101,0,3:0:0:0:
426,142,202180,1,0,3:0:0:0:
429,118,202262,1,0,3:0:0:0:
432,94,202343,1,0,3:0:0:0:
435,69,202425,5,2,3:2:0:0:
379,69,202506,1,2,0:0:0:0:
323,75,202588,1,10,0:0:0:0:
268,86,202669,1,2,0:0:0:0:
215,103,202751,1,2,3:2:0:0:
163,124,202832,1,2,0:0:0:0:
114,151,202914,1,10,0:0:0:0:
67,182,202995,1,2,0:0:0:0:
24,217,203077,102,0,P|34:180|34:139,3,56,2|0|8|0,3:2|0:0|0:0|3:0,0:0:0:0:
73,297,203403,2,0,P|100:269|120:233,3,56,0|0|8|0,0:0|3:0|0:0|0:0,0:0:0:0:
190,305,203729,5,2,3:2:0:0:
199,249,203810,1,2,0:0:0:0:
215,196,203892,1,10,0:0:0:0:
237,144,203973,1,2,0:0:0:0:
266,96,204055,1,2,3:2:0:0:
301,53,204136,1,2,0:0:0:0:
341,13,204219,2,0,P|338:46|350:92,1,56,10|0,0:0|0:0,0:0:0:0:
464,202,204382,101,2,3:2:0:0:
413,177,204463,1,2,0:0:0:0:
361,156,204545,1,10,0:0:0:0:
308,140,204626,1,2,3:2:0:0:
253,129,204708,1,2,0:0:0:0:
197,122,204789,1,2,3:2:0:0:
141,120,204871,1,10,0:0:0:0:
85,123,204952,1,2,0:0:0:0:
30,131,205034,6,0,P|65:105|82:75,3,56,2|0|8|0,3:2|0:0|0:0|0:0,0:0:0:0:
147,132,205360,2,0,P|153:88|144:55,3,56,0|0|8|0,3:0|0:0|0:0|0:0,0:0:0:0:
243,305,205686,102,0,P|286:310|316:327,3,56,0|0|8|0,3:0|0:0|0:0|3:0,0:0:0:0:
366,239,206012,2,0,P|393:273|401:306,3,56,0|0|8|0,0:0|3:0|0:0|0:0,0:0:0:0:
504,372,206338,5,2,3:2:0:0:
509,316,206419,1,2,0:0:0:0:
506,260,206501,1,10,0:0:0:0:
495,205,206582,1,2,0:0:0:0:
476,152,206664,1,2,3:2:0:0:
450,103,206745,1,2,0:0:0:0:
416,58,206827,2,0,P|386:60|350:51,1,56,10|0,0:0|0:0,0:0:0:0:
414,213,206990,101,2,3:2:0:0:
374,173,207071,1,2,0:0:0:0:
331,137,207153,1,10,0:0:0:0:
284,107,207234,1,2,3:2:0:0:
234,80,207316,1,2,0:0:0:0:
183,59,207397,1,2,3:2:0:0:
129,44,207479,1,10,0:0:0:0:
74,33,207560,1,2,0:0:0:0:
18,29,207642,6,0,P|89:80|163:208,1,224,4|0,3:2|3:0,0:0:0:0:
131,357,208132,1,8,0:0:0:0:
14,262,208295,2,0,P|25:222|26:171,1,56,0|0,3:0|0:0,0:0:0:0:
69,113,208458,1,8,0:0:0:0:
69,113,208539,2,0,P|85:135|98:160,1,56,0|0,3:0|0:0,0:0:0:0:
274,173,208702,1,0,3:0:0:0:
247,199,208783,1,8,0:0:0:0:
231,232,208865,1,0,0:0:0:0:
227,269,208947,102,0,P|312:204|455:180,1,224,4|0,3:2|3:0,0:0:0:0:
383,384,209436,1,8,0:0:0:0:
510,285,209599,2,0,P|470:261|443:226,1,56,0|0,3:0|0:0,0:0:0:0:
324,322,209762,1,8,0:0:0:0:
324,322,209844,2,0,P|341:300|354:275,1,56,0|8,3:0|0:0,0:0:0:0:
277,121,210007,1,0,3:0:0:0:
288,67,210088,1,8,0:0:0:0:
328,29,210170,1,0,3:0:0:0:
382,21,210251,6,0,P|363:80|391:173,1,112,6|8,3:2|3:2,0:0:0:0:
424,201,210496,1,2,0:2:0:0:
424,201,210577,2,0,P|453:145|515:118,1,112,0|10,3:0|3:2,0:0:0:0:
512,355,210903,2,0,P|485:336|426:325,1,56,2|0,3:2|3:0,0:0:0:0:
335,200,211066,2,0,P|339:232|329:279,1,56,10|0,3:2|3:0,0:0:0:0:
218,315,211229,2,0,P|237:294|261:281,1,56,2|0,3:2|3:0,0:0:0:0:
123,220,211392,2,0,P|101:220|66:206,1,56,10|0,3:2|3:0,0:0:0:0:
16,269,211555,101,8,3:2:0:0:
49,239,211636,1,8,3:2:0:0:
86,214,211718,1,0,3:0:0:0:
126,193,211799,1,0,3:0:0:0:
168,177,211881,1,8,3:2:0:0:
211,167,211962,1,8,3:2:0:0:
256,162,212044,1,0,3:0:0:0:
301,162,212125,1,0,3:0:0:0:
345,168,212208,5,8,3:2:0:0:
303,184,212289,1,8,3:2:0:0:
259,191,212371,1,0,3:0:0:0:
214,190,212452,1,0,3:0:0:0:
171,180,212534,1,8,3:2:0:0:
130,162,212615,1,8,3:2:0:0:
93,136,212697,1,0,3:0:0:0:
62,104,212778,1,0,3:0:0:0:
38,66,212860,6,0,L|52:153,3,62.9999980773926,4|0|8|0,3:1|3:0|3:2|3:0,0:0:0:0:
122,72,213186,2,0,L|136:159,3,62.9999980773926,0|0|8|0,3:0|3:0|3:2|3:0,0:0:0:0:
189,22,213512,2,0,L|275:42,1,62.9999980773926,0|0,3:0|3:0,0:0:0:0:
334,54,213675,5,10,3:2:0:0:
181,234,213838,1,2,3:2:0:0:
405,335,214001,1,10,3:2:0:0:
289,118,214164,101,4,3:2:0:0:
294,149,214245,1,0,3:0:0:0:
299,180,214327,1,8,3:2:0:0:
304,211,214408,1,0,3:0:0:0:
309,242,214490,2,0,L|385:259,3,62.9999980773926,0|0|8|0,3:0|3:0|3:2|3:0,0:0:0:0:
327,163,214816,2,0,L|403:180,3,62.9999980773926,0|0|8|0,3:0|3:0|3:2|3:0,0:0:0:0:
236,22,215142,5,2,3:2:0:0:
189,18,215223,1,2,3:2:0:0:
147,39,215305,1,10,3:2:0:0:
123,79,215386,1,2,3:2:0:0:
124,126,215469,102,0,L|111:38,3,62.9999980773926,4|0|8|0,3:2|3:0|3:2|3:0,0:0:0:0:
47,159,215795,2,0,L|34:71,3,62.9999980773926,0|0|8|0,3:0|3:0|3:2|3:0,0:0:0:0:
9,233,216121,2,0,L|81:251,1,62.9999980773926,0|0,3:0|3:0,0:0:0:0:
151,269,216284,5,10,3:2:0:0:
348,114,216447,1,2,3:2:0:0:
501,308,216610,1,10,3:2:0:0:
250,371,216773,101,4,3:2:0:0:
245,339,216854,1,0,3:0:0:0:
241,308,216936,1,8,3:2:0:0:
236,277,217017,1,0,3:0:0:0:
232,246,217099,2,0,L|221:331,3,62.9999980773926,0|0|8|0,3:0|3:0|3:2|3:0,0:0:0:0:
314,244,217425,2,0,L|303:329,3,62.9999980773926,0|0|8|0,3:0|3:0|3:2|3:0,0:0:0:0:
384,199,217751,5,2,3:2:0:0:
188,52,217914,1,10,3:2:0:0:
432,70,218077,102,0,L|418:-6,3,62.9999980773926,4|0|8|0,3:1|3:0|3:2|3:0,0:0:0:0:
512,80,218403,2,0,L|498:4,3,62.9999980773926,0|0|8|0,3:0|3:0|3:2|3:0,0:0:0:0:
362,116,218729,2,0,L|273:136,1,62.9999980773926,0|0,3:0|3:0,0:0:0:0:
223,150,218892,5,10,3:2:0:0:
436,308,219055,1,2,3:2:0:0:
181,378,219219,1,10,3:2:0:0:
120,54,219382,101,4,3:2:0:0:
151,58,219463,1,0,3:0:0:0:
182,63,219545,1,8,3:2:0:0:
213,67,219626,1,0,3:0:0:0:
242,69,219708,2,0,L|226:-1,3,62.9999980773926,0|0|8|0,3:0|3:0|3:2|3:0,0:0:0:0:
319,32,220034,6,0,L|393:44,1,62.9999980773926,2|0,3:2|3:2,0:0:0:0:
384,122,220197,2,0,L|321:111,1,62.9999980773926,10|0,3:2|3:2,0:0:0:0:
159,143,220360,102,0,L|85:155,1,62.9999980773926,2|0,3:2|3:2,0:0:0:0:
94,233,220523,2,0,L|156:222,1,62.9999980773926,10|0,3:2|3:2,0:0:0:0:
439,186,220686,5,2,3:2:0:0:
463,229,220767,1,2,3:2:0:0:
455,278,220849,1,8,3:2:0:0:
419,312,220930,1,0,3:2:0:0:
370,317,221012,2,0,L|376:236,3,62.9999980773926,2|2|8|0,3:2|3:2|3:2|3:2,0:0:0:0:
223,245,221338,101,2,3:2:0:0:
198,288,221419,1,2,3:2:0:0:
206,337,221501,1,8,3:2:0:0:
242,371,221582,1,0,3:2:0:0:
291,376,221664,2,0,L|285:294,3,62.9999980773926,10|10|8|0,3:2|3:2|3:2|3:2,0:0:0:0:
387,247,221990,6,0,L|303:231,1,62.9999980773926,10|2,3:2|3:2,0:0:0:0:
129,196,222153,2,0,L|45:180,1,62.9999980773926,0|0,3:0|3:0,0:0:0:0:
305,84,222316,101,10,3:2:0:0:
284,126,222397,1,2,3:2:0:0:
264,169,222479,1,0,3:0:0:0:
244,211,222560,1,0,3:0:0:0:
224,255,222642,6,0,L|213:172,1,62.9999980773926,10|10,3:2|3:2,0:0:0:0:
484,221,222805,2,0,L|473:138,1,62.9999980773926,10|10,3:2|3:2,0:0:0:0:
367,340,222969,101,2,3:2:0:0:
374,284,223050,1,2,3:2:0:0:
381,229,223132,1,2,3:2:0:0:
389,174,223213,1,2,3:2:0:0:
396,119,223295,6,0,P|365:137|322:141,3,62.9999980773926,4|0|8|0,3:1|3:0|3:2|3:0,0:0:0:0:
377,2,223621,2,0,P|356:36|316:65,3,62.9999980773926,0|0|8|0,3:0|3:0|3:2|3:0,0:0:0:0:
261,25,223947,2,0,P|175:56|146:132,1,125.999996154785,2|8,3:2|3:2,0:0:0:0:
49,78,224191,2,0,P|90:124|109:184,1,125.999996154785,2|0,3:2|3:0,0:0:0:0:
162,295,224436,2,0,P|171:244|195:209,1,62.9999980773926,10|0,3:2|3:0,0:0:0:0:
22,191,224599,101,4,3:2:0:0:
2,236,224680,1,0,3:2:0:0:
0,287,224762,1,8,3:2:0:0:
18,333,224843,1,0,3:2:0:0:
52,370,224925,2,0,P|60:338|83:307,3,62.9999980773926,4|0|8|0,3:2|3:2|3:2|3:2,0:0:0:0:
162,295,225251,5,4,3:2:0:0:
210,280,225332,1,0,3:2:0:0:
253,254,225414,1,8,3:2:0:0:
289,220,225495,1,0,3:2:0:0:
317,178,225577,2,0,P|348:172|406:197,3,62.9999980773926,4|0|8|0,3:2|3:2|3:2|3:2,0:0:0:0:
480,158,225903,101,4,3:2:0:0:
442,124,225984,1,0,3:0:0:0:
401,95,226066,1,8,3:2:0:0:
357,71,226147,1,0,3:0:0:0:
310,52,226229,1,0,3:0:0:0:
261,38,226310,1,0,3:0:0:0:
212,31,226392,1,8,3:2:0:0:
161,29,226473,1,0,3:0:0:0:
111,33,226555,6,0,P|185:74|231:145,1,125.999996154785,2|8,3:2|3:2,0:0:0:0:
155,167,226800,1,0,3:0:0:0:
154,166,226882,2,0,P|162:198|159:229,1,62.9999980773926,2|0,3:2|3:0,0:0:0:0:
286,363,227045,2,0,P|309:342|326:316,1,62.9999980773926,10|0,3:2|3:0,0:0:0:0:
419,186,227208,101,4,3:2:0:0:
374,166,227289,1,0,3:2:0:0:
323,164,227371,1,8,3:2:0:0:
277,182,227452,1,0,3:2:0:0:
240,216,227534,2,0,P|272:224|303:247,3,62.9999980773926,4|0|8|0,3:2|3:2|3:2|3:2,0:0:0:0:
404,286,227860,5,4,3:2:0:0:
405,234,227941,1,0,3:2:0:0:
419,186,228023,1,8,3:2:0:0:
443,142,228104,1,0,3:2:0:0:
476,105,228186,2,0,P|474:73|435:24,1,62.9999980773926,4|0,3:2|3:2,0:0:0:0:
328,92,228349,2,0,P|329:123|368:172,1,62.9999980773926,12|0,3:2|3:2,0:0:0:0:
263,0,228512,101,4,3:2:0:0:
219,25,228593,1,0,3:2:0:0:
178,55,228675,1,8,3:2:0:0:
141,89,228756,1,0,3:2:0:0:
108,127,228838,1,0,3:2:0:0:
80,168,228919,1,0,3:2:0:0:
56,213,229001,1,8,3:2:0:0:
37,259,229082,1,0,3:2:0:0:
24,308,229164,6,0,P|73:269|132:248,1,125.999996154785,2|8,3:2|3:2,0:0:0:0:
171,325,229409,2,0,P|121:363|62:384,1,125.999996154785,2|0,3:2|3:0,0:0:0:0:
259,361,229653,2,0,P|254:328|265:289,1,62.9999980773926,10|0,3:2|3:0,0:0:0:0:
434,198,229816,101,4,3:2:0:0:
421,162,229897,1,0,3:0:0:0:
404,128,229979,1,8,3:2:0:0:
383,97,230060,1,0,3:0:0:0:
357,69,230142,1,0,3:0:0:0:
328,45,230223,1,0,3:0:0:0:
296,26,230305,6,0,P|310:59|310:102,1,62.9999980773926,10|0,3:2|3:0,0:0:0:0:
70,137,230469,2,0,P|56:104|56:61,1,62.9999980773926,2|0,3:2|3:0,0:0:0:0:
238,122,230632,102,0,P|228:152|224:217,1,62.9999980773926,10|0,3:2|3:0,0:0:0:0:
159,302,230795,2,0,P|154:270|144:241,1,62.9999980773926,2|0,3:2|3:0,0:0:0:0:
261,348,230958,2,0,P|286:329|316:318,1,62.9999980773926,10|0,3:2|3:0,0:0:0:0:
512,286,231121,5,2,3:2:0:0:
461,288,231202,1,2,3:2:0:0:
412,279,231284,1,8,3:2:0:0:
366,259,231365,1,0,3:2:0:0:
326,229,231447,2,0,P|362:210|387:186,3,62.9999980773926,2|2|8|0,3:2|3:2|3:2|3:2,0:0:0:0:
346,122,231773,101,2,3:2:0:0:
295,120,231854,1,2,3:2:0:0:
246,129,231936,1,8,3:2:0:0:
200,149,232017,1,0,3:2:0:0:
160,179,232099,2,0,P|196:198|221:222,3,62.9999980773926,2|2|8|0,3:2|3:2|3:2|3:2,0:0:0:0:
63,198,232425,6,0,P|81:158|86:120,1,62.9999980773926,2|0,3:2|3:2,0:0:0:0:
0,24,232588,2,0,P|20:62|25:99,1,62.9999980773926,10|0,3:2|3:2,0:0:0:0:
221,47,232751,2,0,P|257:27|310:17,1,62.9999980773926,2|0,3:2|3:2,0:0:0:0:
210,159,232914,2,0,P|186:127|147:108,1,62.9999980773926,10|0,3:2|3:2,0:0:0:0:
436,9,233077,101,8,3:2:0:0:
397,41,233158,1,8,3:2:0:0:
362,77,233240,1,8,3:2:0:0:
330,116,233321,1,8,3:2:0:0:
302,158,233403,1,0,3:0:0:0:
278,202,233484,1,0,3:0:0:0:
259,249,233566,1,8,3:2:0:0:
244,297,233647,1,8,3:2:0:0:
234,347,233729,6,0,P|258:320|312:298,3,62.9999980773926,12|0|0|0,3:2|3:0|3:0|3:0,0:0:0:0:
153,375,234055,2,0,P|148:323|135:280,1,62.9999980773926,10|0,3:2|3:0,0:0:0:0:
18,126,234219,2,0,P|24:156|39:184,1,62.9999980773926,2|0,3:2|3:0,0:0:0:0:
75,281,234382,102,0,P|109:224|147:201,3,62.9999980773926,12|0|0|0,3:2|3:0|3:0|3:0,0:0:0:0:
223,151,234708,2,0,P|182:170|147:174,1,62.9999980773926,10|0,3:2|3:0,0:0:0:0:
356,267,234871,2,0,P|405:281|428:305,1,62.9999980773926,2|0,3:2|3:0,0:0:0:0:
483,242,235034,5,10,3:2:0:0:
497,194,235115,1,0,3:0:0:0:
485,146,235197,1,2,3:2:0:0:
449,111,235278,1,0,3:0:0:0:
401,100,235360,2,0,P|435:80|458:49,3,62.9999980773926,10|0|2|0,3:2|3:0|3:2|3:0,0:0:0:0:
284,21,235686,101,10,3:2:0:0:
305,66,235767,1,0,3:0:0:0:
321,114,235849,1,2,3:2:0:0:
331,163,235930,1,0,3:0:0:0:
334,213,236012,2,0,B|210:212|271:276|141:282,1,188.999994232178,12|0,3:2|3:0,0:0:0:0:
98,328,236338,6,0,P|73:296|31:269,1,62.9999980773926,8|0,3:2|3:0,0:0:0:0:
46,207,236501,1,8,3:2:0:0:
46,207,236583,1,8,3:2:0:0:
46,207,236664,1,0,3:0:0:0:
232,200,236827,102,0,P|243:128|261:97,1,62.9999980773926,8|0,3:2|3:0,0:0:0:0:
217,14,236990,1,8,3:2:0:0:
217,14,237072,1,8,3:2:0:0:
217,14,237153,1,0,3:0:0:0:
60,121,237316,6,0,P|106:124|151:147,1,62.9999980773926,8|0,3:2|3:0,0:0:0:0:
306,257,237479,1,8,3:2:0:0:
306,257,237561,1,8,3:2:0:0:
306,257,237642,1,0,3:0:0:0:
163,329,237805,102,0,P|205:276|244:264,1,62.9999980773926,8|0,3:2|3:0,0:0:0:0:
476,207,237969,1,8,3:2:0:0:
476,207,238050,1,8,3:2:0:0:
476,207,238132,1,0,3:0:0:0:
369,6,238295,6,0,P|376:33|398:72,1,62.9999980773926,8|0,3:2|3:0,0:0:0:0:
512,107,238458,1,8,3:2:0:0:
486,134,238539,1,8,3:2:0:0:
463,164,238621,1,8,3:2:0:0:
443,197,238702,1,8,3:2:0:0:
427,231,238784,1,0,3:0:0:0:
414,266,238865,1,0,3:0:0:0:
405,303,238947,37,4,3:1:0:0:
405,303,239110,1,0,3:0:0:0:
106,178,240088,6,0,L|84:5,2,167.999994873047,0|0|0,3:0|3:0|3:0,0:0:0:0:
172,63,240903,2,0,B|271:47|225:122|341:108,1,167.999994873047,0|8,3:0|0:0,0:0:0:0:
325,109,241311,1,0,3:0:0:0:
325,109,241392,1,0,3:0:0:0:
465,22,241555,101,4,3:2:0:0:
465,22,241719,1,0,3:0:0:0:
363,276,242208,5,4,3:2:0:0:
363,276,242371,1,0,3:0:0:0:
197,224,242697,102,0,L|205:134,1,83.9999974365235,8|0,3:2|0:0,0:0:0:0:
38,302,243023,2,0,L|27:212,1,83.9999974365235,8|0,3:2|0:0,0:0:0:0:
158,76,243349,2,0,L|103:67,1,41.9999987182618,0|0,3:0|0:0,0:0:0:0:
41,49,243512,5,0,3:0:0:0:
214,13,243675,1,0,3:0:0:0:
245,125,243838,1,8,3:2:0:0:
245,125,243920,1,0,3:0:0:0:
245,125,244001,1,0,3:0:0:0:
411,54,244164,5,12,3:2:0:0:
355,289,244327,1,0,3:0:0:0:
174,162,244490,1,8,3:2:0:0:
107,361,244653,1,0,3:0:0:0:
302,221,244816,5,8,3:2:0:0:
40,176,244979,2,0,L|20:44,1,97.9999970092774,0|8,3:0|3:2,0:0:0:0:
205,320,245305,102,0,P|206:247|234:207,1,97.9999970092774,0|8,3:0|3:2,0:0:0:0:
427,258,245632,2,0,P|426:331|398:371,1,97.9999970092774,0|8,3:0|3:2,0:0:0:0:
273,373,245958,1,0,3:0:0:0:
413,175,246121,1,8,3:2:0:0:
203,96,246284,1,0,3:0:0:0:
349,229,246447,6,0,B|211:242|211:242|195:272|155:277,1,195.999994018555,12|8,3:2|3:2,0:0:0:0:
41,63,246936,1,0,3:0:0:0:
95,224,247099,2,0,L|70:345,1,97.9999970092774,8|0,3:2|3:0,0:0:0:0:
161,168,247425,1,8,3:2:0:0:
349,229,247588,2,0,L|374:350,1,97.9999970092774,0|8,3:0|3:2,0:0:0:0:
506,81,247914,102,0,P|467:41|401:39,1,97.9999970092774,0|8,3:0|3:2,0:0:0:0:
189,67,248240,1,0,3:0:0:0:
413,162,248403,1,8,3:2:0:0:
230,326,248566,1,0,3:0:0:0:
277,103,248729,1,8,3:2:0:0:
41,152,248892,1,0,3:0:0:0:
315,288,249055,1,8,3:2:0:0:
315,288,249137,1,0,3:0:0:0:
315,288,249219,1,0,3:0:0:0:
368,7,249382,6,0,L|353:112,1,97.9999970092774,0|0,3:2|0:0,0:0:0:0:
313,376,249708,1,2,0:0:0:0:
313,376,250034,1,8,0:0:0:0:
385,351,250197,1,0,0:0:0:0:
423,284,250360,1,0,0:0:0:0:
405,210,250523,1,0,0:0:0:0:
341,167,250686,1,0,3:0:0:0:
266,178,250849,101,0,3:0:0:0:
264,186,250930,1,0,3:0:0:0:
263,194,251012,1,0,3:0:0:0:
261,202,251093,1,0,3:0:0:0:
260,210,251175,1,0,3:0:0:0:
258,218,251256,1,0,3:0:0:0:
257,226,251338,2,0,L|149:249,1,97.9999970092774,8|0,3:2|0:0,0:0:0:0:
60,14,251664,5,8,3:2:0:0:
83,18,251745,1,8,3:2:0:0:
103,33,251827,1,0,3:0:0:0:
114,54,251908,1,0,3:0:0:0:
114,79,251990,1,4,3:2:0:0:
79,252,252153,101,8,3:2:0:0:
73,215,252234,1,8,3:2:0:0:
64,179,252316,1,0,3:0:0:0:
52,145,252397,1,0,3:0:0:0:
37,111,252479,1,4,3:2:0:0:
206,43,252642,5,8,3:2:0:0:
247,68,252723,1,8,3:2:0:0:
293,85,252805,1,0,3:0:0:0:
341,93,252886,1,0,3:0:0:0:
390,93,252968,1,4,3:2:0:0:
306,341,253132,101,8,3:2:0:0:
264,315,253213,1,8,3:2:0:0:
218,298,253295,1,0,3:0:0:0:
170,290,253376,1,0,3:0:0:0:
121,290,253458,1,4,3:2:0:0:
463,42,253621,5,8,3:2:0:0:
463,42,253702,1,8,3:2:0:0:
463,42,253784,1,0,3:0:0:0:
463,42,253865,1,0,3:0:0:0:
463,42,253947,2,0,B|469:136|502:99|505:191,2,146.999995513916,2|2|2,3:0|3:0|3:0,0:0:0:0:
393,154,254599,70,0,L|397:102,1,35,4|0,3:2|0:0,0:0:0:0:
172,28,254762,1,0,3:0:0:0:
172,28,254844,1,0,3:0:0:0:
172,28,254925,1,0,3:0:0:0:
171,29,255251,6,0,B|156:84|156:84|226:144|184:219,1,210,4|0,3:2|0:0,0:0:0:0:
25,154,255903,2,0,L|119:135,1,70,4|0,3:2|0:0,0:0:0:0:
230,113,256229,101,8,3:2:0:0:
232,104,256310,1,8,3:2:0:0:
235,96,256392,1,8,3:2:0:0:
238,88,256473,1,8,3:2:0:0:
240,79,256555,1,0,3:0:0:0:
456,261,256882,5,8,3:2:0:0:
451,235,256963,1,8,3:2:0:0:
446,209,257045,1,8,3:2:0:0:
441,183,257126,1,8,3:2:0:0:
436,157,257208,101,8,3:2:0:0:
337,223,257371,1,0,3:0:0:0:
288,116,257534,1,0,3:0:0:0:
373,296,257697,5,8,3:2:0:0:
216,176,257860,1,0,3:0:0:0:
381,66,258023,1,0,3:0:0:0:
304,336,258186,102,0,L|210:343,1,70,8|0,3:2|0:0,0:0:0:0:
20,350,258512,5,8,3:2:0:0:
162,309,258675,1,0,3:0:0:0:
65,183,258838,101,8,3:0:0:0:
292,223,259001,1,0,3:0:0:0:
79,294,259164,1,8,3:2:0:0:
79,294,259246,1,8,3:2:0:0:
79,294,259327,1,0,3:0:0:0:
219,107,259490,6,0,L|234:201,1,70,8|0,3:2|0:0,0:0:0:0:
492,177,259816,2,0,L|474:335,1,140,4|0,3:2|0:0,0:0:0:0:
376,366,260305,1,0,3:0:0:0:
288,226,260469,1,0,3:0:0:0:
233,303,260632,1,0,3:0:0:0:
233,303,260713,1,0,3:0:0:0:
233,303,260795,2,0,L|320:316,1,70,8|0,0:2|0:0,0:0:0:0:
414,140,261121,101,0,3:0:0:0:
386,333,261284,2,0,L|360:182,1,140,0|0,3:0|0:0,0:0:0:0:
493,262,261773,1,0,3:0:0:0:
512,97,261936,1,0,3:0:0:0:
512,97,262017,1,0,3:0:0:0:
512,97,262099,2,0,L|503:178,1,70,8|0,0:2|0:0,0:0:0:0:
264,189,262425,5,0,3:0:0:0:
239,12,262588,2,0,L|252:113,1,70,0|0,3:0|0:0,0:0:0:0:
271,196,262914,1,0,3:0:0:0:
271,196,262996,1,0,3:0:0:0:
271,196,263077,1,8,0:2:0:0:
163,67,263240,2,0,L|117:53,2,35,0|0|8,3:0|3:0|3:0,0:0:0:0:
337,125,263566,101,0,3:0:0:0:
337,125,263648,1,0,3:0:0:0:
337,125,263729,2,0,L|348:192,3,48.9999985046387,8|8|8|8,3:2|3:2|3:2|3:2,0:0:0:0:
419,136,264055,2,0,L|430:203,3,48.9999985046387,0|0|0|0,3:0|3:0|3:0|3:0,0:0:0:0:
443,11,264382,5,8,3:2:0:0:
392,25,264463,1,8,3:2:0:0:
341,39,264545,1,8,3:2:0:0:
291,53,264626,1,8,3:2:0:0:
240,67,264708,2,0,L|232:147,1,48.9999985046387,8|0,3:2|0:0,0:0:0:0:
384,230,264871,2,0,L|392:309,1,48.9999985046387,8|0,3:2|0:0,0:0:0:0:
320,320,265034,37,4,3:1:0:0:
289,313,265115,1,0,3:0:0:0:
258,307,265197,1,0,3:0:0:0:
227,301,265278,1,0,3:0:0:0:
196,295,265360,2,0,L|186:221,3,62.9999980773926,8|0|0|0,3:2|3:0|3:0|3:0,0:0:0:0:
131,349,265686,5,12,3:2:0:0:
75,349,265767,1,0,3:0:0:0:
33,313,265849,1,0,3:0:0:0:
24,258,265930,1,0,3:0:0:0:
53,211,266012,2,0,L|136:222,3,62.9999980773926,8|0|0|0,3:2|3:0|3:0|3:0,0:0:0:0:
173,277,266338,101,12,3:2:0:0:
229,277,266419,1,0,3:0:0:0:
271,241,266501,1,0,3:0:0:0:
280,186,266582,1,0,3:0:0:0:
251,139,266664,2,0,L|168:150,3,62.9999980773926,8|0|0|0,3:2|3:0|3:0|3:0,0:0:0:0:
126,204,266990,5,12,3:2:0:0:
70,204,267071,1,0,3:0:0:0:
28,168,267153,1,0,3:0:0:0:
19,113,267234,1,0,3:0:0:0:
48,66,267316,2,0,L|131:77,3,62.9999980773926,8|0|0|0,3:2|3:0|3:0|3:0,0:0:0:0:
183,125,267642,101,12,3:2:0:0:
188,75,267723,1,0,3:0:0:0:
215,33,267805,1,0,3:0:0:0:
259,10,267886,1,0,3:0:0:0:
309,9,267968,1,8,3:2:0:0:
354,32,268049,1,0,3:0:0:0:
382,73,268131,1,4,3:2:0:0:
388,122,268212,1,0,3:0:0:0:
371,169,268294,1,8,3:2:0:0:
333,202,268375,1,0,3:0:0:0:
285,214,268458,1,0,3:0:0:0:
240,235,268539,1,0,3:0:0:0:
216,279,268621,1,12,3:2:0:0:
222,328,268702,1,0,3:0:0:0:
256,364,268784,1,0,3:0:0:0:
304,375,268865,1,0,3:0:0:0:
350,355,268947,6,0,L|337:281,3,62.9999980773926,12|0|0|0,3:2|3:0|3:0|3:0,0:0:0:0:
269,349,269273,2,0,L|255:274,3,62.9999980773926,8|0|0|0,3:2|3:0|3:0|3:0,0:0:0:0:
400,241,269599,101,8,3:2:0:0:
400,241,269680,1,0,3:0:0:0:
400,241,269762,2,0,L|407:165,1,62.9999980773926,2|0,3:2|3:0,0:0:0:0:
192,240,269925,2,0,L|116:247,1,62.9999980773926,10|0,3:2|3:0,0:0:0:0:
325,189,270088,2,0,L|332:113,1,62.9999980773926,2|0,3:2|3:0,0:0:0:0:
38,250,270251,5,8,3:2:0:0:
9,201,270332,1,0,3:0:0:0:
2,145,270414,1,0,3:0:0:0:
16,90,270495,1,0,3:0:0:0:
50,45,270577,1,8,3:2:0:0:
98,17,270658,1,0,3:0:0:0:
154,8,270740,1,0,3:0:0:0:
209,22,270821,1,0,3:0:0:0:
254,55,270903,1,8,3:2:0:0:
284,104,270984,1,0,3:0:0:0:
292,159,271066,1,0,3:0:0:0:
290,215,271147,1,0,3:0:0:0:
318,264,271229,1,8,3:2:0:0:
367,291,271310,1,0,3:0:0:0:
423,289,271392,1,0,3:0:0:0:
469,257,271473,1,0,3:0:0:0:
492,206,271555,102,0,L|509:316,3,62.9999980773926,8|0|0|0,3:2|3:0|3:0|3:0,0:0:0:0:
410,204,271882,2,0,L|426:313,3,62.9999980773926,12|0|0|0,3:2|3:0|3:0|3:0,0:0:0:0:
448,127,272208,6,0,P|436:64|378:12,1,125.999996154785,10|8,3:2|3:2,0:0:0:0:
271,85,272452,2,0,P|283:148|341:200,1,125.999996154785,10|8,3:2|3:2,0:0:0:0:
336,278,272697,2,0,L|253:268,1,62.9999980773926,10|8,3:2|3:2,0:0:0:0:
59,262,272860,101,4,3:2:0:0:
51,218,272941,1,0,3:0:0:0:
44,175,273023,1,8,3:2:0:0:
37,131,273104,1,0,3:0:0:0:
29,88,273186,2,0,L|101:112,1,62.9999980773926,0|0,3:0|3:0,0:0:0:0:
189,0,273349,5,12,3:2:0:0:
181,43,273430,1,0,3:0:0:0:
174,86,273512,1,0,3:0:0:0:
167,130,273593,1,0,3:0:0:0:
159,174,273675,2,0,L|231:150,1,62.9999980773926,8|0,3:2|3:0,0:0:0:0:
326,107,273838,101,4,3:2:0:0:
371,93,273919,1,0,3:0:0:0:
417,97,274001,1,8,3:2:0:0:
460,117,274082,1,0,3:0:0:0:
492,151,274164,2,0,P|448:152|400:186,1,62.9999980773926,0|0,3:0|3:0,0:0:0:0:
473,265,274327,5,12,3:2:0:0:
427,278,274408,1,0,3:0:0:0:
381,274,274490,1,0,3:0:0:0:
338,254,274571,1,0,3:0:0:0:
306,220,274653,2,0,P|350:219|398:185,1,62.9999980773926,8|0,3:2|3:0,0:0:0:0:
335,346,274816,102,0,P|250:358|189:387,1,125.999996154785,2|8,3:0|3:2,0:0:0:0:
176,295,275061,2,0,P|108:347|70:403,1,125.999996154785,2|0,3:0|3:0,0:0:0:0:
4,374,275305,2,0,P|-8:327|0:284,1,62.9999980773926,8|0,3:2|3:0,0:0:0:0:
146,213,275469,5,4,3:1:0:0:
140,181,275550,1,0,3:0:0:0:
134,150,275632,1,0,3:0:0:0:
129,119,275713,1,0,3:0:0:0:
123,88,275795,2,0,L|46:65,3,62.9999980773926,8|0|0|0,3:2|3:0|3:0|3:0,0:0:0:0:
184,30,276121,101,12,3:2:0:0:
229,8,276202,1,0,3:0:0:0:
278,12,276284,1,0,3:0:0:0:
319,41,276365,1,0,3:0:0:0:
340,86,276447,2,0,L|323:13,3,62.9999980773926,8|0|0|0,3:2|3:0|3:0|3:0,0:0:0:0:
422,122,276773,5,12,3:2:0:0:
417,171,276854,1,0,3:0:0:0:
389,212,276936,1,0,3:0:0:0:
344,233,277017,1,0,3:0:0:0:
294,229,277099,2,0,L|366:250,3,62.9999980773926,8|0|0|0,3:2|3:0|3:0|3:0,0:0:0:0:
222,281,277425,101,12,3:2:0:0:
182,252,277506,1,0,3:0:0:0:
161,208,277588,1,0,3:0:0:0:
165,158,277669,1,0,3:0:0:0:
193,117,277751,2,0,L|138:169,3,62.9999980773926,8|0|0|0,3:2|3:0|3:0|3:0,0:0:0:0:
256,14,278077,5,10,3:2:0:0:
259,33,278158,1,0,3:0:0:0:
263,52,278240,1,0,3:0:0:0:
267,71,278321,1,0,3:0:0:0:
271,90,278403,1,8,3:2:0:0:
275,109,278484,1,0,3:0:0:0:
279,128,278566,1,2,3:2:0:0:
283,147,278647,1,0,3:0:0:0:
287,167,278729,1,8,3:2:0:0:
291,186,278810,1,0,3:0:0:0:
295,205,278892,1,0,3:0:0:0:
299,224,278973,1,0,3:0:0:0:
303,243,279055,1,10,3:2:0:0:
307,262,279136,1,0,3:0:0:0:
311,281,279218,1,0,3:0:0:0:
315,300,279299,1,0,3:0:0:0:
319,320,279382,102,0,L|394:342,3,62.9999980773926,8|0|0|0,3:2|3:0|3:0|3:0,0:0:0:0:
343,242,279708,2,0,L|418:264,3,62.9999980773926,8|0|0|0,3:2|3:2|3:2|3:2,0:0:0:0:
215,384,280034,5,8,3:2:0:0:
218,368,280115,1,0,3:0:0:0:
222,353,280197,1,0,3:0:0:0:
225,337,280278,1,0,3:0:0:0:
229,322,280360,2,0,L|217:240,1,62.9999980773926,10|0,3:2|3:0,0:0:0:0:
444,188,280523,2,0,L|456:106,1,62.9999980773926,2|0,3:2|3:0,0:0:0:0:
470,31,280686,101,12,3:2:0:0:
424,9,280767,1,0,3:0:0:0:
374,6,280849,1,0,3:0:0:0:
327,22,280930,1,0,3:0:0:0:
289,55,281012,1,8,3:2:0:0:
267,100,281093,1,0,3:0:0:0:
263,150,281175,1,0,3:0:0:0:
278,197,281256,1,0,3:0:0:0:
310,236,281338,6,0,P|312:152|270:99,1,125.999996154785,10|0,3:2|3:0,0:0:0:0:
425,222,281583,2,0,P|398:165|406:103,1,125.999996154785,2|0,3:2|3:0,0:0:0:0:
511,206,281827,2,0,L|491:285,1,62.9999980773926,2|0,3:2|3:0,0:0:0:0:
270,315,281990,2,0,L|290:394,7,62.9999980773926,12|0|0|0|8|0|0|0,3:2|3:0|3:0|3:0|3:2|3:0|3:0|3:0,0:0:0:0:
111,370,282642,102,0,P|147:303|206:267,1,125.999996154785,10|0,3:2|3:0,0:0:0:0:
168,167,282887,2,0,P|232:207|301:208,1,125.999996154785,2|0,3:2|3:0,0:0:0:0:
352,264,283131,2,0,L|385:194,1,62.9999980773926,2|0,3:2|3:0,0:0:0:0:
193,21,283295,2,0,L|203:89,7,62.9999980773926,12|0|0|0|8|0|0|0,3:2|3:0|3:0|3:0|3:2|3:0|3:0|3:0,0:0:0:0:
110,13,283947,6,0,P|61:86|68:152,1,125.999996154785,10|0,3:2|3:0,0:0:0:0:
228,199,284191,2,0,P|277:126|270:60,1,125.999996154785,2|0,3:2|3:0,0:0:0:0:
138,147,284436,2,0,L|151:235,1,62.9999980773926,2|0,3:2|3:0,0:0:0:0:
12,297,284599,2,0,L|-1:385,7,62.9999980773926,12|0|0|0|8|0|0|0,3:2|3:0|3:0|3:0|3:2|3:0|3:0|3:0,0:0:0:0:
78,240,285251,101,8,3:2:0:0:
114,205,285332,1,8,3:2:0:0:
162,192,285414,1,8,3:2:0:0:
210,205,285495,1,8,3:2:0:0:
246,240,285577,1,8,3:2:0:0:
260,287,285658,1,8,3:2:0:0:
297,320,285740,1,8,3:2:0:0:
345,313,285822,1,8,3:2:0:0:
371,271,285903,21,4,3:1:0:0:
340,276,285984,1,0,3:0:0:0:
309,282,286066,1,8,3:2:0:0:
278,288,286147,1,0,3:0:0:0:
247,293,286229,2,0,L|238:374,3,70,0|0|8|0,3:2|3:0|3:2|3:0,0:0:0:0:
166,373,286555,5,4,3:2:0:0:
112,356,286636,1,0,3:0:0:0:
82,310,286718,1,8,3:2:0:0:
88,255,286799,1,0,3:0:0:0:
128,216,286882,2,0,P|122:252|133:302,3,70,0|0|8|0,3:2|3:0|3:2|3:0,0:0:0:0:
24,98,287208,101,4,3:2:0:0:
64,60,287289,1,0,3:0:0:0:
120,56,287371,1,8,3:2:0:0:
164,89,287452,1,0,3:0:0:0:
178,143,287535,2,0,P|150:119|100:103,3,70,0|0|8|0,3:2|3:0|3:2|3:0,0:0:0:0:
332,111,287860,5,4,3:2:0:0:
345,165,287940,1,0,3:0:0:0:
321,215,288022,1,8,3:2:0:0:
270,237,288103,1,0,3:0:0:0:
216,222,288186,2,0,P|250:209|285:173,3,70,0|0|8|0,3:2|3:0|3:2|3:0,0:0:0:0:
248,113,288512,101,4,3:2:0:0:
264,65,288593,1,0,3:0:0:0:
298,28,288675,1,8,3:2:0:0:
343,7,288756,1,0,3:0:0:0:
393,5,288838,1,0,3:2:0:0:
440,23,288919,1,0,3:0:0:0:
477,57,289001,1,12,3:2:0:0:
498,102,289082,1,0,3:0:0:0:
499,152,289164,1,0,3:2:0:0:
481,199,289245,1,0,3:0:0:0:
446,235,289327,1,8,3:2:0:0:
400,255,289408,1,0,3:0:0:0:
350,256,289490,1,4,3:2:0:0:
302,246,289571,1,0,3:0:0:0:
254,258,289653,1,8,3:2:0:0:
219,293,289734,1,0,3:0:0:0:
209,342,289816,6,0,P|203:300|173:240,3,70,4|0|8|0,3:2|3:0|3:2|3:0,0:0:0:0:
122,309,290142,2,0,P|95:275|43:240,3,70,0|0|8|0,3:2|3:0|3:2|3:0,0:0:0:0:
13,149,290469,101,0,3:2:0:0:
13,149,290550,1,0,3:0:0:0:
13,149,290632,2,0,P|1:184|3:241,1,70,10|0,3:2|3:0,0:0:0:0:
189,61,290795,2,0,P|154:37|133:10,1,70,2|0,3:2|3:0,0:0:0:0:
215,282,290958,2,0,P|250:260|314:254,1,70,10|0,3:2|3:0,0:0:0:0:
496,164,291121,5,0,3:2:0:0:
440,175,291202,1,0,3:0:0:0:
384,181,291284,1,8,3:2:0:0:
327,181,291365,1,0,3:0:0:0:
271,175,291447,1,0,3:2:0:0:
215,163,291528,1,0,3:0:0:0:
161,146,291610,1,8,3:2:0:0:
117,112,291691,1,0,3:0:0:0:
108,58,291773,1,0,3:2:0:0:
140,12,291854,1,0,3:0:0:0:
194,2,291936,1,8,3:2:0:0:
241,32,292017,1,0,3:0:0:0:
269,81,292098,1,0,3:2:0:0:
293,132,292180,1,0,3:0:0:0:
313,185,292261,1,8,3:2:0:0:
328,240,292343,1,0,3:0:0:0:
339,296,292425,102,0,P|352:260|382:210,3,70,0|0|8|0,3:2|3:0|3:2|3:0,0:0:0:0:
292,180,292751,2,0,P|320:154|370:124,3,70,4|0|8|0,3:2|3:0|3:2|3:0,0:0:0:0:
401,75,293077,6,0,P|328:57|229:84,1,140,2|8,3:2|3:2,0:0:0:0:
206,6,293322,2,0,P|138:72|56:98,1,140,10|8,3:2|3:2,0:0:0:0:
2,175,293566,2,0,P|40:167|112:173,1,70,10|8,3:2|3:2,0:0:0:0:
45,10,293729,101,0,3:0:0:0:
77,39,293810,1,0,3:0:0:0:
112,66,293892,1,8,3:2:0:0:
148,91,293973,1,0,3:0:0:0:
186,114,294055,1,0,3:0:0:0:
226,133,294136,1,0,3:0:0:0:
266,150,294218,1,8,3:2:0:0:
308,164,294299,1,0,3:0:0:0:
351,176,294381,1,0,3:0:0:0:
394,184,294462,1,0,3:0:0:0:
437,178,294544,1,8,3:2:0:0:
471,150,294626,1,0,3:0:0:0:
484,109,294707,1,0,3:0:0:0:
473,67,294789,1,0,3:0:0:0:
442,37,294871,1,8,3:2:0:0:
399,28,294952,1,0,3:0:0:0:
359,43,295034,6,0,P|396:67|432:113,3,70,8|0|0|0,3:2|3:0|3:0|3:0,0:0:0:0:
354,146,295360,2,0,P|374:184|382:242,3,70,8|0|0|0,3:2|3:0|3:0|3:0,0:0:0:0:
267,135,295686,101,8,3:2:0:0:
267,135,295767,1,0,3:0:0:0:
267,135,295849,2,0,L|187:126,1,70,4|0,3:0|3:0,0:0:0:0:
150,318,296012,1,8,3:2:0:0:
150,318,296093,1,0,3:0:0:0:
150,318,296175,2,0,L|70:327,1,70,4|0,3:0|3:0,0:0:0:0:
223,374,296338,6,0,L|243:283,1,70,8|0,3:2|3:0,0:0:0:0:
294,21,296501,1,8,3:2:0:0:
294,21,296583,1,8,3:2:0:0:
294,21,296664,1,0,3:0:0:0:
405,99,296827,102,0,L|304:118,1,70,8|0,3:2|3:0,0:0:0:0:
52,157,296990,1,8,3:2:0:0:
52,157,297072,1,8,3:2:0:0:
52,157,297153,1,0,3:0:0:0:
4,243,297316,6,0,L|100:254,1,70,8|0,3:2|3:0,0:0:0:0:
461,285,297479,1,8,3:2:0:0:
461,285,297561,1,8,3:2:0:0:
461,285,297642,1,0,3:0:0:0:
213,7,297805,102,0,L|228:80,1,70,8|0,3:2|3:0,0:0:0:0:
282,381,297969,1,8,3:2:0:0:
282,381,298050,1,8,3:2:0:0:
282,381,298132,1,0,3:0:0:0:
438,145,298295,5,8,3:2:0:0:
426,205,298376,1,8,3:2:0:0:
377,242,298458,1,8,3:2:0:0:
315,236,298539,1,8,3:2:0:0:
274,191,298621,1,8,3:2:0:0:
240,142,298702,1,8,3:2:0:0:
178,137,298783,1,8,3:2:0:0:
129,174,298865,1,8,3:2:0:0:
118,234,298947,38,0,L|106:161,3,56,4|0|8|0,3:1|3:0|3:2|3:0,0:0:0:0:
198,237,299273,2,0,L|186:164,3,56,0|0|8|0,3:0|3:0|3:2|3:0,0:0:0:0:
260,138,299599,2,0,L|347:164,1,56,0|0,3:0|3:0,0:0:0:0:
392,178,299762,5,10,3:2:0:0:
218,21,299925,1,2,3:2:0:0:
52,187,300088,1,10,3:2:0:0:
320,79,300251,101,4,3:2:0:0:
316,106,300332,1,0,3:0:0:0:
313,134,300414,1,8,3:2:0:0:
310,162,300495,1,0,3:0:0:0:
307,190,300577,2,0,L|238:209,3,56,0|0|8|0,3:0|3:0|3:2|3:0,0:0:0:0:
356,260,300903,2,0,L|287:279,3,56,0|0|8|0,3:0|3:0|3:2|3:0,0:0:0:0:
257,351,301229,5,2,3:2:0:0:
203,363,301310,1,2,3:2:0:0:
153,339,301392,1,10,3:2:0:0:
130,289,301473,1,2,3:2:0:0:
142,236,301555,102,0,L|218:222,3,56,4|0|8|0,3:2|3:0|3:2|3:0,0:0:0:0:
176,308,301882,2,0,L|251:293,3,56,0|0|8|0,3:0|3:0|3:2|3:0,0:0:0:0:
256,159,302208,2,0,L|269:76,1,56,0|0,3:0|3:0,0:0:0:0:
280,15,302371,5,10,3:2:0:0:
139,203,302534,1,2,3:2:0:0:
363,275,302697,1,10,3:2:0:0:
468,44,302860,101,4,3:2:0:0:
440,49,302941,1,0,3:0:0:0:
412,54,303023,1,8,3:2:0:0:
385,59,303104,1,0,3:0:0:0:
357,64,303186,2,0,L|340:137,3,56,0|0|8|0,3:0|3:0|3:2|3:0,0:0:0:0:
435,98,303512,2,0,L|418:171,3,56,0|0|8|0,3:0|3:0|3:2|3:0,0:0:0:0:
477,215,303838,5,2,3:2:0:0:
290,364,304001,1,10,3:2:0:0:
189,145,304164,102,0,L|274:160,3,56,4|0|8|0,3:1|3:0|3:2|3:0,0:0:0:0:
225,68,304490,2,0,L|310:83,3,56,0|0|8|0,3:0|3:0|3:2|3:0,0:0:0:0:
348,13,304816,2,0,L|369:104,1,56,0|0,3:0|3:0,0:0:0:0:
379,148,304979,5,10,3:2:0:0:
157,322,305142,1,2,3:2:0:0:
39,69,305305,1,10,3:2:0:0:
59,371,305469,101,4,3:2:0:0:
65,343,305550,1,0,3:0:0:0:
72,316,305632,1,8,3:2:0:0:
79,289,305713,1,0,3:0:0:0:
86,262,305795,2,0,L|4:277,3,56,0|0|8|0,3:0|3:0|3:2|3:0,0:0:0:0:
134,152,306121,6,0,L|153:228,1,56,2|0,3:2|3:2,0:0:0:0:
230,205,306284,2,0,L|216:150,1,56,10|0,3:2|3:2,0:0:0:0:
398,43,306447,102,0,L|379:119,1,56,2|0,3:2|3:2,0:0:0:0:
302,96,306610,2,0,L|315:41,1,56,10|0,3:2|3:2,0:0:0:0:
182,15,306773,5,2,3:2:0:0:
127,8,306854,1,2,3:2:0:0:
77,32,306936,1,8,3:2:0:0:
49,79,307017,1,0,3:2:0:0:
52,135,307099,2,0,L|64:208,3,56,2|2|8|0,3:2|3:2|3:2|3:2,0:0:0:0:
149,179,307425,101,2,3:2:0:0:
203,172,307506,1,2,3:2:0:0:
253,196,307588,1,8,3:2:0:0:
281,243,307669,1,0,3:2:0:0:
278,299,307751,2,0,L|266:371,3,56,10|10|8|0,3:2|3:2|3:2|3:2,0:0:0:0:
189,384,308077,6,0,L|182:313,1,56,10|2,3:2|3:2,0:0:0:0:
150,92,308240,2,0,L|143:21,1,56,0|0,3:0|3:0,0:0:0:0:
94,278,308403,101,10,3:2:0:0:
146,258,308484,1,2,3:2:0:0:
199,239,308566,1,0,3:0:0:0:
251,220,308647,1,0,3:0:0:0:
304,201,308729,6,0,L|230:187,1,56,10|10,3:2|3:2,0:0:0:0:
87,161,308892,2,0,L|13:147,1,56,10|10,3:2|3:2,0:0:0:0:
225,28,309055,101,2,3:2:0:0:
274,64,309136,1,2,3:2:0:0:
324,100,309218,1,2,3:2:0:0:
373,137,309299,1,2,3:2:0:0:
423,173,309382,6,0,L|437:252,3,56,4|0|8|0,3:1|3:0|3:2|3:0,0:0:0:0:
499,140,309708,2,0,L|512:218,3,56,0|0|8|0,3:0|3:0|3:2|3:0,0:0:0:0:
476,315,310034,2,0,L|335:288,1,112,2|8,3:2|3:2,0:0:0:0:
311,360,310278,2,0,L|170:387,1,112,2|0,3:2|3:0,0:0:0:0:
134,328,310523,2,0,L|153:261,1,56,10|0,3:2|3:0,0:0:0:0:
188,24,310686,101,4,3:2:0:0:
147,30,310767,1,0,3:2:0:0:
117,58,310849,1,8,3:2:0:0:
107,99,310930,1,0,3:2:0:0:
122,137,311012,2,0,L|191:127,3,56,4|0|8|0,3:2|3:2|3:2|3:2,0:0:0:0:
343,198,311338,5,4,3:2:0:0:
302,191,311419,1,0,3:2:0:0:
272,163,311501,1,8,3:2:0:0:
262,122,311582,1,0,3:2:0:0:
277,84,311664,2,0,L|345:94,3,56,4|0|8|0,3:2|3:2|3:2|3:2,0:0:0:0:
404,28,311990,102,0,L|422:107,3,56,4|0|8|0,3:2|3:0|3:2|3:0,0:0:0:0:
491,36,312316,2,0,L|509:115,3,56,0|0|8|0,3:0|3:0|3:2|3:0,0:0:0:0:
355,138,312642,2,0,L|341:264,1,112,2|8,3:2|3:2,0:0:0:0:
265,269,312887,2,0,L|279:395,1,112,0|0,3:0|3:0,0:0:0:0:
191,229,313132,2,0,L|118:213,1,56,10|0,3:2|3:0,0:0:0:0:
13,184,313295,5,4,3:2:0:0:
45,210,313376,1,0,3:2:0:0:
61,248,313458,1,8,3:2:0:0:
56,289,313539,1,0,3:2:0:0:
32,324,313621,2,0,L|17:261,3,56,4|0|8|0,3:2|3:2|3:2|3:2,0:0:0:0:
99,379,313947,101,4,3:2:0:0:
154,374,314028,1,0,3:2:0:0:
200,344,314110,1,8,3:2:0:0:
228,296,314191,1,0,3:2:0:0:
229,240,314273,2,0,L|163:222,1,56,4|0,3:2|3:2,0:0:0:0:
433,356,314436,2,0,L|499:337,1,56,12|0,3:2|3:2,0:0:0:0:
294,384,314599,6,0,L|303:306,3,56,4|0|8|0,3:2|3:2|3:2|3:2,0:0:0:0:
212,367,314925,2,0,L|221:289,3,56,0|0|8|0,3:2|3:2|3:2|3:2,0:0:0:0:
365,272,315251,2,0,L|337:146,1,112,2|8,3:2|3:2,0:0:0:0:
256,169,315496,2,0,L|284:43,1,112,2|0,3:2|3:0,0:0:0:0:
345,11,315740,2,0,L|416:0,1,56,10|0,3:2|3:0,0:0:0:0:
512,103,315903,101,4,3:2:0:0:
494,140,315984,1,0,3:0:0:0:
460,164,316066,1,8,3:2:0:0:
419,167,316147,1,0,3:0:0:0:
381,149,316229,2,0,L|396:70,3,56,0|0|10|0,3:0|3:0|3:2|3:0,0:0:0:0:
314,206,316555,5,2,3:2:0:0:
295,166,316636,1,0,3:0:0:0:
255,147,316718,1,10,3:2:0:0:
213,158,316799,1,0,3:0:0:0:
187,193,316881,1,2,3:2:0:0:
190,237,316962,1,0,3:0:0:0:
212,274,317044,1,10,3:2:0:0:
195,314,317126,1,0,3:0:0:0:
153,325,317208,102,0,L|77:303,1,56,2|0,3:2|3:0,0:0:0:0:
321,260,317371,1,8,3:2:0:0:
321,260,317452,1,0,3:1:0:0:
321,260,317534,2,0,L|397:237,1,56,0|0,3:0|3:0,0:0:0:0:
209,139,317697,1,8,3:2:0:0:
209,139,317778,1,0,3:1:0:0:
209,139,317860,2,0,L|132:116,1,56,0|0,3:0|3:0,0:0:0:0:
293,71,318023,1,8,3:2:0:0:
293,71,318104,1,0,3:1:0:0:
293,71,318186,2,0,L|369:48,3,56,0|0|8|0,3:0|3:0|3:2|3:0,0:0:0:0:
200,17,318512,5,2,3:2:0:0:
208,58,318593,1,2,3:2:0:0:
216,99,318675,1,10,3:2:0:0:
224,140,318756,1,2,3:2:0:0:
232,181,318838,2,0,L|149:160,3,56,0|0|8|0,3:0|3:0|3:2|3:0,0:0:0:0:
275,273,319164,101,8,3:2:0:0:
323,300,319245,1,8,3:2:0:0:
378,303,319327,1,8,3:2:0:0:
428,279,319408,1,8,3:2:0:0:
462,235,319490,1,0,3:2:0:0:
472,181,319571,1,0,3:0:0:0:
456,128,319653,1,4,3:0:0:0:
417,88,319734,1,0,3:0:0:0:
364,71,319816,6,0,L|359:140,1,56,8|0,3:2|0:0,0:0:0:0:
353,224,319979,1,8,3:2:0:0:
353,224,320061,1,8,3:2:0:0:
353,224,320142,1,0,3:0:0:0:
169,283,320305,102,0,L|159:205,1,56,8|0,3:2|3:0,0:0:0:0:
150,67,320469,1,8,3:2:0:0:
150,67,320551,1,8,3:2:0:0:
150,67,320632,1,0,3:0:0:0:
447,48,320795,6,0,L|441:116,1,56,8|0,3:2|3:0,0:0:0:0:
430,269,320958,1,8,3:2:0:0:
430,269,321040,1,8,3:2:0:0:
430,269,321121,1,0,3:0:0:0:
82,319,321284,102,0,L|72:241,1,56,8|0,3:2|3:0,0:0:0:0:
57,39,321448,1,8,3:2:0:0:
57,39,321528,1,8,3:2:0:0:
57,39,321611,1,0,3:0:0:0:
397,128,321773,5,8,3:2:0:0:
355,134,321854,1,8,3:2:0:0:
314,141,321936,1,0,3:0:0:0:
272,148,322017,1,0,3:0:0:0:
231,155,322099,1,8,3:2:0:0:
189,161,322180,1,8,3:2:0:0:
148,168,322262,1,0,3:0:0:0:
106,175,322343,1,0,3:0:0:0:
65,182,322425,37,4,3:2:0:0:
134,341,322588,1,8,3:2:0:0:
134,127,322751,1,0,3:0:0:0:
203,286,322914,1,8,3:2:0:0:
242,26,323077,5,0,3:0:0:0:
207,271,323240,1,8,3:2:0:0:
345,90,323403,1,0,3:0:0:0:
310,335,323566,1,8,3:2:0:0:
488,114,323729,102,0,L|392:130,1,70,0|0,3:0|3:0,0:0:0:0:
512,249,323892,2,0,L|416:265,1,70,8|0,3:2|3:0,0:0:0:0:
355,62,324055,6,0,L|285:50,1,70,0|0,3:0|3:0,0:0:0:0:
331,197,324218,2,0,L|261:185,1,70,8|0,3:2|3:0,0:0:0:0:
185,135,324382,102,0,L|89:151,1,70,0|0,3:0|3:0,0:0:0:0:
209,270,324545,2,0,L|113:286,1,70,8|0,3:2|3:0,0:0:0:0:
1,208,324708,5,8,3:2:0:0:
18,210,324789,1,8,3:2:0:0:
35,213,324871,1,8,3:2:0:0:
52,215,324952,1,0,3:0:0:0:
70,218,325034,1,0,3:0:0:0:
179,24,325197,101,8,3:2:0:0:
222,53,325278,1,8,3:2:0:0:
254,94,325360,1,8,3:2:0:0:
273,143,325441,1,8,3:2:0:0:
276,195,325523,2,0,P|299:162|342:132,1,70,0|0,3:0|3:0,0:0:0:0:
446,106,325686,5,8,3:2:0:0:
439,168,325767,1,8,3:2:0:0:
446,231,325849,1,8,3:2:0:0:
465,291,325930,1,8,3:2:0:0:
495,346,326012,1,8,3:2:0:0:
440,316,326094,1,8,3:2:0:0:
380,297,326175,1,8,3:2:0:0:
317,290,326257,1,8,3:2:0:0:
256,297,326338,1,8,3:2:0:0:
