osu file format v14

[General]
AudioFilename: audio.mp3
AudioLeadIn: 0
PreviewTime: 51166
Countdown: 0
SampleSet: Soft
StackLeniency: 0.7
Mode: 0
LetterboxInBreaks: 0
WidescreenStoryboard: 1

[Editor]
DistanceSpacing: 1.4
BeatDivisor: 4
GridSize: 32
TimelineZoom: 2.799999

[Metadata]
Title:MIND READER
TitleUnicode:MIND READER
Artist:SYNC.ART'S
ArtistUnicode:SYNC.ART'S
Creator:Lasse
Version:Hard
Source:東方地霊殿 ~ Subterranean Animism.
Tags:touhou 仲村 芽衣子 meiko nakamura 美里 misato シークレットリンケージ -Secret Linkage- c91 少女さとり ~ 3rd eye Satori Komeiji ZUN
BeatmapID:1207568
BeatmapSetID:569335

[Difficulty]
HPDrainRate:6
CircleSize:4
OverallDifficulty:6
ApproachRate:7
SliderMultiplier:1.4
SliderTickRate:1

[Events]
//Background and Video events
0,0,"bg.jpg",0,0
//Break Periods
2,77707,88314
//Storyboard Layer 0 (Background)
//Storyboard Layer 1 (Fail)
//Storyboard Layer 2 (Pass)
//Storyboard Layer 3 (Foreground)
//Storyboard Sound Samples

[TimingPoints]
1410,365.853658536585,4,2,1,30,1,0
2507,-100,4,2,1,40,0,0
2873,-111.111111111111,4,2,1,50,0,0
8727,-99.9999999999999,4,2,1,55,0,0
14580,-133.333333333333,4,2,1,50,0,0
14855,-133.333333333333,4,2,1,5,0,0
14946,-133.333333333333,4,2,1,50,0,0
26288,-117.647058823529,4,2,1,55,0,0
37995,-200,4,2,1,50,0,0
43849,-161.290322580645,4,2,1,55,0,0
48056,-133.333333333333,4,2,1,60,0,0
51166,-90.9090909090909,4,2,1,70,0,1
51440,-90.9090909090909,4,2,2,5,0,1
51531,-90.9090909090909,4,2,1,70,0,1
54367,-90.9090909090909,4,2,2,5,0,1
54458,-90.9090909090909,4,2,1,70,0,1
57294,-90.9090909090909,4,2,2,5,0,1
57385,-90.9090909090909,4,2,1,70,0,1
59855,-90.9090909090909,4,2,2,5,0,1
59946,-90.9090909090909,4,2,1,70,0,1
60220,-90.9090909090909,4,2,2,5,0,1
60311,-90.9090909090909,4,2,1,70,0,1
62324,-90.9090909090909,4,2,1,70,0,0
62873,-90.9090909090909,4,2,1,70,0,1
63147,-90.9090909090909,4,2,2,5,0,1
63239,-90.9090909090909,4,2,1,70,0,1
66074,-90.9090909090909,4,2,2,5,0,1
66166,-90.9090909090909,4,2,1,70,0,1
69001,-90.9090909090909,4,2,2,5,0,1
69092,-90.9090909090909,4,2,1,70,0,1
71653,-83.3333333333333,4,2,1,75,0,1
73117,-90.9090909090909,4,2,1,70,0,1
73849,-90.9090909090909,4,2,1,65,0,1
74580,-100,4,2,1,60,0,0
77507,-100,4,2,1,50,0,0
89214,-133.333333333333,4,2,1,50,0,0
89489,-133.333333333333,4,2,1,5,0,0
89580,-133.333333333333,4,2,1,50,0,0
100922,-117.647058823529,4,2,1,55,0,0
112629,-200,4,2,1,50,0,0
118483,-161.290322580645,4,2,1,55,0,0
122690,-133.333333333333,4,2,1,60,0,0
125800,-90.9090909090909,4,2,1,70,0,1
126074,-90.9090909090909,4,2,2,5,0,1
126165,-90.9090909090909,4,2,1,70,0,1
129001,-90.9090909090909,4,2,2,5,0,1
129092,-90.9090909090909,4,2,1,70,0,1
131928,-90.9090909090909,4,2,2,5,0,1
132019,-90.9090909090909,4,2,1,70,0,1
134489,-90.9090909090909,4,2,2,5,0,1
134580,-90.9090909090909,4,2,1,70,0,1
134855,-90.9090909090909,4,2,2,5,0,1
134946,-90.9090909090909,4,2,1,70,0,1
136958,-90.9090909090909,4,2,1,70,0,0
137507,-90.9090909090909,4,2,1,70,0,1
137781,-90.9090909090909,4,2,2,5,0,1
137873,-90.9090909090909,4,2,1,70,0,1
140708,-90.9090909090909,4,2,2,5,0,1
140800,-90.9090909090909,4,2,1,70,0,1
143635,-90.9090909090909,4,2,2,5,0,1
143726,-90.9090909090909,4,2,1,70,0,1
146288,-83.3333333333333,4,2,1,75,0,1
147751,-90.9090909090909,4,2,1,70,0,1
148483,-90.9090909090909,4,2,1,65,0,1
149214,-133.333333333333,4,2,1,60,0,0
160922,-90.9090909090909,4,2,1,67,0,1
172995,-90.9090909090909,4,2,1,62,0,0
173727,-90.9090909090909,4,2,1,67,0,0
174092,-111.111111111111,4,2,1,70,0,1
174275,-111.111111111111,4,2,1,60,0,0
177019,-111.111111111111,4,2,1,65,0,0
177202,-111.111111111111,4,2,1,60,0,0
185800,-90.9090909090909,4,2,1,70,0,1
186074,-90.9090909090909,4,2,2,5,0,1
186166,-90.9090909090909,4,2,1,70,0,1
189001,-90.9090909090909,4,2,2,5,0,1
189093,-90.9090909090909,4,2,1,70,0,1
191928,-90.9090909090909,4,2,2,5,0,1
192019,-90.9090909090909,4,2,1,70,0,1
194580,-83.3333333333333,4,2,1,75,0,1
196043,-90.9090909090909,4,2,1,70,0,1
196776,-90.9090909090909,4,2,1,65,0,1
197507,-133.333333333333,4,2,1,60,0,0
200434,-133.333333333333,4,2,1,50,0,0

[Colours]
Combo1 : 250,190,230
Combo2 : 130,210,220
Combo3 : 250,140,140
Combo4 : 255,230,140

[HitObjects]
256,192,312,12,8,2507,0:1:0:0:
214,341,2873,6,0,B|244:280|218:214,1,125.999996154785,6|0,0:2|0:1,0:0:0:0:
167,162,3422,1,2,0:0:0:0:
167,162,3513,1,0,0:0:0:0:
167,162,3605,2,0,B|136:175|105:170,1,62.9999980773926,0|0,0:0|0:0,0:0:0:0:
121,83,3970,2,0,B|152:70|183:75,1,62.9999980773926,0|0,0:0|0:0,0:0:0:0:
271,79,4336,6,0,B|302:84|333:71,2,62.9999980773926,2|0|0,0:2|0:0|0:0,0:0:0:0:
182,74,4885,1,0,0:0:0:0:
223,154,5068,2,0,B|242:195|207:240|227:286,1,125.999996154785,2|0,0:0|0:0,0:0:0:0:
384,355,5800,5,4,0:1:0:0:
384,355,5983,1,0,0:0:0:0:
455,303,6166,1,0,0:0:0:0:
455,303,6349,1,0,0:0:0:0:
427,219,6531,2,0,B|414:188|419:157,1,62.9999980773926,2|0,0:0|0:0,0:0:0:0:
400,170,6806,2,0,B|369:183|338:178,1,62.9999980773926,2|0,0:0|0:0,0:0:0:0:
316,172,7080,1,2,0:0:0:0:
254,110,7263,6,0,B|199:58|129:95,1,125.999996154785,2|0,0:0|0:0,0:0:0:0:
97,170,7812,2,0,B|92:192|93:211|93:211,2,31.4999990386963,2|0|0,0:0|0:0|0:0,0:0:0:0:
193,175,8178,1,2,1:2:0:0:
193,175,8269,1,0,1:2:0:0:
193,175,8361,1,4,1:2:0:0:
347,296,8727,6,0,B|274:334|218:280,1,140,4|8,0:0|0:0,0:0:0:0:
297,212,9275,1,2,0:0:0:0:
297,212,9367,1,2,0:0:0:0:
297,212,9458,2,0,B|320:180|307:129|307:129,2,70,2|0|8,0:0|0:0|0:0,0:0:0:0:
211,163,10007,1,0,0:0:0:0:
262,79,10190,6,0,B|294:55|345:68|345:68,1,70,2|0,0:0|0:0,0:0:0:0:
414,115,10556,2,0,B|446:138|497:125|497:125,1,70,8|0,0:0|0:0,0:0:0:0:
425,209,10922,2,0,B|389:225|374:275|374:275,2,70,2|0|8,0:0|0:0|0:0,0:0:0:0:
474,293,11470,1,0,0:0:0:0:
399,356,11653,5,4,0:0:0:0:
399,356,11836,1,0,0:0:0:0:
309,329,12019,1,8,0:0:0:0:
309,329,12202,1,0,0:0:0:0:
380,260,12385,2,0,B|398:225|379:176|379:176,1,70,2|0,0:0|0:0,0:0:0:0:
312,123,12751,2,0,B|289:124|268:120|268:120,3,35,10|2|2|2,0:0|0:0|0:0|0:0,0:0:0:0:
252,117,13117,6,0,B|208:97|161:141|114:121,1,140,2|0,0:0|0:0,0:0:0:0:
50,62,13666,1,2,1:2:0:0:
50,62,13757,1,0,1:2:0:0:
50,62,13849,2,0,B|27:61|6:64|6:64,2,35,2|0|2,1:2|1:2|1:2,0:0:0:0:
145,39,14214,1,8,1:0:0:0:
225,196,14580,6,0,B|277:213|352:196,1,105.000004005432,6|0,0:0|0:0,0:0:0:0:
392,153,15129,1,0,0:0:0:0:
457,200,15312,2,0,B|465:233|458:266,1,52.5000020027161,0|0,0:0|0:0,0:0:0:0:
388,285,15678,2,0,B|355:277|322:284,1,52.5000020027161,0|0,0:0|0:0,0:0:0:0:
271,327,16044,6,0,B|265:345|242:370,2,52.5000020027161,2|0|0,0:0|0:0|0:0,0:0:0:0:
264,249,16592,1,0,0:0:0:0:
208,191,16775,2,0,B|178:182|133:201|102:187,1,105.000004005432,2|0,0:0|0:0,0:0:0:0:
46,133,17324,1,0,0:0:0:0:
27,210,17507,6,0,B|19:243|26:276,1,52.5000020027161,2|0,0:0|0:0,0:0:0:0:
57,339,17873,1,0,0:0:0:0:
57,339,18056,1,0,0:0:0:0:
135,345,18239,2,0,B|164:350|187:333|226:340,2,78.7500030040742,2|2|2,0:0|0:0|0:0,0:0:0:0:
107,272,18970,6,0,B|87:221|117:171,1,105.000004005432,2|0,0:0|0:0,0:0:0:0:
171,114,19519,1,0,0:0:0:0:
247,131,19702,2,0,B|298:151|347:120,1,105.000004005432,0|0,0:0|1:0,0:0:0:0:
460,9,20434,6,0,B|486:3|522:14,2,52.5000020027161,6|0|0,0:0|0:0|0:0,0:0:0:0:
383,28,20983,1,0,0:0:0:0:
306,47,21166,2,0,B|276:51|242:31|211:39,2,78.7500030040742,2|2|2,0:0|0:0|0:0,0:0:0:0:
361,105,21897,5,2,0:0:0:0:
416,163,22080,2,0,B|433:166|452:164|452:164,2,26.2500010013581,0|0|0,1:0|1:0|1:0,0:0:0:0:
342,192,22446,1,0,1:0:0:0:
342,192,22538,1,0,1:0:0:0:
342,192,22629,2,0,B|326:227|350:261|339:296,1,105.000004005432,2|0,1:2|0:0,0:0:0:0:
282,350,23178,1,0,0:0:0:0:
209,319,23361,6,0,B|181:308|157:313,1,52.5000020027161,4|0,1:1|0:0,0:0:0:0:
130,238,23727,2,0,B|102:250|89:271,1,52.5000020027161,0|0,1:0|0:0,0:0:0:0:
17,238,24092,2,0,B|5:265|11:289,1,52.5000020027161,0|0,1:0|0:0,0:0:0:0:
89,270,24458,2,0,B|100:242|94:218,1,52.5000020027161,0|0,1:0|0:0,0:0:0:0:
65,124,24824,6,0,B|113:159|187:123,1,105.000004005432,4|8,0:0|0:0,0:0:0:0:
244,94,25373,1,2,0:0:0:0:
244,94,25464,1,0,0:0:0:0:
244,94,25556,2,0,B|262:92|274:91|274:91,3,26.2500010013581,10|0|10|0,0:0|0:0|0:0|0:0,0:0:0:0:
298,106,25922,2,0,B|316:108|328:108|328:108,3,26.2500010013581,8|0|8|0,1:1|1:1|1:1|1:1,0:0:0:0:
352,92,26288,6,0,B|407:66|471:92,1,119.000002269745,6|8,0:0|0:0,0:0:0:0:
509,163,26836,1,0,0:0:0:0:
466,234,27019,2,0,B|458:269|465:292,1,59.5000011348725,2|0,0:0|0:0,0:0:0:0:
422,364,27385,1,8,0:0:0:0:
422,364,27568,1,0,0:0:0:0:
341,341,27751,6,0,B|305:332|281:339,1,59.5000011348725,2|0,0:0|0:0,0:0:0:0:
220,282,28117,2,0,B|255:271|272:253,1,59.5000011348725,8|0,0:0|0:0,0:0:0:0:
316,183,28483,2,0,B|317:166|322:145|322:145,2,29.7500005674362,2|0|0,1:2|1:0|1:0,0:0:0:0:
354,256,28849,1,8,0:0:0:0:
437,260,29031,1,0,0:0:0:0:
481,190,29214,6,0,B|492:158|477:119|477:119,2,59.5000011348725,2|0|8,0:0|0:0|0:0,0:0:0:0:
437,260,29763,1,0,0:0:0:0:
354,256,29946,2,0,B|322:245|283:260|283:260,1,59.5000011348725,2|0,0:0|0:0,0:0:0:0:
276,265,30220,1,2,0:0:0:0:
259,277,30312,2,0,B|227:288|188:273|188:273,1,59.5000011348725,8|2,0:0|0:0,0:0:0:0:
140,217,30678,6,0,B|123:174|150:146|139:98,1,119.000002269745,2|8,0:0|0:0,0:0:0:0:
112,20,31227,1,0,0:0:0:0:
33,47,31409,2,0,L|-4:42,2,29.7500005674362,2|0|0,1:2|1:0|1:0,0:0:0:0:
62,130,31775,1,8,0:0:0:0:
62,130,31958,1,0,0:0:0:0:
139,99,32141,6,0,B|200:68|266:108,1,119.000002269745,6|8,0:0|0:0,0:0:0:0:
314,158,32690,1,0,0:0:0:0:
374,215,32873,2,0,B|406:226|445:211|445:211,1,59.5000011348725,2|0,0:0|0:0,0:0:0:0:
448,228,33147,1,2,0:0:0:0:
459,245,33239,2,0,B|470:277|455:316|455:316,1,59.5000011348725,8|2,0:0|0:0,0:0:0:0:
396,359,33605,6,0,B|367:340|326:344|326:344,1,59.5000011348725,2|0,0:0|0:0,0:0:0:0:
261,313,33970,2,0,B|291:298|308:259|308:259,1,59.5000011348725,8|0,0:0|0:0,0:0:0:0:
312,187,34336,2,0,B|329:187|343:181|343:181,2,29.7500005674362,2|0|0,1:2|1:0|1:0,0:0:0:0:
246,134,34702,1,8,0:0:0:0:
170,169,34885,1,0,0:0:0:0:
101,120,35068,6,0,B|80:90|83:54,1,59.5000011348725,4|0,1:2|0:0,0:0:0:0:
166,66,35434,2,0,B|162:29|183:0,1,59.5000011348725,8|0,0:0|0:0,0:0:0:0:
249,51,35800,2,0,B|264:17|297:2,1,59.5000011348725,0|0,1:0|0:0,0:0:0:0:
328,79,36166,2,0,B|358:58|393:61,1,59.5000011348725,8|0,0:0|0:0,0:0:0:0:
454,125,36531,6,0,B|455:161|433:189,1,59.5000011348725,4|0,1:0|0:0,0:0:0:0:
428,199,36806,1,0,1:0:0:0:
413,213,36897,1,8,1:2:0:0:
329,203,37080,2,0,B|304:194|295:196|295:196,2,29.7500005674362,0|0|0,1:0|1:0|1:0,0:0:0:0:
361,280,37446,1,0,1:0:0:0:
356,300,37538,1,0,1:0:0:0:
351,320,37629,2,0,B|332:325|318:325|318:325,2,29.7500005674362,8|0|0,1:0|0:0|0:0,0:0:0:0:
443,303,37995,6,0,B|483:297|513:312|513:312,1,70,4|2,1:2|0:0,0:0:0:0:
511,311,38544,1,0,1:0:0:0:
449,159,39092,1,8,0:0:0:0:
340,188,39458,2,0,B|311:191|283:180|283:180,1,52.5,0|0,1:0|1:0,0:0:0:0:
270,169,39824,2,0,B|252:163|230:164|230:164,2,35,2|0|2,1:2|1:0|1:2,0:0:0:0:
320,269,40556,1,8,0:0:0:0:
241,349,40922,6,0,B|196:354|158:336|158:336,1,70,4|2,1:2|0:0,0:0:0:0:
171,341,41470,1,0,1:0:0:0:
83,271,41836,2,0,B|58:266|43:268|43:268,2,35,2|8|0,0:0|0:0|0:0,0:0:0:0:
141,220,42385,2,0,B|149:189|143:157|143:157,1,52.5,0|0,1:0|1:0,0:0:0:0:
135,148,42751,2,0,B|132:130|136:104|136:104,1,35,2|0,1:2|1:1,0:0:0:0:
182,51,43117,2,0,B|196:39|220:30|220:30,1,35,2|0,1:2|1:1,0:0:0:0:
289,35,43483,2,0,B|306:41|326:57|326:57,1,35,10|0,0:0|0:0,0:0:0:0:
365,146,43849,6,0,B|344:125|306:122|284:139,1,86.7999965563966,4|8,1:2|0:0,0:0:0:0:
241,203,44397,1,2,0:0:0:0:
271,275,44580,2,0,B|292:296|330:299|351:282,1,86.7999965563966,2|8,1:2|0:0,0:0:0:0:
444,153,45312,6,0,B|423:132|385:129|363:145,1,86.7999965563966,2|8,1:2|0:0,0:0:0:0:
318,210,45861,1,2,0:0:0:0:
271,275,46044,2,0,B|249:283|228:276,1,43.3999982781983,2|0,1:2|1:0,0:0:0:0:
157,243,46409,2,0,B|136:236|114:244,1,43.3999982781983,10|0,1:2|1:0,0:0:0:0:
40,308,46775,6,0,B|42:269|27:263|35:221,1,86.7999965563966,4|8,1:2|0:0,0:0:0:0:
140,83,47507,2,0,B|161:90|183:82,1,43.3999982781983,0|0,1:2|1:0,0:0:0:0:
253,31,47873,1,8,0:0:0:0:
324,83,48056,6,0,B|333:129|299:145|317:197,1,105.000004005432,4|0,1:0|1:0,0:0:0:0:
401,245,48605,2,0,B|418:224|419:186|419:186,1,52.5000020027161,8|0,0:1|1:0,0:0:0:0:
429,95,48970,1,8,0:1:0:0:
429,95,49153,1,0,1:0:0:0:
324,83,49336,2,0,B|297:87|263:69|263:69,1,52.5000020027161,8|0,0:1|1:0,0:0:0:0:
159,16,49702,5,2,1:0:0:0:
144,120,49885,1,2,1:0:0:0:
129,224,50068,1,2,1:0:0:0:
314,370,50617,5,0,1:0:0:0:
314,370,50708,1,0,1:0:0:0:
314,370,50800,1,8,1:0:0:0:
478,208,51166,6,0,B|519:132|468:55,1,154.000004699707,4|8,1:1|0:0,0:0:0:0:
260,18,51897,2,0,B|240:61|256:91,1,77.0000023498536,2|0,1:2|1:2,0:0:0:0:
354,139,52263,1,8,0:0:0:0:
264,200,52446,6,0,B|194:203|209:178|156:162|114:184,1,154.000004699707,6|0,1:2|1:0,0:0:0:0:
42,262,52995,1,8,0:0:0:0:
237,354,53361,2,0,B|275:366|316:354,1,77.0000023498536,0|0,1:0|1:0,0:0:0:0:
400,291,53727,1,8,0:0:0:0:
400,291,53909,1,2,0:0:0:0:
419,184,54092,6,0,B|341:228|274:176,1,154.000004699707,4|8,1:2|0:0,0:0:0:0:
246,72,54641,1,0,0:0:0:0:
340,20,54824,2,0,B|359:54|351:95,1,77.0000023498536,2|0,1:2|1:2,0:0:0:0:
275,176,55190,1,8,0:0:0:0:
168,149,55373,6,0,B|102:97|24:141,1,154.000004699707,4|0,1:2|1:0,0:0:0:0:
92,226,55922,1,10,0:0:0:0:
158,311,56105,2,0,B|195:322|234:313,1,77.0000023498536,6|0,1:2|0:0,0:0:0:0:
252,305,56379,1,8,0:0:0:0:
268,295,56470,1,0,1:2:0:0:
296,191,56653,2,0,B|294:165|300:142|300:142,2,38.5000011749268,8|0|2,1:2|1:2|1:2,0:0:0:0:
396,232,57019,6,0,B|422:290|376:330|395:384,1,154.000004699707,4|8,1:0|0:0,0:0:0:0:
498,350,57568,2,0,B|512:320|509:258,1,77.0000023498536,2|0,0:0|1:0,0:0:0:0:
486,168,57934,2,0,B|471:128|474:88,1,77.0000023498536,2|8,1:2|0:0,0:0:0:0:
382,33,58300,6,0,B|311:85|239:31,1,154.000004699707,4|0,1:2|1:1,0:0:0:0:
149,92,58849,1,8,0:0:0:0:
354,154,59214,2,0,B|320:142|277:146,1,77.0000023498536,2|0,1:2|1:0,0:0:0:0:
233,245,59580,2,0,B|266:256|309:252,1,77.0000023498536,8|0,0:0|0:0,0:0:0:0:
413,222,59946,6,0,B|367:228|328:295|350:346,1,154.000004699707,4|8,1:2|0:0,0:0:0:0:
243,369,60495,2,0,B|221:340|172:325,1,77.0000023498536,2|0,0:0|1:0,0:0:0:0:
71,322,60861,2,0,B|34:326|-2:360,1,77.0000023498536,2|8,1:2|0:0,0:0:0:0:
27,250,61227,6,0,B|43:200|11:147|32:98,1,154.000004699707,4|8,1:2|0:0,0:0:0:0:
109,23,61775,1,8,0:0:0:0:
212,52,61958,1,0,1:2:0:0:
238,155,62141,2,0,B|252:198|231:229|231:229,1,77.0000023498536,2|0,1:2|1:0,0:0:0:0:
220,245,62416,1,0,1:0:0:0:
209,261,62507,2,0,B|200:287|206:313|206:313,3,38.5000011749268,8|8|4|4,1:3|1:3|1:3|1:3,0:0:0:0:
210,317,62873,6,0,B|284:280|349:345,1,154.000004699707,4|8,1:0|0:0,0:0:0:0:
502,192,63605,2,0,B|426:156|433:65,1,154.000004699707,2|8,1:2|0:0,0:0:0:0:
360,145,64153,6,0,B|283:188|217:133,1,154.000004699707,4|0,1:2|1:0,0:0:0:0:
148,49,64702,1,8,0:0:0:0:
3,208,65068,2,0,B|-6:253|2:284,1,77.0000023498536,0|0,1:0|1:0,0:0:0:0:
89,358,65434,1,8,0:0:0:0:
89,358,65617,1,2,0:0:0:0:
176,294,65800,6,0,B|242:239|319:282,1,154.000004699707,4|8,1:2|0:0,0:0:0:0:
406,345,66349,1,0,0:0:0:0:
495,282,66531,2,0,B|504:237|496:206,1,77.0000023498536,2|0,1:2|1:2,0:0:0:0:
436,113,66897,1,8,0:0:0:0:
328,131,67080,6,0,B|300:187|348:229|318:281,1,154.000004699707,4|0,1:2|1:0,0:0:0:0:
228,340,67629,1,8,0:0:0:0:
137,282,67812,2,0,B|128:243|139:206,1,77.0000023498536,4|0,0:0|0:0,0:0:0:0:
150,190,68086,1,8,0:0:0:0:
164,176,68178,1,0,1:0:0:0:
255,119,68361,2,0,B|278:115|296:107|296:107,2,38.5000011749268,8|0|2,1:2|1:2|1:2,0:0:0:0:
184,36,68727,6,0,B|128:8|86:56|33:27,1,154.000004699707,4|8,1:0|0:0,0:0:0:0:
47,134,69275,2,0,B|48:171|34:210,1,77.0000023498536,2|0,0:0|1:0,0:0:0:0:
0,312,69641,2,0,B|33:293|73:294,1,77.0000023498536,2|8,1:2|0:0,0:0:0:0:
177,325,70007,6,0,B|248:381|319:326,1,154.000004699707,4|0,1:2|1:2,0:0:0:0:
367,230,70556,1,8,0:0:0:0:
313,20,70922,2,0,B|297:54|304:95,1,77.0000023498536,8|0,1:2|1:0,0:0:0:0:
252,190,71288,2,0,B|210:182|176:198,1,77.0000023498536,8|8,0:0|0:3,0:0:0:0:
164,212,71562,1,8,0:3:0:0:
156,229,71653,6,0,B|117:250|74:238,1,83.9999974365235,12|0,1:2|0:0,0:0:0:0:
4,150,72019,1,10,0:0:0:0:
4,150,72202,1,0,1:0:0:0:
72,54,72385,2,0,B|111:33|153:44,1,83.9999974365235,10|0,0:0|1:0,0:0:0:0:
244,120,72751,1,8,0:0:0:0:
348,65,72934,1,0,1:0:0:0:
368,64,73025,1,0,1:0:0:0:
388,68,73117,6,0,B|416:117|367:161|393:220,1,154.000004699707,4|0,1:0|0:0,0:0:0:0:
468,311,73666,1,0,1:0:0:0:
468,311,73757,1,0,1:0:0:0:
468,311,73849,2,0,B|419:283|375:332|316:306,1,154.000004699707,4|8,1:2|0:3,0:0:0:0:
226,249,74397,1,4,0:3:0:0:
144,318,74580,5,4,1:0:0:0:
256,192,74672,12,8,77141,0:1:0:0:
202,262,77507,5,6,0:0:0:0:
182,334,89214,6,0,B|207:282|184:229,1,105.000004005432,6|0,0:0|0:0,0:0:0:0:
128,177,89763,1,0,0:0:0:0:
71,122,89946,2,0,B|63:89|67:69,1,52.5000020027161,0|0,0:0|0:0,0:0:0:0:
143,48,90312,2,0,B|151:81|146:100,1,52.5000020027161,0|0,0:0|0:0,0:0:0:0:
128,177,90678,6,0,B|101:197|77:201,2,52.5000020027161,2|0|0,0:0|0:0|0:0,0:0:0:0:
203,153,91227,1,0,0:0:0:0:
278,129,91409,2,0,B|317:120|343:145|390:135,1,105.000004005432,2|0,0:0|0:0,0:0:0:0:
449,94,91958,1,0,0:0:0:0:
510,146,92141,6,0,B|514:181|509:205,1,52.5000020027161,2|0,0:0|0:0,0:0:0:0:
483,275,92507,1,0,0:0:0:0:
483,275,92690,1,0,0:0:0:0:
426,329,92873,2,0,B|373:342|341:306,2,78.7500030040742,2|2|2,0:0|0:0|0:0,0:0:0:0:
400,254,93605,6,0,B|394:203|413:206|405:141,1,105.000004005432,2|0,0:0|0:0,0:0:0:0:
352,91,94153,1,0,0:0:0:0:
279,124,94336,2,0,B|219:140|168:111,1,105.000004005432,0|0,0:0|1:0,0:0:0:0:
270,242,95068,6,0,B|296:236|332:247,2,52.5000020027161,6|0|0,0:0|0:0|0:0,0:0:0:0:
191,248,95617,1,0,0:0:0:0:
134,303,95800,2,0,B|104:299|70:319|41:303,2,78.7500030040742,2|2|2,0:0|0:0|0:0,0:0:0:0:
210,324,96531,5,2,0:0:0:0:
264,266,96714,2,0,B|281:263|300:265|300:265,2,26.2500010013581,0|0|0,1:0|1:0|1:0,0:0:0:0:
191,248,97080,1,0,1:0:0:0:
191,248,97172,1,0,1:0:0:0:
191,248,97263,2,0,B|178:193|196:201|188:144,1,105.000004005432,2|0,1:2|0:0,0:0:0:0:
139,80,97812,1,0,0:0:0:0:
184,13,97995,6,0,B|212:2|236:7,1,52.5000020027161,4|0,1:1|0:0,0:0:0:0:
313,22,98361,2,0,B|342:26|361:42,1,52.5000020027161,0|0,1:0|0:0,0:0:0:0:
420,94,98727,2,0,B|443:112|451:136,1,52.5000020027161,0|0,1:0|0:0,0:0:0:0:
476,209,99092,2,0,B|486:237|481:261,1,52.5000020027161,0|0,1:0|0:0,0:0:0:0:
431,342,99458,6,0,B|386:297|314:326,1,105.000004005432,4|8,0:0|0:0,0:0:0:0:
265,351,100007,1,2,0:0:0:0:
265,351,100099,1,0,0:0:0:0:
265,351,100190,2,0,B|247:349|235:348|235:348,3,26.2500010013581,10|0|10|0,0:0|0:0|0:0|0:0,0:0:0:0:
211,363,100556,2,0,B|193:365|181:365|181:365,3,26.2500010013581,8|0|8|0,1:1|1:1|1:1|1:1,0:0:0:0:
157,349,100922,6,0,B|118:335|99:367|31:347,1,119.000002269745,6|8,0:0|0:0,0:0:0:0:
5,273,101470,1,0,0:0:0:0:
66,217,101653,2,0,B|74:182|67:159,1,59.5000011348725,2|0,0:0|0:0,0:0:0:0:
27,91,102019,1,8,0:0:0:0:
27,91,102202,1,0,0:0:0:0:
84,30,102385,6,0,B|113:22|144:28,1,59.5000011348725,2|0,0:0|0:0,0:0:0:0:
213,73,102751,2,0,B|242:81|271:75,1,59.5000011348725,8|0,0:0|0:0,0:0:0:0:
345,35,103117,2,0,B|361:30|382:28|382:28,2,29.7500005674362,2|0|0,1:2|1:0|1:0,0:0:0:0:
343,120,103483,1,8,0:0:0:0:
341,205,103666,1,0,0:0:0:0:
311,283,103849,6,0,B|279:294|240:279|240:279,2,59.5000011348725,2|0|8,0:0|0:0|0:0,0:0:0:0:
393,269,104397,1,0,0:0:0:0:
421,191,104580,2,0,B|432:159|417:120|417:120,1,59.5000011348725,2|0,0:0|0:0,0:0:0:0:
413,112,104855,1,2,0:0:0:0:
397,97,104946,2,0,B|365:86|326:101|326:101,1,59.5000011348725,8|2,0:0|0:0,0:0:0:0:
260,129,105312,6,0,B|199:159|146:123,1,119.000002269745,2|8,0:0|0:0,0:0:0:0:
97,56,105861,1,0,0:0:0:0:
30,106,106044,2,0,B|12:103|-7:106|-7:106,2,29.7500005674362,2|0|0,1:2|1:0|1:0,0:0:0:0:
84,176,106409,1,8,0:0:0:0:
84,176,106592,1,0,0:0:0:0:
147,123,106775,6,0,B|178:113|205:120,1,59.5000011348725,6|0,0:0|0:0,0:0:0:0:
268,176,107141,2,0,B|275:203|265:234,1,59.5000011348725,8|0,0:0|0:0,0:0:0:0:
308,306,107507,2,0,B|339:316|366:308,1,59.5000011348725,2|0,0:0|0:0,0:0:0:0:
384,297,107781,1,2,0:0:0:0:
399,283,107873,2,0,B|409:252|402:224,1,59.5000011348725,8|2,0:0|0:0,0:0:0:0:
373,145,108239,6,0,B|404:155|432:148,2,59.5000011348725,2|0|8,0:0|0:0|0:0,0:0:0:0:
304,96,108788,1,0,0:0:0:0:
235,47,108970,2,0,B|218:45|200:49|200:49,2,29.7500005674362,2|0|0,1:2|1:0|1:0,0:0:0:0:
311,11,109336,1,8,0:0:0:0:
382,60,109519,1,0,0:0:0:0:
304,96,109702,6,0,B|294:125|301:164,1,59.5000011348725,4|0,1:2|0:0,0:0:0:0:
222,189,110068,2,0,B|235:216|267:239,1,59.5000011348725,8|0,0:0|0:0,0:0:0:0:
229,312,110434,2,0,B|257:322|296:315,1,59.5000011348725,0|0,1:0|0:0,0:0:0:0:
319,238,110800,2,0,B|290:228|251:235,1,59.5000011348725,8|0,0:0|0:0,0:0:0:0:
160,247,111166,6,0,B|124:248|96:226,1,59.5000011348725,4|0,1:0|0:0,0:0:0:0:
85,219,111440,1,0,1:0:0:0:
73,201,111531,1,8,1:2:0:0:
53,120,111714,2,0,B|37:115|19:113|19:113,2,29.7500005674362,0|0|0,1:0|0:0|1:0,0:0:0:0:
134,100,112080,1,0,1:0:0:0:
147,84,112172,1,0,1:0:0:0:
156,65,112263,2,0,B|157:49|154:31|154:31,2,29.7500005674362,8|0|0,1:0|0:0|0:0,0:0:0:0:
225,112,112629,6,0,B|264:122|299:109|299:109,1,70,4|2,1:2|0:0,0:0:0:0:
294,110,113178,1,0,1:0:0:0:
444,34,113727,1,8,0:0:0:0:
496,132,114092,2,0,B|503:161|497:189|497:189,1,52.5,0|0,1:0|0:0,0:0:0:0:
494,205,114458,2,0,B|491:229|492:245|492:245,2,35,2|0|2,1:2|1:0|1:2,0:0:0:0:
393,154,115190,1,8,0:0:0:0:
330,247,115556,6,0,B|286:260|246:239|246:239,1,70,4|2,1:2|0:0,0:0:0:0:
261,244,116105,1,0,1:0:0:0:
195,153,116470,2,0,B|196:128|192:113|192:113,2,35,2|8|0,0:0|0:0|0:0,0:0:0:0:
153,218,117019,2,0,B|142:249|151:281|151:281,1,52.5,0|0,1:0|1:0,0:0:0:0:
154,291,117385,2,0,B|156:309|155:335|155:335,1,35,2|0,1:2|1:1,0:0:0:0:
225,356,117751,2,0,B|236:341|255:324|255:324,1,35,2|0,1:2|1:1,0:0:0:0:
317,294,118117,2,0,B|335:292|361:292|361:292,1,35,10|0,0:0|0:0,0:0:0:0:
439,283,118483,6,0,B|418:262|415:224|432:202,1,86.7999965563966,4|8,1:2|0:0,0:0:0:0:
491,140,119031,1,2,0:0:0:0:
449,64,119214,2,0,B|428:43|390:40|369:57,1,86.7999965563966,2|8,1:2|0:0,0:0:0:0:
279,205,119946,6,0,B|258:226|220:229|199:212,1,86.7999965563966,2|8,1:2|0:0,0:0:0:0:
152,137,120495,1,2,0:0:0:0:
104,61,120678,2,0,B|80:57|59:61,1,43.3999982781983,2|0,1:2|1:0,0:0:0:0:
2,124,121044,2,0,B|-2:148|2:169,1,43.3999982781983,10|0,1:2|1:0,0:0:0:0:
27,257,121409,6,0,B|74:240|115:254,1,86.7999965563966,4|8,1:2|0:0,0:0:0:0:
266,333,122141,2,0,B|284:341|314:337,1,43.3999982781983,0|0,1:2|1:0,0:0:0:0:
384,293,122507,1,8,0:0:0:0:
364,207,122690,6,0,B|354:172|384:144|371:103,1,105.000004005432,4|0,1:0|1:0,0:0:0:0:
291,36,123239,2,0,B|270:27|237:31,1,52.5000020027161,8|0,0:1|1:0,0:0:0:0:
149,86,123605,1,8,0:1:0:0:
149,86,123788,1,0,1:0:0:0:
183,184,123970,2,0,B|187:215|178:235,1,52.5000020027161,8|0,0:1|1:0,0:0:0:0:
130,343,124336,5,2,1:0:0:0:
234,328,124519,1,2,1:0:0:0:
338,313,124702,1,2,1:0:0:0:
450,104,125251,5,0,1:0:0:0:
450,104,125342,1,0,1:0:0:0:
450,104,125434,1,8,1:0:0:0:
230,175,125800,6,0,B|206:129|252:94|218:22,1,154.000004699707,4|8,1:1|0:0,0:0:0:0:
11,80,126531,2,0,B|-1:117|7:157,1,77.0000023498536,2|0,1:2|1:2,0:0:0:0:
48,256,126897,1,8,0:0:0:0:
148,215,127080,6,0,B|228:184|304:238,1,154.000004699707,6|0,1:2|1:0,0:0:0:0:
364,314,127629,1,8,0:0:0:0:
507,152,127995,2,0,B|466:168|429:148,1,77.0000023498536,0|0,1:0|1:0,0:0:0:0:
346,92,128361,1,8,0:0:0:0:
346,92,128544,1,2,0:0:0:0:
259,158,128727,6,0,B|235:204|281:239|248:308,1,154.000004699707,4|8,1:2|0:0,0:0:0:0:
161,371,129275,1,0,0:0:0:0:
84,294,129458,2,0,B|68:261|81:218,1,77.0000023498536,2|0,1:2|1:2,0:0:0:0:
152,138,129824,1,8,0:0:0:0:
259,158,130007,6,0,B|293:166|326:158|321:140|373:130|406:157,1,154.000004699707,4|0,1:2|1:0,0:0:0:0:
464,249,130556,1,10,0:0:0:0:
407,341,130739,2,0,B|362:357|331:341,1,77.0000023498536,6|0,1:2|0:0,0:0:0:0:
314,334,131013,1,8,0:0:0:0:
296,325,131105,1,0,1:2:0:0:
249,227,131288,2,0,B|255:205|252:175|252:175,2,38.5000011749268,8|0|2,1:2|1:2|1:2,0:0:0:0:
149,269,131653,6,0,B|123:211|169:171|150:117,1,154.000004699707,4|8,1:0|0:0,0:0:0:0:
98,23,132202,2,0,B|132:41|187:31,1,77.0000023498536,2|0,0:0|1:0,0:0:0:0:
269,86,132568,2,0,B|310:78|344:96,1,77.0000023498536,2|8,1:2|0:0,0:0:0:0:
371,200,132934,6,0,B|341:164|284:142|231:172,1,154.000004699707,4|0,1:2|1:1,0:0:0:0:
285,264,133483,1,8,0:0:0:0:
434,109,133849,2,0,B|446:75|439:31,1,77.0000023498536,2|0,1:2|1:0,0:0:0:0:
336,66,134214,2,0,B|293:72|259:60,1,77.0000023498536,8|0,0:0|0:0,0:0:0:0:
163,11,134580,6,0,B|181:89|130:85|153:164,1,154.000004699707,4|8,1:2|0:0,0:0:0:0:
197,260,135129,2,0,B|219:289|268:304,1,77.0000023498536,2|0,0:0|1:0,0:0:0:0:
368,306,135495,2,0,B|405:302|441:268,1,77.0000023498536,2|8,1:2|0:0,0:0:0:0:
356,201,135861,6,0,B|331:124|382:124|353:50,1,154.000004699707,4|8,1:2|0:0,0:0:0:0:
253,10,136409,1,8,0:0:0:0:
153,51,136592,1,0,1:2:0:0:
111,150,136775,2,0,B|92:191|117:233|117:233,1,77.0000023498536,2|0,1:2|1:0,0:0:0:0:
128,236,137050,1,0,1:0:0:0:
141,249,137141,2,0,B|149:274|142:301|142:301,3,38.5000011749268,8|8|4|4,1:3|1:3|1:3|1:3,0:0:0:0:
140,306,137507,6,0,B|67:363|2:295,1,154.000004699707,4|8,1:0|0:0,0:0:0:0:
18,80,138239,2,0,B|91:23|155:89,1,154.000004699707,2|8,1:2|0:0,0:0:0:0:
214,179,138788,6,0,B|278:245|351:188,1,154.000004699707,4|0,1:2|1:0,0:0:0:0:
422,108,139336,1,8,0:0:0:0:
491,312,139702,2,0,B|455:294|412:297,1,77.0000023498536,0|0,1:0|1:0,0:0:0:0:
319,339,140068,1,8,0:0:0:0:
319,339,140251,1,2,0:0:0:0:
231,274,140434,6,0,B|212:228|260:170|238:123,1,154.000004699707,4|8,1:2|0:0,0:0:0:0:
165,43,140983,1,0,0:0:0:0:
65,88,141166,2,0,B|45:124|51:165,1,77.0000023498536,2|0,1:2|1:2,0:0:0:0:
133,231,141531,1,8,0:0:0:0:
236,202,141714,6,0,B|295:177|331:227|387:204,1,154.000004699707,4|0,1:2|1:0,0:0:0:0:
463,128,142263,1,8,0:0:0:0:
491,233,142446,2,0,B|503:270|492:311,1,77.0000023498536,4|0,0:0|0:0,0:0:0:0:
485,326,142720,1,8,0:0:0:0:
473,341,142812,1,0,1:0:0:0:
367,316,142995,2,0,B|361:294|364:270|364:270,2,38.5000011749268,8|0|2,1:2|1:2|1:2,0:0:0:0:
270,364,143361,6,0,B|214:387|178:337|119:362,1,154.000004699707,4|8,1:0|0:0,0:0:0:0:
12,352,143909,2,0,B|31:318|33:277,1,77.0000023498536,2|0,0:0|1:0,0:0:0:0:
58,172,144275,2,0,B|49:133|59:95,1,77.0000023498536,2|8,1:2|0:0,0:0:0:0:
147,33,144641,6,0,B|197:99|291:67,1,154.000004699707,4|0,1:2|1:2,0:0:0:0:
383,21,145190,1,8,0:0:0:0:
463,220,145556,2,0,B|427:190|384:185,1,77.0000023498536,8|0,1:2|1:0,0:0:0:0:
286,193,145922,2,0,B|242:209|216:243,1,77.0000023498536,8|8,0:0|0:3,0:0:0:0:
213,252,146196,1,8,0:3:0:0:
202,268,146288,6,0,B|162:292|106:266,1,83.9999974365235,12|0,1:2|0:0,0:0:0:0:
30,206,146653,1,10,0:0:0:0:
30,206,146836,1,0,1:0:0:0:
114,123,147019,2,0,B|154:99|195:118,1,83.9999974365235,10|0,0:0|1:0,0:0:0:0:
286,193,147385,1,8,0:0:0:0:
361,101,147568,1,0,1:0:0:0:
381,95,147659,1,0,1:0:0:0:
401,99,147751,6,0,B|429:153|383:196|412:253,1,154.000004699707,4|0,1:0|0:0,0:0:0:0:
351,344,148300,1,0,1:0:0:0:
351,344,148391,1,0,1:0:0:0:
351,344,148483,2,0,B|297:316|254:362|197:333,1,154.000004699707,4|8,1:2|0:3,0:0:0:0:
136,248,149031,1,4,0:3:0:0:
243,235,149214,5,4,1:0:0:0:
256,192,149306,12,2,150861,0:0:0:0:
314,147,152141,5,4,1:0:0:0:
256,192,152233,12,2,153605,0:0:0:0:
118,255,155068,6,0,B|136:217|123:174|120:197|93:149|119:103,1,157.500006008148,4|0,0:0|0:0,0:0:0:0:
194,143,155800,2,0,B|217:151|245:144,1,52.5000020027161,8|0,0:0|0:0,0:0:0:0:
324,114,156166,2,0,B|347:106|375:112,1,52.5000020027161,2|0,0:0|1:0,0:0:0:0:
387,123,156440,1,0,1:0:0:0:
399,139,156531,6,0,B|391:162|397:190,1,52.5000020027161,2|8,1:2|0:0,0:0:0:0:
478,338,157080,1,2,0:0:0:0:
409,289,157263,2,0,B|380:290|349:277,2,52.5000020027161,10|2|2,0:0|0:0|0:0,0:0:0:0:
486,254,157812,1,2,0:0:0:0:
417,205,157995,6,0,B|409:164|434:131|413:87,1,105.000004005432,4|0,0:0|0:0,0:0:0:0:
355,43,158544,1,0,0:0:0:0:
273,68,158727,2,0,B|242:83|209:58|168:66,1,105.000004005432,8|0,0:0|1:0,0:0:0:0:
193,147,159275,6,0,B|208:177|183:210|191:251,1,105.000004005432,2|0,0:1|0:0,0:0:0:0:
195,334,159824,2,0,B|174:320|146:318,1,52.5000020027161,8|2,0:0|1:1,0:0:0:0:
65,344,160190,2,0,B|40:345|15:332,1,52.5000020027161,2|8,1:2|0:3,0:0:0:0:
14,247,160556,1,8,0:0:0:0:
70,184,160739,1,8,1:3:0:0:
70,184,160830,1,0,1:0:0:0:
70,184,160922,6,0,B|81:157|64:128|72:101,2,77.0000023498536,4|0|8,0:0|0:0|0:0,0:0:0:0:
116,281,161470,1,2,0:0:0:0:
213,235,161653,2,0,B|231:234|256:237|256:237,2,38.5000011749268,2|2|2,0:0|0:0|0:0,0:0:0:0:
169,141,162019,1,10,0:2:0:0:
169,141,162202,1,2,0:1:0:0:
250,70,162385,6,0,B|263:55|267:23|267:23,2,51.3333348999024,2|2|2,0:1|0:0|0:0,0:0:0:0:
266,124,162751,2,0,B|302:141|341:131,1,77.0000023498536,10|0,0:2|0:0,0:0:0:0:
430,69,163117,2,0,B|449:65|479:77|479:77,2,51.3333348999024,2|2|2,0:1|0:0|0:0,0:0:0:0:
383,36,163483,2,0,B|344:42|309:21,1,77.0000023498536,10|0,0:0|0:0,0:0:0:0:
201,34,163849,6,0,B|162:28|127:49,1,77.0000023498536,6|0,0:0|0:0,0:0:0:0:
119,66,164123,1,2,0:0:0:0:
116,85,164214,1,10,0:0:0:0:
202,152,164397,2,0,B|223:186|217:226,2,77.0000023498536,2|0|2,0:1|0:0|0:1,0:0:0:0:
111,211,164946,2,0,B|92:216|62:213|62:213,3,38.5000011749268,10|2|2|2,0:0|0:0|0:0|0:0,0:0:0:0:
42,189,165312,5,2,0:1:0:0:
7,86,165495,2,0,B|2:67|5:37|5:37,2,38.5000011749268,2|2|10,0:0|0:0|0:0,0:0:0:0:
116,85,165861,2,0,B|121:66|138:41|138:41,2,38.5000011749268,2|2|2,0:0|0:0|0:1,0:0:0:0:
210,138,166227,1,2,0:0:0:0:
210,138,166318,1,2,0:0:0:0:
210,138,166409,2,0,B|223:124|251:111|251:111,2,38.5000011749268,10|2|2,0:0|0:0|0:0,0:0:0:0:
195,245,166775,6,0,B|185:287|202:322,1,77.0000023498536,6|2,0:1|0:0,0:0:0:0:
310,320,167141,2,0,B|327:287|317:245,1,77.0000023498536,10|2,0:0|0:0,0:0:0:0:
378,155,167507,2,0,B|420:165|453:148,1,77.0000023498536,2|2,0:1|0:0,0:0:0:0:
408,50,167873,1,10,0:0:0:0:
311,84,168056,1,2,0:0:0:0:
311,84,168147,1,2,0:0:0:0:
311,84,168239,6,0,B|248:97|234:42|149:71,1,154.000004699707,2|10,0:1|0:0,0:0:0:0:
203,178,168788,1,0,0:0:0:0:
203,178,168879,1,2,0:0:0:0:
203,178,168970,2,0,B|219:211|205:254,1,77.0000023498536,2|2,0:1|0:0,0:0:0:0:
115,313,169336,2,0,B|92:304|70:301|70:301,3,38.5000011749268,10|2|2|2,0:0|0:0|0:0|0:0,0:0:0:0:
46,279,169702,6,0,B|36:255|33:233|33:233,3,38.5000011749268,6|2|2|2,0:1|0:0|0:0|0:0,0:0:0:0:
46,205,170068,2,0,B|56:181|59:159|59:159,3,38.5000011749268,10|2|2|2,0:0|0:0|0:0|0:0,0:0:0:0:
59,129,170434,1,2,0:1:0:0:
121,43,170617,1,2,0:1:0:0:
121,43,170708,1,2,0:0:0:0:
121,43,170800,1,10,0:0:0:0:
216,92,170983,6,0,B|262:121|319:72|365:98,1,154.000004699707,6|2,0:0|0:0,0:0:0:0:
445,179,171531,1,10,0:2:0:0:
445,179,171714,1,2,1:2:0:0:
366,252,171897,2,0,B|327:267|290:254,1,77.0000023498536,10|2,0:2|1:2,0:0:0:0:
190,212,172263,2,0,B|153:199|114:214,1,77.0000023498536,10|0,0:2|1:2,0:0:0:0:
50,328,172629,5,2,1:0:0:0:
156,333,172812,1,2,1:0:0:0:
263,339,172995,1,2,1:0:0:0:
413,118,173544,5,0,1:0:0:0:
413,118,173635,1,0,1:0:0:0:
413,118,173727,1,8,1:0:0:0:
415,293,174092,6,0,B|395:241|420:185|432:221|452:146|465:78|345:37|262:111|304:199,1,377.999988464356,4|2,0:1|0:0,0:0:0:0:
327,278,175373,2,0,B|283:287|240:276|256:242|174:230|134:274,1,188.999994232178,4|0,0:0|0:0,0:0:0:0:
85,326,176105,5,8,0:3:0:0:
73,337,176196,1,8,0:3:0:0:
61,347,176288,2,0,B|19:357|-8:335|-8:335,1,62.9999980773926,8|4,0:3|0:3,0:0:0:0:
42,264,176653,1,4,0:3:0:0:
42,264,176836,1,4,0:3:0:0:
37,175,177019,6,0,B|0:86|80:14|200:55|187:123|167:192|155:162|124:215|149:267,1,377.999988464356,4|2,0:1|0:0,0:0:0:0:
230,231,178300,2,0,B|274:216|310:252|354:231,1,125.999996154785,4|0,0:0|1:0,0:0:0:0:
410,162,178849,1,8,0:0:0:0:
354,94,179031,6,0,B|310:79|274:115|229:94,1,125.999996154785,4|0,0:0|1:0,0:0:0:0:
162,36,179580,1,8,0:0:0:0:
86,83,179763,1,0,1:0:0:0:
107,169,179946,6,0,B|122:213|86:249|106:293,1,125.999996154785,4|2,1:0|0:0,0:0:0:0:
177,345,180495,2,0,B|205:363|237:351,1,62.9999980773926,2|8,0:0|0:0,0:0:0:0:
316,312,180861,2,0,B|348:300|376:318,1,62.9999980773926,2|0,0:0|0:0,0:0:0:0:
451,365,181227,6,0,B|397:305|453:229,1,125.999996154785,2|0,1:2|1:0,0:0:0:0:
501,185,181775,1,2,0:0:0:0:
380,56,182141,2,0,B|352:38|319:49,1,62.9999980773926,8|0,0:0|1:0,0:0:0:0:
243,94,182507,2,0,B|217:116|218:149,1,62.9999980773926,2|0,0:0|1:0,0:0:0:0:
224,171,182781,1,0,1:0:0:0:
232,191,182873,6,0,B|249:219|237:251,1,62.9999980773926,4|0,1:2|0:0,0:0:0:0:
192,327,183239,1,2,0:0:0:0:
106,306,183422,2,0,B|73:294|45:311,1,62.9999980773926,2|8,1:2|0:0,0:0:0:0:
52,223,183788,2,0,B|78:201|77:167,1,62.9999980773926,2|8,1:2|0:0,0:0:0:0:
80,79,184153,1,4,0:0:0:0:
360,22,184885,5,8,0:0:0:0:
324,102,185068,2,0,B|315:134|329:167,1,62.9999980773926,4|8,0:0|0:0,0:0:0:0:
340,181,185342,1,0,1:0:0:0:
349,200,185434,2,0,B|354:213|349:231,3,31.4999990386963,8|8|4|4,1:3|1:3|1:3|1:3,0:0:0:0:
344,250,185800,6,0,B|276:260|289:240|239:220|188:245,1,154.000004699707,4|8,1:0|0:0,0:0:0:0:
385,341,186531,2,0,B|461:300|437:206,1,154.000004699707,2|8,1:2|0:0,0:0:0:0:
390,114,187080,6,0,B|316:159|246:91,1,154.000004699707,4|0,1:2|1:0,0:0:0:0:
176,17,187629,1,8,0:0:0:0:
24,170,187995,2,0,B|0:207|16:245,1,77.0000023498536,0|0,1:0|1:0,0:0:0:0:
97,321,188361,1,8,0:0:0:0:
97,321,188544,1,2,0:0:0:0:
172,243,188727,6,0,B|197:202|154:138|179:92,1,154.000004699707,4|8,1:2|0:0,0:0:0:0:
264,25,189275,1,0,0:0:0:0:
298,127,189458,2,0,B|335:151|371:136,1,77.0000023498536,2|0,1:2|1:2,0:0:0:0:
447,61,189824,1,8,0:0:0:0:
491,158,190007,6,0,B|522:239|489:308,1,154.000004699707,4|0,1:2|1:0,0:0:0:0:
399,368,190556,1,8,0:0:0:0:
299,326,190739,2,0,B|261:309|219:320,1,77.0000023498536,4|0,0:0|0:0,0:0:0:0:
207,329,191013,1,8,0:0:0:0:
193,342,191105,1,0,1:0:0:0:
104,280,191288,2,0,B|109:257|110:234|110:234,2,38.5000011749268,8|0|2,1:2|1:2|1:2,0:0:0:0:
21,349,191653,6,0,B|46:290|-4:254|19:198,1,154.000004699707,4|8,1:0|0:0,0:0:0:0:
89,116,192202,2,0,B|120:136|164:132,1,77.0000023498536,2|0,0:0|1:0,0:0:0:0:
268,104,192568,2,0,B|310:100|341:120,1,77.0000023498536,2|8,1:2|0:0,0:0:0:0:
398,212,192934,6,0,B|342:179|300:225|247:195,1,154.000004699707,4|0,1:2|1:2,0:0:0:0:
162,132,193483,5,8,0:0:0:0:
55,319,193849,2,0,B|90:294|126:296,1,77.0000023498536,8|0,1:2|1:0,0:0:0:0:
228,334,194214,2,0,B|258:354|301:350,1,77.0000023498536,8|8,0:0|0:3,0:0:0:0:
320,343,194489,1,8,0:3:0:0:
338,333,194580,6,0,B|355:292|338:248,1,83.9999974365235,12|0,1:2|0:0,0:0:0:0:
270,161,194946,1,10,0:0:0:0:
270,161,195129,1,0,1:0:0:0:
338,64,195312,2,0,B|378:49|421:62,1,83.9999974365235,10|0,0:0|1:0,0:0:0:0:
512,135,195678,1,8,0:0:0:0:
457,239,195861,1,0,1:0:0:0:
453,259,195952,1,0,1:0:0:0:
448,279,196044,6,0,B|401:318|349:260|298:283,1,154.000004699707,4|0,1:0|0:0,0:0:0:0:
209,337,196592,1,0,1:0:0:0:
209,337,196684,1,0,1:0:0:0:
209,337,196775,6,0,B|231:287|173:235|212:188,1,154.000004699707,4|8,1:2|0:3,0:0:0:0:
295,121,197324,1,4,0:3:0:0:
379,188,197507,5,4,1:0:0:0:
256,192,197599,12,8,200068,0:1:0:0:
202,262,200434,5,6,0:0:0:0:
