osu file format v14

[General]
AudioFilename: audio.mp3
AudioLeadIn: 0
PreviewTime: 51166
Countdown: 0
SampleSet: Soft
StackLeniency: 0.7
Mode: 0
LetterboxInBreaks: 0
WidescreenStoryboard: 1

[Editor]
DistanceSpacing: 1
BeatDivisor: 4
GridSize: 16
TimelineZoom: 1.9

[Metadata]
Title:MIND READER
TitleUnicode:MIND READER
Artist:SYNC.ART'S
ArtistUnicode:SYNC.ART'S
Creator:Lasse
Version:Normal
Source:東方地霊殿 ~ Subterranean Animism.
Tags:touhou 仲村 芽衣子 meiko nakamura 美里 misato シークレットリンケージ -Secret Linkage- c91 少女さとり ~ 3rd eye Satori Komeiji ZUN
BeatmapID:1210137
BeatmapSetID:569335

[Difficulty]
HPDrainRate:4
CircleSize:3
OverallDifficulty:4
ApproachRate:5
SliderMultiplier:1.2
SliderTickRate:1

[Events]
//Background and Video events
0,0,"bg.jpg",0,0
//Break Periods
2,77341,88014
2,152341,153868
2,155268,156795
//Storyboard Layer 0 (Background)
//Storyboard Layer 1 (Fail)
//Storyboard Layer 2 (Pass)
//Storyboard Layer 3 (Foreground)
//Storyboard Sound Samples

[TimingPoints]
1410,365.853658536585,4,2,1,30,1,0
2507,-100,4,2,1,40,0,0
2873,-111.111111111111,4,2,1,50,0,0
8727,-111.111111111111,4,2,1,55,0,0
14580,-111.111111111111,4,2,1,50,0,0
14855,-111.111111111111,4,2,1,5,0,0
14946,-111.111111111111,4,2,1,50,0,0
26288,-111.111111111111,4,2,1,55,0,0
37995,-125,4,2,1,50,0,0
43849,-111.111111111111,4,2,1,55,0,0
48056,-111.111111111111,4,2,1,60,0,0
51166,-100,4,2,1,70,0,1
51440,-100,4,2,2,5,0,1
51531,-100,4,2,1,70,0,1
54367,-100,4,2,2,5,0,1
54458,-100,4,2,1,70,0,1
57294,-100,4,2,2,5,0,1
57385,-100,4,2,1,70,0,1
59855,-100,4,2,2,5,0,1
59946,-100,4,2,1,70,0,1
60220,-100,4,2,2,5,0,1
60311,-100,4,2,1,70,0,1
62324,-100,4,2,1,70,0,0
62873,-100,4,2,1,70,0,1
63147,-100,4,2,2,5,0,1
63239,-100,4,2,1,70,0,1
66074,-100,4,2,2,5,0,1
66166,-100,4,2,1,70,0,1
69001,-100,4,2,2,5,0,1
69092,-100,4,2,1,70,0,1
71653,-100,4,2,1,75,0,1
73117,-100,4,2,1,70,0,1
73849,-100,4,2,1,65,0,1
74580,-111.111111111111,4,2,1,60,0,0
77507,-111.111111111111,4,2,1,50,0,0
89214,-111.111111111111,4,2,1,50,0,0
89489,-111.111111111111,4,2,1,5,0,0
89580,-111.111111111111,4,2,1,50,0,0
100922,-111.111111111111,4,2,1,55,0,0
112629,-125,4,2,1,50,0,0
118483,-111.111111111111,4,2,1,55,0,0
122690,-111.111111111111,4,2,1,60,0,0
125800,-100,4,2,1,70,0,1
126074,-100,4,2,2,5,0,1
126165,-100,4,2,1,70,0,1
129001,-100,4,2,2,5,0,1
129092,-100,4,2,1,70,0,1
131928,-100,4,2,2,5,0,1
132019,-100,4,2,1,70,0,1
134489,-100,4,2,2,5,0,1
134580,-100,4,2,1,70,0,1
134855,-100,4,2,2,5,0,1
134946,-100,4,2,1,70,0,1
136958,-100,4,2,1,70,0,0
137507,-100,4,2,1,70,0,1
137781,-100,4,2,2,5,0,1
137873,-100,4,2,1,70,0,1
140708,-100,4,2,2,5,0,1
140800,-100,4,2,1,70,0,1
143635,-100,4,2,2,5,0,1
143726,-100,4,2,1,70,0,1
146288,-100,4,2,1,75,0,1
147751,-100,4,2,1,70,0,1
148483,-100,4,2,1,65,0,1
149214,-111.111111111111,4,2,1,60,0,0
160922,-100,4,2,1,67,0,1
172995,-100,4,2,1,62,0,0
173727,-100,4,2,1,67,0,0
174092,-111.111111111111,4,2,1,70,0,1
174275,-111.111111111111,4,2,1,60,0,0
177019,-111.111111111111,4,2,1,65,0,0
177202,-111.111111111111,4,2,1,60,0,0
185800,-100,4,2,1,70,0,1
186074,-100,4,2,2,5,0,1
186166,-100,4,2,1,70,0,1
189001,-100,4,2,2,5,0,1
189093,-100,4,2,1,70,0,1
191928,-100,4,2,2,5,0,1
192019,-100,4,2,1,70,0,1
194580,-100,4,2,1,75,0,1
196043,-100,4,2,1,70,0,1
196776,-100,4,2,1,65,0,1
197507,-111.111111111111,4,2,1,60,0,0
200434,-111.111111111111,4,2,1,50,0,0

[Colours]
Combo1 : 250,190,230
Combo2 : 130,210,220
Combo3 : 250,140,140
Combo4 : 255,230,140

[HitObjects]
69,324,2507,5,8,0:1:0:0:
139,242,2873,6,0,B|186:211|256:243,1,107.999996704102,6|0,0:2|0:1,0:0:0:0:
290,262,3422,1,2,0:0:0:0:
336,289,3605,2,0,B|363:298|404:289,2,53.9999983520508,0|0|0,0:0|0:0|0:0,0:0:0:0:
366,185,4336,2,0,B|383:132|359:68,1,107.999996704102,2|0,0:2|0:0,0:0:0:0:
319,46,4885,1,0,0:0:0:0:
267,61,5068,2,0,B|214:74|206:46|144:65,1,107.999996704102,2|0,0:0|0:0,0:0:0:0:
66,117,5800,5,4,0:1:0:0:
162,169,6166,2,0,B|190:177|215:172,1,53.9999983520508,0|0,0:0|0:0,0:0:0:0:
267,156,6531,2,0,B|310:142|361:168,2,80.9999975280763,2|2|2,0:0|0:0|0:0,0:0:0:0:
253,208,7263,2,0,B|239:249|270:279|242:331,1,107.999996704102,2|0,0:0|0:0,0:0:0:0:
146,350,7995,2,0,B|118:358|93:353,2,53.9999983520508,0|2|4,0:0|1:2|1:2,0:0:0:0:
112,246,8727,6,0,B|98:206|129:176|108:140,1,107.999996704102,4|8,0:0|0:0,0:0:0:0:
82,92,9275,1,2,0:0:0:0:
106,43,9458,2,0,B|160:17|226:52,1,107.999996704102,2|8,0:0|0:0,0:0:0:0:
272,133,10190,5,2,0:0:0:0:
271,241,10556,1,8,0:0:0:0:
377,264,10922,2,0,B|410:254|451:261,2,53.9999983520508,2|0|8,0:0|0:0|0:0,0:0:0:0:
348,310,11470,1,0,0:0:0:0:
319,356,11653,6,0,B|265:382|214:354,1,107.999996704102,4|8,0:0|0:0,0:0:0:0:
121,301,12385,1,2,0:0:0:0:
174,207,12751,2,0,B|207:197|246:209,1,53.9999983520508,10|2,0:0|0:0,0:0:0:0:
277,225,13117,2,0,B|329:254|380:223,1,107.999996704102,2|0,0:0|0:0,0:0:0:0:
415,181,13666,1,2,1:2:0:0:
437,132,13849,2,0,B|435:105|443:74,2,53.9999983520508,2|2|8,1:2|1:2|1:0,0:0:0:0:
486,227,14580,5,6,0:0:0:0:
450,329,14946,1,0,0:0:0:0:
348,293,15312,2,0,B|294:261|231:276,1,107.999996704102,0|0,0:0|0:0,0:0:0:0:
145,317,16044,2,0,B|94:329|41:297,1,107.999996704102,2|0,0:0|0:0,0:0:0:0:
3,260,16592,1,0,0:0:0:0:
16,207,16775,2,0,B|33:178|2:135|25:95,1,107.999996704102,2|0,0:0|0:0,0:0:0:0:
109,36,17507,6,0,B|152:75|210:57,1,107.999996704102,2|0,0:0|0:0,0:0:0:0:
262,46,18056,1,0,0:0:0:0:
314,33,18239,2,0,B|352:26|403:37,2,80.9999975280763,2|2|2,0:0|0:0|0:0,0:0:0:0:
300,85,18970,2,0,B|283:120|316:163|294:196,1,107.999996704102,2|0,0:0|0:0,0:0:0:0:
271,296,19702,1,0,0:0:0:0:
362,355,20068,1,0,1:0:0:0:
452,295,20434,6,0,B|479:243|456:183,1,107.999996704102,6|0,0:0|0:0,0:0:0:0:
418,154,20983,1,0,0:0:0:0:
379,115,21166,2,0,B|372:85|397:50|386:18,2,80.9999975280763,2|2|2,0:0|0:0|0:0,0:0:0:0:
332,141,21897,2,0,B|291:155|267:116|226:131,1,107.999996704102,2|0,0:0|2:0,0:0:0:0:
162,217,22629,2,0,B|146:257|185:281|171:322,1,107.999996704102,2|0,2:2|0:0,0:0:0:0:
133,361,23178,1,0,0:0:0:0:
79,356,23361,6,0,B|43:313|60:247,1,107.999996704102,4|0,1:1|1:0,0:0:0:0:
79,148,24092,1,0,1:0:0:0:
100,42,24458,1,0,1:0:0:0:
205,63,24824,2,0,B|253:80|267:48|316:64,1,107.999996704102,4|8,0:0|0:0,0:0:0:0:
396,129,25556,1,10,0:0:0:0:
338,220,25922,2,0,B|306:225|284:219,1,53.9999983520508,8|8,1:1|1:1,0:0:0:0:
230,210,26288,5,4,0:0:0:0:
174,302,26653,2,0,B|145:306|119:301,2,53.9999983520508,8|0|2,0:0|0:0|0:0,0:0:0:0:
281,315,27385,1,8,0:0:0:0:
374,369,27751,2,0,B|431:387|479:363,1,107.999996704102,2|8,0:0|0:0,0:0:0:0:
493,255,28483,2,0,B|447:225|389:236,1,107.999996704102,2|8,1:2|0:0,0:0:0:0:
339,255,29031,1,0,0:0:0:0:
288,274,29214,6,0,B|229:284|184:255,1,107.999996704102,2|8,0:0|0:0,0:0:0:0:
109,176,29946,2,0,B|64:159|26:170,2,80.9999975280763,2|2|2,0:0|0:0|0:0,0:0:0:0:
154,145,30678,2,0,B|182:125|225:158|260:141,1,107.999996704102,2|8,0:0|0:0,0:0:0:0:
304,111,31227,1,0,0:0:0:0:
349,80,31409,2,0,B|379:72|402:83,2,53.9999983520508,2|0|8,1:2|1:0|0:0,0:0:0:0:
248,40,32141,6,0,B|191:19|141:37,1,107.999996704102,6|8,0:0|0:0,0:0:0:0:
103,74,32690,1,0,0:0:0:0:
64,112,32873,2,0,B|34:119|0:94|-32:105,2,80.9999975280763,2|2|2,0:0|0:0|0:0,0:0:0:0:
88,160,33605,2,0,B|93:217|71:214|78:266,1,107.999996704102,2|8,0:0|0:0,0:0:0:0:
183,289,34336,2,0,B|205:279|240:285,2,53.9999983520508,2|0|8,1:2|1:0|0:0,0:0:0:0:
147,330,34885,1,0,0:0:0:0:
113,372,35068,6,0,B|50:396|6:344,1,107.999996704102,4|8,1:2|0:0,0:0:0:0:
78,266,35800,1,0,1:0:0:0:
78,157,36166,1,8,0:0:0:0:
143,71,36531,2,0,B|191:54|205:86|254:70,1,107.999996704102,4|8,1:0|1:2,0:0:0:0:
297,46,37080,2,0,B|360:22|409:54,1,107.999996704102,0|0,1:0|1:0,0:0:0:0:
446,83,37629,2,0,B|452:111|446:140,1,53.9999983520508,8|0,1:0|0:0,0:0:0:0:
420,183,37995,6,0,B|351:169|341:219|270:194,2,144,4|0|8,1:2|1:0|0:0,0:0:0:0:
482,256,39458,2,0,B|505:313|471:361,2,96,0|2|2,1:0|1:2|1:2,0:0:0:0:
420,183,40556,1,8,0:0:0:0:
332,221,40922,6,0,B|263:235|253:185|182:210,2,144,4|0|8,1:2|1:0|0:0,0:0:0:0:
420,183,42385,2,0,B|443:133|416:91,1,96,0|2,1:0|1:2,0:0:0:0:
343,28,43117,2,0,B|293:5|251:31,1,96,2|10,1:2|0:0,0:0:0:0:
182,98,43849,6,0,B|136:109|110:80|69:96,1,107.999996704102,4|8,1:2|0:0,0:0:0:0:
46,139,44397,1,2,0:0:0:0:
66,189,44580,2,0,B|79:223|50:249|61:295,1,107.999996704102,2|8,1:2|0:0,0:0:0:0:
152,353,45312,2,0,B|198:342|224:371|265:355,1,107.999996704102,2|8,1:2|0:0,0:0:0:0:
296,318,45861,1,2,0:0:0:0:
334,279,46044,1,2,1:2:0:0:
310,173,46409,1,10,1:2:0:0:
363,78,46775,6,0,B|417:44|469:83,1,107.999996704102,4|8,1:2|0:0,0:0:0:0:
509,177,47507,1,0,1:2:0:0:
464,275,47873,1,8,0:0:0:0:
455,328,48056,2,0,B|407:363|353:329,1,107.999996704102,4|0,1:0|1:0,0:0:0:0:
309,298,48605,2,0,B|279:281|245:297,1,53.9999983520508,8|0,0:1|1:0,0:0:0:0:
210,320,48970,2,0,B|187:331|157:314,1,53.9999983520508,8|0,0:1|1:0,0:0:0:0:
119,277,49336,1,8,0:1:0:0:
193,198,49702,6,0,B|200:174|200:135,2,53.9999983520508,2|2|2,1:0|1:0|1:0,0:0:0:0:
380,355,51166,6,0,B|438:384|494:350,1,120,4|8,1:1|0:0,0:0:0:0:
434,239,51897,1,2,1:2:0:0:
315,254,52263,1,8,0:0:0:0:
261,226,52446,2,0,B|245:177|276:157|249:89,1,120,6|0,1:2|1:0,0:0:0:0:
222,56,52995,2,0,B|166:22|108:51,1,120,8|0,0:0|1:0,0:0:0:0:
39,152,53727,1,8,0:0:0:0:
155,185,54092,6,0,B|171:234|140:254|167:322,1,120,4|8,1:2|0:0,0:0:0:0:
213,332,54641,1,0,0:0:0:0:
270,316,54824,2,0,B|326:282|384:311,1,120,2|8,1:2|0:0,0:0:0:0:
434,344,55373,2,0,B|468:288|439:230,1,120,4|0,1:2|1:0,0:0:0:0:
323,194,56105,2,0,B|275:211|225:178,2,90,6|8|8,1:2|0:0|1:2,0:0:0:0:
373,161,56836,1,2,1:2:0:0:
378,101,57019,5,4,1:0:0:0:
283,26,57385,1,8,0:0:0:0:
232,59,57568,2,0,B|163:74|115:34,1,120,2|2,0:0|1:2,0:0:0:0:
122,156,58300,2,0,B|145:221|112:270,1,120,4|0,1:2|1:1,0:0:0:0:
97,329,58849,2,0,B|146:296|211:319,1,120,8|2,0:0|1:2,0:0:0:0:
324,361,59580,1,8,0:0:0:0:
416,284,59946,6,0,B|449:235|426:170,1,120,4|8,1:2|0:0,0:0:0:0:
387,122,60495,1,2,0:0:0:0:
316,219,60861,1,2,1:2:0:0:
201,181,61227,2,0,B|147:167|136:202|60:178,1,120,4|8,1:2|0:0,0:0:0:0:
3,93,61958,1,0,1:2:0:0:
48,53,62141,2,0,B|75:40|106:44,1,60,2|0,1:2|1:0,0:0:0:0:
163,64,62507,2,0,B|191:75|221:70,1,60,8|4,1:3|1:3,0:0:0:0:
274,40,62873,6,0,B|332:11|388:45,1,120,4|8,1:0|0:0,0:0:0:0:
327,148,63605,2,0,B|293:204|322:262,1,120,2|8,1:2|0:0,0:0:0:0:
353,313,64153,2,0,B|422:304|416:339|486:316,1,120,4|0,1:2|1:0,0:0:0:0:
499,266,64702,2,0,B|528:208|494:152,1,120,8|0,0:0|1:0,0:0:0:0:
411,63,65434,1,8,0:0:0:0:
326,148,65800,6,0,B|263:181|215:136,1,120,4|8,1:2|0:0,0:0:0:0:
170,95,66349,1,0,0:0:0:0:
124,53,66531,2,0,B|77:8|14:41,1,120,2|8,1:2|0:0,0:0:0:0:
11,101,67080,2,0,B|27:155|0:163|24:230,1,120,4|0,1:2|1:0,0:0:0:0:
139,239,67812,2,0,B|183:218|226:221,2,90,4|8|8,0:0|0:0|1:2,0:0:0:0:
109,291,68544,1,2,1:2:0:0:
63,330,68727,5,4,1:0:0:0:
20,219,69092,1,8,0:0:0:0:
59,173,69275,2,0,B|79:116|52:108|68:54,1,120,2|2,0:0|1:2,0:0:0:0:
183,87,70007,2,0,B|250:106|307:66,1,120,4|0,1:2|1:2,0:0:0:0:
349,39,70556,2,0,B|416:20|464:54,1,120,8|8,0:0|1:2,0:0:0:0:
498,169,71288,1,8,0:0:0:0:
443,275,71653,6,0,B|376:294|328:260,1,120,12|10,1:2|0:0,0:0:0:0:
226,195,72385,2,0,B|178:161|111:180,1,120,10|8,0:0|0:0,0:0:0:0:
78,230,72934,1,0,1:0:0:0:
81,289,73117,2,0,B|125:327|194:313,1,120,4|0,1:0|0:0,0:0:0:0:
252,296,73666,1,0,1:0:0:0:
310,280,73849,2,0,B|362:269|396:303|427:281,1,120,4|8,1:2|0:3,0:0:0:0:
256,192,74580,12,4,77141,1:0:0:0:
15,301,89214,5,6,0:0:0:0:
0,195,89580,1,0,0:0:0:0:
40,95,89947,2,0,B|93:66|143:93,1,107.999996704102,0|0,0:0|0:0,0:0:0:0:
204,182,90678,2,0,B|254:209|307:180,1,107.999996704102,2|0,0:0|0:0,0:0:0:0:
345,141,91227,1,0,0:0:0:0:
383,102,91409,2,0,B|436:73|488:98,1,107.999996704102,2|0,0:0|0:0,0:0:0:0:
440,196,92141,6,0,B|428:241|458:261|437:313,1,107.999996704102,2|0,0:0|0:0,0:0:0:0:
398,337,92690,1,0,0:0:0:0:
348,358,92873,2,0,B|305:372|256:347,2,80.9999975280763,2|2|2,0:0|0:0|0:0,0:0:0:0:
358,304,93605,2,0,B|375:262|345:242|357:197,1,107.999996704102,2|0,0:0|0:0,0:0:0:0:
399,98,94336,1,0,0:0:0:0:
318,26,94702,1,0,1:0:0:0:
224,80,95068,6,0,B|207:122|237:142|225:187,1,107.999996704102,6|0,0:0|0:0,0:0:0:0:
186,224,95617,1,0,0:0:0:0:
147,262,95800,2,0,B|140:292|159:309|146:356,2,80.9999975280763,2|2|2,0:0|0:0|0:0,0:0:0:0:
108,223,96531,2,0,B|91:181|121:161|109:116,1,107.999996704102,2|0,0:0|2:0,0:0:0:0:
177,33,97263,2,0,B|217:66|282:48,1,107.999996704102,2|0,2:2|0:0,0:0:0:0:
330,30,97812,1,0,0:0:0:0:
379,51,97995,6,0,B|396:93|366:113|378:158,1,107.999996704102,4|0,1:1|1:0,0:0:0:0:
451,236,98727,1,0,1:0:0:0:
398,330,99092,1,0,1:0:0:0:
292,308,99458,2,0,B|237:284|181:307,1,107.999996704102,4|8,0:0|0:0,0:0:0:0:
102,372,100190,1,10,0:0:0:0:
6,323,100556,2,0,B|0:295|6:266,1,53.9999983520508,8|8,1:1|1:1,0:0:0:0:
38,226,100922,5,6,0:0:0:0:
113,148,101288,2,0,B|122:122|117:94,2,53.9999983520508,8|0|2,0:0|0:0|0:0,0:0:0:0:
252,219,102019,1,8,0:0:0:0:
287,188,102385,2,0,B|333:172|348:196|394:187,1,107.999996704102,2|8,0:0|0:0,0:0:0:0:
426,83,103117,2,0,B|380:67|365:91|319:82,1,107.999996704102,2|8,1:2|0:0,0:0:0:0:
265,73,103666,1,0,0:0:0:0:
221,40,103849,6,0,B|160:20|111:41,1,107.999996704102,2|8,0:0|0:0,0:0:0:0:
58,134,104580,2,0,B|10:140|-23:122,2,80.9999975280763,2|2|2,0:0|0:0|0:0,0:0:0:0:
103,163,105312,2,0,B|117:203|92:223|107:269,1,107.999996704102,2|8,0:0|0:0,0:0:0:0:
142,310,105861,1,0,0:0:0:0:
182,345,106044,2,0,B|208:355|236:345,2,53.9999983520508,2|0|8,1:2|1:0|0:0,0:0:0:0:
213,241,106775,6,0,B|227:201|202:181|217:135,1,107.999996704102,6|8,0:0|0:0,0:0:0:0:
263,105,107324,1,0,0:0:0:0:
311,82,107507,2,0,B|328:33|306:-8,2,80.9999975280763,2|2|2,0:0|0:0|0:0,0:0:0:0:
349,120,108239,2,0,B|364:166|339:186|353:226,1,107.999996704102,2|8,0:0|0:0,0:0:0:0:
444,284,108970,2,0,B|466:274|497:279,2,53.9999983520508,2|0|8,1:2|1:0|0:0,0:0:0:0:
413,329,109519,1,0,0:0:0:0:
366,355,109702,6,0,B|315:372|253:342,1,107.999996704102,4|8,1:2|0:0,0:0:0:0:
184,269,110434,1,0,1:0:0:0:
184,160,110800,1,8,0:0:0:0:
260,83,111166,2,0,B|314:56|365:73,1,107.999996704102,4|8,1:0|1:2,0:0:0:0:
416,88,111714,2,0,B|439:124|412:161|432:200,1,107.999996704102,0|0,1:0|1:0,0:0:0:0:
421,247,112263,2,0,B|394:255|364:247,1,53.9999983520508,8|0,1:0|0:0,0:0:0:0:
326,223,112629,6,0,B|292:206|256:223|264:231|222:245|186:222,2,144,4|0|8,1:2|1:0|0:0,0:0:0:0:
396,287,114092,2,0,B|444:316|505:287,2,96,0|2|2,1:0|1:2|1:2,0:0:0:0:
326,223,115190,1,8,0:0:0:0:
385,147,115556,6,0,B|402:113|385:77|377:85|363:43|386:7,2,144,4|0|8,1:2|1:0|0:0,0:0:0:0:
326,223,117019,2,0,B|281:245|233:216,1,96,0|2,1:0|1:2,0:0:0:0:
160,154,117751,2,0,B|112:125|68:147,1,96,2|10,1:2|0:0,0:0:0:0:
107,248,118483,6,0,B|113:306|91:307|103:355,1,107.999996704102,4|8,1:2|0:0,0:0:0:0:
149,381,119031,1,2,0:0:0:0:
196,354,119214,2,0,B|244:341|245:363|303:357,1,107.999996704102,2|8,1:2|0:0,0:0:0:0:
389,292,119946,2,0,B|402:244|380:243|386:185,1,107.999996704102,2|8,1:2|0:0,0:0:0:0:
414,138,120495,1,2,0:0:0:0:
410,84,120678,1,2,1:2:0:0:
329,12,121044,1,10,1:2:0:0:
266,100,121409,6,0,B|214:123|160:95,1,107.999996704102,4|8,1:2|0:0,0:0:0:0:
64,47,122141,1,0,1:2:0:0:
0,134,122507,1,8,0:0:0:0:
22,183,122690,2,0,B|35:231|13:232|19:290,1,107.999996704102,4|0,1:0|1:0,0:0:0:0:
58,327,123239,2,0,B|82:337|122:328,1,53.9999983520508,8|0,0:1|1:0,0:0:0:0:
163,316,123605,2,0,B|192:309|216:319,1,53.9999983520508,8|0,0:1|1:0,0:0:0:0:
264,343,123970,1,8,0:1:0:0:
356,286,124336,6,0,B|363:262|363:223,2,53.9999983520508,2|2|2,1:0|1:0|1:0,0:0:0:0:
512,65,125800,6,0,B|458:100|392:75,1,120,4|8,1:1|0:0,0:0:0:0:
291,20,126531,1,2,1:2:0:0:
205,104,126897,1,8,0:0:0:0:
238,153,127080,2,0,B|273:207|249:267,1,120,6|0,1:2|1:0,0:0:0:0:
203,307,127629,2,0,B|148:297|148:324|84:304,1,120,8|0,0:0|1:0,0:0:0:0:
11,208,128361,1,8,0:0:0:0:
119,155,128727,6,0,B|182:135|182:162|237:152,1,120,4|8,1:2|0:0,0:0:0:0:
290,124,129275,1,0,0:0:0:0:
343,96,129458,2,0,B|400:63|458:103,1,120,2|8,1:2|0:0,0:0:0:0:
448,161,130007,2,0,B|429:214|461:225|445:285,1,120,4|0,1:2|1:0,0:0:0:0:
349,350,130739,2,0,B|304:376|249:348,2,90,6|8|8,1:2|0:0|1:2,0:0:0:0:
326,294,131470,1,2,1:2:0:0:
303,238,131653,5,4,1:0:0:0:
187,203,132019,1,8,0:0:0:0:
135,233,132202,2,0,B|67:244|20:199,1,120,2|2,0:0|1:2,0:0:0:0:
45,83,132934,2,0,B|97:53|160:82,1,120,4|0,1:2|1:1,0:0:0:0:
210,114,133483,2,0,B|272:142|325:113,1,120,8|2,0:0|1:2,0:0:0:0:
423,43,134214,1,8,0:0:0:0:
495,139,134580,6,0,B|523:201|494:254,1,120,4|8,1:2|0:0,0:0:0:0:
449,295,135129,1,2,0:0:0:0:
337,340,135495,1,2,1:2:0:0:
242,265,135861,2,0,B|188:250|183:290|114:264,1,120,4|8,1:2|0:0,0:0:0:0:
22,204,136592,1,0,1:2:0:0:
59,157,136775,2,0,B|85:146|117:148,1,60,2|0,1:2|1:0,0:0:0:0:
177,153,137141,2,0,B|207:163|235:159,1,60,8|4,1:3|1:3,0:0:0:0:
286,126,137507,6,0,B|344:97|400:131,1,120,4|8,1:0|0:0,0:0:0:0:
397,251,138239,2,0,B|339:280|283:246,1,120,2|8,1:2|0:0,0:0:0:0:
234,210,138788,2,0,B|180:195|175:235|117:213,1,120,4|0,1:2|1:0,0:0:0:0:
66,180,139336,2,0,B|32:124|61:66,1,120,8|0,0:0|1:0,0:0:0:0:
168,10,140068,1,8,0:0:0:0:
270,72,140434,6,0,B|324:87|329:47|387:69,1,120,4|8,1:2|0:0,0:0:0:0:
430,110,140983,1,0,0:0:0:0:
413,167,141166,2,0,B|398:221|438:226|416:284,1,120,2|8,1:2|0:0,0:0:0:0:
378,331,141714,2,0,B|319:357|262:326,1,120,4|0,1:2|1:0,0:0:0:0:
220,213,142446,2,0,B|233:169|220:115,2,90,4|8|8,0:0|0:0|1:2,0:0:0:0:
194,267,143178,1,2,1:2:0:0:
139,291,143361,5,4,1:0:0:0:
26,249,143727,1,8,0:0:0:0:
4,193,143909,2,0,B|-8:133|27:78,1,120,2|2,0:0|1:2,0:0:0:0:
147,76,144641,2,0,B|205:95|263:67,1,120,4|0,1:2|1:2,0:0:0:0:
317,40,145190,2,0,B|381:29|431:63,1,120,8|8,0:0|1:2,0:0:0:0:
497,164,145922,1,8,0:0:0:0:
401,236,146288,6,0,B|336:246|286:212,1,120,12|10,1:2|0:0,0:0:0:0:
179,157,147019,2,0,B|121:137|62:164,1,120,10|8,0:0|0:0,0:0:0:0:
36,218,147568,1,0,1:0:0:0:
51,276,147751,2,0,B|101:310|165:299,1,120,4|0,1:0|0:0,0:0:0:0:
215,264,148300,1,0,1:0:0:0:
273,278,148483,2,0,B|337:296|329:261|409:282,1,120,4|8,1:2|0:3,0:0:0:0:
256,192,149214,12,4,150861,1:0:0:0:
203,138,152141,5,4,1:0:0:0:
309,246,155068,5,4,0:0:0:0:
309,138,157995,5,4,0:0:0:0:
92,348,159275,1,2,0:1:0:0:
8,148,160189,1,2,1:2:0:0:
174,47,160922,6,0,B|234:42|231:69|291:59,1,120,4|8,0:0|0:0,0:0:0:0:
411,72,161653,2,0,B|437:79|470:70,1,60,2|2,0:0|0:0,0:0:0:0:
510,114,162019,2,0,B|519:147|511:176,1,60,10|2,0:2|0:1,0:0:0:0:
471,218,162385,2,0,B|411:228|412:198|354:206,1,120,2|10,0:1|0:2,0:0:0:0:
310,248,162934,1,0,0:0:0:0:
267,290,163117,2,0,B|203:315|150:278,1,120,2|10,0:1|0:0,0:0:0:0:
111,166,163849,6,0,B|146:115|121:51,2,120,6|10|0,0:0|0:0|0:0,0:0:0:0:
36,259,164946,2,0,B|27:292|35:321,1,60,10|2,0:0|0:0,0:0:0:0:
86,349,165312,2,0,B|131:364|158:326|204:335,1,120,2|10,0:1|0:0,0:0:0:0:
320,364,166044,1,2,0:1:0:0:
430,317,166409,2,0,B|437:290|428:257,1,60,10|2,0:0|0:0,0:0:0:0:
382,218,166775,6,0,B|337:233|310:195|264:205,1,120,6|10,0:1|0:0,0:0:0:0:
211,233,167324,1,2,0:0:0:0:
153,216,167507,2,0,B|119:161|143:100,1,120,2|10,0:1|0:0,0:0:0:0:
248,42,168239,2,0,B|293:57|320:19|366:29,1,120,2|10,0:1|0:0,0:0:0:0:
421,49,168788,1,0,0:0:0:0:
412,108,168970,2,0,B|405:135|414:168,1,60,2|2,0:1|0:0,0:0:0:0:
436,223,169336,2,0,B|445:256|438:283,1,60,10|2,0:0|0:0,0:0:0:0:
400,329,169702,6,0,B|355:344|328:306|282:316,1,120,6|10,0:1|0:0,0:0:0:0:
172,268,170434,2,0,B|138:213|167:151,1,120,2|10,0:1|0:0,0:0:0:0:
221,130,170983,2,0,B|267:140|294:102|339:117,1,120,6|2,0:0|0:0,0:0:0:0:
386,151,171531,2,0,B|413:158|446:149,1,60,10|2,0:2|1:2,0:0:0:0:
492,111,171897,2,0,B|499:84|490:51,1,60,10|2,0:2|1:2,0:0:0:0:
446,10,172263,1,10,0:2:0:0:
327,30,172629,6,0,B|295:37|261:22,2,60,2|2|2,1:0|1:0|1:0,0:0:0:0:
423,337,174092,6,0,B|469:349|507:326|533:271|503:198|443:191|390:203|359:255|389:257|328:295|269:265,1,377.999988464356,4|4,0:1|0:0,0:0:0:0:
85,46,177019,6,0,B|40:35|2:58|-24:113|6:186|66:193|119:181|150:129|120:127|181:89|240:119,1,377.999988464356,4|4,0:1|0:0,0:0:0:0:
425,225,179031,1,4,0:0:0:0:
171,330,179946,6,0,B|114:357|70:326,1,107.999996704102,4|2,1:0|0:0,0:0:0:0:
33,283,180495,1,2,0:0:0:0:
29,175,180861,1,2,0:0:0:0:
123,122,181227,2,0,B|180:149|224:118,1,107.999996704102,2|0,1:2|1:0,0:0:0:0:
269,85,181775,2,0,B|327:57|371:89,1,107.999996704102,2|8,0:0|0:0,0:0:0:0:
408,190,182507,2,0,B|402:217|403:250,1,53.9999983520508,2|0,0:0|1:0,0:0:0:0:
413,296,182873,6,0,B|355:268|311:300,1,107.999996704102,4|2,1:2|0:0,0:0:0:0:
268,334,183422,2,0,B|241:347|208:339,1,53.9999983520508,2|8,1:2|0:0,0:0:0:0:
167,314,183788,2,0,B|139:301|114:307,1,53.9999983520508,2|8,1:2|0:0,0:0:0:0:
66,332,184153,1,4,0:0:0:0:
12,122,184885,1,8,0:0:0:0:
49,82,185068,2,0,B|76:69|109:77,1,53.9999983520508,4|8,0:0|0:0,0:0:0:0:
150,102,185434,2,0,B|178:115|203:109,1,53.9999983520508,8|4,1:3|1:3,0:0:0:0:
251,73,185800,6,0,B|306:49|368:78,1,120,4|8,1:0|0:0,0:0:0:0:
440,173,186532,2,0,B|417:239|451:238|431:291,1,120,2|8,1:2|0:0,0:0:0:0:
383,326,187080,2,0,B|326:299|265:324,1,120,4|0,1:2|1:0,0:0:0:0:
214,353,187629,2,0,B|154:377|97:350,1,120,8|0,0:0|1:0,0:0:0:0:
29,251,188361,1,8,0:0:0:0:
98,152,188727,6,0,B|157:127|214:154,1,120,4|8,1:2|0:0,0:0:0:0:
256,196,189276,1,0,0:0:0:0:
289,245,189458,2,0,B|346:272|406:248,1,120,2|8,1:2|0:0,0:0:0:0:
431,193,190007,2,0,B|411:134|441:143|420:74,1,120,4|0,1:2|1:0,0:0:0:0:
304,44,190739,2,0,B|257:24|213:33,2,90,4|8|8,0:0|0:0|1:2,0:0:0:0:
314,103,191471,1,2,1:2:0:0:
324,162,191654,5,4,1:0:0:0:
270,269,192019,1,8,0:0:0:0:
216,296,192202,2,0,B|144:298|161:271|99:275,1,120,2|2,0:0|1:2,0:0:0:0:
28,177,192934,2,0,B|90:181|73:154|145:156,1,120,4|0,1:2|1:2,0:0:0:0:
200,179,193483,2,0,B|255:206|317:181,1,120,8|8,0:0|1:2,0:0:0:0:
404,99,194215,1,8,0:0:0:0:
306,30,194580,6,0,B|244:26|261:53|189:51,1,120,12|10,1:2|0:0,0:0:0:0:
79,99,195312,2,0,B|50:164|83:224,1,120,10|8,0:0|0:0,0:0:0:0:
124,254,195861,1,0,1:0:0:0:
182,241,196044,2,0,B|254:239|237:266|299:262,1,120,4|0,1:0|0:0,0:0:0:0:
354,239,196593,1,0,1:0:0:0:
387,189,196775,2,0,B|415:137|386:72,1,120,4|8,1:2|0:3,0:0:0:0:
256,192,197507,12,4,200068,1:0:0:0:
