osu file format v14

[General]
AudioFilename: audio.mp3
AudioLeadIn: 0
PreviewTime: 51166
Countdown: 0
SampleSet: Soft
StackLeniency: 0.4
Mode: 0
LetterboxInBreaks: 0
WidescreenStoryboard: 1

[Editor]
DistanceSpacing: 0.9
BeatDivisor: 4
GridSize: 32
TimelineZoom: 2

[Metadata]
Title:MIND READER
TitleUnicode:MIND READER
Artist:SYNC.ART'S
ArtistUnicode:SYNC.ART'S
Creator:Lasse
Version:Lunatic
Source:東方地霊殿 ~ Subterranean Animism.
Tags:touhou 仲村 芽衣子 meiko nakamura 美里 misato シークレットリンケージ -Secret Linkage- c91 少女さとり ~ 3rd eye Satori Komeiji ZUN
BeatmapID:1206896
BeatmapSetID:569335

[Difficulty]
HPDrainRate:7
CircleSize:4
OverallDifficulty:7
ApproachRate:8
SliderMultiplier:1.6
SliderTickRate:1

[Events]
//Background and Video events
0,0,"bg.jpg",0,0
//Break Periods
2,77707,88464
//Storyboard Layer 0 (Background)
//Storyboard Layer 1 (Fail)
//Storyboard Layer 2 (Pass)
//Storyboard Layer 3 (Foreground)
//Storyboard Sound Samples

[TimingPoints]
1410,365.853658536585,4,2,1,30,1,0
2507,-100,4,2,1,40,0,0
2873,-111.111111111111,4,2,1,50,0,0
8727,-99.9999999999999,4,2,1,55,0,0
14214,-200,4,2,1,55,0,0
14489,-200,4,2,2,5,0,0
14580,-133.333333333333,4,2,1,50,0,0
14855,-133.333333333333,4,2,2,5,0,0
14946,-133.333333333333,4,2,1,50,0,0
26288,-114.942528735632,4,2,1,55,0,0
37995,-200,4,2,1,50,0,0
43849,-166.666666666667,4,2,1,55,0,0
48056,-133.333333333333,4,2,1,60,0,0
51166,-90.9090909090909,4,2,1,70,0,1
51440,-90.9090909090909,4,2,2,5,0,1
51531,-90.9090909090909,4,2,1,70,0,1
54367,-90.9090909090909,4,2,2,5,0,1
54458,-90.9090909090909,4,2,1,70,0,1
57294,-90.9090909090909,4,2,2,5,0,1
57385,-90.9090909090909,4,2,1,70,0,1
59855,-90.9090909090909,4,2,2,5,0,1
59946,-90.9090909090909,4,2,1,70,0,1
60220,-90.9090909090909,4,2,2,5,0,1
60311,-90.9090909090909,4,2,1,70,0,1
62324,-90.9090909090909,4,2,1,70,0,0
62873,-90.9090909090909,4,2,1,70,0,1
63147,-90.9090909090909,4,2,2,5,0,1
63239,-90.9090909090909,4,2,1,70,0,1
66074,-90.9090909090909,4,2,2,5,0,1
66166,-90.9090909090909,4,2,1,70,0,1
69001,-90.9090909090909,4,2,2,5,0,1
69092,-90.9090909090909,4,2,1,70,0,1
71653,-76.9230769230769,4,2,1,75,0,1
73117,-90.9090909090909,4,2,1,70,0,1
73849,-90.9090909090909,4,2,1,65,0,1
74580,-100,4,2,1,60,0,0
77507,-100,4,2,1,50,0,0
89214,-133.333333333333,4,2,1,50,0,0
89489,-133.333333333333,4,2,2,5,0,0
89580,-133.333333333333,4,2,1,50,0,0
100922,-114.942528735632,4,2,1,55,0,0
112629,-200,4,2,1,50,0,0
118483,-166.666666666667,4,2,1,55,0,0
122690,-133.333333333333,4,2,1,60,0,0
125800,-90.9090909090909,4,2,1,70,0,1
126074,-90.9090909090909,4,2,2,5,0,1
126165,-90.9090909090909,4,2,1,70,0,1
129001,-90.9090909090909,4,2,2,5,0,1
129092,-90.9090909090909,4,2,1,70,0,1
131928,-90.9090909090909,4,2,2,5,0,1
132019,-90.9090909090909,4,2,1,70,0,1
134489,-90.9090909090909,4,2,2,5,0,1
134580,-90.9090909090909,4,2,1,70,0,1
134855,-90.9090909090909,4,2,2,5,0,1
134946,-90.9090909090909,4,2,1,70,0,1
136958,-90.9090909090909,4,2,1,70,0,0
137507,-90.9090909090909,4,2,1,70,0,1
137781,-90.9090909090909,4,2,2,5,0,1
137873,-90.9090909090909,4,2,1,70,0,1
140708,-90.9090909090909,4,2,2,5,0,1
140800,-90.9090909090909,4,2,1,70,0,1
143635,-90.9090909090909,4,2,2,5,0,1
143726,-90.9090909090909,4,2,1,70,0,1
146287,-76.9230769230769,4,2,1,75,0,1
147751,-90.9090909090909,4,2,1,70,0,1
148483,-90.9090909090909,4,2,1,65,0,1
149214,-133.333333333333,4,2,1,60,0,0
160922,-83.3333333333333,4,2,1,67,0,1
172995,-83.3333333333333,4,2,1,62,0,0
173727,-83.3333333333333,4,2,1,67,0,0
174092,-111.111111111111,4,2,1,70,0,1
174275,-111.111111111111,4,2,1,60,0,0
177019,-111.111111111111,4,2,1,65,0,0
177202,-111.111111111111,4,2,1,60,0,0
185800,-90.9090909090909,4,2,1,70,0,1
186074,-90.9090909090909,4,2,2,5,0,1
186166,-90.9090909090909,4,2,1,70,0,1
189001,-90.9090909090909,4,2,2,5,0,1
189093,-90.9090909090909,4,2,1,70,0,1
191928,-90.9090909090909,4,2,2,5,0,1
192019,-90.9090909090909,4,2,1,70,0,1
194580,-76.9230769230769,4,2,1,75,0,1
196044,-90.9090909090909,4,2,1,70,0,1
196776,-90.9090909090909,4,2,1,65,0,1
197507,-133.333333333333,4,2,1,60,0,0
200434,-133.333333333333,4,2,1,50,0,0

[Colours]
Combo1 : 250,190,230
Combo2 : 130,210,220
Combo3 : 250,140,140
Combo4 : 255,230,140

[HitObjects]
256,192,312,12,8,2507,0:1:0:0:
0,140,2873,6,0,B|65:186|137:145|137:145,1,143.999995605469,6|0,0:2|0:1,0:0:0:0:
191,59,3422,1,2,0:0:0:0:
205,49,3513,1,0,0:0:0:0:
220,40,3605,1,0,0:0:0:0:
318,13,3788,1,0,0:0:0:0:
416,38,3970,1,0,0:0:0:0:
488,108,4153,1,0,0:0:0:0:
461,242,4336,5,2,0:2:0:0:
361,269,4519,1,0,0:0:0:0:
263,243,4701,1,0,0:0:0:0:
190,173,4884,1,0,0:0:0:0:
162,74,5068,2,0,B|215:61|266:81|286:140|286:140,1,143.999995605469,2|0,0:0|0:0,0:0:0:0:
189,311,5800,5,4,0:1:0:0:
263,243,5983,1,0,0:0:0:0:
361,269,6166,1,0,0:0:0:0:
387,366,6349,1,0,0:0:0:0:
289,340,6531,1,2,0:0:0:0:
289,340,6623,1,0,0:0:0:0:
267,247,6806,1,2,0:0:0:0:
267,247,6897,1,0,0:0:0:0:
334,177,7080,1,2,0:0:0:0:
168,220,7263,6,0,B|89:235|99:184|28:197,1,143.999995605469,2|0,0:0|0:0,0:0:0:0:
42,297,7812,1,2,0:0:0:0:
44,314,7903,1,0,0:0:0:0:
47,331,7995,1,0,0:0:0:0:
166,366,8178,1,2,1:2:0:0:
172,337,8269,1,0,1:2:0:0:
179,309,8361,1,4,1:2:0:0:
222,89,8727,5,4,0:0:0:0:
356,267,9092,1,8,0:0:0:0:
253,220,9275,1,2,0:0:0:0:
253,220,9367,1,2,0:0:0:0:
253,219,9458,2,0,B|274:177|316:164|316:164,1,80,2|0,0:0|0:0,0:0:0:0:
417,172,9824,1,8,0:0:0:0:
356,267,10007,1,0,0:0:0:0:
366,69,10190,5,2,0:0:0:0:
417,172,10373,1,0,0:0:0:0:
356,267,10556,1,8,0:0:0:0:
407,367,10739,1,0,0:0:0:0:
469,272,10922,2,0,B|491:238|517:207|517:207,2,80,2|0|8,0:0|0:0|0:0,0:0:0:0:
407,367,11470,1,0,0:0:0:0:
243,258,11653,5,4,0:0:0:0:
272,141,11836,1,0,0:0:0:0:
389,170,12019,1,8,0:0:0:0:
360,287,12202,1,0,0:0:0:0:
316,214,12385,5,2,0:0:0:0:
316,214,12568,1,0,0:0:0:0:
345,97,12751,1,10,0:0:0:0:
382,84,12842,1,2,0:0:0:0:
421,90,12933,1,2,0:0:0:0:
453,114,13025,1,2,0:0:0:0:
470,149,13117,6,0,L|468:183,10,20,2|0|0|0|0|0|0|0|0|0|0,0:0|0:0|0:0|0:0|0:0|0:0|0:0|0:0|0:0|0:0|0:0,0:0:0:0:
453,242,13666,5,2,1:2:0:0:
416,226,13757,1,0,1:2:0:0:
383,249,13849,1,2,1:2:0:0:
345,235,13940,1,0,1:2:0:0:
310,254,14031,1,2,1:2:0:0:
272,238,14123,1,0,1:2:0:0:
238,259,14214,6,0,L|173:264,1,60,8|0,1:0|0:0,0:0:0:0:
134,320,14580,6,0,B|90:309|40:309|40:309,1,90.0000034332277,6|0,0:0|0:0,0:0:0:0:
44,309,14946,1,0,0:0:0:0:
1,236,15129,1,0,0:0:0:0:
1,152,15312,1,0,0:0:0:0:
42,78,15495,1,0,0:0:0:0:
115,37,15678,1,0,0:0:0:0:
198,37,15861,1,0,0:0:0:0:
255,140,16044,5,2,0:0:0:0:
335,161,16227,1,0,0:0:0:0:
416,140,16410,1,0,0:0:0:0:
475,81,16592,1,0,0:0:0:0:
496,161,16775,2,0,B|454:217|475:280|475:280,1,120.000004577637,2|0,0:0|0:0,0:0:0:0:
451,356,17324,1,0,0:0:0:0:
365,266,17507,5,2,0:0:0:0:
288,232,17690,1,0,0:0:0:0:
209,262,17873,1,0,0:0:0:0:
131,227,18056,1,0,0:0:0:0:
51,257,18239,1,2,0:0:0:0:
51,257,18330,1,0,0:0:0:0:
15,334,18513,1,2,0:0:0:0:
15,334,18605,1,0,0:0:0:0:
92,370,18788,1,2,0:0:0:0:
131,227,18970,6,0,B|161:164|127:104|127:104,1,120.000004577637,2|0,0:0|0:0,0:0:0:0:
60,63,19519,1,0,0:0:0:0:
135,25,19702,2,0,B|198:55|257:21|257:21,1,120.000004577637,0|0,0:0|1:0,0:0:0:0:
467,122,20434,5,6,0:0:0:0:
408,61,20617,1,0,0:0:0:0:
332,98,20800,1,0,0:0:0:0:
343,181,20983,1,0,0:0:0:0:
430,199,21166,1,2,0:0:0:0:
430,199,21257,1,0,0:0:0:0:
449,285,21440,1,2,0:0:0:0:
449,285,21531,1,0,0:0:0:0:
373,329,21714,1,2,0:0:0:0:
247,371,21897,5,2,0:0:0:0:
282,293,22080,1,0,1:0:0:0:
285,278,22172,1,0,1:0:0:0:
287,263,22263,1,0,1:0:0:0:
245,189,22446,1,0,1:0:0:0:
242,174,22538,1,0,1:0:0:0:
240,159,22629,2,0,B|223:121|252:85|234:40,1,120.000004577637,2|0,1:2|0:0,0:0:0:0:
154,12,23178,1,0,0:0:0:0:
61,88,23361,6,0,B|29:93|0:86|0:86,1,60.0000022888184,4|0,1:1|0:0,0:0:0:0:
67,187,23727,2,0,B|41:207|13:215|13:215,1,60.0000022888184,0|0,1:0|0:0,0:0:0:0:
121,269,24092,2,0,B|109:299|88:320|88:320,1,60.0000022888184,0|0,1:0|0:0,0:0:0:0:
208,313,24458,2,0,B|213:345|206:374|206:374,1,60.0000022888184,0|0,1:0|0:0,0:0:0:0:
207,210,24824,6,0,B|262:167|331:207|331:207,1,120.000004577637,4|8,0:0|0:0,0:0:0:0:
447,262,25373,1,2,0:0:0:0:
431,236,25464,1,0,0:0:0:0:
424,206,25556,1,10,0:0:0:0:
427,176,25647,1,0,0:0:0:0:
437,147,25739,1,10,0:0:0:0:
432,117,25830,1,0,0:0:0:0:
418,89,25922,1,8,1:1:0:0:
395,68,26013,1,0,1:1:0:0:
367,56,26105,1,8,1:1:0:0:
337,50,26196,1,0,1:1:0:0:
307,57,26288,6,0,B|274:75|234:66|234:66,1,69.6000005841065,6|0,0:0|0:0,0:0:0:0:
148,31,26653,1,8,0:0:0:0:
58,70,26836,1,0,0:0:0:0:
21,161,27019,1,2,0:0:0:0:
60,251,27202,1,0,0:0:0:0:
151,288,27385,1,8,0:0:0:0:
241,250,27568,1,0,0:0:0:0:
270,105,27751,5,2,0:0:0:0:
322,188,27934,1,0,0:0:0:0:
417,209,28117,1,8,0:0:0:0:
499,156,28300,1,0,0:0:0:0:
424,83,28483,1,2,1:2:0:0:
397,73,28574,1,0,1:0:0:0:
369,72,28666,1,0,1:0:0:0:
270,105,28849,1,8,0:0:0:0:
175,58,29031,1,0,0:0:0:0:
70,149,29214,5,2,0:0:0:0:
157,191,29397,1,0,0:0:0:0:
164,287,29580,1,8,0:0:0:0:
84,341,29763,1,0,0:0:0:0:
81,249,29946,1,2,0:0:0:0:
81,249,30038,1,0,0:0:0:0:
161,195,30220,1,2,0:0:0:0:
161,195,30312,1,8,0:0:0:0:
247,237,30495,1,2,0:0:0:0:
343,132,30678,6,0,B|409:88|478:131|478:131,1,139.200001168213,2|8,0:0|0:0,0:0:0:0:
512,220,31227,1,0,0:0:0:0:
443,288,31409,1,2,1:2:0:0:
415,295,31500,1,0,1:0:0:0:
387,293,31592,1,0,1:0:0:0:
302,244,31775,1,8,0:0:0:0:
302,244,31958,1,0,0:0:0:0:
213,359,32141,6,0,B|200:322|218:287|218:287,1,69.6000005841065,6|0,0:0|0:0,0:0:0:0:
302,244,32507,1,8,0:0:0:0:
388,198,32690,1,0,0:0:0:0:
346,116,32873,1,2,0:0:0:0:
346,116,32964,1,0,0:0:0:0:
260,162,33147,1,2,0:0:0:0:
260,162,33239,1,8,0:0:0:0:
302,244,33422,1,2,0:0:0:0:
346,116,33605,5,2,0:0:0:0:
304,34,33788,1,0,0:0:0:0:
218,80,33970,1,8,0:0:0:0:
260,162,34153,1,0,0:0:0:0:
302,244,34336,1,2,1:2:0:0:
313,265,34428,1,0,1:0:0:0:
324,286,34519,1,0,1:0:0:0:
366,368,34702,1,8,0:0:0:0:
448,326,34885,1,0,0:0:0:0:
324,286,35068,6,0,B|289:278|254:286|254:286,1,69.6000005841065,4|0,1:2|0:0,0:0:0:0:
172,381,35434,2,0,B|152:350|122:332|122:332,1,69.6000005841065,8|0,0:0|0:0,0:0:0:0:
34,204,35800,2,0,B|69:212|103:203|103:203,1,69.6000005841065,0|0,1:0|0:0,0:0:0:0:
186,109,36166,2,0,B|205:139|235:157|235:157,1,69.6000005841065,8|0,0:0|0:0,0:0:0:0:
324,286,36531,6,0,B|343:255|373:237|373:237,1,69.6000005841065,4|0,1:0|0:0,0:0:0:0:
396,230,36806,1,0,1:0:0:0:
420,233,36897,1,8,1:2:0:0:
503,161,37080,1,0,1:0:0:0:
480,150,37172,1,0,1:0:0:0:
460,135,37263,1,0,1:0:0:0:
387,51,37446,1,0,1:0:0:0:
367,36,37537,1,0,1:0:0:0:
344,25,37629,2,0,L|302:23,3,34.8000002920532,8|0|0|0,1:0|0:0|0:0|0:0,0:0:0:0:
236,60,37995,6,0,L|140:53,1,80,4|2,1:2|0:0,0:0:0:0:
156,54,38544,1,0,1:0:0:0:
83,231,39092,1,8,0:0:0:0:
177,171,39458,2,0,L|218:173,1,40,0|0,1:0|0:0,0:0:0:0:
242,185,39733,1,0,1:0:0:0:
242,185,39824,2,0,L|281:187,1,40,2|0,1:2|1:0,0:0:0:0:
358,211,40190,2,0,L|397:213,1,40,2|0,1:2|1:0,0:0:0:0:
474,237,40556,1,8,0:0:0:0:
369,357,40922,6,0,L|273:348,1,80,4|2,1:2|0:0,0:0:0:0:
289,350,41470,1,0,1:0:0:0:
139,292,41836,2,0,L|88:287,2,40,2|8|0,0:0|0:0|0:0,0:0:0:0:
195,234,42385,2,0,L|199:183,1,40,0|0,1:0|0:0,0:0:0:0:
213,178,42659,1,0,1:0:0:0:
213,178,42751,2,0,L|217:127,1,40,2|0,1:2|1:1,0:0:0:0:
176,68,43117,2,0,L|125:64,1,40,2|0,1:2|1:1,0:0:0:0:
66,105,43483,2,0,L|62:156,1,40,10|0,0:0|0:0,0:0:0:0:
56,241,43849,6,0,B|80:221|120:218|146:232,1,95.9999970703126,4|8,1:2|0:0,0:0:0:0:
211,289,44397,1,2,0:0:0:0:
276,345,44580,2,0,B|302:359|342:356|366:336,1,95.9999970703126,2|8,1:2|0:0,0:0:0:0:
465,194,45312,6,0,B|441:214|401:217|374:202,1,95.9999970703126,2|8,1:2|0:0,0:0:0:0:
310,146,45860,1,2,0:0:0:0:
245,90,46044,2,0,B|211:79|175:90|175:90,1,47.9999985351563,2|0,1:2|1:0,0:0:0:0:
76,80,46409,2,0,B|111:81|143:61|143:61,1,47.9999985351563,10|0,1:2|1:0,0:0:0:0:
238,11,46775,6,0,B|289:16|284:32|330:32,1,95.9999970703126,4|8,1:2|0:0,0:0:0:0:
498,75,47507,2,0,B|462:73|430:93|430:93,1,47.9999985351563,0|0,1:2|1:0,0:0:0:0:
396,150,47873,1,8,0:0:0:0:
485,270,48056,6,0,B|523:214|489:147|489:147,1,120.000004577637,4|0,1:0|1:0,0:0:0:0:
375,72,48605,1,8,0:1:0:0:
312,160,48788,1,0,1:0:0:0:
174,120,48970,1,8,0:1:0:0:
283,71,49153,1,0,1:0:0:0:
400,161,49336,1,8,0:1:0:0:
371,281,49519,1,0,1:0:0:0:
283,71,49702,5,2,1:0:0:0:
371,281,49885,1,2,1:0:0:0:
174,120,50068,1,2,1:0:0:0:
223,207,50617,5,0,1:0:0:0:
223,207,50708,1,0,1:0:0:0:
223,207,50800,1,8,1:0:0:0:
223,207,51166,6,0,B|255:242|256:305|227:336,1,132.00000402832,4|0,1:1|0:0,0:0:0:0:
215,343,51531,2,0,B|117:337,1,88.000002685547,8|0,0:0|0:0,0:0:0:0:
8,260,51897,1,2,1:2:0:0:
8,260,52080,1,0,1:2:0:0:
17,118,52263,1,8,0:0:0:0:
185,44,52446,6,0,B|226:76|274:83|320:68|358:21,1,176.000005371094,6|0,1:2|1:0,0:0:0:0:
272,157,52995,1,8,0:0:0:0:
8,260,53361,1,0,1:0:0:0:
8,260,53544,1,0,1:0:0:0:
120,174,53727,1,8,0:0:0:0:
236,253,53909,1,2,0:0:0:0:
399,338,54092,6,0,B|366:310|316:303|276:332,1,132.00000402832,4|0,1:2|0:0,0:0:0:0:
276,331,54458,1,8,0:0:0:0:
157,255,54641,1,0,0:0:0:0:
282,189,54824,1,2,1:2:0:0:
282,189,55007,1,0,1:2:0:0:
280,335,55190,1,8,0:0:0:0:
194,174,55373,6,0,B|228:190|283:185|322:136|314:92,1,176.000005371094,4|0,1:2|1:0,0:0:0:0:
194,17,55922,1,10,0:0:0:0:
194,17,56013,1,2,0:0:0:0:
194,17,56105,2,0,B|148:9|103:15|103:15,1,88.000002685547,6|0,1:2|0:0,0:0:0:0:
67,23,56379,1,8,0:0:0:0:
42,53,56470,1,0,1:2:0:0:
172,136,56653,1,8,1:2:0:0:
194,174,56745,1,0,1:2:0:0:
196,217,56836,1,2,1:2:0:0:
176,256,56928,1,0,1:2:0:0:
140,281,57019,6,0,B|83:264|71:304|4:276,1,132.00000402832,4|0,1:0|0:0,0:0:0:0:
10,278,57385,1,8,0:0:0:0:
109,377,57568,2,0,B|137:386|170:383|194:367,1,88.000002685547,2|0,0:0|1:0,0:0:0:0:
306,281,57934,2,0,B|330:265|363:262|391:271,1,88.000002685547,2|8,1:2|0:0,0:0:0:0:
512,155,58300,6,0,B|457:185|381:152|369:91,1,176.000005371094,4|0,1:2|1:1,0:0:0:0:
487,16,58849,1,8,0:0:0:0:
484,300,59214,1,2,1:2:0:0:
484,300,59397,1,0,1:0:0:0:
370,216,59580,2,0,B|298:174|236:214|236:214,1,132.00000402832,8|0,0:0|0:0,0:0:0:0:
227,225,59946,6,0,B|215:292|244:289|230:355,1,132.00000402832,4|0,1:2|0:0,0:0:0:0:
229,355,60312,1,8,0:0:0:0:
97,305,60495,2,0,B|87:278|89:243|102:218,1,88.000002685547,2|0,0:0|1:0,0:0:0:0:
193,111,60861,2,0,B|206:87|208:52|198:25,1,88.000002685547,2|8,1:2|0:0,0:0:0:0:
35,174,61227,6,0,B|61:224|143:237|188:193,1,176.000005371094,4|8,1:2|0:0,0:0:0:0:
303,61,61775,1,8,0:0:0:0:
126,65,61958,1,0,1:2:0:0:
275,158,62141,1,2,1:2:0:0:
126,65,62324,5,0,1:0:0:0:
85,48,62416,1,0,1:0:0:0:
46,68,62507,1,8,1:3:0:0:
25,107,62599,1,8,1:3:0:0:
39,148,62690,1,4,1:3:0:0:
75,172,62781,1,4,1:3:0:0:
119,174,62873,6,0,B|154:205|156:261|129:295,1,132.00000402832,4|0,1:0|0:0,0:0:0:0:
124,315,63239,2,0,B|165:286|211:292,1,88.000002685547,8|0,0:0|0:0,0:0:0:0:
342,332,63605,2,0,B|434:374|509:311,1,176.000005371094,2|8,1:2|0:0,0:0:0:0:
482,142,64153,6,0,B|390:100|315:163,1,176.000005371094,4|0,1:2|1:0,0:0:0:0:
412,267,64703,1,8,0:0:0:0:
473,1,65069,1,0,1:0:0:0:
473,1,65251,1,0,1:0:0:0:
482,142,65435,1,8,0:0:0:0:
355,79,65617,1,2,0:0:0:0:
286,241,65800,6,0,B|253:269|203:276|163:247,1,132.00000402832,4|0,1:2|0:0,0:0:0:0:
163,247,66166,1,8,0:0:0:0:
220,118,66349,1,0,0:0:0:0:
359,82,66532,1,2,1:2:0:0:
358,82,66715,1,0,1:2:0:0:
476,164,66897,1,8,0:0:0:0:
477,341,67080,6,0,B|488:305|477:251|423:218|380:231,1,176.000005371094,4|0,1:2|1:0,0:0:0:0:
264,314,67629,1,8,0:0:0:0:
193,185,67813,2,0,B|228:210|284:205|284:205,1,88.000002685547,4|0,0:0|0:0,0:0:0:0:
314,191,68087,1,8,0:0:0:0:
338,160,68178,1,0,1:0:0:0:
261,32,68361,1,8,1:2:0:0:
221,14,68453,1,0,1:2:0:0:
178,17,68544,1,2,1:2:0:0:
145,46,68636,1,0,1:2:0:0:
132,88,68727,6,0,B|102:112|53:120|6:99,1,132.00000402832,4|0,1:0|0:0,0:0:0:0:
6,99,69092,1,8,0:0:0:0:
116,186,69276,2,0,B|127:214|127:245|116:272,1,88.000002685547,2|0,0:0|1:0,0:0:0:0:
233,349,69641,2,0,B|251:325|278:309|307:305,1,88.000002685547,2|8,1:2|0:0,0:0:0:0:
512,230,70007,6,0,B|466:274|381:259|364:192,1,176.000005371094,4|0,1:2|1:2,0:0:0:0:
446,78,70556,2,0,B|459:97|462:138|448:163,1,88.000002685547,8|0,0:0|0:0,0:0:0:0:
273,102,70922,2,0,B|260:83|257:42|271:17,1,88.000002685547,8|0,1:2|1:0,0:0:0:0:
366,199,71288,1,8,0:0:0:0:
200,154,71470,1,8,0:3:0:0:
159,136,71562,1,8,0:3:0:0:
115,141,71653,6,0,B|56:162|16:118|16:118,1,103.999995239258,12|0,1:2|0:0,0:0:0:0:
182,26,72019,1,10,0:0:0:0:
200,154,72202,1,0,1:0:0:0:
332,12,72385,1,10,0:0:0:0:
216,165,72568,1,0,1:0:0:0:
410,133,72751,1,8,0:0:0:0:
232,176,72934,1,0,1:0:0:0:
216,165,73025,1,0,1:0:0:0:
200,154,73117,6,0,B|119:120|109:179|28:145,1,176.000005371094,4|0,1:0|0:0,0:0:0:0:
156,235,73666,1,0,1:0:0:0:
172,246,73757,1,0,1:0:0:0:
188,257,73849,2,0,B|269:291|279:232|360:266,1,176.000005371094,4|8,1:2|0:3,0:0:0:0:
232,176,74397,1,4,0:3:0:0:
148,345,74580,5,4,1:0:0:0:
256,192,74672,12,8,77141,0:1:0:0:
202,262,77507,5,6,0:0:0:0:
25,77,89214,6,0,B|69:88|118:66|118:66,1,90.0000034332277,6|0,0:0|0:0,0:0:0:0:
113,67,89580,1,0,0:0:0:0:
178,15,89763,1,0,0:0:0:0:
230,80,89946,1,0,0:0:0:0:
296,29,90129,1,0,0:0:0:0:
347,94,90312,1,0,0:0:0:0:
413,42,90495,1,0,0:0:0:0:
512,109,90678,5,2,0:0:0:0:
446,161,90861,1,0,0:0:0:0:
434,244,91044,1,0,0:0:0:0:
368,296,91227,1,0,0:0:0:0:
356,379,91409,2,0,B|308:335|238:349|238:349,1,120.000004577637,2|0,0:0|0:0,0:0:0:0:
162,369,91958,1,0,0:0:0:0:
60,309,92141,5,2,0:0:0:0:
130,263,92324,1,0,0:0:0:0:
125,179,92507,1,0,0:0:0:0:
49,141,92690,1,0,0:0:0:0:
47,61,92873,1,2,0:0:0:0:
47,61,92964,1,0,0:0:0:0:
129,32,93147,1,2,0:0:0:0:
129,32,93239,1,0,0:0:0:0:
181,101,93422,1,2,0:0:0:0:
273,24,93604,6,0,B|255:84|286:85|263:142,1,120.000004577637,2|0,0:0|0:0,0:0:0:0:
190,185,94153,1,0,0:0:0:0:
264,226,94336,2,0,B|327:206|320:237|381:215,1,120.000004577637,0|0,0:0|1:0,0:0:0:0:
505,24,95068,5,6,0:0:0:0:
486,106,95251,1,0,0:0:0:0:
424,48,95434,1,0,0:0:0:0:
405,131,95617,1,0,0:0:0:0:
466,195,95800,1,2,0:0:0:0:
466,195,95891,1,0,0:0:0:0:
442,278,96074,1,2,0:0:0:0:
442,278,96165,1,0,0:0:0:0:
381,214,96349,1,2,0:0:0:0:
319,316,96531,5,2,0:0:0:0:
255,261,96714,1,0,1:0:0:0:
240,257,96806,1,0,1:0:0:0:
225,256,96897,1,0,1:0:0:0:
149,292,97080,1,0,1:0:0:0:
134,296,97172,1,0,1:0:0:0:
119,297,97263,2,0,B|93:269|38:262|8:294,1,120.000004577637,2|0,1:2|0:0,0:0:0:0:
60,356,97812,1,0,0:0:0:0:
139,206,97995,6,0,B|144:174|137:145|137:145,1,60.0000022888184,4|0,1:1|0:0,0:0:0:0:
212,97,98361,2,0,B|192:70|167:55|167:55,1,60.0000022888184,0|0,1:0|0:0,0:0:0:0:
300,97,98727,2,0,B|319:70|344:55|344:55,1,60.0000022888184,0|0,1:0|0:0,0:0:0:0:
373,206,99092,2,0,B|368:174|375:145|375:145,1,60.0000022888184,0|0,1:0|0:0,0:0:0:0:
430,284,99458,6,0,B|402:311|349:310|318:287,1,120.000004577637,4|8,0:0|0:0,0:0:0:0:
203,204,100007,1,2,0:0:0:0:
187,178,100098,1,0,0:0:0:0:
189,147,100190,1,10,0:0:0:0:
202,120,100281,1,0,0:0:0:0:
209,90,100373,1,10,0:0:0:0:
202,60,100464,1,0,0:0:0:0:
176,43,100556,1,8,1:1:0:0:
146,40,100647,1,0,1:1:0:0:
119,54,100739,1,8,1:1:0:0:
108,82,100830,1,0,1:1:0:0:
114,112,100922,6,0,B|80:129|29:112|29:112,1,69.6000005841065,6|0,0:0|0:0,0:0:0:0:
2,203,101288,1,8,0:0:0:0:
33,294,101470,1,0,0:0:0:0:
119,336,101653,1,2,0:0:0:0:
210,305,101836,1,0,0:0:0:0:
252,219,102019,1,8,0:0:0:0:
220,128,102202,1,0,0:0:0:0:
131,236,102386,5,2,0:0:0:0:
210,305,102569,1,0,0:0:0:0:
314,297,102751,1,8,0:0:0:0:
383,218,102934,1,0,0:0:0:0:
375,114,103116,1,2,1:2:0:0:
368,86,103209,1,0,1:0:0:0:
362,58,103301,1,0,1:0:0:0:
265,18,103484,1,8,0:0:0:0:
168,58,103666,1,0,0:0:0:0:
285,151,103849,5,2,0:0:0:0:
375,114,104032,1,0,0:0:0:0:
452,173,104214,1,8,0:0:0:0:
439,269,104397,1,0,0:0:0:0:
362,209,104581,1,2,0:0:0:0:
362,209,104673,1,0,0:0:0:0:
348,305,104855,1,2,0:0:0:0:
348,305,104947,1,8,0:0:0:0:
425,365,105129,1,2,0:0:0:0:
283,373,105312,6,0,B|231:382|202:339|147:349,1,139.200001168213,2|8,0:0|0:0,0:0:0:0:
52,374,105862,1,0,0:0:0:0:
77,279,106044,1,2,1:2:0:0:
80,251,106135,1,0,1:0:0:0:
74,223,106227,1,0,1:0:0:0:
19,140,106410,1,8,0:0:0:0:
19,140,106593,1,0,0:0:0:0:
125,51,106775,5,6,0:0:0:0:
198,114,106958,1,0,0:0:0:0:
294,106,107141,1,8,0:0:0:0:
356,32,107324,1,0,0:0:0:0:
458,31,107508,1,2,0:0:0:0:
458,31,107599,1,0,0:0:0:0:
395,106,107781,1,2,0:0:0:0:
395,106,107873,1,8,0:0:0:0:
294,106,108056,1,2,0:0:0:0:
259,244,108240,5,2,0:0:0:0:
345,199,108423,1,0,0:0:0:0:
390,285,108605,1,8,0:0:0:0:
304,330,108788,1,0,0:0:0:0:
259,244,108971,1,2,1:2:0:0:
243,220,109063,1,0,1:0:0:0:
228,196,109154,1,0,1:0:0:0:
183,110,109337,1,8,0:0:0:0:
269,65,109519,1,0,0:0:0:0:
228,196,109702,6,0,B|193:204|158:196|158:196,1,69.6000005841065,4|0,1:2|0:0,0:0:0:0:
64,299,110068,2,0,B|99:291|134:299|134:299,1,69.6000005841065,8|0,0:0|0:0,0:0:0:0:
296,353,110435,2,0,B|331:361|365:352|365:352,1,69.6000005841065,0|0,1:0|0:0,0:0:0:0:
388,214,110800,2,0,B|353:206|319:215|319:215,1,69.6000005841065,8|0,0:0|0:0,0:0:0:0:
183,110,111166,6,0,B|218:118|252:109|252:109,1,69.6000005841065,4|0,1:0|0:0,0:0:0:0:
273,97,111441,1,0,1:0:0:0:
289,79,111532,1,8,1:2:0:0:
384,21,111715,1,0,1:0:0:0:
405,33,111807,1,0,1:0:0:0:
427,41,111898,1,0,1:0:0:0:
481,139,112081,1,0,1:0:0:0:
465,157,112172,1,0,1:0:0:0:
455,179,112264,2,0,L|453:221,3,34.8000002920532,8|0|0|0,1:0|0:0|0:0|0:0,0:0:0:0:
499,284,112629,6,0,L|403:291,1,80,4|2,1:2|0:0,0:0:0:0:
419,290,113178,1,0,1:0:0:0:
241,355,113727,1,8,0:0:0:0:
184,298,113909,1,0,0:0:0:0:
127,241,114093,2,0,L|128:201,1,40,0|0,1:0|0:0,0:0:0:0:
148,188,114368,1,0,1:0:0:0:
148,188,114459,2,0,L|150:149,1,40,2|0,1:2|1:0,0:0:0:0:
102,83,114824,2,0,L|63:81,1,40,2|0,1:2|1:0,0:0:0:0:
6,139,115191,1,8,0:0:0:0:
148,188,115557,6,0,L|244:197,1,80,4|2,1:2|0:0,0:0:0:0:
227,195,116105,1,0,1:0:0:0:
377,140,116470,2,0,L|382:89,2,40,2|8|0,0:0|0:0|0:0,0:0:0:0:
410,213,117020,2,0,L|406:252,1,40,0|0,1:0|0:0,0:0:0:0:
416,279,117294,1,0,1:0:0:0:
416,279,117385,2,0,L|412:318,1,40,2|0,1:2|1:1,0:0:0:0:
344,361,117752,2,0,L|293:357,1,40,2|0,1:2|1:1,0:0:0:0:
230,327,118117,2,0,L|179:323,1,40,10|0,0:0|0:0,0:0:0:0:
98,355,118484,6,0,B|118:331|121:291|107:265,1,95.9999970703126,4|8,1:2|0:0,0:0:0:0:
65,188,119032,1,2,0:0:0:0:
23,111,119214,2,0,B|9:85|12:45|32:21,1,95.9999970703126,2|8,1:2|0:0,0:0:0:0:
145,152,119947,6,0,B|174:141|196:108|197:77,1,95.9999970703126,2|8,1:2|0:0,0:0:0:0:
111,72,120495,1,2,0:0:0:0:
145,152,120678,2,0,B|179:163|215:152|215:152,1,47.9999985351563,2|0,1:2|1:0,0:0:0:0:
296,199,121044,2,0,B|261:198|229:218|229:218,1,47.9999985351563,10|0,1:2|1:0,0:0:0:0:
177,296,121409,6,0,B|227:286|225:308|272:295,1,95.9999970703126,4|8,1:2|0:0,0:0:0:0:
426,216,122141,2,0,B|390:214|358:234|358:234,1,47.9999985351563,0|0,1:2|1:0,0:0:0:0:
351,306,122507,1,8,0:0:0:0:
492,278,122691,6,0,B|521:251|525:201|502:165,1,120.000004577637,4|0,1:0|1:0,0:0:0:0:
365,117,123240,1,8,0:1:0:0:
379,224,123423,1,0,1:0:0:0:
503,167,123605,1,8,0:1:0:0:
489,60,123788,1,0,1:0:0:0:
379,224,123970,1,8,0:1:0:0:
408,44,124153,1,0,1:0:0:0:
492,278,124337,5,2,1:0:0:0:
489,60,124520,1,2,1:0:0:0:
293,205,124702,1,2,1:0:0:0:
387,231,125252,5,0,1:0:0:0:
387,231,125343,1,0,1:0:0:0:
387,231,125435,1,8,1:0:0:0:
387,231,125801,6,0,B|405:197|398:159|385:174|372:133|390:103,1,132.00000402832,4|0,1:1|0:0,0:0:0:0:
408,91,126166,2,0,L|507:85,1,88.000002685547,8|0,0:0|0:0,0:0:0:0:
382,10,126531,1,2,1:2:0:0:
382,10,126714,1,0,1:2:0:0:
276,94,126897,1,8,0:0:0:0:
122,11,127080,6,0,B|179:94|121:178,1,176.000005371094,6|0,1:2|1:0,0:0:0:0:
16,268,127629,1,8,0:0:0:0:
287,343,127995,1,0,1:0:0:0:
287,343,128178,1,0,1:0:0:0:
248,207,128361,1,8,0:0:0:0:
125,275,128543,1,2,0:0:0:0:
287,343,128726,6,0,B|352:359|354:316|421:330,1,132.00000402832,4|0,1:2|0:0,0:0:0:0:
415,328,129092,1,8,0:0:0:0:
507,221,129275,1,0,0:0:0:0:
460,88,129458,1,2,1:2:0:0:
460,88,129641,1,0,1:2:0:0:
369,196,129824,1,8,0:0:0:0:
259,50,130007,6,0,B|207:18|132:22|89:52,1,176.000005371094,4|0,1:2|1:0,0:0:0:0:
183,175,130556,1,10,0:0:0:0:
183,175,130647,1,2,0:0:0:0:
183,175,130739,2,0,B|194:220|180:267|180:267,1,88.000002685547,6|0,1:2|0:0,0:0:0:0:
163,298,131013,1,8,0:0:0:0:
129,319,131104,1,2,1:2:0:0:
255,365,131288,1,8,1:2:0:0:
278,332,131379,1,0,1:2:0:0:
318,316,131470,1,2,1:2:0:0:
361,324,131562,1,0,1:2:0:0:
397,348,131653,6,0,B|441:370|483:349|483:349,1,88.000002685547,4|0,1:0|0:0,0:0:0:0:
442,213,132019,1,8,0:0:0:0:
401,77,132202,2,0,B|443:56|487:78,1,88.000002685547,2|0,0:0|1:0,0:0:0:0:
442,213,132568,2,0,B|400:234|356:212,1,88.000002685547,2|8,1:2|0:0,0:0:0:0:
232,72,132934,6,0,B|281:54|330:75|304:83|363:102|401:77,1,176.000005371094,4|0,1:2|1:1,0:0:0:0:
509,167,133483,1,8,0:0:0:0:
297,351,133848,1,2,1:2:0:0:
297,351,134031,1,0,1:0:0:0:
228,228,134214,2,0,B|293:186|359:229|359:229,1,132.00000402832,8|0,0:0|0:0,0:0:0:0:
357,248,134580,6,0,B|344:189|371:187|360:118,1,132.00000402832,4|0,1:2|0:0,0:0:0:0:
359,117,134946,1,8,0:0:0:0:
240,40,135129,2,0,B|213:50|178:48|153:34,1,88.000002685547,2|0,0:0|1:0,0:0:0:0:
17,73,135495,2,0,B|44:73|75:89|93:111,1,88.000002685547,2|8,1:2|0:0,0:0:0:0:
192,295,135861,6,0,B|186:254|143:211|87:218|51:247,1,176.000005371094,4|8,1:2|0:0,0:0:0:0:
17,73,136409,1,8,0:0:0:0:
176,147,136592,1,0,1:2:0:0:
1,166,136775,1,2,1:2:0:0:
154,35,136958,5,0,1:0:0:0:
198,33,137050,1,0,1:0:0:0:
234,57,137141,1,8,1:3:0:0:
259,93,137233,1,8,1:3:0:0:
302,100,137324,1,4,1:3:0:0:
340,78,137415,1,4,1:3:0:0:
371,46,137507,6,0,B|399:16|463:15|492:50,1,132.00000402832,4|0,1:0|0:0,0:0:0:0:
490,71,137873,2,0,B|476:120|493:167|493:167,1,88.000002685547,8|0,0:0|0:0,0:0:0:0:
508,296,138239,2,0,B|440:224|346:261,1,176.000005371094,2|8,1:2|0:0,0:0:0:0:
183,210,138788,6,0,B|278:238|340:159,1,176.000005371094,4|0,1:2|1:0,0:0:0:0:
231,70,139337,1,8,0:0:0:0:
256,350,139703,1,0,1:0:0:0:
256,350,139885,1,0,1:0:0:0:
129,285,140068,1,8,0:0:0:0:
248,207,140251,1,2,0:0:0:0:
171,359,140434,6,0,B|137:375|79:372|54:321,1,132.00000402832,4|0,1:2|0:0,0:0:0:0:
56,324,140800,1,8,0:0:0:0:
19,188,140983,1,0,0:0:0:0:
133,288,141166,1,2,1:2:0:0:
133,288,141349,1,0,1:2:0:0:
96,152,141531,1,8,0:0:0:0:
215,287,141714,6,0,B|242:321|294:330|343:306|356:254,1,176.000005371094,4|0,1:2|1:0,0:0:0:0:
394,120,142263,1,8,0:0:0:0:
259,153,142446,2,0,B|251:183|256:214|278:234,1,88.000002685547,4|0,0:0|0:0,0:0:0:0:
315,253,142721,1,8,0:0:0:0:
355,256,142812,1,0,1:0:0:0:
468,172,142995,1,8,1:2:0:0:
487,132,143086,1,0,1:2:0:0:
487,87,143178,1,2,1:2:0:0:
464,49,143269,1,0,1:2:0:0:
431,18,143361,6,0,B|362:16|376:42|300:23,1,132.00000402832,4|0,1:0|0:0,0:0:0:0:
300,23,143726,1,8,0:0:0:0:
158,12,143910,2,0,B|181:30|197:57|200:86,1,88.000002685547,2|0,0:0|1:0,0:0:0:0:
209,226,144275,2,0,B|213:196|228:169|252:151,1,88.000002685547,2|8,1:2|0:0,0:0:0:0:
428,254,144641,6,0,B|418:208|373:180|314:192|295:237,1,176.000005371094,4|0,1:2|1:2,0:0:0:0:
233,364,145190,2,0,B|212:374|171:372|148:355,1,88.000002685547,8|0,0:0|0:0,0:0:0:0:
68,239,145556,2,0,B|57:218|59:177|76:154,1,88.000002685547,8|0,1:2|1:0,0:0:0:0:
200,86,145922,1,8,0:0:0:0:
321,160,146105,1,8,0:3:0:0:
364,168,146196,1,8,0:3:0:0:
405,153,146288,6,0,B|463:126|511:173|511:173,1,103.999995239258,12|0,1:2|0:0,0:0:0:0:
488,353,146653,1,10,0:0:0:0:
444,224,146836,1,0,1:0:0:0:
312,356,147019,1,10,0:0:0:0:
424,231,147202,1,0,1:0:0:0:
239,255,147385,1,8,0:0:0:0:
404,238,147568,1,0,1:0:0:0:
424,231,147659,1,0,1:0:0:0:
444,224,147751,6,0,B|468:186|464:149|445:164|425:92|465:63|495:95|472:139,1,176.000005371094,4|0,1:0|0:0,0:0:0:0:
327,176,148300,1,0,1:0:0:0:
307,169,148391,1,0,1:0:0:0:
287,162,148483,2,0,B|263:124|267:87|286:102|306:30|266:1|236:33|259:77,1,176.000005371094,4|8,1:2|0:3,0:0:0:0:
410,38,149031,1,4,0:3:0:0:
444,224,149214,5,4,1:0:0:0:
256,192,149306,12,2,150861,0:0:0:0:
192,272,152141,5,4,1:0:0:0:
256,192,152233,12,2,153605,0:0:0:0:
206,82,155068,6,0,B|272:65|265:104|322:93,1,120.000004577637,4|0,0:0|0:0,0:0:0:0:
322,92,155617,1,0,0:0:0:0:
402,39,155800,1,8,0:0:0:0:
402,39,155983,1,0,0:0:0:0:
478,98,156166,1,2,0:0:0:0:
445,188,156349,5,0,1:0:0:0:
442,208,156440,1,0,1:0:0:0:
439,228,156531,1,2,1:2:0:0:
373,298,156714,1,8,0:0:0:0:
230,168,157080,1,2,0:0:0:0:
164,238,157263,1,10,0:0:0:0:
137,146,157446,1,2,0:0:0:0:
70,215,157629,1,2,0:0:0:0:
43,123,157812,1,2,0:0:0:0:
204,77,157995,6,0,B|245:64|292:83|315:125,1,120.000004577637,4|0,0:0|0:0,0:0:0:0:
311,212,158544,1,0,0:0:0:0:
395,162,158727,2,0,B|422:148|459:156|459:156,2,60.0000022888184,8|0|0,0:0|0:0|1:0,0:0:0:0:
351,301,159275,5,2,0:1:0:0:
335,315,159367,2,0,B|290:345|245:315|245:315,1,90.0000034332277,0|0,1:0|0:0,0:0:0:0:
187,244,159824,1,8,0:0:0:0:
91,232,160007,1,2,1:1:0:0:
76,216,160099,1,0,1:0:0:0:
61,200,160190,1,2,1:2:0:0:
21,112,160373,1,8,0:3:0:0:
77,34,160556,1,8,0:0:0:0:
172,43,160739,1,8,1:3:0:0:
187,59,160831,1,0,1:0:0:0:
202,75,160922,6,0,B|229:85|255:75|255:75,2,47.9999985351563,4|0|0,0:0|0:0|0:0,0:0:0:0:
180,86,161196,1,2,0:0:0:0:
163,103,161288,1,8,0:0:0:0:
89,214,161470,1,2,0:0:0:0:
215,168,161653,1,2,0:0:0:0:
239,167,161744,1,2,0:0:0:0:
263,173,161836,1,2,0:0:0:0:
359,266,162019,1,10,0:2:0:0:
335,134,162202,1,2,0:1:0:0:
264,267,162385,6,0,B|223:285|180:258|180:258,2,63.9999980468751,2|2|2,0:1|0:0|0:0,0:0:0:0:
239,167,162751,2,0,B|219:118|249:71|249:71,1,95.9999970703126,10|0,0:2|0:0,0:0:0:0:
264,58,163025,1,2,0:0:0:0:
287,51,163117,2,0,B|328:69|371:42|371:42,2,63.9999980468751,2|2|2,0:1|0:0|0:0,0:0:0:0:
187,23,163483,2,0,B|140:-2|90:21|90:21,1,95.9999970703126,10|0,0:0|0:0,0:0:0:0:
239,167,163849,6,0,B|285:192|335:168|335:168,1,95.9999970703126,6|0,0:0|0:0,0:0:0:0:
351,156,164123,1,2,0:0:0:0:
361,134,164214,1,10,0:0:0:0:
450,33,164397,2,0,B|424:79|448:129|448:129,1,95.9999970703126,2|0,0:1|0:0,0:0:0:0:
498,250,164763,1,2,0:1:0:0:
395,338,164946,1,10,0:0:0:0:
350,357,165038,1,2,0:0:0:0:
302,354,165129,1,2,0:0:0:0:
256,340,165220,1,2,0:0:0:0:
230,299,165312,5,2,0:1:0:0:
191,211,165494,1,2,0:0:0:0:
149,186,165585,1,2,0:0:0:0:
100,188,165677,1,10,0:0:0:0:
32,256,165861,1,2,0:0:0:0:
74,281,165952,1,2,0:0:0:0:
123,279,166044,1,2,0:1:0:0:
191,211,166227,5,2,0:0:0:0:
188,163,166318,1,2,0:0:0:0:
158,125,166409,1,10,0:0:0:0:
162,76,166501,1,2,0:0:0:0:
199,46,166592,1,2,0:0:0:0:
247,50,166684,1,2,0:0:0:0:
270,91,166775,5,6,0:1:0:0:
313,197,166958,1,2,0:0:0:0:
419,154,167141,1,10,0:0:0:0:
376,48,167324,1,2,0:0:0:0:
278,108,167507,5,2,0:1:0:0:
321,214,167690,1,2,0:0:0:0:
215,257,167873,1,10,0:0:0:0:
172,151,168056,1,2,0:0:0:0:
163,128,168147,1,2,0:0:0:0:
154,105,168239,6,0,B|117:72|66:68|25:101,1,127.99999609375,2|0,0:1|0:0,0:0:0:0:
19,169,168605,2,0,L|13:292,1,95.9999970703126,10|0,0:0|0:0,0:0:0:0:
21,288,168879,1,2,0:0:0:0:
28,312,168970,1,2,0:1:0:0:
146,375,169153,1,2,0:0:0:0:
193,249,169336,1,10,0:0:0:0:
234,224,169427,1,2,0:0:0:0:
281,220,169519,1,2,0:0:0:0:
326,237,169610,1,2,0:0:0:0:
357,273,169703,5,6,0:1:0:0:
402,287,169794,1,2,0:0:0:0:
449,280,169885,1,2,0:0:0:0:
489,253,169977,1,2,0:0:0:0:
511,211,170068,1,10,0:0:0:0:
512,163,170160,1,2,0:0:0:0:
493,120,170251,1,2,0:0:0:0:
456,90,170343,1,2,0:0:0:0:
410,80,170434,5,2,0:1:0:0:
256,96,170617,1,2,0:1:0:0:
208,91,170708,1,2,0:0:0:0:
160,86,170800,1,10,0:0:0:0:
112,81,170891,1,2,0:0:0:0:
64,76,170983,6,0,B|8:114|-9:187|39:246,1,191.999994140625,6|2,0:0|0:0,0:0:0:0:
188,327,171531,1,10,0:2:0:0:
114,171,171714,1,2,1:2:0:0:
265,255,171897,1,10,0:2:0:0:
191,99,172080,1,2,1:2:0:0:
342,183,172263,1,10,0:2:0:0:
342,183,172446,1,0,1:2:0:0:
114,171,172629,5,2,1:0:0:0:
317,63,172812,1,2,1:0:0:0:
185,277,172995,1,2,1:0:0:0:
273,261,173544,5,0,1:0:0:0:
273,261,173635,1,0,1:0:0:0:
273,261,173727,1,8,1:0:0:0:
273,261,174092,6,0,B|325:283|392:249|425:178|359:80|255:77|225:170|262:179|174:222|105:154,1,431.999986816407,4|2,0:1|0:0,0:0:0:0:
73,92,175373,6,0,B|104:136|97:206|72:189|48:243|86:316,1,215.999993408203,4|0,0:0|0:0,0:0:0:0:
160,328,176105,5,8,0:3:0:0:
177,332,176196,1,8,0:3:0:0:
194,336,176288,1,8,0:3:0:0:
277,355,176470,1,4,0:3:0:0:
334,292,176653,1,4,0:3:0:0:
307,211,176836,1,4,0:3:0:0:
175,213,177019,6,0,B|239:244|323:213|286:204|316:111|423:120|486:212|448:283|386:317|330:290,1,431.999986816407,4|2,0:1|0:0,0:0:0:0:
259,219,178300,6,0,B|242:190|249:143|258:154|270:123|251:76,1,143.999995605469,4|0,0:0|1:0,0:0:0:0:
187,20,178849,1,8,0:0:0:0:
116,155,179031,6,0,B|145:138|192:145|181:154|212:166|259:147,1,143.999995605469,4|0,0:0|1:0,0:0:0:0:
340,94,179580,1,8,0:0:0:0:
417,157,179763,1,0,1:0:0:0:
508,49,179946,5,4,1:0:0:0:
440,238,180312,1,2,0:0:0:0:
345,203,180495,2,0,B|303:188|265:201|265:201,1,71.9999978027344,2|8,0:0|0:0,0:0:0:0:
231,290,180861,2,0,B|273:305|311:292|311:292,1,71.9999978027344,2|0,0:0|0:0,0:0:0:0:
185,211,181227,6,0,B|147:228|123:294|154:341,1,143.999995605469,2|0,1:2|1:0,0:0:0:0:
231,290,181775,1,2,0:0:0:0:
157,102,182141,2,0,B|115:87|77:100|77:100,1,71.9999978027344,8|0,0:0|1:0,0:0:0:0:
114,206,182507,2,0,B|156:221|194:208|194:208,1,71.9999978027344,2|0,0:0|1:0,0:0:0:0:
206,197,182781,1,0,1:0:0:0:
227,183,182873,6,0,B|269:168|307:181|307:181,1,71.9999978027344,4|0,1:2|0:0,0:0:0:0:
377,241,183239,1,2,0:0:0:0:
462,185,183422,2,0,B|477:143|464:105|464:105,1,71.9999978027344,2|8,1:2|0:0,0:0:0:0:
386,51,183788,2,0,B|344:66|306:53|306:53,1,71.9999978027344,2|8,1:2|0:0,0:0:0:0:
158,16,184153,1,4,0:0:0:0:
158,16,184885,5,8,0:0:0:0:
76,97,185068,2,0,B|61:139|74:177|74:177,1,71.9999978027344,4|8,0:0|0:0,0:0:0:0:
81,202,185342,1,0,1:0:0:0:
107,226,185434,1,8,1:3:0:0:
141,234,185525,1,8,1:3:0:0:
176,227,185617,1,4,1:3:0:0:
203,204,185708,1,4,1:3:0:0:
223,174,185800,6,0,B|298:165|281:198|369:180,1,132.00000402832,4|0,1:0|0:0,0:0:0:0:
340,200,186166,2,0,B|326:249|343:296|343:296,1,88.000002685547,8|0,0:0|0:0,0:0:0:0:
456,366,186531,2,0,B|414:319|340:309|282:367,1,176.000005371094,2|8,1:2|0:0,0:0:0:0:
106,348,187080,6,0,B|165:367|234:339|256:260,1,176.000005371094,4|0,1:2|1:0,0:0:0:0:
265,138,187629,1,8,0:0:0:0:
7,252,187995,1,0,1:0:0:0:
7,252,188177,1,0,1:0:0:0:
148,249,188361,1,8,0:0:0:0:
74,129,188544,1,2,0:0:0:0:
75,294,188726,6,0,B|98:332|151:347|192:323,1,132.00000402832,4|0,1:2|0:0,0:0:0:0:
191,323,189092,1,8,0:0:0:0:
286,219,189275,1,0,0:0:0:0:
153,252,189458,1,2,1:2:0:0:
153,252,189641,1,0,1:2:0:0:
248,148,189825,1,8,0:0:0:0:
87,74,190007,6,0,B|112:103|168:102|221:76|236:27,1,176.000005371094,4|0,1:2|1:0,0:0:0:0:
369,76,190555,1,8,0:0:0:0:
248,148,190739,2,0,B|237:177|240:211|255:232,1,88.000002685547,4|0,0:0|0:0,0:0:0:0:
284,259,191013,1,8,0:0:0:0:
322,267,191104,1,0,1:0:0:0:
216,344,191287,1,8,1:2:0:0:
172,337,191378,1,0,1:2:0:0:
128,330,191470,1,2,1:2:0:0:
84,323,191562,1,0,1:2:0:0:
40,316,191653,6,0,B|32:245|58:254|42:182,1,132.00000402832,4|0,1:0|0:0,0:0:0:0:
42,185,192018,1,8,0:0:0:0:
37,43,192202,2,0,B|54:66|81:81|110:86,1,88.000002685547,2|0,0:0|1:0,0:0:0:0:
252,84,192568,2,0,B|280:79|308:64|325:40,1,88.000002685547,2|8,1:2|0:0,0:0:0:0:
488,111,192934,6,0,B|390:151|421:263,1,176.000005371094,4|0,1:2|1:2,0:0:0:0:
345,373,193483,2,0,B|331:353|295:335|266:338,1,88.000002685547,8|0,0:0|0:0,0:0:0:0:
131,297,193849,2,0,B|159:300|195:281|209:262,1,88.000002685547,8|0,1:2|1:0,0:0:0:0:
264,133,194214,1,8,0:0:0:0:
159,40,194397,1,8,0:3:0:0:
141,38,194488,1,8,0:3:0:0:
123,36,194580,6,0,B|64:14|2:34|2:34,1,103.999995239258,12|0,1:2|0:0,0:0:0:0:
0,232,194945,1,10,0:0:0:0:
124,137,195129,1,0,1:0:0:0:
97,322,195312,1,10,0:0:0:0:
141,141,195495,1,0,1:0:0:0:
229,315,195677,1,8,0:0:0:0:
158,145,195861,1,0,1:0:0:0:
141,141,195952,1,0,1:0:0:0:
124,137,196044,6,0,B|91:123|57:123|73:136|20:155|-32:126|-31:67,1,176.000005371094,4|0,1:0|0:0,0:0:0:0:
123,36,196592,1,0,1:0:0:0:
140,40,196683,1,0,1:0:0:0:
157,44,196775,2,0,B|190:58|224:58|208:45|261:26|313:55|312:114,1,176.000005371094,4|8,1:2|0:3,0:0:0:0:
305,129,197233,1,8,0:3:0:0:
301,165,197324,1,4,0:3:0:0:
297,201,197416,1,4,0:3:0:0:
293,237,197507,5,4,1:0:0:0:
256,192,197599,12,8,200068,0:1:0:0:
329,94,200434,5,6,0:0:0:0:
