osu file format v14

[General]
AudioFilename: audio.mp3
AudioLeadIn: 0
PreviewTime: 51166
Countdown: 0
SampleSet: Soft
StackLeniency: 0.7
Mode: 0
LetterboxInBreaks: 0
WidescreenStoryboard: 1

[Editor]
Bookmarks: 185800
DistanceSpacing: 1
BeatDivisor: 4
GridSize: 16
TimelineZoom: 1.4

[Metadata]
Title:MIND READER
TitleUnicode:MIND READER
Artist:SYNC.ART'S
ArtistUnicode:SYNC.ART'S
Creator:Lasse
Version:Easy
Source:東方地霊殿 ~ Subterranean Animism.
Tags:touhou 仲村 芽衣子 meiko nakamura 美里 misato シークレットリンケージ -Secret Linkage- c91 少女さとり ~ 3rd eye Satori Komeiji ZUN
BeatmapID:1210886
BeatmapSetID:569335

[Difficulty]
HPDrainRate:3
CircleSize:3
OverallDifficulty:3
ApproachRate:3
SliderMultiplier:1
SliderTickRate:1

[Events]
//Background and Video events
0,0,"bg.jpg",0,0
//Break Periods
2,77341,87774
2,152341,153628
2,155268,156555
//Storyboard Layer 0 (Background)
//Storyboard Layer 1 (Fail)
//Storyboard Layer 2 (Pass)
//Storyboard Layer 3 (Foreground)
//Storyboard Sound Samples

[TimingPoints]
1410,365.853658536585,4,2,1,30,1,0
2507,-100,4,2,1,40,0,0
2873,-105.263157894737,4,2,1,50,0,0
8727,-105.263157894737,4,2,1,55,0,0
14580,-105.263157894737,4,2,1,50,0,0
14855,-105.263157894737,4,2,1,5,0,0
14946,-105.263157894737,4,2,1,50,0,0
26288,-105.263157894737,4,2,1,55,0,0
37995,-111.111111111111,4,2,1,50,0,0
43849,-105.263157894737,4,2,1,55,0,0
48056,-105.263157894737,4,2,1,60,0,0
51166,-100,4,2,1,70,0,1
51440,-100,4,2,2,5,0,1
51531,-100,4,2,1,70,0,1
54367,-100,4,2,2,5,0,1
54458,-100,4,2,1,70,0,1
57294,-100,4,2,2,5,0,1
57385,-100,4,2,1,70,0,1
59855,-100,4,2,2,5,0,1
59946,-100,4,2,1,70,0,1
60220,-100,4,2,2,5,0,1
60311,-100,4,2,1,70,0,1
62324,-100,4,2,1,70,0,0
62873,-100,4,2,1,70,0,1
63147,-100,4,2,2,5,0,1
63239,-100,4,2,1,70,0,1
66074,-100,4,2,2,5,0,1
66166,-100,4,2,1,70,0,1
69001,-100,4,2,2,5,0,1
69092,-100,4,2,1,70,0,1
71653,-100,4,2,1,75,0,1
73117,-100,4,2,1,70,0,1
73849,-100,4,2,1,65,0,1
74580,-105.263157894737,4,2,1,60,0,0
77507,-105.263157894737,4,2,1,50,0,0
89214,-105.263157894737,4,2,1,50,0,0
89489,-105.263157894737,4,2,1,5,0,0
89580,-105.263157894737,4,2,1,50,0,0
100922,-105.263157894737,4,2,1,55,0,0
112629,-111.111111111111,4,2,1,50,0,0
118483,-105.263157894737,4,2,1,55,0,0
122690,-105.263157894737,4,2,1,60,0,0
125800,-100,4,2,1,70,0,1
126074,-100,4,2,2,5,0,1
126165,-100,4,2,1,70,0,1
129001,-100,4,2,2,5,0,1
129092,-100,4,2,1,70,0,1
131928,-100,4,2,2,5,0,1
132019,-100,4,2,1,70,0,1
134489,-100,4,2,2,5,0,1
134580,-100,4,2,1,70,0,1
134855,-100,4,2,2,5,0,1
134946,-100,4,2,1,70,0,1
136958,-100,4,2,1,70,0,0
137507,-100,4,2,1,70,0,1
137781,-100,4,2,2,5,0,1
137873,-100,4,2,1,70,0,1
140708,-100,4,2,2,5,0,1
140800,-100,4,2,1,70,0,1
143635,-100,4,2,2,5,0,1
143726,-100,4,2,1,70,0,1
146288,-100,4,2,1,75,0,1
147751,-100,4,2,1,70,0,1
148483,-100,4,2,1,65,0,1
149214,-105.263157894737,4,2,1,60,0,0
160922,-100,4,2,1,67,0,1
172995,-100,4,2,1,62,0,0
173727,-100,4,2,1,67,0,0
174092,-111.111111111111,4,2,1,70,0,1
174275,-111.111111111111,4,2,1,60,0,0
177019,-111.111111111111,4,2,1,65,0,0
177202,-111.111111111111,4,2,1,60,0,0
185800,-100,4,2,1,70,0,1
186074,-100,4,2,2,5,0,1
186166,-100,4,2,1,70,0,1
189001,-100,4,2,2,5,0,1
189093,-100,4,2,1,70,0,1
191928,-100,4,2,2,5,0,1
192019,-100,4,2,1,70,0,1
194580,-100,4,2,1,75,0,1
196043,-100,4,2,1,70,0,1
196776,-100,4,2,1,65,0,1
197507,-105.263157894737,4,2,1,60,0,0
200434,-105.263157894737,4,2,1,50,0,0

[Colours]
Combo1 : 250,190,230
Combo2 : 130,210,220
Combo3 : 250,140,140
Combo4 : 255,230,140

[HitObjects]
41,103,2873,6,0,B|133:45|218:109,1,189.999994926453,6|0,0:2|0:0,0:0:0:0:
285,176,3970,1,0,0:0:0:0:
352,243,4336,2,0,B|397:268|453:239,1,94.9999974632264,2|0,0:2|0:0,0:0:0:0:
489,160,5068,1,2,0:0:0:0:
339,43,5800,6,0,B|294:18|238:47,1,94.9999974632264,4|0,0:1|0:0,0:0:0:0:
187,115,6531,2,0,B|162:161|187:206,1,94.9999974632264,2|0,0:0|0:0,0:0:0:0:
266,258,7263,1,2,0:0:0:0:
112,370,7995,2,0,B|62:380|20:352,1,94.9999974632264,0|4,0:0|1:2,0:0:0:0:
15,258,8727,6,0,B|25:204|8:214|15:162,1,94.9999974632264,4|8,0:0|0:0,0:0:0:0:
81,96,9458,2,0,B|131:70|182:104,1,94.9999974632264,2|8,0:0|0:0,0:0:0:0:
239,165,10190,2,0,B|245:215|228:205|238:259,2,94.9999974632264,2|8|2,0:0|0:0|0:0,0:0:0:0:
263,72,11288,1,8,0:0:0:0:
356,96,11653,6,0,B|406:102|396:85|450:95,1,94.9999974632264,4|8,0:0|0:0,0:0:0:0:
507,172,12385,1,2,0:0:0:0:
492,266,12751,1,10,0:0:0:0:
414,321,13117,2,0,B|394:352|351:357|311:349|288:323,2,142.49999619484,2|2|8,0:0|1:2|1:0,0:0:0:0:
353,248,14580,6,0,B|333:206|359:152,2,94.9999974632264,6|0|0,0:0|0:0|0:0,0:0:0:0:
414,321,15678,1,0,0:0:0:0:
475,248,16044,2,0,B|495:206|470:156,1,94.9999974632264,2|0,0:0|0:0,0:0:0:0:
418,77,16775,1,2,0:0:0:0:
228,88,17507,6,0,B|177:93|176:67|117:77,1,94.9999974632264,2|0,0:0|0:0,0:0:0:0:
69,144,18239,2,0,B|64:195|90:196|82:237,1,94.9999974632264,2|0,0:0|0:0,0:0:0:0:
132,317,18970,2,0,B|204:336|199:294|274:312,2,142.49999619484,2|0|0,0:0|0:0|1:0,0:0:0:0:
82,236,20434,6,0,B|70:195|96:192|86:141,2,94.9999974632264,6|0|2,0:0|0:0|0:0,0:0:0:0:
176,225,21531,1,0,0:0:0:0:
270,214,21897,2,0,B|319:198|376:226,1,94.9999974632264,2|0,0:0|2:0,0:0:0:0:
310,299,22629,1,2,2:2:0:0:
212,135,23361,6,0,B|196:86|218:42,1,94.9999974632264,4|0,1:1|1:0,0:0:0:0:
312,48,24092,2,0,B|362:55|351:33|406:42,1,94.9999974632264,0|0,1:0|1:0,0:0:0:0:
475,106,24824,2,0,B|513:172|477:254,2,142.49999619484,4|2|8,0:0|0:0|1:1,0:0:0:0:
405,41,26288,6,0,B|355:34|366:56|311:47,2,94.9999974632264,6|8|2,0:0|0:0|0:0,0:0:0:0:
395,135,27385,1,8,0:0:0:0:
385,229,27751,2,0,B|378:279|400:268|391:323,1,94.9999974632264,2|8,0:0|0:0,0:0:0:0:
299,347,28483,2,0,B|254:326|202:335,1,94.9999974632264,2|8,1:2|0:0,0:0:0:0:
113,352,29214,6,0,B|65:360|20:339,1,94.9999974632264,2|8,0:0|0:0,0:0:0:0:
51,249,29946,2,0,B|98:240|143:261,1,94.9999974632264,2|8,0:0|0:0,0:0:0:0:
206,334,30678,1,2,0:0:0:0:
383,267,31409,2,0,B|404:222|395:174,1,94.9999974632264,2|8,1:2|0:0,0:0:0:0:
334,101,32141,6,0,B|325:46|347:57|340:7,2,94.9999974632264,6|8|2,0:0|0:0|0:0,0:0:0:0:
299,189,33239,1,8,0:0:0:0:
211,154,33605,2,0,B|156:145|167:167|117:160,1,94.9999974632264,2|8,0:0|0:0,0:0:0:0:
37,108,34336,2,0,B|16:63|38:15,1,94.9999974632264,2|8,1:2|0:0,0:0:0:0:
119,64,35068,6,0,B|164:84|212:63,1,94.9999974632264,4|8,1:2|0:0,0:0:0:0:
300,29,35800,2,0,B|346:7|391:28,1,94.9999974632264,0|8,1:0|0:0,0:0:0:0:
396,123,36531,2,0,B|349:144|304:123,2,94.9999974632264,4|8|0,1:0|1:2|1:0,0:0:0:0:
475,71,37629,1,8,1:0:0:0:
480,165,37995,5,4,1:2:0:0:
213,349,39458,1,0,1:0:0:0:
187,25,40922,1,4,1:2:0:0:
480,165,42385,1,0,1:0:0:0:
213,349,43849,6,0,B|120:392|29:343,1,189.999994926453,4|2,1:2|1:2,0:0:0:0:
30,153,45312,2,0,B|119:104|212:147,1,189.999994926453,2|2,1:2|1:2,0:0:0:0:
279,214,46409,1,10,1:2:0:0:
346,146,46775,1,4,1:2:0:0:
191,35,47507,6,0,B|141:13|92:61|47:32,2,142.49999619484,0|4|8,1:2|1:0|0:1,0:0:0:0:
273,81,48970,1,8,0:1:0:0:
353,32,49336,1,8,0:1:0:0:
435,76,49702,2,0,B|457:122|435:186,1,94.9999974632264,2|2,1:0|1:0,0:0:0:0:
139,168,51166,6,0,B|113:124|137:73,1,100,4|8,1:1|0:0,0:0:0:0:
224,121,51897,2,0,B|262:142|298:123|287:115|328:109|367:130,2,150,2|6|8,1:2|1:2|0:0,0:0:0:0:
43,34,53727,1,8,0:0:0:0:
84,124,54092,6,0,B|110:168|86:219,1,100,4|8,1:2|0:0,0:0:0:0:
37,307,54824,2,0,B|114:289|182:332,1,150,2|4,1:2|1:2,0:0:0:0:
367,258,56105,2,0,B|290:276|222:233,1,150,6|8,1:2|1:2,0:0:0:0:
233,134,57019,6,0,B|310:116|376:158,1,150,4|2,1:0|0:0,0:0:0:0:
458,216,57934,1,2,1:2:0:0:
449,316,58300,2,0,B|384:344|364:291|289:311,1,150,4|8,1:2|0:0,0:0:0:0:
215,358,59214,1,2,1:2:0:0:
129,308,59580,1,8,0:0:0:0:
130,209,59946,6,0,B|167:206|200:226|176:237|243:252|283:227,1,150,4|2,1:2|0:0,0:0:0:0:
332,151,60861,1,2,1:2:0:0:
239,115,61227,1,4,1:2:0:0:
43,156,61958,2,0,B|-7:225|40:303,1,150,0|8,1:2|1:3,0:0:0:0:
129,335,62873,6,0,B|180:314|243:346,1,100,4|8,1:0|0:0,0:0:0:0:
326,362,63605,2,0,B|407:388|488:335,2,150,2|4|8,1:2|1:2|0:0,0:0:0:0:
187,217,65434,1,8,0:0:0:0:
230,127,65800,6,0,B|280:104|336:132,1,100,4|8,1:2|0:0,0:0:0:0:
397,199,66531,2,0,B|379:249|437:294|402:354,1,150,2|4,1:2|1:2,0:0:0:0:
210,305,67812,2,0,B|160:287|115:345|55:310,1,150,4|8,0:0|1:2,0:0:0:0:
97,219,68727,6,0,B|115:169|57:124|92:64,1,150,4|2,1:0|0:0,0:0:0:0:
158,2,69641,1,2,1:2:0:0:
228,72,70007,2,0,B|258:123|200:168|218:216,1,150,4|8,1:2|0:0,0:0:0:0:
288,287,70922,1,8,1:2:0:0:
388,287,71288,1,8,0:0:0:0:
458,216,71653,6,0,B|481:169|458:119,2,100,12|10|10,1:2|0:0|0:0,0:0:0:0:
370,166,72751,1,8,0:0:0:0:
271,192,73117,1,4,1:0:0:0:
139,40,73849,1,4,1:2:0:0:
256,192,74580,12,4,77141,1:0:0:0:
179,67,89214,6,0,B|134:41|89:67,2,94.9999974632264,6|0|0,0:0|0:0|0:0,0:0:0:0:
246,134,90312,1,0,0:0:0:0:
313,201,90678,2,0,B|358:227|402:200,1,94.9999974632264,2|0,0:0|0:0,0:0:0:0:
357,116,91409,1,2,0:0:0:0:
179,67,92141,6,0,B|134:41|89:67,1,94.9999974632264,2|0,0:0|0:0,0:0:0:0:
136,150,92873,2,0,B|131:201|157:202|149:243,1,94.9999974632264,2|0,0:0|0:0,0:0:0:0:
205,319,93605,2,0,B|277:300|272:342|344:324,2,142.49999619484,2|0|0,0:0|0:0|1:0,0:0:0:0:
110,329,95068,6,0,B|69:341|66:315|16:324,2,94.9999974632264,6|0|2,0:0|0:0|0:0,0:0:0:0:
149,242,96166,1,0,0:0:0:0:
110,154,96531,2,0,B|60:144|57:170|16:158,1,94.9999974632264,2|0,0:0|2:0,0:0:0:0:
23,63,97263,1,2,2:2:0:0:
208,23,97995,6,0,B|252:15|301:29,1,94.9999974632264,4|0,1:1|1:0,0:0:0:0:
369,96,98727,2,0,B|377:140|363:189,1,94.9999974632264,0|0,1:0|1:0,0:0:0:0:
295,257,99458,2,0,B|229:295|156:251,2,142.49999619484,4|2|8,0:0|0:0|1:1,0:0:0:0:
362,189,100922,6,0,B|412:182|401:204|456:195,2,94.9999974632264,6|8|2,0:0|0:0|0:0,0:0:0:0:
294,121,102019,1,8,0:0:0:0:
226,53,102385,2,0,B|176:24|136:50,1,94.9999974632264,2|8,0:0|0:0,0:0:0:0:
68,117,103117,2,0,B|39:166|65:206,1,94.9999974632264,2|8,1:2|0:0,0:0:0:0:
132,274,103849,6,0,B|172:248|221:276,1,94.9999974632264,2|8,0:0|0:0,0:0:0:0:
289,343,104580,2,0,B|338:371|378:345,1,94.9999974632264,2|8,0:0|0:0,0:0:0:0:
446,278,105312,1,2,0:0:0:0:
311,143,106044,2,0,B|261:114|221:140,1,94.9999974632264,2|8,1:2|0:0,0:0:0:0:
153,207,106775,6,0,B|144:262|166:251|159:301,2,94.9999974632264,6|8|2,0:0|0:0|0:0,0:0:0:0:
129,115,107873,1,8,0:0:0:0:
197,48,108239,2,0,B|252:39|241:61|291:54,1,94.9999974632264,2|8,0:0|0:0,0:0:0:0:
382,30,108970,2,0,B|437:21|426:43|476:36,1,94.9999974632264,2|8,1:2|0:0,0:0:0:0:
485,130,109702,6,0,B|460:176|475:225,1,94.9999974632264,4|8,1:2|0:0,0:0:0:0:
489,315,110434,2,0,B|443:290|394:305,1,94.9999974632264,0|8,1:0|0:0,0:0:0:0:
307,337,111166,2,0,B|261:351|215:326,2,94.9999974632264,4|8|0,1:0|1:2|1:0,0:0:0:0:
324,243,112263,1,8,1:0:0:0:
269,164,112629,5,4,1:2:0:0:
13,363,114092,1,0,1:0:0:0:
103,52,115556,1,4,1:2:0:0:
212,356,117019,1,0,1:0:0:0:
421,110,118483,6,0,B|320:91|338:152|230:133,1,189.999994926453,4|2,1:2|1:2,0:0:0:0:
89,254,119946,2,0,B|190:235|172:296|280:277,1,189.999994926453,2|2,1:2|1:2,0:0:0:0:
326,198,121044,1,10,1:2:0:0:
242,156,121409,1,4,1:2:0:0:
366,12,122141,6,0,B|450:-6|427:39|505:22,2,142.49999619484,0|4|8,1:2|1:0|0:1,0:0:0:0:
296,76,123605,1,8,0:1:0:0:
205,47,123970,1,8,0:1:0:0:
134,111,124336,2,0,B|109:159|136:212,1,94.9999974632264,2|2,1:0|1:0,0:0:0:0:
395,346,125800,6,0,B|420:298|396:244,1,100,4|8,1:1|0:0,0:0:0:0:
309,295,126531,2,0,B|267:302|235:287|247:281|205:268|158:288,2,150,2|6|8,1:2|1:2|0:0,0:0:0:0:
434,138,128361,1,8,0:0:0:0:
363,67,128727,6,0,B|313:38|264:58,1,100,4|8,1:2|0:0,0:0:0:0:
182,110,129458,2,0,B|140:117|108:102|120:96|78:83|31:103,1,150,2|4,1:2|1:2,0:0:0:0:
35,302,130739,2,0,B|76:309|108:294|96:288|138:275|185:295,1,150,6|8,1:2|1:2,0:0:0:0:
273,332,131653,6,0,B|346:365|424:330,1,150,4|2,1:0|0:0,0:0:0:0:
489,261,132568,1,2,1:2:0:0:
418,190,132934,2,0,B|345:157|272:189,1,150,4|8,1:2|0:0,0:0:0:0:
201,260,133849,1,2,1:2:0:0:
101,260,134214,1,8,0:0:0:0:
30,189,134580,6,0,B|-18:113|43:43,1,150,4|2,1:2|0:0,0:0:0:0:
132,19,135495,1,2,1:2:0:0:
205,85,135861,1,4,1:2:0:0:
240,281,136592,2,0,B|302:336|377:288,1,150,0|8,1:2|1:3,0:0:0:0:
448,217,137507,6,0,B|439:167|463:165|446:102,1,100,4|8,1:0|0:0,0:0:0:0:
378,46,138239,2,0,B|315:-9|240:38,2,150,2|4|8,1:2|1:2|0:0,0:0:0:0:
304,232,140068,1,8,0:0:0:0:
225,170,140434,6,0,B|173:158|173:181|116:170,1,100,4|8,1:2|0:0,0:0:0:0:
94,76,141166,2,0,B|177:51|165:93|245:73,1,150,2|4,1:2|1:2,0:0:0:0:
434,19,142446,2,0,B|453:95|411:83|436:166,1,150,4|8,0:0|1:2,0:0:0:0:
457,263,143361,6,0,B|382:222|314:262,1,150,4|2,1:0|0:0,0:0:0:0:
256,344,144275,1,2,1:2:0:0:
197,262,144641,2,0,B|182:189|219:193|197:110,1,150,4|8,1:2|0:0,0:0:0:0:
153,24,145556,1,8,1:2:0:0:
52,24,145922,1,8,0:0:0:0:
0,109,146288,6,0,B|-23:156|-4:211,2,100,12|10|10,1:2|0:0|0:0,0:0:0:0:
99,97,147385,1,8,0:0:0:0:
198,114,147751,1,4,1:0:0:0:
256,305,148483,1,4,1:2:0:0:
256,192,149214,12,4,152141,1:0:0:0:
203,138,155068,5,4,0:0:0:0:
203,246,157995,5,4,0:0:0:0:
483,141,159275,1,2,0:1:0:0:
296,36,160189,1,2,1:2:0:0:
162,185,160922,6,0,B|108:197|116:172|63:179,1,100,4|8,0:0|0:0,0:0:0:0:
0,256,161653,1,2,0:0:0:0:
36,350,162019,1,10,0:2:0:0:
99,272,162385,2,0,B|153:260|145:285|197:277,2,100,2|10|2,0:1|0:2|0:1,0:0:0:0:
0,256,163483,1,10,0:0:0:0:
63,179,163849,6,0,B|90:121|57:65,1,100,6|10,0:0|0:0,0:0:0:0:
256,22,164946,1,10,0:0:0:0:
338,78,165312,2,0,B|384:102|433:80,1,100,2|10,0:1|0:0,0:0:0:0:
501,154,166044,2,0,B|476:200|498:249,1,100,2|10,0:1|0:0,0:0:0:0:
460,342,166775,6,0,B|411:364|364:339,2,100,6|10|2,0:1|0:0|0:1,0:0:0:0:
414,252,167873,1,10,0:0:0:0:
343,181,168239,2,0,B|296:156|247:178,1,100,2|10,0:1|0:0,0:0:0:0:
175,249,168970,1,2,0:1:0:0:
2,147,169702,6,0,B|-24:96|5:41,1,100,6|10,0:1|0:0,0:0:0:0:
88,98,170434,2,0,B|149:77|181:122|246:97,2,150,2|6|10,0:1|0:0|0:2,0:0:0:0:
122,191,171897,1,10,0:2:0:0:
156,284,172263,1,10,0:2:0:0:
249,250,172629,2,0,B|288:237|300:265|355:247,1,100,2|2,1:0|1:0,0:0:0:0:
493,89,174092,6,0,B|417:49|326:77|362:119|262:161|180:97,1,314.999990386963,4|4,0:1|0:0,0:0:0:0:
19,295,177019,6,0,B|95:335|186:307|150:265|250:223|332:287,1,314.999990386963,4|4,0:1|0:0,0:0:0:0:
466,375,179031,1,4,0:0:0:0:
400,159,179946,6,0,B|326:133|328:176|253:151,1,134.999995880127,4|2,1:0|0:0,0:0:0:0:
203,91,180861,1,2,0:0:0:0:
139,154,181227,2,0,B|103:215|134:286,1,134.999995880127,2|2,1:2|0:0,0:0:0:0:
191,351,182141,1,8,0:0:0:0:
280,334,182507,1,2,0:0:0:0:
309,248,182873,6,0,B|386:234|372:273|455:253,1,134.999995880127,4|2,1:2|1:2,0:0:0:0:
485,176,183788,1,2,1:2:0:0:
439,99,184153,1,4,0:0:0:0:
271,165,184885,2,0,B|201:182|215:143|138:157,1,134.999995880127,8|8,0:0|1:3,0:0:0:0:
67,227,185800,6,0,B|42:279|61:324,1,100,4|8,1:0|0:0,0:0:0:0:
152,281,186532,2,0,B|230:268|223:304|315:292,2,150,2|4|8,1:2|1:2|0:0,0:0:0:0:
32,120,188361,1,8,0:0:0:0:
102,49,188727,6,0,B|152:25|205:54,1,100,4|8,1:2|0:0,0:0:0:0:
284,100,189458,2,0,B|351:110|359:74|439:95,1,150,2|4,1:2|1:2,0:0:0:0:
432,293,190739,2,0,B|358:312|350:276|283:286,1,150,4|8,0:0|1:2,0:0:0:0:
212,356,191654,6,0,B|159:291|212:209,1,150,4|2,1:0|0:0,0:0:0:0:
263,133,192568,1,2,1:2:0:0:
349,182,192934,2,0,B|414:235|496:182,1,150,4|8,1:2|0:0,0:0:0:0:
512,86,193849,1,8,1:2:0:0:
425,33,194214,1,8,0:0:0:0:
335,77,194580,6,0,B|297:78|282:50|237:60,2,100,12|10|10,1:2|0:0|0:0,0:0:0:0:
424,123,195678,1,8,0:0:0:0:
424,223,196044,1,4,1:0:0:0:
256,332,196776,1,4,1:2:0:0:
256,192,197507,12,4,200068,1:0:0:0:
