osu file format v14

[General]
AudioFilename: audio.mp3
AudioLeadIn: 0
PreviewTime: 659
Countdown: 0
SampleSet: Soft
StackLeniency: 0.7
Mode: 0
LetterboxInBreaks: 0
WidescreenStoryboard: 1

[Editor]
Bookmarks: 16930,33202,49473,65473,81472,81473,97410,112770,128130,143490,174210,189570,204930,212808
DistanceSpacing: 1.25
BeatDivisor: 8
GridSize: 8
TimelineZoom: 1

[Metadata]
Title:Graveyard in lake
TitleUnicode:Graveyard in lake
Artist:SYNC.ART'S
ArtistUnicode:SYNC.ART'S
Creator:Halfslashed
Version:Hard
Source:東方風神録 ~ Mountain of Faith.
Tags:touhou fuujinroku sanae kochiya 東風谷 早苗 th10 mof 御柱の墓場 cemetery of onbashira ~ grave being c73 五条下位 gojou kai chaos Mirash
BeatmapID:1514444
BeatmapSetID:712848

[Difficulty]
HPDrainRate:4
CircleSize:3
OverallDifficulty:5
ApproachRate:6
SliderMultiplier:1.63
SliderTickRate:1

[Events]
//Background and Video events
0,0,"sanae bg.jpg",0,0
//Break Periods
2,97628,110868
//Storyboard Layer 0 (Background)
//Storyboard Layer 1 (Fail)
//Storyboard Layer 2 (Pass)
//Storyboard Layer 3 (Foreground)
//Storyboard Sound Samples

[TimingPoints]
659,508.474576271186,4,2,1,30,1,0
16930,-133.333333333333,4,2,1,30,0,0
18201,-133.333333333333,4,2,1,30,0,0
19472,-133.333333333333,4,2,1,30,0,0
20870,-133.333333333333,4,2,1,5,0,0
20997,-133.333333333333,4,2,1,30,0,0
22269,-133.333333333333,4,2,1,30,0,0
25065,-133.333333333333,4,2,1,30,0,0
25574,-133.333333333333,4,2,1,30,0,0
27099,-133.333333333333,4,2,1,30,0,0
28243,-133.333333333333,4,2,1,5,0,0
28370,-133.333333333333,4,2,1,30,0,0
28625,-133.333333333333,4,2,1,30,0,0
29642,-133.333333333333,4,2,1,30,0,0
30404,-133.333333333333,4,2,1,30,0,0
33201,-125,4,2,1,40,0,0
48964,514.579759862779,4,2,1,40,1,0
49478,500,4,2,1,40,1,0
49478,-125,4,2,1,40,0,0
54165,-125,4,2,1,5,0,0
54228,-125,4,2,1,40,0,0
54353,-125,4,2,1,5,0,0
54478,-125,4,2,1,40,0,0
55165,-125,4,2,1,5,0,0
55228,-125,4,2,1,40,0,0
55353,-125,4,2,1,5,0,0
55478,-125,4,2,1,40,0,0
56978,-125,4,2,1,40,0,0
57353,-125,4,2,1,5,0,0
57478,-125,4,2,1,45,0,0
59103,-125,4,2,1,5,0,0
59228,-125,4,2,1,45,0,0
59353,-125,4,2,1,5,0,0
59478,-125,4,2,1,45,0,0
60853,-125,4,2,1,5,0,0
60978,-125,4,2,1,45,0,0
61353,-125,4,2,1,5,0,0
61478,-125,4,2,1,45,0,0
61790,-125,4,2,1,5,0,0
61853,-125,4,2,1,45,0,0
62165,-125,4,2,1,5,0,0
62228,-125,4,2,1,45,0,0
62353,-125,4,2,1,5,0,0
62478,-125,4,2,1,45,0,0
62790,-125,4,2,1,5,0,0
62853,-125,4,2,1,45,0,0
63165,-125,4,2,1,5,0,0
63228,-125,4,2,1,45,0,0
63353,-125,4,2,1,5,0,0
63478,-125,4,2,1,45,0,0
64478,-125,4,2,1,45,0,0
64540,-125,4,2,0,25,0,0
64665,-125,4,2,1,30,0,0
64790,-125,4,2,0,40,0,0
64915,-125,4,2,1,45,0,0
65040,-125,4,2,0,50,0,0
65165,-125,4,2,1,55,0,0
65290,-125,4,2,0,65,0,0
65353,-125,4,2,1,5,0,0
65478,-111.111111111111,4,2,1,70,0,1
65978,-111.111111111111,4,2,1,50,0,0
67353,-111.111111111111,4,2,1,5,0,0
67478,-111.111111111111,4,2,1,50,0,0
68165,-111.111111111111,4,2,1,5,0,0
68228,-111.111111111111,4,2,1,50,0,0
68415,-111.111111111111,4,2,1,5,0,0
68478,-111.111111111111,4,2,1,50,0,0
68978,-111.111111111111,4,2,1,50,0,0
69353,-111.111111111111,4,2,1,5,0,0
69478,-111.111111111111,4,2,1,50,0,0
71353,-111.111111111111,4,2,1,5,0,0
71478,-111.111111111111,4,2,1,50,0,0
72165,-111.111111111111,4,2,1,5,0,0
72228,-111.111111111111,4,2,1,50,0,0
72415,-111.111111111111,4,2,1,5,0,0
72478,-111.111111111111,4,2,1,50,0,0
76165,-111.111111111111,4,2,1,5,0,0
76228,-111.111111111111,4,2,1,50,0,0
76415,-111.111111111111,4,2,1,5,0,0
76478,-111.111111111111,4,2,1,50,0,0
76978,-111.111111111111,4,2,1,50,0,0
77478,-111.111111111111,4,2,1,50,0,0
80353,-111.111111111111,4,2,1,5,0,0
80478,-111.111111111111,4,2,1,50,0,0
81478,-111.111111111111,4,2,1,70,0,1
81978,-111.111111111111,4,2,1,50,0,0
83353,-111.111111111111,4,2,1,5,0,0
83478,-111.111111111111,4,2,1,50,0,0
84165,-111.111111111111,4,2,1,5,0,0
84228,-111.111111111111,4,2,1,50,0,0
84415,-111.111111111111,4,2,1,5,0,0
84478,-111.111111111111,4,2,1,50,0,0
84978,-111.111111111111,4,2,1,50,0,0
85353,-111.111111111111,4,2,1,5,0,0
85478,-111.111111111111,4,2,1,50,0,0
87353,-111.111111111111,4,2,1,5,0,0
87478,-111.111111111111,4,2,1,50,0,0
88165,-111.111111111111,4,2,1,5,0,0
88228,-111.111111111111,4,2,1,50,0,0
88415,-111.111111111111,4,2,1,5,0,0
88478,-111.111111111111,4,2,1,50,0,0
92165,-111.111111111111,4,2,1,5,0,0
92228,-111.111111111111,4,2,1,50,0,0
92415,-111.111111111111,4,2,1,5,0,0
92478,-111.111111111111,4,2,1,50,0,0
92978,-111.111111111111,4,2,1,50,0,0
93478,-111.111111111111,4,2,1,50,0,0
95478,504.201680672269,4,2,1,50,1,0
95730,606.060606060606,4,2,1,50,1,0
95881,580.411124546554,4,2,1,50,1,0
96461,483.870967741935,4,2,2,60,1,0
96702,472.44094488189,4,2,2,60,1,0
96938,490.79754601227,4,2,2,60,1,0
97428,480,4,2,2,60,1,0
97428,-100,4,2,2,60,0,0
112788,-100,4,2,2,65,0,0
127428,-100,4,2,0,65,0,0
127908,-100,4,2,2,65,0,0
128088,-100,4,2,2,5,0,0
128148,-100,4,2,2,70,0,0
131988,-100,4,2,3,70,0,0
132228,-100,4,2,2,70,0,0
132948,-100,4,2,3,70,0,0
133188,-100,4,2,2,70,0,0
133908,-100,4,2,3,70,0,0
134148,-100,4,2,2,70,0,0
135828,-100,4,2,2,75,0,0
139668,-100,4,2,3,75,0,0
139968,-100,4,2,2,5,0,0
140028,-100,4,2,2,75,0,0
140328,-100,4,2,2,5,0,0
140388,-100,4,2,2,75,0,0
140508,-100,4,2,2,5,0,0
140628,-100,4,2,3,75,0,0
140928,-100,4,2,2,5,0,0
140988,-100,4,2,2,75,0,0
141288,-100,4,2,2,5,0,0
141348,-100,4,2,2,75,0,0
141588,-100,4,2,3,75,0,0
141948,-100,4,2,2,75,0,0
142668,-100,4,2,2,45,0,0
142788,-100,4,2,2,55,0,0
142908,-100,4,2,2,65,0,0
143028,-100,4,2,2,75,0,0
143148,-100,4,2,2,70,0,0
143268,-100,4,2,2,60,0,0
143388,-100,4,2,2,45,0,0
143508,-83.3333333333333,4,2,2,85,0,1
146328,-83.3333333333333,4,2,2,5,0,1
146388,-83.3333333333333,4,2,2,85,0,1
146868,-83.3333333333333,4,2,2,85,0,1
154008,-83.3333333333333,4,2,2,5,0,1
154068,-83.3333333333333,4,2,2,85,0,1
154548,-83.3333333333333,4,2,2,85,0,1
158388,-83.3333333333333,4,2,2,85,0,0
158508,-83.3333333333333,4,2,2,80,0,0
158628,-83.3333333333333,4,2,2,70,0,0
158748,-83.3333333333333,4,2,2,55,0,0
158868,-83.3333333333333,4,2,2,85,0,1
161688,-83.3333333333333,4,2,2,5,0,1
161748,-83.3333333333333,4,2,2,85,0,1
162228,-83.3333333333333,4,2,2,85,0,1
169368,-83.3333333333333,4,2,2,5,0,1
169428,-83.3333333333333,4,2,2,85,0,1
169908,-83.3333333333333,4,2,2,85,0,1
172308,-83.3333333333333,4,2,3,85,0,1
172788,-83.3333333333333,4,2,3,20,0,1
172908,-83.3333333333333,4,2,2,5,0,1
173028,-83.3333333333333,4,2,2,85,0,1
173988,-83.3333333333333,4,2,2,70,0,0
174228,-83.3333333333333,4,2,1,85,0,1
174468,-100,4,2,2,65,0,0
175848,-100,4,2,2,5,0,0
175908,-100,4,2,2,65,0,0
177528,-100,4,2,2,5,0,0
177588,-100,4,2,2,65,0,0
179688,-100,4,2,2,5,0,0
179748,-100,4,2,2,65,0,0
180288,-100,4,2,2,5,0,0
180348,-100,4,2,2,65,0,0
180648,-100,4,2,2,5,0,0
180708,-100,4,2,2,65,0,0
189168,-100,4,2,2,55,0,0
189228,-100,4,2,2,45,0,0
189288,-100,4,2,2,35,0,0
189348,-100,4,2,2,65,0,0
189408,-100,4,2,2,25,0,0
189468,-100,4,2,2,65,0,0
189588,-100,4,2,2,70,0,0
192408,-100,4,2,2,5,0,0
192468,-100,4,2,2,70,0,0
197268,-100,4,2,2,75,0,0
203028,-100,4,2,3,85,0,1
203328,-100,4,2,2,5,0,1
203388,-100,4,2,3,85,0,1
203688,-100,4,2,2,5,0,1
203748,-100,4,2,3,85,0,1
203988,-100,4,2,3,90,0,1
204408,-100,4,2,2,5,0,1
204468,-100,4,2,2,80,0,0
204528,-100,4,2,2,70,0,0
204588,-100,4,2,2,60,0,0
204648,-100,4,2,2,50,0,0
204708,-100,4,2,2,40,0,0
204768,-100,4,2,2,30,0,0
204828,-100,4,2,2,20,0,0
204888,-100,4,2,2,10,0,0
204948,-111.111111111111,4,2,2,70,0,1
204949,-111.111111111111,4,2,0,60,0,1
205188,-111.111111111111,4,2,0,60,0,0
208788,-111.111111111111,4,2,2,60,0,0
209148,-111.111111111111,4,2,0,60,0,0
210468,-111.111111111111,4,2,0,60,0,0
210708,-111.111111111111,4,2,2,70,0,0
210709,-111.111111111111,4,2,0,70,0,0
211188,-111.111111111111,4,2,1,70,0,0
211788,-111.111111111111,4,2,0,65,0,0
211908,-111.111111111111,4,2,1,60,0,0
212028,-111.111111111111,4,2,0,55,0,0
212148,-111.111111111111,4,2,1,50,0,0
212268,-111.111111111111,4,2,0,45,0,0
212388,-111.111111111111,4,2,1,40,0,0
212508,-111.111111111111,4,2,0,35,0,0
212628,-111.111111111111,4,2,1,30,0,0
212748,-111.111111111111,4,2,0,25,0,0
212808,-111.111111111111,4,2,2,5,0,0

[Colours]
Combo1 : 121,97,192
Combo2 : 250,143,170
Combo3 : 240,213,162
Combo4 : 106,200,114

[HitObjects]
71,145,16930,5,0,1:0:0:0:
130,38,17438,2,0,P|176:21|237:59,1,122.250004663468,0|0,0:0|0:0,0:0:0:0:
231,110,18201,2,0,P|220:166|236:298,1,183.375006995201,0|0,0:0|0:0,0:0:0:0:
407,370,19472,2,0,P|444:338|442:266,1,122.250004663468,0|0,0:0|0:0,0:0:0:0:
403,234,20235,2,0,P|355:246|363:358,1,183.375006995201,0|0,0:0|1:0,0:0:0:0:
239,359,21506,6,0,P|193:376|132:338,1,122.250004663468,0|0,0:0|0:0,0:0:0:0:
149,287,22269,2,0,P|160:231|150:157,1,122.250004663468,0|2,0:0|0:0,0:0:0:0:
136,114,23031,2,0,L|206:102,1,61.1250023317338,2|0,0:1|0:0,0:0:0:0:
252,99,23540,1,2,0:0:0:0:
293,136,23794,2,0,L|424:156,2,122.250004663468,2|2|2,0:1|0:0|0:0,0:0:0:0:
250,170,25065,5,0,1:0:0:0:
273,290,25574,2,0,P|312:318|392:304,1,122.250004663468,2|0,0:0|0:0,0:0:0:0:
395,257,26336,2,0,P|355:228|275:242,1,122.250004663468,2|0,0:0|0:0,0:0:0:0:
237,265,27099,2,0,P|189:269|126:217,1,122.250004663468,2|0,0:0|0:0,0:0:0:0:
111,176,27862,2,0,P|106:128|158:65,1,122.250004663468,2|2,0:0|0:0,0:0:0:0:
193,103,28625,2,0,L|323:123,1,122.250004663468,2|0,0:0|1:0,0:0:0:0:
423,67,29642,6,0,P|375:59|328:-7,1,122.250004663468,0|0,0:0|0:0,0:0:0:0:
279,25,30404,2,0,P|223:36|159:36,1,122.250004663468,0|0,0:0|0:0,0:0:0:0:
121,77,31167,2,0,L|90:266,2,183.375006995201,2|2|2,0:1|0:1|0:1,0:0:0:0:
103,24,32947,1,2,0:0:0:0:
158,35,33201,6,0,P|224:61|263:120,1,130.4,2|0,0:0|3:0,0:0:0:0:
271,188,33964,1,2,0:0:0:0:
411,174,34472,2,0,L|426:92,1,65.2,0|2,3:0|0:0,0:0:0:0:
465,40,34981,1,0,3:0:0:0:
506,110,35235,2,0,P|480:176|421:215,1,130.4,2|0,0:0|0:0,0:0:0:0:
352,216,35997,1,2,0:0:0:0:
396,284,36252,2,0,P|354:316|292:321,2,97.8,2|2|2,0:0|0:0|3:2,0:0:0:0:
433,210,37269,6,0,P|424:138|377:86,1,130.4,2|0,0:0|0:0,0:0:0:0:
314,60,38031,1,0,3:0:0:0:
314,60,38540,1,0,3:0:0:0:
232,88,38794,2,0,L|150:73,1,65.2,0|0,0:0|3:0,0:0:0:0:
105,129,39303,2,0,L|23:144,2,65.2,2|0|0,0:1|0:0|0:0,0:0:0:0:
163,196,40065,1,2,0:1:0:0:
163,196,40574,1,0,3:0:0:0:
92,240,40828,2,0,L|77:322,1,65.2,2|0,0:1|0:0,0:0:0:0:
133,365,41336,6,0,P|203:375|266:343,1,130.4,2|0,0:0|3:0,0:0:0:0:
308,290,42099,1,2,0:0:0:0:
469,312,42608,2,0,L|454:230,1,65.2,0|2,3:0|0:2,0:0:0:0:
444,167,43116,1,0,3:0:0:0:
426,87,43370,6,0,P|355:76|292:108,1,130.4,2|0,0:0|0:0,0:0:0:0:
248,160,44133,1,2,0:0:0:0:
175,122,44387,2,0,P|167:69|127:22,2,97.8,2|2|2,0:0|0:0|3:2,0:0:0:0:
139,193,45404,6,0,P|128:263|160:326,1,130.4,2|0,0:0|3:0,0:0:0:0:
224,370,46167,1,0,3:0:0:0:
224,370,46675,1,0,3:0:0:0:
301,343,46930,2,0,L|383:358,1,65.2,0|2,3:0|0:0,0:0:0:0:
442,329,47438,2,0,L|427:247,1,65.2,2|0,0:1|3:0,0:0:0:0:
476,197,47947,2,0,L|486:146,2,32.6,2|0|2,0:0|0:0|0:1,0:0:0:0:
397,173,48455,2,0,L|315:188,2,65.2,0|0|2,0:0|3:0|0:1,0:0:0:0:
286,49,49478,6,0,P|252:33|74:147,1,260.8,2|0,0:3|0:0,0:0:0:0:
74,213,50728,2,0,L|9:190,2,65.2,0|2|0,3:0|0:0|0:0,0:0:0:0:
109,286,51478,2,0,P|165:241|216:47,1,260.8,2|0,0:0|0:0,0:0:0:0:
176,0,52728,1,0,3:0:0:0:
113,49,52978,2,0,L|135:113,1,65.2,2|0,0:0|0:0,0:0:0:0:
72,164,53478,6,0,P|40:113|36:55,2,97.8,2|2|0,0:0|0:0|3:0,0:0:0:0:
136,214,54478,2,0,P|187:189|202:130,2,97.8,2|2|0,0:0|0:0|3:0,0:0:0:0:
60,244,55478,2,0,P|64:297|197:338,2,195.6,2|2|2,0:1|0:1|0:1,0:0:0:0:
211,328,57478,6,0,P|274:305|467:323,1,260.8,2|0,0:3|0:0,0:0:0:0:
507,252,58728,1,2,0:0:0:0:
467,180,58978,2,0,L|403:158,1,65.2,2|2,0:0|0:0,0:0:0:0:
331,195,59478,2,0,P|245:279|104:356,1,260.8,2|0,0:0|0:0,0:0:0:0:
43,362,60728,1,2,0:0:0:0:
72,286,60978,2,0,L|50:222,1,65.2,2|0,0:0|0:0,0:0:0:0:
18,149,61478,6,0,P|15:75|25:26,2,97.8,2|2|2,0:0|0:0|0:0,0:0:0:0:
99,155,62478,2,0,P|164:120|201:87,1,97.8,2|2,0:0|0:0,0:0:0:0:
256,7,63228,1,2,0:0:0:0:
308,69,63478,2,0,P|383:106|441:86,1,130.4,2|0,0:1|0:0,0:0:0:0:
494,53,64228,1,2,0:1:0:0:
433,0,64478,2,0,P|394:56|464:202,1,228.2,2|0,0:0|0:0,1:1:0:0:
486,216,65478,6,0,P|490:272|347:303,1,220.049993284607,12|2,0:1|0:0,0:0:0:0:
231,182,66728,1,2,0:0:0:0:
273,100,66978,2,0,L|248:11,1,73.3499977615357,2|0,0:0|0:0,0:0:0:0:
165,1,67478,1,2,0:0:0:0:
50,77,67853,2,0,P|12:160|10:195,1,110.024996642304,0|2,3:0|0:0,0:0:0:0:
20,268,68478,1,2,0:0:0:0:
20,268,68978,2,0,L|108:243,1,73.3499977615357,2|0,0:0|0:0,0:0:0:0:
181,262,69478,6,0,P|177:206|320:175,1,220.049993284607,2|2,0:0|0:0,0:0:0:0:
390,327,70728,1,2,0:0:0:0:
480,338,70978,2,0,L|455:249,1,73.3499977615357,2|0,0:0|0:0,0:0:0:0:
432,179,71478,1,2,0:0:0:0:
443,42,71853,2,0,P|352:50|320:66,1,110.024996642304,0|2,3:0|0:0,0:0:0:0:
273,125,72478,2,0,P|266:170|357:186,1,146.699995523071,2|0,1:0|3:0,0:0:0:0:
443,42,73478,6,0,P|320:54|224:12,1,220.049993284607,4|2,0:3|0:0,0:0:0:0:
70,103,74728,1,2,0:0:0:0:
100,189,74978,2,0,L|189:213,1,73.3499977615357,2|0,0:0|0:0,0:0:0:0:
262,203,75478,1,2,0:0:0:0:
347,310,75853,2,0,P|256:301|224:285,1,110.024996642304,0|2,3:0|0:0,0:0:0:0:
148,299,76478,1,2,0:0:0:0:
148,299,76978,2,0,L|59:324,1,73.3499977615357,2|0,0:0|0:0,0:0:0:0:
23,244,77478,6,0,P|10:121|52:25,1,220.049993284607,2|2,0:0|0:0,0:0:0:0:
228,11,78728,1,2,0:0:0:0:
260,96,78978,2,0,L|349:121,1,73.3499977615357,2|0,0:0|0:0,0:0:0:0:
415,80,79478,2,0,L|440:169,1,73.3499977615357,2|0,0:0|3:0,0:0:0:0:
456,239,79978,2,0,P|414:312|346:286,1,146.699995523071,2|2,0:0|0:0,0:0:0:0:
356,121,80978,2,0,P|297:191|285:224,1,110.024996642304,2|0,0:0|0:0,0:0:0:0:
283,252,81478,6,0,P|258:302|119:257,1,220.049993284607,12|2,0:1|0:0,0:0:0:0:
195,104,82728,1,2,0:0:0:0:
284,124,82978,2,0,L|373:99,1,73.3499977615357,2|0,0:0|0:0,0:0:0:0:
416,36,83478,1,2,0:0:0:0:
499,145,83853,2,0,P|514:234|507:270,1,110.024996642304,0|2,3:0|0:0,0:0:0:0:
486,340,84478,1,2,0:0:0:0:
486,340,84978,2,0,L|397:315,1,73.3499977615357,2|0,0:0|0:0,0:0:0:0:
330,285,85478,6,0,P|361:238|253:140,1,220.049993284607,2|2,0:0|0:0,0:0:0:0:
112,232,86728,1,2,0:0:0:0:
54,160,86978,2,0,L|143:135,1,73.3499977615357,2|0,0:0|0:0,0:0:0:0:
196,83,87478,1,2,0:0:0:0:
332,96,87853,2,0,P|316:185|323:221,1,110.024996642304,0|2,3:0|0:0,0:0:0:0:
356,287,88478,2,0,P|401:294|417:203,1,146.699995523071,2|0,1:0|3:0,0:0:0:0:
253,153,89478,6,0,P|201:265|117:327,1,220.049993284607,4|2,0:3|0:0,0:0:0:0:
10,182,90728,1,2,0:0:0:0:
63,107,90978,2,0,L|152:82,1,73.3499977615357,2|0,0:0|0:0,0:0:0:0:
218,123,91478,1,2,0:0:0:0:
298,11,91853,2,0,P|313:100|306:136,1,110.024996642304,0|2,3:0|0:0,0:0:0:0:
267,199,92478,1,2,0:0:0:0:
267,199,92978,2,0,L|242:288,1,73.3499977615357,2|0,0:0|0:0,0:0:0:0:
175,326,93478,6,0,P|62:274|0:190,1,220.049993284607,2|2,0:0|0:0,0:0:0:0:
61,25,94728,1,2,0:0:0:0:
117,97,94978,2,0,L|197:51,1,73.3499977615357,2|0,0:0|0:0,0:0:0:0:
238,128,95478,5,2,0:0:0:0:
256,192,95604,12,4,97428,0:0:0:0:
0,133,112788,6,0,P|36:189|50:291,1,163,6|0,3:2|0:0,0:0:0:0:
36,383,113508,1,2,3:2:0:0:
161,296,113868,2,0,L|266:278,1,81.5,0|0,3:0|3:0,0:0:0:0:
288,301,114228,1,10,0:0:0:0:
374,353,114468,1,0,3:0:0:0:
381,251,114708,2,0,P|425:254|499:300,2,122.25,2|0|2,3:2|3:0|3:2,0:0:0:0:
335,159,115668,2,0,P|326:115|352:31,1,122.25,2|0,0:0|3:0,0:0:0:0:
380,3,116148,1,10,0:0:0:0:
467,54,116388,1,2,3:2:0:0:
413,140,116628,6,0,P|357:177|255:193,1,163,2|2,3:2|0:0,0:0:0:0:
167,162,117348,1,0,3:0:0:0:
47,66,117708,2,0,L|24:196,1,122.25,0|8,3:0|0:0,0:0:0:0:
12,287,118308,1,0,3:0:0:0:
105,246,118548,2,0,L|127:376,2,122.25,2|0|8,3:2|3:0|0:0,0:0:0:0:
132,202,119388,2,0,L|239:220,1,81.5,8|8,0:0|0:0,0:0:0:0:
262,222,119748,1,2,3:2:0:0:
356,184,119988,1,8,0:0:0:0:
427,256,120228,1,8,0:0:0:0:
454,158,120468,6,0,P|423:98|342:34,1,163,6|0,3:2|0:0,0:0:0:0:
248,31,121188,1,2,3:2:0:0:
290,177,121548,2,0,L|272:282,1,81.5,0|0,3:0|3:0,0:0:0:0:
265,308,121908,1,10,0:0:0:0:
177,361,122148,1,0,3:0:0:0:
175,259,122388,2,0,P|134:278|47:275,2,122.25,2|0|2,3:2|3:0|3:2,0:0:0:0:
250,190,123348,2,0,P|269:149|266:62,1,122.25,2|0,0:0|3:0,0:0:0:0:
250,26,123828,1,10,0:0:0:0:
148,16,124068,1,2,3:2:0:0:
88,99,124308,6,0,P|151:119|254:107,1,163,2|0,3:2|0:0,0:0:0:0:
330,53,125028,1,2,3:2:0:0:
350,204,125388,2,0,L|446:220,1,81.5,0|0,3:0|3:0,0:0:0:0:
480,227,125748,1,8,0:0:0:0:
417,307,125988,1,0,3:0:0:0:
349,382,126228,1,0,3:0:0:0:
307,289,126468,2,0,L|210:305,1,81.5,8|8,0:0|0:0,0:0:0:0:
196,343,126828,1,8,0:0:0:0:
55,282,127188,1,8,0:0:0:0:
88,185,127428,1,6,0:0:0:0:
22,107,127668,2,0,L|10:175,2,40.75,8|8|0,0:3|0:3|3:0,0:0:0:0:
103,45,128148,6,0,P|147:74|154:158,3,122.25,6|2|2|0,3:2|3:0|3:0|3:0,0:0:0:0:
144,187,129348,1,2,1:2:0:0:
46,214,129588,2,0,P|11:263|17:310,1,81.5,10|2,0:0|3:2,0:0:0:0:
21,383,130068,2,0,P|91:367|171:384,1,122.25,2|2,3:2|3:0,0:0:0:0:
191,381,130548,1,0,0:0:0:0:
189,279,130788,1,2,3:0:0:0:
381,346,131268,1,2,1:2:0:0:
477,312,131508,1,10,0:0:0:0:
492,211,131748,1,2,3:2:0:0:
448,118,131988,6,0,P|397:134|369:213,1,122.25,6|2,3:2|3:2,0:0:0:0:
381,346,132708,1,10,0:0:0:0:
279,357,132948,2,0,P|228:340|200:261,1,122.25,6|2,3:2|3:2,0:0:0:0:
233,132,133668,1,10,0:0:0:0:
151,70,133908,2,0,P|122:114|38:121,1,122.25,6|2,0:0|3:0,0:0:0:0:
60,280,134628,2,0,P|89:324|173:331,1,122.25,2|0,3:0|3:0,0:0:0:0:
202,322,135108,1,0,1:0:0:0:
278,255,135348,1,8,0:0:0:0:
346,330,135588,1,8,0:3:0:0:
381,234,135828,6,0,P|384:152|360:79,3,122.25,6|2|2|0,3:2|3:0|3:0|3:0,0:0:0:0:
360,64,137028,1,2,1:2:0:0:
259,81,137268,2,0,P|215:51|194:13,1,81.5,10|2,0:0|3:2,0:0:0:0:
108,73,137748,2,0,P|125:153|167:217,1,122.25,2|2,3:2|3:0,0:0:0:0:
178,225,138228,1,0,0:0:0:0:
273,261,138468,1,2,3:0:0:0:
105,377,138948,1,2,1:2:0:0:
106,275,139188,1,10,0:0:0:0:
5,260,139428,1,0,3:0:0:0:
1,158,139668,6,0,P|4:104|27:67,1,81.5,6|0,3:2|0:0,0:0:0:0:
58,49,140028,2,0,P|136:73|212:69,1,122.25,2|10,3:2|0:0,0:0:0:0:
277,63,140628,2,0,P|253:110|254:154,1,81.5,6|0,3:2|0:0,0:0:0:0:
260,189,140988,2,0,P|204:249|136:284,1,122.25,2|10,3:2|0:0,0:0:0:0:
143,368,141588,2,0,P|70:330|19:272,2,122.25,6|0|2,3:2|3:0|3:2,0:0:0:0:
236,328,142548,2,0,L|248:396,2,40.75,2|0|0,0:0|3:0|1:0,0:0:0:0:
335,353,143028,2,0,L|347:285,3,40.75,8|8|4|4,0:0|0:3|0:3|0:3,0:0:0:0:
312,268,143508,6,0,P|301:198|377:152,1,146.699995523071,6|0,3:2|3:0,0:0:0:0:
409,150,143988,1,0,0:0:0:0:
512,218,144228,2,0,L|492:373,1,146.699995523071,8|0,0:0|1:0,0:0:0:0:
443,383,144708,1,2,0:0:0:0:
340,316,144948,2,0,P|281:302|229:307,1,97.799997015381,10|0,0:0|3:0,0:0:0:0:
126,337,145428,2,0,P|112:278|117:226,1,97.799997015381,2|0,3:2|0:0,0:0:0:0:
124,188,145788,2,0,P|155:136|231:87,1,146.699995523071,2|10,3:2|0:0,0:0:0:0:
285,196,146388,1,2,3:2:0:0:
74,321,146868,1,10,0:0:0:0:
3,221,147108,1,0,3:0:0:0:
41,105,147348,6,0,P|111:113|135:197,1,146.699995523071,2|0,3:2|3:0,0:0:0:0:
127,230,147828,1,0,0:0:0:0:
213,316,148068,2,0,L|368:296,1,146.699995523071,8|0,0:0|1:0,0:0:0:0:
388,253,148548,1,2,0:0:0:0:
473,165,148788,2,0,P|487:106|482:54,1,97.799997015381,10|0,0:0|3:0,0:0:0:0:
384,0,149268,2,0,P|325:17|283:47,1,97.799997015381,2|0,3:2|0:0,0:0:0:0:
264,81,149628,2,0,P|205:95|116:76,1,146.699995523071,2|10,3:2|0:0,0:0:0:0:
75,50,150108,1,8,0:0:0:0:
81,172,150348,1,0,0:0:0:0:
1,337,150708,2,0,L|129:353,1,97.799997015381,8|8,0:0|0:0,0:0:0:0:
152,357,151068,1,8,0:0:0:0:
202,335,151188,6,0,P|241:292|263:195,1,146.699995523071,6|0,3:2|3:0,0:0:0:0:
259,155,151668,1,0,0:0:0:0:
173,68,151908,2,0,L|18:88,1,146.699995523071,8|0,0:0|1:0,0:0:0:0:
4,135,152388,1,2,0:0:0:0:
117,180,152628,2,0,P|99:238|69:280,1,97.799997015381,10|0,0:0|3:0,0:0:0:0:
160,360,153108,2,0,P|218:342|260:312,1,97.799997015381,2|0,3:2|0:0,0:0:0:0:
297,348,153468,2,0,P|298:287|339:207,1,146.699995523071,2|10,3:2|0:0,0:0:0:0:
273,105,154068,1,2,3:2:0:0:
497,8,154548,1,10,0:0:0:0:
506,129,154788,1,0,3:0:0:0:
450,237,155028,6,0,P|392:235|308:182,1,146.699995523071,2|0,3:2|3:0,0:0:0:0:
284,148,155508,1,0,0:0:0:0:
167,186,155748,2,0,L|187:341,1,146.699995523071,8|0,0:0|1:0,0:0:0:0:
230,361,156228,1,2,0:0:0:0:
317,275,156468,2,0,P|368:247|467:251,1,146.699995523071,10|2,0:0|0:3,0:0:0:0:
505,268,156948,2,0,P|503:207|484:158,1,97.799997015381,2|0,3:2|0:0,0:0:0:0:
409,81,157428,1,2,0:0:0:0:
311,153,157668,2,0,L|233:143,2,48.8999985076905,8|8|2,0:0|0:0|3:2,0:0:0:0:
317,275,158148,1,0,1:0:0:0:
213,339,158388,2,0,L|135:349,3,48.8999985076905,10|8|8|8,0:0|0:3|0:3|0:3,0:0:0:0:
123,380,158868,6,0,P|57:353|55:266,1,146.699995523071,6|0,3:2|3:0,0:0:0:0:
68,236,159348,1,0,0:0:0:0:
160,155,159588,2,0,L|315:135,1,146.699995523071,8|0,0:0|1:0,0:0:0:0:
350,166,160068,1,2,0:0:0:0:
454,102,160308,2,0,P|421:50|380:17,1,97.799997015381,10|0,0:0|3:0,0:0:0:0:
273,8,160788,2,0,P|259:67|264:119,1,97.799997015381,2|0,3:2|0:0,0:0:0:0:
266,164,161148,2,0,P|283:222|341:293,1,146.699995523071,2|10,3:2|0:0,0:0:0:0:
458,287,161748,1,2,3:2:0:0:
230,376,162228,1,10,0:0:0:0:
261,257,162468,1,0,3:0:0:0:
172,172,162708,6,0,P|106:199|104:286,1,146.699995523071,2|0,3:2|3:0,0:0:0:0:
124,313,163188,1,0,0:0:0:0:
234,365,163428,2,0,L|389:385,1,146.699995523071,8|0,0:0|1:0,0:0:0:0:
429,364,163908,1,2,0:0:0:0:
507,270,164148,2,0,P|447:256|395:261,1,97.799997015381,10|0,0:0|3:0,0:0:0:0:
291,284,164628,2,0,P|277:224|282:172,1,97.799997015381,2|0,3:2|0:0,0:0:0:0:
295,136,164988,2,0,P|277:77|220:6,1,146.699995523071,2|10,3:2|0:0,0:0:0:0:
172,0,165468,1,8,0:0:0:0:
108,104,165708,1,0,0:0:0:0:
229,243,166068,2,0,L|243:129,1,97.799997015381,8|8,0:0|0:0,0:0:0:0:
277,106,166428,1,8,0:0:0:0:
330,94,166548,6,0,P|387:96|472:149,1,146.699995523071,6|0,3:2|3:0,0:0:0:0:
488,188,167028,1,0,0:0:0:0:
416,287,167268,2,0,L|261:267,1,146.699995523071,8|0,0:0|1:0,0:0:0:0:
230,232,167748,1,2,0:0:0:0:
265,115,167988,2,0,P|213:82|180:41,1,97.799997015381,10|0,0:0|3:0,0:0:0:0:
75,102,168468,2,0,P|88:161|83:213,1,97.799997015381,2|0,3:2|0:0,0:0:0:0:
136,220,168828,2,0,P|106:273|101:363,1,146.699995523071,2|10,3:2|0:0,0:0:0:0:
220,382,169428,1,2,3:2:0:0:
381,198,169908,1,10,0:0:0:0:
263,231,170148,1,0,3:0:0:0:
184,136,170388,6,0,P|227:97|324:74,1,146.699995523071,2|0,3:2|3:0,0:0:0:0:
365,81,170868,1,0,0:0:0:0:
469,143,171108,2,0,L|449:298,1,146.699995523071,8|0,0:0|1:0,0:0:0:0:
471,338,171588,1,2,0:0:0:0:
356,296,171828,2,0,P|304:328|271:369,1,97.799997015381,10|8,0:0|0:0,0:0:0:0:
226,354,172188,1,8,0:0:0:0:
194,311,172308,2,0,P|200:233|396:118,1,293.399991046143,6|8,3:2|0:0,0:0:0:0:
483,137,173268,2,0,P|397:101|299:7,2,195.599994030762,6|0|12,3:2|3:0|0:1,0:0:0:0:
377,247,174588,6,0,P|317:262|277:251,1,81.5,2|0,3:2|0:0,0:0:0:0:
253,237,174948,2,0,P|268:175|217:112,2,122.25,10|2|10,0:0|1:2|0:0,0:0:0:0:
171,298,175908,1,2,3:2:0:0:
71,275,176148,2,0,P|53:335|-21:365,2,122.25,2|2|10,3:2|3:2|0:0,0:0:0:0:
15,189,177108,2,0,L|33:47,1,122.25,0|0,3:0|0:0,0:0:0:0:
80,59,177588,1,10,0:0:0:0:
173,99,177828,1,2,3:2:0:0:
253,37,178068,5,0,3:0:0:0:
385,113,178428,2,0,P|368:172|339:201,1,81.5,2|0,3:2|0:0,0:0:0:0:
316,218,178788,2,0,P|285:162|317:88,2,122.25,10|2|10,0:0|1:2|0:0,0:0:0:0:
251,296,179748,1,2,3:2:0:0:
158,252,179988,2,0,P|158:188|224:141,2,122.25,2|2|10,3:2|3:2|0:0,0:0:0:0:
135,298,180828,2,0,L|44:310,1,81.5,8|8,0:0|0:0,0:0:0:0:
20,159,181428,2,0,L|28:96,3,40.75,10|2|10|10,0:0|0:0|0:0|0:0,0:0:0:0:
3,71,181908,6,0,L|144:52,1,122.25,4|0,3:2|3:0,0:0:0:0:
166,50,182388,1,2,0:0:0:0:
136,147,182628,2,0,L|117:288,2,122.25,10|2|10,0:0|1:2|0:0,0:0:0:0:
238,159,183588,1,2,3:2:0:0:
318,221,183828,2,0,P|350:165|430:157,2,122.25,2|2|10,3:2|3:2|0:0,0:0:0:0:
307,322,184788,2,0,L|448:340,1,122.25,2|0,3:2|0:0,0:0:0:0:
472,312,185268,2,0,L|535:304,2,40.75,10|2|2,0:0|0:0|3:2,0:0:0:0:
444,213,185748,6,0,L|462:71,1,122.25,0|0,3:0|3:0,0:0:0:0:
424,54,186228,1,2,0:0:0:0:
323,36,186468,2,0,L|341:177,1,122.25,10|2,0:0|1:2,0:0:0:0:
245,278,187188,2,0,L|204:272,3,40.75,10|0|2|0,0:0|0:0|3:2|0:0,0:0:0:0:
168,238,187668,2,0,P|106:254|43:202,2,122.25,2|2|10,3:2|3:2|0:0,0:0:0:0:
196,195,188508,1,8,0:0:0:0:
176,94,188748,1,8,0:0:0:0:
39,25,189108,2,0,L|25:127,1,81.5,10|8,0:0|0:0,0:0:0:0:
35,156,189468,1,8,0:0:0:0:
44,206,189588,6,0,L|62:347,1,122.25,4|0,3:2|3:0,0:0:0:0:
96,362,190068,1,0,0:0:0:0:
183,310,190308,2,0,L|324:328,1,122.25,10|0,0:0|1:0,0:0:0:0:
347,297,190788,1,0,0:0:0:0:
432,241,191028,2,0,L|418:138,1,81.5,8|2,0:0|3:2,0:0:0:0:
387,63,191508,2,0,P|326:79|299:114,1,81.5,2|0,3:2|0:0,0:0:0:0:
294,138,191868,2,0,P|318:207|312:270,1,122.25,2|10,3:2|0:0,0:0:0:0:
262,342,192468,2,0,P|193:366|130:360,1,122.25,2|0,3:2|3:0,0:0:0:0:
97,344,192948,2,0,P|80:283|97:242,1,81.5,10|0,0:0|3:0,0:0:0:0:
124,172,193428,6,0,P|92:106|43:65,2,122.25,2|0|8,3:2|3:0|0:0,0:0:0:0:
225,161,194388,2,0,L|366:143,1,122.25,0|0,3:0|3:0,0:0:0:0:
391,169,194868,1,8,0:0:0:0:
455,248,195108,1,2,3:2:0:0:
401,333,195348,2,0,P|461:374|523:384,2,122.25,2|2|10,3:2|3:2|0:0,0:0:0:0:
353,353,196188,1,8,0:0:0:0:
253,329,196428,2,0,L|267:226,1,81.5,8|0,0:0|3:0,0:0:0:0:
221,221,196788,2,0,L|207:118,1,81.5,8|8,0:0|0:0,0:0:0:0:
230,92,197148,1,8,0:0:0:0:
281,83,197268,6,0,P|352:96|404:133,2,122.25,6|0|8,3:2|3:0|0:0,0:0:0:0:
214,6,198228,2,0,L|82:23,1,122.25,0|0,3:0|3:0,0:0:0:0:
59,61,198708,1,8,0:0:0:0:
134,129,198948,1,2,3:2:0:0:
70,208,199188,2,0,P|69:271|96:306,1,81.5,2|0,3:2|0:0,0:0:0:0:
124,305,199548,2,0,P|155:239|204:198,1,122.25,2|10,3:2|0:0,0:0:0:0:
291,228,200148,2,0,L|273:359,1,122.25,0|0,3:0|0:0,0:0:0:0:
230,374,200628,1,10,0:0:0:0:
131,346,200868,1,2,3:2:0:0:
72,262,201108,6,0,P|66:189|88:129,2,122.25,2|0|8,3:2|3:0|0:0,0:0:0:0:
173,250,202068,2,0,L|304:232,1,122.25,0|0,3:0|3:0,0:0:0:0:
329,270,202548,2,0,L|432:284,1,81.5,8|10,0:0|0:0,0:0:0:0:
458,264,202908,1,10,0:0:0:0:
479,217,203028,2,0,P|493:138|491:108,1,81.5,6|0,3:2|0:0,0:0:0:0:
485,86,203388,2,0,P|439:20|416:0,1,81.5,6|0,3:2|0:0,0:0:0:0:
389,6,203748,1,6,3:2:0:0:
352,101,203988,2,0,P|300:132|238:60,1,163,6|2,3:2|0:0,0:0:0:0:
89,178,204948,6,0,L|75:289,2,110.024996642304,6|0|2,0:0|3:0|0:0,0:0:0:0:
20,9,206148,1,2,0:0:0:0:
106,39,206388,2,0,L|113:-16,2,36.6749988807679,2|0|0,0:0|3:0|3:0,0:0:0:0:
192,70,206868,2,0,L|206:181,2,110.024996642304,2|0|2,0:0|3:0|0:0,0:0:0:0:
462,20,208308,2,0,L|517:27,2,36.6749988807679,2|2|2,0:0|0:0|0:0,0:0:0:0:
394,82,208788,6,0,L|424:320,1,220.049993284607,6|2,3:2|0:0,0:0:0:0:
158,382,210228,1,2,0:0:0:0:
81,330,210468,1,0,3:0:0:0:
87,238,210708,2,0,B|120:172|206:156|254:208|256:212|258:215|415:337|502:153|440:-72|226:49,1,641.812480413438,6|0,3:2|0:0,0:0:0:0:
