osu file format v14

[General]
AudioFilename: audio.mp3
AudioLeadIn: 0
PreviewTime: 659
Countdown: 0
SampleSet: Soft
StackLeniency: 0.7
Mode: 0
LetterboxInBreaks: 0
WidescreenStoryboard: 0

[Editor]
Bookmarks: 16930,33202,49473,65473,81473,97410,112770,128130,143490,174210,189570,204930,212808
DistanceSpacing: 0.3
BeatDivisor: 8
GridSize: 8
TimelineZoom: 2

[Metadata]
Title:Graveyard in lake
TitleUnicode:Graveyard in lake
Artist:SYNC.ART'S
ArtistUnicode:SYNC.ART'S
Creator:Halfslashed
Version:Extra Stage
Source:東方風神録 ~ Mountain of Faith.
Tags:touhou fuujinroku sanae kochiya 東風谷 早苗 th10 mof 御柱の墓場 cemetery of onbashira ~ grave being c73 五条下位 gojou kai chaos Mirash
BeatmapID:1506699
BeatmapSetID:712848

[Difficulty]
HPDrainRate:6
CircleSize:4
OverallDifficulty:8
ApproachRate:9
SliderMultiplier:2.4
SliderTickRate:1

[Events]
//Background and Video events
0,0,"sanae bg.jpg",0,0
//Break Periods
//Storyboard Layer 0 (Background)
//Storyboard Layer 1 (Fail)
//Storyboard Layer 2 (Pass)
//Storyboard Layer 3 (Foreground)
//Storyboard Sound Samples

[TimingPoints]
659,508.474576271186,4,2,1,30,1,0
16930,-200,4,2,1,30,0,0
18201,-125,4,2,1,30,0,0
19472,-200,4,2,1,30,0,0
20870,-200,4,2,1,5,0,0
20997,-200,4,2,1,30,0,0
22269,-125,4,2,1,30,0,0
25065,-200,4,2,1,30,0,0
25574,-200,4,2,1,30,0,0
26336,-153.846153846154,4,2,1,30,0,0
27099,-125,4,2,1,30,0,0
28243,-125,4,2,1,5,0,0
28370,-125,4,2,1,30,0,0
28625,-100,4,2,1,30,0,0
29642,-200,4,2,1,30,0,0
30404,-153.846153846154,4,2,1,30,0,0
31167,-137.931034482759,4,2,1,30,0,0
31930,-125,4,2,1,30,0,0
33201,-125,4,2,1,40,0,0
48964,514.579759862779,4,2,1,40,1,0
49478,500,4,2,1,40,1,0
49478,-111.111111111111,4,2,1,40,0,0
54165,-111.111111111111,4,2,1,5,0,0
54228,-111.111111111111,4,2,1,40,0,0
54353,-111.111111111111,4,2,1,5,0,0
54478,-111.111111111111,4,2,1,40,0,0
55165,-111.111111111111,4,2,1,5,0,0
55228,-111.111111111111,4,2,1,40,0,0
55353,-111.111111111111,4,2,1,5,0,0
55478,-111.111111111111,4,2,1,40,0,0
56978,-153.846153846154,4,2,1,40,0,0
57353,-153.846153846154,4,2,1,5,0,0
57478,-100,4,2,1,45,0,0
59103,-100,4,2,1,5,0,0
59228,-100,4,2,1,45,0,0
59353,-100,4,2,1,5,0,0
59478,-100,4,2,1,45,0,0
60853,-100,4,2,1,5,0,0
60978,-100,4,2,1,45,0,0
61353,-100,4,2,1,5,0,0
61478,-100,4,2,1,45,0,0
61790,-100,4,2,1,5,0,0
61853,-100,4,2,1,45,0,0
62165,-100,4,2,1,5,0,0
62228,-100,4,2,1,45,0,0
62353,-100,4,2,1,5,0,0
62478,-100,4,2,1,45,0,0
62790,-100,4,2,1,5,0,0
62853,-100,4,2,1,45,0,0
63165,-100,4,2,1,5,0,0
63228,-100,4,2,1,45,0,0
63353,-100,4,2,1,5,0,0
63478,-100,4,2,1,45,0,0
64478,-62.5,4,2,1,45,0,0
64540,-62.5,4,2,0,25,0,0
64665,-62.5,4,2,1,30,0,0
64790,-62.5,4,2,0,40,0,0
64915,-62.5,4,2,1,45,0,0
65040,-62.5,4,2,0,50,0,0
65165,-62.5,4,2,1,55,0,0
65290,-62.5,4,2,0,65,0,0
65353,-62.5,4,2,1,5,0,0
65478,-83.3333333333333,4,2,1,70,0,1
65978,-83.3333333333333,4,2,1,50,0,0
67353,-83.3333333333333,4,2,1,5,0,0
67478,-83.3333333333333,4,2,1,50,0,0
68165,-83.3333333333333,4,2,1,5,0,0
68228,-83.3333333333333,4,2,1,50,0,0
68415,-83.3333333333333,4,2,1,5,0,0
68478,-50,4,2,1,50,0,0
68978,-125,4,2,1,50,0,0
69353,-125,4,2,1,5,0,0
69478,-83.3333333333333,4,2,1,50,0,0
71353,-83.3333333333333,4,2,1,5,0,0
71478,-83.3333333333333,4,2,1,50,0,0
72165,-83.3333333333333,4,2,1,5,0,0
72228,-83.3333333333333,4,2,1,50,0,0
72415,-83.3333333333333,4,2,1,5,0,0
72478,-83.3333333333333,4,2,1,50,0,0
76165,-83.3333333333333,4,2,1,5,0,0
76228,-83.3333333333333,4,2,1,50,0,0
76415,-83.3333333333333,4,2,1,5,0,0
76478,-50,4,2,1,50,0,0
76978,-125,4,2,1,50,0,0
77478,-83.3333333333333,4,2,1,50,0,0
80353,-83.3333333333333,4,2,1,5,0,0
80478,-83.3333333333333,4,2,1,50,0,0
81478,-83.3333333333333,4,2,1,70,0,1
81978,-83.3333333333333,4,2,1,50,0,0
83353,-83.3333333333333,4,2,1,5,0,0
83478,-83.3333333333333,4,2,1,50,0,0
84165,-83.3333333333333,4,2,1,5,0,0
84228,-83.3333333333333,4,2,1,50,0,0
84415,-83.3333333333333,4,2,1,5,0,0
84478,-50,4,2,1,50,0,0
84978,-125,4,2,1,50,0,0
85353,-125,4,2,1,5,0,0
85478,-83.3333333333333,4,2,1,50,0,0
87353,-83.3333333333333,4,2,1,5,0,0
87478,-83.3333333333333,4,2,1,50,0,0
88165,-83.3333333333333,4,2,1,5,0,0
88228,-83.3333333333333,4,2,1,50,0,0
88415,-83.3333333333333,4,2,1,5,0,0
88478,-83.3333333333333,4,2,1,50,0,0
92165,-83.3333333333333,4,2,1,5,0,0
92228,-83.3333333333333,4,2,1,50,0,0
92415,-83.3333333333333,4,2,1,5,0,0
92478,-50,4,2,1,50,0,0
92978,-125,4,2,1,50,0,0
93478,-83.3333333333333,4,2,1,50,0,0
95478,504.201680672269,4,2,1,50,1,0
95730,606.060606060606,4,2,1,50,1,0
95881,580.411124546554,4,2,1,50,1,0
96243,-125,4,2,0,50,0,0
96461,483.870967741935,4,2,2,60,1,0
96702,472.44094488189,4,2,2,60,1,0
96938,490.79754601227,4,2,2,60,1,0
97060,-100,4,2,2,55,0,0
97183,-100,4,2,2,45,0,0
97306,-100,4,2,2,30,0,0
97428,480,4,2,2,60,1,0
97428,-66.6666666666667,4,2,2,60,0,0
112788,-66.6666666666667,4,2,2,65,0,0
127428,-66.6666666666667,4,2,0,65,0,0
127548,-66.6666666666667,4,2,2,65,0,0
127668,-66.6666666666667,4,2,0,65,0,0
127908,-66.6666666666667,4,2,2,65,0,0
128088,-66.6666666666667,4,2,2,5,0,0
128148,-66.6666666666667,4,2,2,70,0,0
131988,-66.6666666666667,4,2,3,70,0,0
132228,-66.6666666666667,4,2,2,70,0,0
132948,-66.6666666666667,4,2,3,70,0,0
133188,-66.6666666666667,4,2,2,70,0,0
133908,-66.6666666666667,4,2,3,70,0,0
134148,-66.6666666666667,4,2,2,70,0,0
135828,-66.6666666666667,4,2,2,75,0,0
139668,-66.6666666666667,4,2,3,75,0,0
139968,-66.6666666666667,4,2,2,5,0,0
140028,-66.6666666666667,4,2,2,75,0,0
140328,-66.6666666666667,4,2,2,5,0,0
140388,-66.6666666666667,4,2,2,75,0,0
140508,-66.6666666666667,4,2,2,5,0,0
140628,-66.6666666666667,4,2,3,75,0,0
140928,-66.6666666666667,4,2,2,5,0,0
140988,-66.6666666666667,4,2,2,75,0,0
141288,-66.6666666666667,4,2,2,5,0,0
141348,-66.6666666666667,4,2,2,75,0,0
141588,-100,4,2,3,75,0,0
141948,-100,4,2,2,75,0,0
142628,-66.6666666666667,4,2,2,35,0,0
142708,-66.6666666666667,4,2,2,45,0,0
142788,-66.6666666666667,4,2,2,55,0,0
142908,-66.6666666666667,4,2,2,65,0,0
143028,-66.6666666666667,4,2,2,75,0,0
143148,-66.6666666666667,4,2,2,70,0,0
143268,-66.6666666666667,4,2,2,60,0,0
143388,-66.6666666666667,4,2,2,45,0,0
143508,-55.5555555555556,4,2,2,85,0,1
146328,-55.5555555555556,4,2,2,5,0,1
146388,-37.037037037037,4,2,2,85,0,1
146868,-55.5555555555556,4,2,2,85,0,1
154008,-55.5555555555556,4,2,2,5,0,1
154068,-37.037037037037,4,2,2,85,0,1
154548,-55.5555555555556,4,2,2,85,0,1
158388,-55.5555555555556,4,2,2,85,0,0
158508,-55.5555555555556,4,2,2,80,0,0
158628,-55.5555555555556,4,2,2,70,0,0
158748,-55.5555555555556,4,2,2,55,0,0
158868,-55.5555555555556,4,2,2,85,0,1
161688,-55.5555555555556,4,2,2,5,0,1
161748,-37.037037037037,4,2,2,85,0,1
162228,-55.5555555555556,4,2,2,85,0,1
169368,-55.5555555555556,4,2,2,5,0,1
169428,-37.037037037037,4,2,2,85,0,1
169908,-55.5555555555556,4,2,2,85,0,1
172308,-83.3333333333333,4,2,3,85,0,1
172788,-83.3333333333333,4,2,3,20,0,1
172908,-83.3333333333333,4,2,2,5,0,1
173028,-83.3333333333333,4,2,2,85,0,1
173988,-83.3333333333333,4,2,2,70,0,0
174228,-66.6666666666667,4,2,1,85,0,1
174468,-66.6666666666667,4,2,2,65,0,0
175848,-66.6666666666667,4,2,2,5,0,0
175908,-66.6666666666667,4,2,2,65,0,0
177528,-66.6666666666667,4,2,2,5,0,0
177588,-66.6666666666667,4,2,2,65,0,0
179688,-66.6666666666667,4,2,2,5,0,0
179748,-66.6666666666667,4,2,2,65,0,0
180288,-66.6666666666667,4,2,2,5,0,0
180348,-66.6666666666667,4,2,2,65,0,0
180648,-66.6666666666667,4,2,2,5,0,0
180708,-66.6666666666667,4,2,2,65,0,0
189168,-66.6666666666667,4,2,2,55,0,0
189228,-66.6666666666667,4,2,2,45,0,0
189288,-66.6666666666667,4,2,2,35,0,0
189348,-66.6666666666667,4,2,2,65,0,0
189408,-66.6666666666667,4,2,2,25,0,0
189468,-66.6666666666667,4,2,2,65,0,0
189588,-66.6666666666667,4,2,2,70,0,0
192408,-66.6666666666667,4,2,2,5,0,0
192468,-66.6666666666667,4,2,2,70,0,0
197268,-66.6666666666667,4,2,2,75,0,0
203028,-55.5555555555556,4,2,3,85,0,1
203328,-55.5555555555556,4,2,2,5,0,1
203388,-55.5555555555556,4,2,3,85,0,1
203688,-55.5555555555556,4,2,2,5,0,1
203748,-55.5555555555556,4,2,3,85,0,1
203988,-66.6666666666667,4,2,3,90,0,1
204408,-66.6666666666667,4,2,2,5,0,1
204468,-66.6666666666667,4,2,2,80,0,0
204528,-66.6666666666667,4,2,2,70,0,0
204588,-66.6666666666667,4,2,2,60,0,0
204648,-66.6666666666667,4,2,2,50,0,0
204708,-66.6666666666667,4,2,2,40,0,0
204768,-66.6666666666667,4,2,2,30,0,0
204828,-66.6666666666667,4,2,2,20,0,0
204888,-66.6666666666667,4,2,2,10,0,0
204948,-83.3333333333333,4,2,2,70,0,1
204949,-83.3333333333333,4,2,0,60,0,1
205188,-83.3333333333333,4,2,0,60,0,0
208788,-83.3333333333333,4,2,2,60,0,0
209148,-83.3333333333333,4,2,0,60,0,0
210468,-83.3333333333333,4,2,0,60,0,0
210708,-111.111111111111,4,2,2,70,0,0
210709,-111.111111111111,4,2,0,70,0,0
211188,-111.111111111111,4,2,1,70,0,0
211788,-111.111111111111,4,2,0,65,0,0
211908,-111.111111111111,4,2,1,60,0,0
212028,-111.111111111111,4,2,0,55,0,0
212148,-111.111111111111,4,2,1,50,0,0
212268,-111.111111111111,4,2,0,45,0,0
212388,-111.111111111111,4,2,1,40,0,0
212508,-111.111111111111,4,2,0,35,0,0
212628,-111.111111111111,4,2,1,30,0,0
212748,-111.111111111111,4,2,0,25,0,0
212808,-111.111111111111,4,2,2,5,0,0

[Colours]
Combo1 : 121,97,192
Combo2 : 250,143,170
Combo3 : 240,213,162
Combo4 : 106,200,114

[HitObjects]
108,152,16930,5,0,1:0:0:0:
43,257,17438,2,0,P|94:256|152:212,1,120
55,288,18201,2,0,P|126:301|348:254,1,288
353,142,19472,2,0,P|317:178|307:250,1,120
273,239,20235,2,0,P|249:169|194:99,1,150
141,49,20997,5,0,1:0:0:0:
266,31,21506,2,0,P|243:85|194:118,1,120
295,35,22269,2,0,P|289:106|239:230,1,192,0|2,0:0|0:0,0:0:0:0:
319,118,22904,1,2,0:0:0:0:
393,98,23031,5,2,0:1:0:0:
490,144,23286,1,0,0:0:0:0:
455,207,23540,1,2,0:0:0:0:
432,100,23794,2,0,P|347:138|260:206,2,192,2|2|2,0:1|0:0|0:0,0:0:0:0:
220,261,25065,5,0,1:0:0:0:
278,364,25574,2,0,P|220:374|191:321,1,120,2|0,0:0|0:0,0:0:0:0:
198,297,26336,2,0,P|132:312|76:241,1,155.999992858887,2|0,0:0|0:0,0:0:0:0:
74,217,27099,2,0,P|95:153|205:106,1,192,2|0,0:0|0:0,0:0:0:0:
287,144,27862,2,0,P|349:141|433:108,1,144,2|0,0:0|0:0,0:0:0:0:
456,24,28370,1,2,0:0:0:0:
456,24,28625,2,0,B|333:14|206:77,1,240,2|0,0:0|1:0,0:0:0:0:
92,75,29642,6,0,P|118:118|185:146,1,120
70,106,30404,2,0,P|69:170|116:260,1,155.999992858887
132,270,31167,2,0,P|212:231|311:233,1,174.000005310059,2|0,0:1|0:0,0:0:0:0:
391,332,31930,2,0,P|248:325|140:234,1,288,2|2,0:1|0:1,0:0:0:0:
301,258,32820,1,2,0:0:0:0:
346,246,32947,1,2,0:0:0:0:
374,227,33074,1,0,0:0:0:0:
384,211,33201,6,0,P|386:150|369:105,1,96,2|0,0:0|0:0,0:0:0:0:
238,60,33709,1,0,3:0:0:0:
154,198,33964,2,0,P|49:109|40:51,1,192,2|0,0:0|3:0,0:0:0:0:
238,60,34726,1,2,0:0:0:0:
190,225,34981,1,0,3:0:0:0:
261,259,35235,6,0,P|180:145|41:132,1,288,2|2,0:0|0:0,0:0:0:0:
187,8,36125,1,0,0:0:0:0:
173,115,36252,2,0,P|216:134|273:130,1,96,2|0,0:0|3:0,0:0:0:0:
389,128,36633,2,0,P|352:50|372:-4,1,144,2|2,0:0|3:2,0:0:0:0:
492,183,37269,6,0,P|486:308|431:365,1,192,2|0,0:0|0:0,0:0:0:0:
277,384,38031,1,0,3:0:0:0:
330,235,38540,1,0,3:0:0:0:
243,265,38794,1,0,0:0:0:0:
343,265,39048,1,0,3:0:0:0:
169,183,39303,5,2,0:1:0:0:
154,186,39430,1,0,0:0:0:0:
142,194,39557,1,0,0:0:0:0:
135,206,39684,1,0,0:0:0:0:
130,219,39811,2,0,P|122:250|133:316,1,96,0|2,0:0|0:1,0:0:0:0:
139,324,40192,1,0,0:0:0:0:
152,328,40320,1,0,0:0:0:0:
166,329,40447,1,0,0:0:0:0:
179,325,40574,2,0,P|170:300|145:276,1,48,0|0,3:0|0:0,0:0:0:0:
21,213,40828,1,2,0:1:0:0:
21,213,40955,1,0,0:0:0:0:
21,213,41082,1,0,0:0:0:0:
21,213,41209,1,0,0:0:0:0:
23,157,41336,6,0,P|62:113|106:91,1,96,2|0,0:0|0:0,0:0:0:0:
233,64,41845,1,0,3:0:0:0:
250,208,42099,2,0,B|324:215|357:134|357:134|322:131|300:166,1,192,2|0,0:0|3:0,0:0:0:0:
212,313,42862,1,2,0:2:0:0:
77,271,43116,1,0,3:0:0:0:
3,293,43370,6,0,P|58:320|128:161,1,288,2|2,0:0|0:0,0:0:0:0:
278,230,44260,1,0,0:0:0:0:
342,184,44387,2,0,P|379:170|439:203,1,96,2|0,0:0|3:0,0:0:0:0:
446,279,44769,2,0,P|445:208|495:158,1,144,2|2,0:0|3:2,0:0:0:0:
477,291,45404,6,0,P|443:325|398:341,1,96,2|0,0:0|0:0,0:0:0:0:
268,351,45913,1,0,3:0:0:0:
285,276,46167,2,0,P|282:224|209:103,1,192,0|0,3:0|3:0,0:0:0:0:
313,203,46930,1,0,3:0:0:0:
162,248,47184,1,2,0:0:0:0:
129,241,47311,1,2,0:0:0:0:
99,195,47438,5,2,0:1:0:0:
126,78,47692,1,0,3:0:0:0:
185,33,47947,2,0,P|200:57|208:83,2,48,2|0|2,0:0|0:0|0:1,0:0:0:0:
29,163,48455,1,0,0:0:0:0:
29,163,48709,2,0,P|22:112|-5:70,1,96,0|2,3:0|0:1,0:0:0:0:
288,312,49478,6,0,B|277:242|284:157|400:63|515:96|544:166|524:247|490:256,1,431.999986816407,2|0,0:3|0:0,0:0:0:0:
361,362,50728,1,0,3:0:0:0:
171,353,50978,2,0,P|133:332|98:271,1,107.999996704102,2|0,0:0|0:0,0:0:0:0:
94,144,51353,1,0,3:0:0:0:
123,164,51478,6,0,B|179:140|221:194|221:194|189:136|228:87|289:88|341:119|341:119|404:152|462:120,1,431.999986816407,2|0,0:0|0:0,0:0:0:0:
415,0,52728,1,0,3:0:0:0:
248,3,52978,2,0,P|245:62|344:106,1,161.999995056153,2|0,0:0|0:0,0:0:0:0:
152,112,53478,6,0,P|89:86|53:50,1,107.999996704102,2|0,0:0|0:0,0:0:0:0:
8,8,53853,2,0,P|28:68|25:151,1,134.999995880127,2|0,0:0|0:0,0:0:0:0:
0,118,54228,2,0,P|42:104|71:105,1,53.9999983520508,0|0,3:0|0:0,0:0:0:0:
183,117,54478,2,0,P|220:144|241:221,1,107.999996704102,2|0,0:0|0:0,0:0:0:0:
194,270,54853,2,0,P|249:233|274:172,1,134.999995880127,2|0,0:0|0:0,0:0:0:0:
277,132,55228,2,0,P|294:151|306:175,1,53.9999983520508,0|0,3:0|0:0,0:0:0:0:
334,75,55478,6,0,P|399:79|476:205,1,215.999993408203,2|0,0:1|0:0,0:0:0:0:
322,313,56228,2,0,P|312:249|327:190,1,107.999996704102,2|0,0:1|0:0,0:0:0:0:
373,114,56728,1,0,3:0:0:0:
219,125,56978,2,0,P|174:159|170:231,1,116.999994644165,2|0,0:1|0:0,0:0:0:0:
218,292,57478,6,0,P|263:124|19:16,1,480,2|0,0:3|0:0,0:0:0:0:
0,237,58728,1,2,0:0:0:0:
141,330,58978,2,0,P|181:322|206:308,1,60,2|0,0:0|0:0,0:0:0:0:
341,244,59228,2,0,P|329:270|325:300,1,60,2|0,0:0|0:0,0:0:0:0:
432,43,59478,6,0,B|392:41|374:63|374:63|358:126|295:131|248:94|265:37|320:8|355:37|374:63|374:63|435:136|341:233,1,480,2|0,0:0|0:0,0:0:0:0:
133,191,60728,2,0,P|93:183|68:169,1,60,2|0,0:0|0:0,0:0:0:0:
10,62,60978,2,0,P|39:20|164:44,1,180,2|0,0:0|0:0,0:0:0:0:
49,158,61478,6,0,P|38:224|60:306,1,150,2|0,0:0|0:0,0:0:0:0:
95,305,61853,2,0,P|57:240|0:194,1,150,2|0,0:0|0:0,0:0:0:0:
9,233,62228,2,0,P|35:245|65:250,1,60,2|0,0:0|0:0,0:0:0:0:
202,208,62478,2,0,P|270:236|341:191,1,150,2|0,0:0|0:0,0:0:0:0:
321,113,62853,2,0,P|291:181|337:252,1,150,2|0,0:0|0:0,0:0:0:0:
400,236,63228,2,0,P|423:253|441:277,1,60,2|0,0:0|0:0,0:0:0:0:
435,354,63478,6,0,B|427:386|393:386|393:386|382:358|400:316|440:289|440:289|492:250|494:199|480:157,1,300,2|2,0:1|0:0,0:0:0:0:
453,55,64228,1,2,0:1:0:0:
346,16,64353,1,2,0:0:0:0:
205,15,64478,2,0,B|166:171|312:188|363:146|403:-106|139:-82|57:159|166:171|96:91|73:200|124:238|125:242|126:245|123:321|69:373,1,672,2|0,0:0|0:0,1:0:0:0:
125,10,65478,6,0,P|262:11|334:129,1,287.999991210938,12|0,0:1|3:0,0:0:0:0:
172,368,66228,2,0,P|254:290|285:244,1,143.999995605469,2|0,0:0|0:0,0:0:0:0:
416,384,66728,1,2,0:0:0:0:
186,331,66978,2,0,P|157:283|275:233,1,215.999993408203,2|0,0:0|0:0,0:0:0:0:
437,237,67478,6,0,P|480:154|483:72,1,143.999995605469,2|0,0:0|0:0,0:0:0:0:
409,0,67853,1,0,3:0:0:0:
355,84,67978,2,0,P|281:113|226:106,1,107.999996704102,2|0,0:0|0:0,0:0:0:0:
169,63,68228,2,0,P|121:125|114:180,1,107.999996704102,2|0,0:0|0:0,0:0:0:0:
140,138,68478,2,0,B|183:121|230:126|284:145|316:185|316:185|293:195|263:183,1,240,2|0,0:0|0:0,0:0:0:0:
271,185,68978,2,0,P|280:128|243:37,1,144,2|0,0:0|0:0,0:0:0:0:
464,0,69478,6,0,P|516:67|439:248,1,287.999991210938,2|0,0:0|3:0,0:0:0:0:
176,312,70228,2,0,P|222:255|278:209,1,143.999995605469,2|0,0:0|0:0,0:0:0:0:
104,78,70728,1,2,0:0:0:0:
321,0,70978,2,0,P|383:73|305:131,1,215.999993408203,2|0,0:0|0:0,0:0:0:0:
134,98,71478,6,0,P|162:187|218:247,1,143.999995605469,2|0,0:0|0:0,0:0:0:0:
316,230,71853,1,0,3:0:0:0:
220,252,71978,2,0,P|178:310|165:372,1,107.999996704102,2|0,0:0|0:0,0:0:0:0:
166,384,72228,2,0,P|214:361|268:354,1,107.999996704102,2|0,0:0|0:0,0:0:0:0:
390,368,72478,2,0,P|334:358|250:310,2,143.999995605469,2|0|0,1:0|3:0|3:0,0:0:0:0:
1,45,73478,6,0,B|-4:69|-53:61|-63:16|-14:-50|85:-2|95:21|94:30|94:39|147:66|213:51,1,287.999991210938,4|0,0:3|3:0,0:0:0:0:
473,40,74228,2,0,P|415:80|348:111,1,143.999995605469,2|0,0:0|0:0,0:0:0:0:
469,271,74728,1,2,0:0:0:0:
437,45,74978,2,0,B|396:38|365:62|365:62|395:85|437:80,1,143.999995605469,2|0,0:0|0:0,0:0:0:0:
130,100,75478,6,0,P|79:178|72:260,1,143.999995605469,2|0,0:0|0:0,0:0:0:0:
122,384,75853,1,0,3:0:0:0:
172,297,75978,2,0,P|249:286|300:308,1,107.999996704102,2|0,0:0|0:0,0:0:0:0:
349,364,76228,2,0,P|384:323|400:271,1,107.999996704102,2|0,0:0|0:0,0:0:0:0:
361,266,76478,2,0,B|403:250|452:248|507:270|520:302|520:302|493:319|457:304,1,240,2|0,0:0|0:0,0:0:0:0:
458,305,76978,2,0,B|491:318|520:301|520:301|516:267|500:254,1,96,2|0,0:0|0:0,0:0:0:0:
211,368,77478,6,0,P|125:383|1:229,1,287.999991210938,2|0,0:0|3:0,0:0:0:0:
142,0,78228,2,0,P|166:67|178:138,1,143.999995605469,2|0,0:0|0:0,0:0:0:0:
398,65,78728,1,2,0:0:0:0:
442,252,78978,2,0,P|520:213|495:157,1,143.999995605469,2|0,0:0|0:0,0:0:0:0:
260,98,79478,5,2,0:0:0:0:
152,36,79728,1,0,3:0:0:0:
0,101,79978,2,0,P|90:156|197:152,1,215.999993408203,2|0,0:0|0:0,0:0:0:0:
353,25,80478,2,0,P|282:37|221:75,1,143.999995605469,2|0,0:0|3:0,0:0:0:0:
178,187,80978,2,0,P|202:119|200:47,1,143.999995605469,2|0,0:0|0:0,0:0:0:0:
5,373,81478,6,0,P|145:378|259:296,1,287.999991210938,12|0,0:1|3:0,0:0:0:0:
197,11,82228,2,0,P|165:107|177:175,1,143.999995605469,2|0,0:0|0:0,0:0:0:0:
0,19,82728,1,2,0:0:0:0:
194,132,82978,2,0,P|288:114|260:23,1,215.999993408203,2|0,0:0|0:0,0:0:0:0:
88,76,83478,6,0,P|48:113|19:212,1,143.999995605469,2|0,0:0|0:0,0:0:0:0:
27,328,83853,1,0,3:0:0:0:
110,272,83978,2,0,P|149:308|169:382,1,107.999996704102,2|0,0:0|0:0,0:0:0:0:
268,334,84228,2,0,P|284:282|264:208,1,107.999996704102,2|0,0:0|0:0,0:0:0:0:
310,246,84478,2,0,B|341:209|393:217|393:217|448:225|477:181|477:181|457:165|426:187,1,240,2|0,0:0|0:0,0:0:0:0:
432,184,84978,2,0,P|442:129|514:55,1,143.999995605469,2|0,0:0|0:0,0:0:0:0:
255,11,85478,6,0,P|113:5|0:87,1,287.999991210938,2|0,0:0|3:0,0:0:0:0:
30,375,86228,2,0,P|85:289|90:220,1,143.999995605469,2|0,0:0|0:0,0:0:0:0:
233,349,86728,1,2,0:0:0:0:
369,156,86978,2,0,P|460:186|420:273,1,215.999993408203,2|0,0:0|0:0,0:0:0:0:
229,252,87478,6,0,P|199:205|197:102,1,143.999995605469,2|0,0:0|0:0,0:0:0:0:
239,4,87853,1,0,3:0:0:0:
177,83,87978,2,0,P|135:116|83:128,1,107.999996704102,2|0,0:0|0:0,0:0:0:0:
52,123,88228,2,0,B|22:124|5:146|5:146|12:175|43:191,1,107.999996704102,2|0,0:0|0:0,0:0:0:0:
13,298,88478,2,0,P|38:250|126:195,2,143.999995605469,2|0|0,1:0|3:0|3:0,0:0:0:0:
437,59,89478,6,0,B|437:18|469:-2|469:-2|521:19|524:134|485:210,1,287.999991210938,4|0,0:3|3:0,0:0:0:0:
233,330,90228,2,0,P|278:239|335:199,1,143.999995605469,2|0,0:0|0:0,0:0:0:0:
117,129,90728,1,2,0:0:0:0:
199,347,90978,2,0,P|253:375|266:315,1,143.999995605469,2|0,0:0|0:0,0:0:0:0:
387,50,91478,6,0,P|331:47|241:97,1,143.999995605469,2|0,0:0|0:0,0:0:0:0:
158,193,91853,1,0,3:0:0:0:
258,199,91978,2,0,P|265:251|249:302,1,107.999996704102,2|0,0:0|0:0,0:0:0:0:
354,333,92228,2,0,P|387:291|399:239,1,107.999996704102,2|0,0:0|0:0,0:0:0:0:
424,268,92478,2,0,B|396:227|416:180|416:180|440:115|373:70|336:160|408:163,1,240,2|0,0:0|0:0,0:0:0:0:
394,161,92978,2,0,B|364:155|358:110|395:108|434:119,1,96,2|0,0:0|0:0,0:0:0:0:
183,384,93478,6,0,P|57:318|0:189,1,287.999991210938,2|0,0:0|3:0,0:0:0:0:
225,7,94228,2,0,P|256:102|244:170,1,143.999995605469,2|0,0:0|0:0,0:0:0:0:
458,75,94728,1,2,0:0:0:0:
360,283,94978,2,0,P|438:322|412:378,1,143.999995605469,2|0,0:0|0:0,0:0:0:0:
0,373,95478,6,0,P|69:367|138:336,1,120,2|0,0:0|3:0,0:0:0:0:
169,269,95881,2,0,P|134:336|200:387,1,150,2|0,0:0|0:0,0:0:0:0:
225,377,96316,2,0,L|262:385,1,24,0|0,1:0|1:0,0:0:0:0:
246,306,96461,5,8,0:0:0:0:
443,286,96702,1,0,3:0:0:0:
172,92,96938,1,8,0:3:0:0:
78,108,97060,1,8,0:3:0:0:
31,163,97183,1,4,0:3:0:0:
21,211,97306,1,4,0:3:0:0:
204,104,97428,6,0,L|387:130,1,180.000006866455,4|0,0:0|0:0,0:0:0:0:
512,235,97788,1,0,3:0:0:0:
346,214,97908,2,0,P|306:261|291:314,1,90.0000034332277,2|0,0:0|0:0,0:0:0:0:
277,374,98148,2,0,L|93:347,1,180.000006866455,0|0,3:0|0:0,0:0:0:0:
25,201,98508,1,0,3:0:0:0:
150,160,98628,1,2,0:0:0:0:
143,67,98748,1,0,3:0:0:0:
58,212,98868,1,8,0:0:0:0:
355,185,99108,1,0,3:0:0:0:
448,150,99228,2,0,B|434:207,1,45.0000017166138,2|0,0:3|0:0,0:0:0:0:
418,268,99348,6,0,L|443:371,2,90.0000034332277,0|0|0,3:0|0:0|0:0,0:0:0:0:
259,256,99708,1,0,3:0:0:0:
335,158,99828,2,0,P|307:104|304:48,1,90.0000034332277,2|0,0:0|0:0,0:0:0:0:
227,30,100068,2,0,L|43:3,1,180.000006866455,0|0,3:0|0:0,0:0:0:0:
0,164,100428,1,0,3:0:0:0:
152,103,100548,2,0,P|154:163|180:213,1,90.0000034332277,2|0,1:2|3:0,0:0:0:0:
129,219,100788,2,0,L|313:246,1,180.000006866455,8|0,0:0|3:0,0:0:0:0:
93,247,101148,1,0,1:0:0:0:
148,337,101268,5,0,3:0:0:0:
280,103,101508,1,0,0:0:0:0:
370,70,101628,1,0,3:0:0:0:
479,138,101748,2,0,P|469:181|446:220,1,90.0000034332277,2|0,0:0|0:0,0:0:0:0:
458,15,101988,2,0,L|431:199,1,180.000006866455,0|0,3:0|0:0,0:0:0:0:
326,327,102348,1,0,3:0:0:0:
227,246,102468,1,2,0:0:0:0:
139,277,102588,1,0,3:0:0:0:
294,319,102708,1,8,0:0:0:0:
30,191,102948,1,2,3:2:0:0:
100,109,103068,2,0,L|53:71,1,45.0000017166138,2|0,0:3|0:0,0:0:0:0:
89,1,103188,6,0,P|28:4|-22:30,2,90.0000034332277,2|0|0,3:2|0:0|0:0,0:0:0:0:
249,76,103548,1,0,3:0:0:0:
220,167,103668,2,0,P|159:164|109:138,1,90.0000034332277,2|0,0:0|0:0,0:0:0:0:
425,138,103908,1,10,0:0:0:0:
373,291,104028,1,8,0:0:0:0:
106,288,104268,1,8,0:0:0:0:
201,254,104388,1,2,3:2:0:0:
398,384,104628,1,8,0:0:0:0:
343,28,104868,1,10,0:0:0:0:
226,131,104988,1,8,0:0:0:0:
461,103,105108,6,0,L|434:287,1,180.000006866455,4|0,3:2|0:0,0:0:0:0:
300,361,105468,1,0,3:0:0:0:
291,234,105588,2,0,P|230:224|176:238,1,90.0000034332277,2|0,0:0|0:0,0:0:0:0:
124,281,105828,2,0,L|8:135,1,180.000006866455,0|0,3:0|0:0,0:0:0:0:
111,0,106188,1,0,3:0:0:0:
211,85,106308,1,2,0:0:0:0:
281,17,106428,1,0,3:0:0:0:
120,33,106548,1,8,0:0:0:0:
220,284,106788,1,0,3:0:0:0:
252,376,106908,2,0,L|208:384,1,45.0000017166138,2|0,0:3|0:0,0:0:0:0:
139,332,107028,6,0,P|78:322|24:336,2,90.0000034332277,2|0|0,3:2|0:0|0:0,0:0:0:0:
227,207,107388,2,0,L|235:107,1,90.0000034332277,0|0,3:0|0:0,0:0:0:0:
286,370,107628,1,0,0:0:0:0:
328,246,107748,2,0,P|385:224|469:123,1,180.000006866455,2|0,3:2|0:0,0:0:0:0:
410,27,108108,1,0,3:0:0:0:
269,128,108228,2,0,L|259:29,1,90.0000034332277,0|0,1:0|3:0,0:0:0:0:
230,8,108468,2,0,P|173:29|89:131,1,180.000006866455,10|0,0:0|3:0,0:0:0:0:
304,41,108828,1,0,1:0:0:0:
269,128,108948,5,0,3:0:0:0:
41,185,109188,1,0,0:0:0:0:
31,282,109308,1,0,3:0:0:0:
127,367,109428,2,0,P|166:346|198:314,1,90.0000034332277,2|0,0:0|0:0,0:0:0:0:
0,379,109668,2,0,L|170:305,1,180.000006866455,0|0,3:0|0:0,0:0:0:0:
281,189,110028,1,0,3:0:0:0:
158,154,110148,1,2,0:0:0:0:
133,61,110268,1,0,3:0:0:0:
254,168,110388,1,8,0:0:0:0:
512,104,110628,1,0,3:0:0:0:
440,161,110748,2,0,L|465:210,1,45.0000017166138,2|0,0:3|0:0,0:0:0:0:
500,288,110868,5,2,3:2:0:0:
377,300,110988,1,0,1:0:0:0:
309,342,111108,1,0,0:0:0:0:
293,381,111228,2,0,P|345:365|278:310,1,180.000006866455,0|0,3:0|0:0,0:0:0:0:
510,145,111588,1,10,0:0:0:0:
439,0,111708,1,8,0:0:0:0:
0,40,111948,1,8,0:0:0:0:
60,113,112068,2,0,B|20:312,1,180.000006866455,0|10,3:0|0:0,0:0:0:0:
156,182,112428,1,0,0:0:0:0:
222,256,112548,1,8,0:0:0:0:
258,113,112668,1,8,0:0:0:0:
123,273,112788,6,0,P|170:323|289:396,1,180.000006866455,6|0,3:2|0:0,0:0:0:0:
394,253,113148,1,0,3:0:0:0:
486,275,113268,2,0,L|514:366,1,90.0000034332277
301,231,113508,2,0,P|264:171|224:37,1,180.000006866455,2|0,3:2|0:0,0:0:0:0:
292,0,113868,2,0,L|386:21,1,90.0000034332277,0|0,3:0|0:0,0:0:0:0:
218,103,114108,1,0,3:0:0:0:
77,31,114228,2,0,P|40:90|0:224,1,180.000006866455,10|0,0:0|3:0,0:0:0:0:
24,369,114588,2,0,L|45:318,1,45.0000017166138,2|0,0:3|0:0,0:0:0:0:
83,246,114708,6,0,P|132:234|182:234,1,90.0000034332277,2|0,3:2|1:0,0:0:0:0:
317,248,114948,1,0,0:0:0:0:
404,297,115068,2,0,L|383:391,1,90.0000034332277,0|0,3:0|0:0,0:0:0:0:
512,142,115308,1,0,0:0:0:0:
404,203,115428,1,2,3:2:0:0:
431,115,115548,1,2,0:0:0:0:
392,30,115668,2,0,P|347:31|303:43,2,90.0000034332277,2|0|0,0:0|3:0|1:0,0:0:0:0:
230,126,116028,1,0,3:0:0:0:
95,118,116148,2,0,P|78:186|11:308,1,180.000006866455,10|2,0:0|3:2,0:0:0:0:
129,106,116508,1,0,1:0:0:0:
169,205,116628,6,0,P|236:225|376:228,1,180.000006866455,2|0,3:2|0:0,0:0:0:0:
485,198,116988,2,0,L|464:292,1,90.0000034332277,0|2,3:0|0:0,0:0:0:0:
328,365,117228,1,0,0:0:0:0:
377,249,117348,2,0,L|356:155,2,90.0000034332277,0|0|0,3:0|0:0|0:0,0:0:0:0:
294,365,117708,2,0,L|274:277,1,90.0000034332277,0|2,3:0|0:0,0:0:0:0:
79,340,117948,1,0,3:0:0:0:
238,286,118068,1,8,0:0:0:0:
0,367,118308,1,0,3:0:0:0:
35,277,118428,2,0,L|20:228,1,45.0000017166138,2|0,0:3|0:0,0:0:0:0:
0,161,118548,6,0,L|162:378,2,270.000010299683,2|0|8,3:2|3:0|0:0,0:0:0:0:
79,340,119388,1,8,0:0:0:0:
492,130,119628,1,8,0:0:0:0:
432,208,119748,2,0,L|470:387,1,180.000006866455,2|8,3:2|0:0,0:0:0:0:
64,22,120228,1,8,0:0:0:0:
0,160,120348,1,8,0:0:0:0:
201,62,120468,6,0,P|269:78|391:145,1,180.000006866455,6|0,3:2|0:0,0:0:0:0:
467,239,120828,1,0,3:0:0:0:
512,155,120948,2,0,L|491:61,1,90.0000034332277
383,275,121188,2,0,P|315:295|175:298,1,180.000006866455,2|0,3:2|0:0,0:0:0:0:
110,278,121548,2,0,L|88:365,1,90.0000034332277,0|0,3:0|0:0,0:0:0:0:
13,200,121788,1,0,3:0:0:0:
102,52,121908,2,0,P|138:111|178:245,1,180.000006866455,10|0,0:0|3:0,0:0:0:0:
168,369,122268,2,0,L|222:348,1,45.0000017166138,2|0,0:3|0:0,0:0:0:0:
303,321,122388,6,0,P|337:284|362:241,1,90.0000034332277,2|0,3:2|1:0,0:0:0:0:
386,125,122628,1,0,0:0:0:0:
375,28,122748,2,0,L|281:7,1,90.0000034332277,0|0,3:0|0:0,0:0:0:0:
491,124,122988,1,0,0:0:0:0:
364,151,123108,1,2,3:2:0:0:
395,243,123228,1,2,0:0:0:0:
339,328,123348,2,0,P|294:326|250:314,2,90.0000034332277,2|0|0,0:0|3:0|1:0,0:0:0:0:
160,266,123708,1,0,3:0:0:0:
62,183,123828,2,0,P|98:123|138:-10,1,180.000006866455,10|2,0:0|3:2,0:0:0:0:
77,215,124188,1,0,1:0:0:0:
180,172,124308,6,0,P|241:205|342:301,1,180.000006866455,2|0,3:2|0:0,0:0:0:0:
378,384,124668,2,0,L|472:363,1,90.0000034332277,0|0,3:0|0:0,0:0:0:0:
469,192,124908,1,0,0:0:0:0:
347,252,125028,2,0,L|253:231,2,90.0000034332277,2|0|0,3:2|0:0|0:0,0:0:0:0:
504,182,125388,2,0,L|483:276,1,90.0000034332277,0|0,3:0|0:0,0:0:0:0:
350,106,125628,1,0,3:0:0:0:
512,146,125748,1,8,0:0:0:0:
263,85,125988,1,0,3:0:0:0:
350,106,126228,5,0,3:0:0:0:
20,189,126468,1,8,0:0:0:0:
377,249,126708,1,8,0:0:0:0:
512,321,126828,1,8,0:0:0:0:
427,362,126948,2,0,L|412:250,1,90.0000034332277,0|0,3:0|0:0,0:0:0:0:
447,161,127148,1,8,0:0:0:0:
447,161,127188,1,8,0:0:0:0:
447,161,127428,2,0,P|396:158|348:146,1,90.0000034332277,6|0,0:0|3:0,0:0:0:0:
225,50,127668,1,8,0:3:0:0:
335,10,127788,1,8,0:3:0:0:
402,55,127908,2,0,B|351:76|309:68|309:68|315:54|342:32,1,135.000005149841,4|0,3:0|0:0,0:0:0:0:
197,81,128148,6,0,P|163:139|139:268,1,180.000006866455,6|0,3:2|0:0,0:0:0:0:
327,212,128508,2,0,L|512:260,1,180.000006866455,2|0,3:0|0:0,0:0:0:0:
302,58,128868,2,0,L|486:7,1,180.000006866455,2|0,3:0|0:0,0:0:0:0:
316,94,129228,1,0,3:0:0:0:
185,5,129348,2,0,P|140:6|100:23,1,90.0000034332277,2|0,1:2|0:0,0:0:0:0:
69,7,129588,2,0,P|70:74|26:198,1,180.000006866455,10|2,0:0|3:2,0:0:0:0:
201,185,129948,1,2,0:3:0:0:
316,94,130068,6,0,P|355:115|399:120,1,90.0000034332277,2|0,3:2|0:0,0:0:0:0:
483,74,130308,1,2,0:3:0:0:
419,154,130428,2,0,L|429:255,1,90.0000034332277,2|0,3:0|0:0,0:0:0:0:
505,310,130668,1,2,0:3:0:0:
398,261,130788,2,0,L|325:314,2,90.0000034332277,2|0|0,3:0|0:0|0:0,0:0:0:0:
316,94,131148,1,2,3:0:0:0:
164,86,131268,2,0,P|145:41|145:-3,1,90.0000034332277,2|0,1:2|0:0,0:0:0:0:
107,6,131508,2,0,P|82:84|90:211,1,180.000006866455,10|2,0:0|3:2,0:0:0:0:
147,250,131868,1,8,0:0:0:0:
0,319,131988,6,0,P|95:350|201:349,1,180.000006866455,6|0,3:2|0:0,0:0:0:0:
339,353,132348,2,0,P|244:322|138:323,1,180.000006866455,2|0,3:2|0:0,0:0:0:0:
92,156,132708,1,10,0:0:0:0:
365,245,132948,2,0,P|454:199|528:124,1,180.000006866455,6|0,3:2|0:0,0:0:0:0:
436,0,133308,2,0,P|381:83|354:186,1,180.000006866455,2|0,3:2|0:0,0:0:0:0:
409,326,133668,1,10,0:0:0:0:
392,165,133788,1,8,0:0:0:0:
496,364,133908,6,0,P|406:359|321:330,1,180.000006866455,6|2,0:0|0:3,0:0:0:0:
488,178,134268,2,0,L|515:-17,1,180.000006866455,2|2,3:0|0:3,0:0:0:0:
303,162,134628,2,0,L|68:-15,1,270.000010299683,2|0,3:0|3:0,0:0:0:0:
273,90,135108,1,0,1:0:0:0:
22,196,135348,2,0,L|-1:383,1,180.000006866455,8|8,0:0|0:3,0:0:0:0:
138,151,135708,1,8,0:3:0:0:
281,125,135828,6,0,P|284:206|219:385,1,270.000010299683,6|2,3:2|3:0,0:0:0:0:
318,227,136308,1,0,0:0:0:0:
419,264,136428,1,0,0:0:0:0:
494,150,136548,2,0,L|314:129,1,180.000006866455,2|0,3:0|0:0,0:0:0:0:
193,0,136908,1,0,3:0:0:0:
28,18,137028,2,0,P|9:63|9:107,1,90.0000034332277,2|0,1:2|0:0,0:0:0:0:
73,180,137268,2,0,P|103:147|119:105,1,90.0000034332277,10|0,0:0|0:0,0:0:0:0:
56,4,137508,2,0,P|118:11|126:73,1,135.000005149841,2|0,3:2|0:0,0:0:0:0:
288,5,137748,6,0,L|399:30,1,90.0000034332277,2|0,3:2|0:0,0:0:0:0:
474,14,137988,1,2,0:3:0:0:
423,98,138108,2,0,L|334:118,1,90.0000034332277,2|0,3:0|0:0,0:0:0:0:
251,70,138348,1,2,0:3:0:0:
118,105,138468,1,2,3:0:0:0:
221,196,138588,1,0,0:0:0:0:
221,196,138708,1,0,0:0:0:0:
221,196,138828,1,2,3:0:0:0:
221,196,138948,2,0,P|240:241|229:338,1,135.000005149841,2|0,1:2|0:0,0:0:0:0:
125,384,139188,2,0,P|79:306|-30:272,1,180.000006866455,10|0,0:0|3:0,0:0:0:0:
220,356,139548,1,8,0:0:0:0:
332,239,139668,6,0,P|396:327|511:389,1,225.000008583069,6|0,3:2|0:0,0:0:0:0:
512,255,140028,2,0,P|448:167|333:105,1,225.000008583069,2|0,3:2|0:0,0:0:0:0:
355,205,140388,2,0,P|372:160|372:116,1,90.0000034332277,10|0,0:0|0:0,0:0:0:0:
45,0,140628,6,0,P|0:99|4:230,1,225.000008583069,6|0,3:2|0:0,0:0:0:0:
133,373,140988,2,0,P|177:273|173:142,1,225.000008583069,2|0,3:2|0:0,0:0:0:0:
4,84,141348,1,10,0:0:0:0:
172,122,141468,1,8,0:0:0:0:
9,244,141588,6,0,P|107:278|140:342,1,180,6|0,3:2|3:0,0:0:0:0:
444,288,142188,1,2,1:2:0:0:
353,190,142308,1,2,3:2:0:0:
456,73,142428,1,2,0:0:0:0:
339,181,142548,5,2,0:0:0:0:
329,170,142628,1,0,1:0:0:0:
322,157,142708,1,0,1:0:0:0:
319,142,142788,1,0,1:0:0:0:
318,67,142908,1,0,1:0:0:0:
377,10,143028,5,8,0:0:0:0:
248,18,143148,1,8,0:3:0:0:
176,58,143268,1,4,0:3:0:0:
150,114,143388,1,4,0:3:0:0:
438,64,143508,6,0,P|383:124|321:262,1,215.999993408203,6|0,3:2|0:0,0:0:0:0:
402,65,143868,1,0,3:0:0:0:
387,192,143988,1,0,0:0:0:0:
199,384,144228,2,0,L|230:161,1,215.999993408203,8|0,0:0|3:0,0:0:0:0:
278,98,144588,2,0,L|188:165,1,107.999996704102,0|2,1:0|0:0,0:0:0:0:
95,361,144828,1,0,3:0:0:0:
0,263,144948,2,0,P|71:226|220:200,1,215.999993408203,10|0,0:0|3:0,0:0:0:0:
392,347,145308,2,0,L|413:273,1,53.9999983520508,2|0,0:3|0:0,0:0:0:0:
358,192,145428,5,2,3:2:0:0:
445,140,145548,2,0,L|462:21,1,107.999996704102,0|0,1:0|0:0,0:0:0:0:
270,20,145788,2,0,P|309:57|360:87,1,107.999996704102,2|0,3:2|0:0,0:0:0:0:
122,46,146148,2,0,P|70:78|12:168,1,161.999995056153,10|0,0:0|0:0,0:0:0:0:
51,173,146388,2,0,P|39:88|3:-2,2,162.000000617981,2|0|0,3:2|1:0|0:0,0:0:0:0:
46,40,146748,1,0,3:0:0:0:
121,152,146868,2,0,P|187:158|239:32,1,215.999993408203,10|0,0:0|3:0,0:0:0:0:
6,52,147228,1,0,1:0:0:0:
6,236,147348,6,0,P|66:290|204:352,1,215.999993408203,2|0,3:2|0:0,0:0:0:0:
8,270,147708,1,0,3:0:0:0:
135,286,147828,1,0,0:0:0:0:
412,225,148068,2,0,L|189:194,1,215.999993408203,8|0,0:0|3:0,0:0:0:0:
128,149,148428,2,0,L|195:238,1,107.999996704102,0|2,1:0|0:0,0:0:0:0:
413,100,148668,1,0,3:0:0:0:
291,32,148788,2,0,P|274:110|288:261,1,215.999993408203,10|0,0:0|3:0,0:0:0:0:
405,370,149148,2,0,L|331:391,1,53.9999983520508,2|0,0:3|0:0,0:0:0:0:
215,384,149268,5,2,3:2:0:0:
213,282,149388,2,0,L|118:207,1,107.999996704102,0|0,1:0|0:0,0:0:0:0:
12,322,149628,2,0,L|123:338,1,107.999996704102,2|0,3:2|0:0,0:0:0:0:
13,176,149988,1,10,0:0:0:0:
105,85,150108,1,8,0:0:0:0:
222,141,150228,2,0,B|283:181|354:165|354:165|329:122|287:109,1,215.999993408203,2|0,3:2|0:0,0:0:0:0:
400,15,150588,1,0,3:0:0:0:
298,113,150708,2,0,L|312:232,1,107.999996704102,8|0,0:0|0:0,0:0:0:0:
498,307,150948,1,8,0:0:0:0:
413,114,151068,1,8,0:0:0:0:
368,368,151188,6,0,P|322:299|205:203,1,215.999993408203,6|0,3:2|0:0,0:0:0:0:
373,332,151548,1,0,3:0:0:0:
255,285,151668,1,0,0:0:0:0:
33,119,151908,2,0,L|256:88,1,215.999993408203,8|0,0:0|3:0,0:0:0:0:
288,9,152268,2,0,L|274:128,1,107.999996704102,0|2,1:0|0:0,0:0:0:0:
479,275,152508,1,0,3:0:0:0:
511,141,152628,2,0,P|431:144|288:196,1,215.999993408203,10|0,0:0|3:0,0:0:0:0:
221,335,152988,2,0,L|200:261,1,53.9999983520508,2|0,0:3|0:0,0:0:0:0:
151,185,153108,5,2,3:2:0:0:
237,132,153228,2,0,L|253:13,1,107.999996704102,0|0,1:0|0:0,0:0:0:0:
40,94,153468,2,0,P|93:92|146:79,1,107.999996704102,2|0,3:2|0:0,0:0:0:0:
37,249,153828,2,0,P|69:301|158:358,1,161.999995056153,10|0,0:0|0:0,0:0:0:0:
163,320,154068,2,0,P|78:331|-11:367,2,162.000000617981,2|0|0,3:2|1:0|0:0,0:0:0:0:
30,324,154428,1,0,3:0:0:0:
142,249,154548,2,0,P|148:183|21:131,1,215.999993408203,10|0,0:0|3:0,0:0:0:0:
42,364,154908,1,0,1:0:0:0:
231,333,155028,6,0,P|308:307|431:219,1,215.999993408203,2|0,3:2|0:0,0:0:0:0:
262,349,155388,1,0,3:0:0:0:
339,247,155508,1,0,0:0:0:0:
512,35,155748,2,0,L|289:66,1,215.999993408203,8|0,0:0|3:0,0:0:0:0:
258,4,156108,2,0,L|244:123,1,107.999996704102,0|2,1:0|0:0,0:0:0:0:
18,202,156348,1,0,3:0:0:0:
55,334,156468,2,0,P|122:290|219:174,1,215.999993408203,10|0,0:0|3:0,0:0:0:0:
167,14,156828,2,0,L|241:-7,1,53.9999983520508,2|0,0:3|0:0,0:0:0:0:
339,46,156948,5,2,3:2:0:0:
302,133,157068,1,0,1:0:0:0:
356,215,157188,1,0,0:0:0:0:
447,234,157308,2,0,L|527:130,1,107.999996704102,0|2,3:0|0:0,0:0:0:0:
185,299,157668,1,8,0:0:0:0:
108,185,157788,1,8,0:0:0:0:
199,204,157908,2,0,P|154:304|86:385,1,215.999993408203,2|0,3:2|1:0,0:0:0:0:
25,168,158268,1,0,3:0:0:0:
185,70,158388,5,10,0:0:0:0:
294,139,158508,1,8,0:3:0:0:
396,129,158628,1,8,0:3:0:0:
450,69,158748,1,8,0:3:0:0:
103,130,158868,6,0,P|179:154|302:242,1,215.999993408203,6|0,3:2|0:0,0:0:0:0:
133,111,159228,1,0,3:0:0:0:
208,214,159348,1,0,0:0:0:0:
397,367,159588,2,0,L|366:144,1,215.999993408203,8|0,0:0|3:0,0:0:0:0:
417,66,159948,2,0,L|322:140,1,107.999996704102,0|2,1:0|0:0,0:0:0:0:
269,370,160188,1,0,3:0:0:0:
149,293,160308,2,0,P|207:238|345:173,1,215.999993408203,10|0,0:0|3:0,0:0:0:0:
492,287,160668,2,0,L|513:213,1,53.9999983520508,2|0,0:3|0:0,0:0:0:0:
456,106,160788,5,2,3:2:0:0:
367,153,160908,2,0,L|255:108,1,107.999996704102,0|0,1:0|0:0,0:0:0:0:
473,0,161148,2,0,P|474:56|488:106,1,107.999996704102,2|0,3:2|0:0,0:0:0:0:
289,76,161508,2,0,P|259:129|254:236,1,161.999995056153,10|0,0:0|0:0,0:0:0:0:
290,221,161748,2,0,P|237:153|160:93,2,162.000000617981,2|0|0,3:2|1:0|0:0,0:0:0:0:
219,108,162108,1,0,3:0:0:0:
340,168,162228,2,0,P|400:140|382:5,1,215.999993408203,10|0,0:0|3:0,0:0:0:0:
190,138,162588,1,0,1:0:0:0:
275,335,162708,6,0,P|196:308|74:220,1,215.999993408203,2|0,3:2|0:0,0:0:0:0:
242,348,163068,1,0,3:0:0:0:
166,246,163188,1,0,0:0:0:0:
22,0,163428,2,0,L|53:223,1,215.999993408203,8|0,0:0|3:0,0:0:0:0:
2,301,163788,2,0,L|97:227,1,107.999996704102,0|2,1:0|0:0,0:0:0:0:
195,25,164028,1,0,3:0:0:0:
58,68,164148,2,0,P|100:135|217:233,1,215.999993408203,10|0,0:0|3:0,0:0:0:0:
401,231,164508,2,0,L|380:305,1,53.9999983520508,2|0,0:3|0:0,0:0:0:0:
242,290,164628,5,2,3:2:0:0:
212,193,164748,2,0,L|101:145,1,107.999996704102,0|0,1:0|0:0,0:0:0:0:
180,376,164988,2,0,P|220:337|265:311,1,107.999996704102,2|0,3:2|0:0,0:0:0:0:
35,311,165348,1,10,0:0:0:0:
2,184,165468,1,8,0:0:0:0:
108,110,165588,2,0,B|162:60|166:-11|166:-11|118:1|95:39,1,215.999993408203,2|0,3:2|0:0,0:0:0:0:
303,35,165948,1,0,3:0:0:0:
201,133,166068,2,0,L|214:252,1,107.999996704102,8|0,0:0|0:0,0:0:0:0:
357,279,166308,1,8,0:0:0:0:
222,103,166428,1,8,0:0:0:0:
251,356,166548,6,0,P|275:280|364:156,1,215.999993408203,6|0,3:2|0:0,0:0:0:0:
234,325,166908,1,0,3:0:0:0:
336,250,167028,1,0,0:0:0:0:
427,0,167268,2,0,L|247:135,1,215.999993408203,8|0,0:0|3:0,0:0:0:0:
177,105,167628,2,0,L|272:178,1,107.999996704102,0|2,1:0|0:0,0:0:0:0:
470,235,167868,1,0,3:0:0:0:
500,95,167988,2,0,P|420:97|276:148,1,215.999993408203,10|0,0:0|3:0,0:0:0:0:
205,285,168348,2,0,L|184:211,1,53.9999983520508,2|0,0:3|0:0,0:0:0:0:
177,105,168468,5,2,3:2:0:0:
123,190,168588,2,0,L|3:207,1,107.999996704102,0|0,1:0|0:0,0:0:0:0:
153,76,168828,2,0,P|205:89|259:88,1,107.999996704102,2|0,3:2|0:0,0:0:0:0:
122,224,169188,2,0,P|138:282|210:361,1,161.999995056153,10|0,0:0|0:0,0:0:0:0:
225,325,169428,2,0,P|139:314|42:326,2,162.000000617981,2|0|0,3:2|1:0|0:0,0:0:0:0:
95,296,169788,1,0,3:0:0:0:
223,253,169908,2,0,P|245:190|137:108,1,215.999993408203,10|0,0:0|3:0,0:0:0:0:
96,338,170268,1,0,1:0:0:0:
294,374,170388,6,0,P|361:330|457:213,1,215.999993408203,2|0,3:2|0:0,0:0:0:0:
328,383,170748,1,0,3:0:0:0:
374,264,170868,1,0,0:0:0:0:
333,0,171108,2,0,L|248:208,1,215.999993408203,8|0,0:0|3:0,0:0:0:0:
179,204,171468,2,0,L|275:275,1,107.999996704102,0|2,1:0|0:0,0:0:0:0:
482,140,171708,1,0,3:0:0:0:
512,0,171828,2,0,P|433:2|372:28,1,107.999996704102,10|0,0:0|0:0,0:0:0:0:
251,199,172068,1,8,0:0:0:0:
139,11,172188,1,8,0:0:0:0:
41,227,172308,6,0,P|217:251|390:336,1,359.999989013672,6|0,3:2|0:0,0:0:0:0:
151,209,173028,1,8,0:0:0:0:
269,70,173148,1,8,0:0:0:0:
249,307,173268,2,0,P|171:145|163:39,1,287.999991210938,6|0,3:2|3:0,0:0:0:0:
309,29,173868,1,8,0:3:0:0:
385,84,173988,2,0,B|425:113|471:92|471:92|435:57|410:64,1,143.999995605469,0|12,0:0|0:1,0:0:0:0:
34,289,174588,5,2,3:2:0:0:
18,280,174708,1,2,0:0:0:0:
3,244,174828,1,0,0:0:0:0:
120,273,174948,1,10,0:0:0:0:
209,230,175068,2,0,P|208:170|305:95,1,180.000006866455,2|2,0:0|1:2,0:0:0:0:
502,183,175548,1,2,3:2:0:0:
415,232,175668,2,0,P|404:171|409:91,1,135.000005149841,10|0,0:0|0:0,0:0:0:0:
451,32,175908,1,2,3:2:0:0:
378,87,176028,2,0,L|297:66,1,45.0000017166138,2|0,0:3|0:0,0:0:0:0:
253,15,176148,6,0,P|164:30|-18:130,2,270.000010299683,2|2|10,3:2|3:2|0:0,0:0:0:0:
88,384,177108,1,0,3:0:0:0:
210,339,177228,2,0,P|294:370|467:381,1,225.000008583069,2|0,1:2|0:0,0:0:0:0:
472,380,177588,2,0,P|483:321|485:269,1,90.0000034332277,10|0,0:0|0:0,0:0:0:0:
355,97,177828,1,2,3:2:0:0:
247,182,177948,1,0,1:0:0:0:
170,173,178068,6,0,P|254:142|468:137,1,270.000010299683,0|2,3:0|3:2,0:0:0:0:
283,173,178548,1,2,0:0:0:0:
202,181,178668,1,0,0:0:0:0:
225,55,178788,1,10,0:0:0:0:
144,3,178908,2,0,P|114:55|-6:71,1,180.000006866455,2|2,0:0|1:2,0:0:0:0:
41,275,179388,1,2,3:2:0:0:
91,194,179508,2,0,P|131:241|166:313,1,135.000005149841,10|0,0:0|0:0,0:0:0:0:
159,384,179748,1,2,3:2:0:0:
207,316,179868,2,0,L|250:327,1,45.0000017166138,2|0,0:3|0:0,0:0:0:0:
323,382,179988,6,0,P|374:308|430:144,1,225.000008583069,2|0,3:2|0:0,0:0:0:0:
335,88,180348,2,0,P|327:177|361:347,1,225.000008583069,2|0,3:2|0:0,0:0:0:0:
435,384,180708,1,10,0:0:0:0:
426,255,180828,2,0,B|452:142,1,90.0000034332277,8|0,0:0|0:0,0:0:0:0:
419,154,181068,2,0,L|145:27,1,270.000010299683,8|10,0:0|0:0,0:0:0:0:
210,263,181548,1,2,0:0:0:0:
86,245,181668,1,10,0:0:0:0:
102,351,181788,1,10,0:0:0:0:
162,133,181908,6,0,P|246:102|460:97,1,270.000010299683,4|0,3:2|3:0,0:0:0:0:
273,134,182388,2,0,P|213:90|153:-6,1,180.000006866455,2|10,0:0|0:0,0:0:0:0:
428,122,182748,2,0,P|423:167|402:235,1,90.0000034332277,2|0,0:0|3:0,0:0:0:0:
378,219,182988,2,0,P|430:249|324:375,1,270.000010299683,2|10,1:2|0:0,0:0:0:0:
218,225,183468,1,0,0:0:0:0:
274,116,183588,1,2,3:2:0:0:
423,80,183708,2,0,L|445:118,1,45.0000017166138,2|0,0:3|0:0,0:0:0:0:
505,286,183828,6,0,P|414:294|211:245,2,270.000010299683,2|2|10,3:2|3:2|0:0,0:0:0:0:
0,350,184788,1,2,3:2:0:0:
110,265,184908,2,0,P|73:135|1:22,1,270.000010299683,2|10,1:2|0:0,0:0:0:0:
195,225,185388,1,2,0:0:0:0:
293,143,185508,1,2,3:2:0:0:
393,146,185628,1,2,1:2:0:0:
406,72,185748,6,0,P|275:105|141:99,1,270.000010299683,0|0,3:0|3:0,0:0:0:0:
312,122,186228,2,0,P|356:62|452:2,1,180.000006866455,2|10,0:0|0:0,0:0:0:0:
355,251,186588,2,0,P|360:296|381:364,1,90.0000034332277,2|0,0:0|3:0,0:0:0:0:
340,371,186828,2,0,P|288:341|394:215,1,270.000010299683,2|10,1:2|0:0,0:0:0:0:
469,370,187308,1,0,0:0:0:0:
340,371,187428,1,2,3:2:0:0:
227,259,187548,2,0,L|249:220,1,45.0000017166138,2|0,0:3|0:0,0:0:0:0:
312,57,187668,6,0,P|334:95|363:130,2,90.0000034332277,2|0|0,3:2|0:0|0:0,0:0:0:0:
324,142,188028,2,0,P|250:153|140:127,1,180.000006866455,2|2,3:2|0:0,0:0:0:0:
27,15,188388,1,10,0:0:0:0:
192,0,188508,1,8,0:0:0:0:
41,132,188628,2,0,P|46:177|67:245,1,90.0000034332277,2|8,3:2|0:0,0:0:0:0:
507,347,188988,1,0,0:0:0:0:
377,253,189108,2,0,L|369:317,3,45.0000017166138,10|0|0|0,0:0|0:0|0:0|0:0,0:0:0:0:
367,337,189348,2,0,L|394:301,1,45.0000017166138,8|0,0:0|0:0,0:0:0:0:
417,182,189468,1,8,0:0:0:0:
435,367,189588,6,0,P|346:319|306:224,1,180.000006866455,4|0,3:2|0:0,0:0:0:0:
350,250,189948,2,0,L|330:347,1,90.0000034332277,0|0,3:0|0:0,0:0:0:0:
0,195,190308,2,0,L|170:137,1,180.000006866455,10|0,0:0|3:0,0:0:0:0:
219,65,190668,2,0,L|201:153,1,90.0000034332277,0|0,1:0|0:0,0:0:0:0:
0,155,190908,1,0,3:0:0:0:
41,36,191028,1,8,0:0:0:0:
164,354,191268,1,2,3:2:0:0:
38,300,191388,2,0,L|91:258,1,45.0000017166138,2|0,0:3|0:0,0:0:0:0:
216,236,191508,6,0,P|244:272|277:335,2,90.0000034332277,2|0|0,3:2|1:0|0:0,0:0:0:0:
373,161,191868,2,0,P|327:168|256:165,1,90.0000034332277,2|0,3:2|0:0,0:0:0:0:
430,17,192228,2,0,P|337:-7|278:9,1,135.000005149841,10|0,0:0|0:0,0:0:0:0:
268,19,192468,1,2,3:2:0:0:
359,44,192588,1,0,1:0:0:0:
14,171,192828,1,0,3:0:0:0:
149,204,192948,2,0,P|177:300|139:396,1,180.000006866455,10|0,0:0|3:0,0:0:0:0:
0,243,193308,1,0,1:0:0:0:
184,186,193428,6,0,P|212:89|174:-6,1,180.000006866455,2|0,3:2|0:0,0:0:0:0:
161,34,193788,2,0,L|249:51,1,90.0000034332277,0|0,3:0|0:0,0:0:0:0:
512,0,194148,2,0,L|454:170,1,180.000006866455,8|0,0:0|3:0,0:0:0:0:
382,219,194508,2,0,L|470:201,1,90.0000034332277,0|0,1:0|0:0,0:0:0:0:
412,0,194748,1,0,3:0:0:0:
295,43,194868,1,8,0:0:0:0:
512,289,195108,1,2,3:2:0:0:
454,170,195228,2,0,L|401:212,1,45.0000017166138,2|0,0:3|0:0,0:0:0:0:
315,285,195348,6,0,P|319:330|341:398,2,90.0000034332277,2|0|0,3:2|1:0|0:0,0:0:0:0:
79,277,195708,1,2,3:2:0:0:
37,150,195828,2,0,P|60:51|141:-11,1,180.000006866455,0|10,0:0|0:0,0:0:0:0:
101,200,196188,1,8,0:0:0:0:
500,280,196428,1,8,0:0:0:0:
162,257,196668,1,0,3:0:0:0:
284,375,196788,1,8,0:0:0:0:
491,97,197028,1,8,0:0:0:0:
340,32,197148,1,8,0:0:0:0:
403,251,197268,6,0,P|305:303|122:338,1,270.000010299683,6|0,3:2|3:0,0:0:0:0:
0,255,197748,1,0,0:0:0:0:
153,41,197988,1,8,0:0:0:0:
59,0,198108,2,0,L|-17:88,1,90.0000034332277,0|0,0:0|3:0,0:0:0:0:
147,207,198348,2,0,L|58:189,2,90.0000034332277,0|0|0,1:0|0:0|3:0,0:0:0:0:
345,246,198708,1,8,0:0:0:0:
421,173,198828,1,0,0:0:0:0:
400,50,198948,1,2,3:2:0:0:
512,0,199068,2,0,L|504:67,1,45.0000017166138,2|0,0:3|0:0,0:0:0:0:
382,171,199188,6,0,P|285:199|189:161,1,180.000006866455,2|0,3:2|0:0,0:0:0:0:
421,34,199548,2,0,P|494:103|508:205,1,180.000006866455,2|0,3:2|0:0,0:0:0:0:
327,376,199908,1,10,0:0:0:0:
229,329,200028,1,0,0:0:0:0:
129,374,200148,1,0,3:0:0:0:
178,251,200268,2,0,P|145:144|40:-9,1,270.000010299683,0|10,1:0|0:0,0:0:0:0:
181,155,200748,1,0,0:0:0:0:
90,118,200868,1,2,3:2:0:0:
213,127,200988,1,2,0:0:0:0:
324,25,201108,6,0,P|399:106|480:273,1,270.000010299683,2|0,3:2|3:0,0:0:0:0:
398,384,201588,1,0,0:0:0:0:
157,345,201828,1,8,0:0:0:0:
198,251,201948,2,0,L|110:175,1,90.0000034332277,0|0,0:0|3:0,0:0:0:0:
372,249,202188,2,0,L|354:337,2,90.0000034332277,0|0|0,1:0|0:0|3:0,0:0:0:0:
144,0,202548,1,8,0:0:0:0:
62,163,202668,1,0,0:0:0:0:
166,298,202788,1,10,0:0:0:0:
184,110,202908,1,10,0:0:0:0:
72,374,203028,6,0,P|162:350|282:214,1,269.999991760254,6|0,3:2|0:0,0:0:0:0:
184,110,203388,2,0,P|159:200|217:371,1,269.999991760254,6|0,3:2|0:0,0:0:0:0:
359,378,203748,2,0,P|380:328|389:275,1,107.999996704102,6|0,3:2|0:0,0:0:0:0:
398,20,203988,2,0,P|293:9|82:60,1,315.000012016297,6|0,3:2|0:0,0:0:0:0:
0,134,204468,2,0,L|15:187,7,45.0000017166138,2|0|0|0|0|0|0|0,0:0|0:0|0:0|0:0|0:0|0:0|0:0|0:0,0:0:0:0:
101,84,204948,6,0,P|190:113|236:157,1,143.999995605469,6|0,0:0|0:0,0:0:0:0:
255,212,205308,2,0,L|271:122,1,71.9999978027344,0|0,3:0|0:0,0:0:0:0:
286,64,205668,2,0,L|523:21,1,215.999993408203,2|0,0:0|3:0,0:0:0:0:
354,20,206148,1,2,0:0:0:0:
503,133,206388,1,2,0:0:0:0:
509,212,206508,1,0,3:0:0:0:
456,272,206628,1,0,3:0:0:0:
376,276,206748,1,0,3:0:0:0:
317,224,206868,6,0,P|254:293|236:354,1,143.999995605469,2|0,0:0|0:0,0:0:0:0:
204,363,207228,2,0,L|188:273,1,71.9999978027344,0|0,3:0|0:0,0:0:0:0:
116,283,207588,2,0,L|166:0,1,287.999991210938,2|2,0:0|0:0,0:0:0:0:
167,198,208308,1,2,0:0:0:0:
215,261,208428,1,2,0:0:0:0:
295,265,208548,2,0,L|326:179,1,71.9999978027344,2|0,0:0|0:0,0:0:0:0:
358,130,208788,6,0,B|396:183|356:239|356:239|316:295|343:329,1,215.999993408203,6|0,3:2|3:0,0:0:0:0:
346,333,209508,2,0,L|63:283,1,287.999991210938,2|0,0:0|3:0,0:0:0:0:
247,345,210228,2,0,L|282:259,1,71.9999978027344,2|0,0:0|0:0,0:0:0:0:
344,149,210468,1,0,3:0:0:0:
344,149,210548,1,0,3:0:0:0:
344,149,210628,1,0,3:0:0:0:
344,149,210708,6,0,B|289:2|141:147|207:215|329:258|334:260|338:262|439:296|403:443|175:491|107:388|316:240|170:261|194:176|123:170|43:190|43:190|-32:212|-20:281|25:295|61:265|26:223,1,944.99997116089,6|0,3:2|0:0,0:0:0:0:
