osu file format v14

[General]
AudioFilename: audio.mp3
AudioLeadIn: 0
PreviewTime: 624
Countdown: 0
SampleSet: Soft
StackLeniency: 0.7
Mode: 0
LetterboxInBreaks: 0
WidescreenStoryboard: 1

[Editor]
DistanceSpacing: 0.1
BeatDivisor: 8
GridSize: 32
TimelineZoom: 2.4

[Metadata]
Title:Happy Birthday to You
TitleUnicode:Happy Birthday to You
Artist:SWORD OF JUSTICE
ArtistUnicode:SWORD OF JUSTICE
Creator:Nao Tomori
Version:Hard
Source:
Tags:mappers' guild mpg featured artist fa metal symphonic rock instrumental
BeatmapID:4457934
BeatmapSetID:2121084

[Difficulty]
HPDrainRate:5
CircleSize:3.5
OverallDifficulty:6.5
ApproachRate:8
SliderMultiplier:1.4
SliderTickRate:1

[Events]
//Background and Video events
0,0,"criin bg.jpg",0,0
//Break Periods
//Storyboard Layer 0 (Background)
//Storyboard Layer 1 (Fail)
//Storyboard Layer 2 (Pass)
//Storyboard Layer 3 (Foreground)
//Storyboard Layer 4 (Overlay)
//Storyboard Sound Samples

[TimingPoints]
1170,545.454545454544,3,2,1,50,1,0
1170,-100,3,2,1,50,0,0
8260,550.458715596329,3,2,1,50,1,0
8810,552.995391705068,3,2,1,50,1,0
9362,594.059405940592,3,2,1,50,1,0
9956,599.999999999998,3,2,1,50,1,0
11155,612.244897959181,3,2,1,50,1,0
11767,621.761658031085,3,2,1,50,1,0
12388,638.297872340422,3,2,1,50,1,0
13026,699.708454810492,3,2,1,50,1,0
16996,324.324324324324,4,2,1,50,1,0
17752,-100,4,2,1,75,0,0
18293,324.324324324324,4,2,1,75,1,0
28265,-73.5294117647059,4,2,1,75,0,0
28671,-100,4,2,1,75,0,0
54617,-100,4,2,1,75,0,0
57211,-100,4,2,1,75,0,0
61104,324.324324324324,3,2,1,60,1,0
68887,-100,3,2,1,65,0,0
73752,324.324324324324,4,2,1,75,1,0
75049,324.324324324324,4,2,1,75,1,0
97103,-100,4,2,1,75,0,0

[Colours]
Combo1 : 231,222,216
Combo2 : 155,255,155
Combo3 : 159,203,255
Combo4 : 251,183,193

[HitObjects]
22,135,624,6,0,P|92:164|132:132,1,105,2|2,0:2|0:2,0:0:0:0:
157,84,1170,1,6,3:2:0:0:
190,263,1715,1,2,0:2:0:0:
359,197,2260,1,0,0:2:0:0:
326,18,2805,1,4,3:2:0:0:
501,371,3897,6,0,P|455:352|390:371,1,105,2|0,0:2|0:2,0:0:0:0:
336,317,4442,1,4,3:2:0:0:
164,375,4988,1,2,0:2:0:0:
203,198,5533,1,4,0:2:0:0:
261,370,6079,1,0,0:2:0:0:
462,64,7033,5,8,0:2:0:0:
462,64,7101,1,8,0:2:0:0:
462,64,7169,2,0,L|473:3,2,46.6666666666667,0|8|8,0:2|0:2|0:2,0:0:0:0:
492,143,7715,6,0,P|466:177|381:184,1,105,6|0,3:2|0:0,0:0:0:0:
339,241,8260,1,4,0:3:0:0:
271,199,8443,1,4,0:3:0:0:
206,243,8626,1,4,0:3:0:0:
134,205,8810,2,0,L|138:151,2,46.6666666666667,8|8|8,0:3|0:3|0:3,0:0:0:0:
66,251,9362,2,0,P|31:292|61:383,1,140,6|4,3:2|3:2,0:0:0:0:
44,17,11155,5,2,0:2:0:0:
94,88,11614,1,2,0:2:0:0:
94,88,11767,2,0,P|88:127|82:243,1,140,4|4,3:2|3:2,0:0:0:0:
252,169,13026,2,0,P|261:265|264:324,1,140,4|4,3:2|3:2,0:0:0:0:
256,192,13900,12,0,16996,0:2:0:0:
502,59,17806,5,0,3:2:0:0:
502,59,17887,1,0,3:2:0:0:
502,59,17968,2,0,P|434:49|408:54,1,70,4|0,3:3|0:0,0:0:0:0:
367,107,18293,5,8,0:2:0:0:
427,184,18455,1,8,0:2:0:0:
23,378,20887,5,8,0:2:0:0:
56,292,21049,1,8,0:2:0:0:
499,331,23319,5,2,0:2:0:0:
426,273,23482,1,8,0:2:0:0:
390,349,23644,1,8,0:2:0:0:
27,54,25914,5,8,0:2:0:0:
27,54,25995,1,8,0:2:0:0:
27,54,26076,1,0,3:2:0:0:
100,103,26238,2,0,P|143:121|205:93,1,105,4|0,0:3|0:2,0:0:0:0:
195,102,26563,1,8,0:3:0:0:
271,39,26725,2,0,P|336:18|376:46,1,105,4|8,0:3|0:3,0:0:0:0:
365,33,27049,2,0,L|357:134,1,70,8|8,0:3|0:2,0:0:0:0:
359,103,27292,1,8,0:2:0:0:
359,103,27374,2,0,L|441:113,1,70,8|4,0:2|0:3,0:0:0:0:
499,184,27698,1,8,0:2:0:0:
499,184,27779,2,0,P|509:222|494:263,1,70,8|8,0:2|0:2,0:0:0:0:
501,250,28022,2,0,P|485:291|525:375,1,140,8|12,0:2|0:2,0:0:0:0:
220,291,28671,6,0,L|127:311,1,70,6|0,3:2|0:2,0:0:0:0:
13,263,28995,2,0,L|81:248,1,70,8|0,0:2|0:2,0:0:0:0:
152,178,29320,1,0,3:2:0:0:
152,178,29482,1,0,3:2:0:0:
81,102,29644,2,0,P|17:87|-15:100,1,70,8|0,0:2|3:2,0:0:0:0:
162,29,29968,6,0,P|198:43|293:-2,1,140,2|8,0:2|0:2,0:0:0:0:
320,103,30455,2,0,P|356:89|451:134,1,140,2|0,3:2|3:2,0:0:0:0:
490,206,30941,2,0,P|488:263|493:303,1,70,8|0,0:2|0:0,0:0:0:0:
507,370,31265,5,2,3:2:0:0:
300,298,31590,1,8,0:2:0:0:
116,376,31914,1,0,3:2:0:0:
116,376,32076,1,0,3:2:0:0:
116,376,32238,2,0,P|100:309|100:285,1,70,8|0,0:2|3:2,0:0:0:0:
170,245,32563,6,0,P|185:177|162:97,2,140,2|8|0,0:2|0:2|0:0,0:0:0:0:
92,197,33374,1,0,3:2:0:0:
92,197,33455,1,0,3:2:0:0:
92,197,33536,2,0,L|5:182,1,70,6|0,3:2|0:0,0:0:0:0:
6,91,33860,6,0,P|4:50|88:15,1,140,6|8,3:2|0:2,0:0:0:0:
183,27,34347,2,0,P|205:76|289:72,1,140,2|0,0:2|3:2,0:0:0:0:
359,15,34833,1,8,0:2:0:0:
429,71,34995,2,0,P|423:126|423:158,1,70,0|2,3:2|0:2,0:0:0:0:
490,213,35320,1,2,0:2:0:0:
490,213,35482,1,8,0:2:0:0:
404,244,35644,2,0,P|338:257|261:312,1,140,0|0,3:2|3:2,0:0:0:0:
436,319,36130,2,0,P|480:340|507:356,1,70,8|8,0:2|0:3,0:0:0:0:
510,256,36455,5,6,3:2:0:0:
475,165,36617,1,2,0:1:0:0:
508,71,36779,2,0,P|489:21|446:11,1,70,8|0,0:2|3:2,0:0:0:0:
388,50,37103,1,8,0:3:0:0:
388,50,37184,1,8,0:3:0:0:
388,50,37265,2,0,P|342:38|294:46,1,70,8|8,0:3|0:3,0:0:0:0:
286,124,37590,2,0,P|233:158|218:186,1,70,8|4,0:3|0:3,0:0:0:0:
255,261,37914,5,4,0:3:0:0:
255,261,37995,1,4,0:3:0:0:
255,261,38076,1,0,3:2:0:0:
216,353,38238,2,0,L|103:376,1,105,6|8,3:2|0:2,0:0:0:0:
113,373,38563,2,0,P|91:337|97:289,1,70,8|8,0:2|0:2,0:0:0:0:
116,222,38887,1,0,3:2:0:0:
116,222,38968,1,0,3:2:0:0:
116,222,39049,6,0,P|128:170|57:112,1,140,6|8,3:2|0:2,0:0:0:0:
133,16,39536,2,0,P|172:52|257:19,1,140,2|0,2:2|3:2,0:0:0:0:
291,147,40022,2,0,L|199:140,1,70,8|0,0:2|0:2,0:0:0:0:
186,230,40347,2,0,B|212:255|251:268|251:268|290:257|327:240,2,140,2|8|0,3:2|0:2|3:2,0:0:0:0:
186,230,41157,1,0,3:2:0:0:
87,330,41320,2,0,P|151:322|167:319,1,70,10|0,0:2|0:2,0:0:0:0:
261,369,41644,6,0,L|417:382,1,140,2|8,3:2|0:2,0:0:0:0:
465,293,42130,2,0,L|326:282,1,140,2|0,0:2|3:2,0:0:0:0:
197,199,42617,2,0,P|255:207|282:199,1,70,8|0,0:2|0:2,0:0:0:0:
300,126,42941,2,0,P|224:101|144:126,2,140,2|8|2,0:2|0:2|0:2,0:0:0:0:
382,190,43752,1,0,3:2:0:0:
382,190,43833,1,0,3:2:0:0:
382,190,43914,2,0,B|414:201|414:201|469:173,1,70,8|4,0:2|0:3,0:0:0:0:
460,313,44238,6,0,B|389:315|409:263|304:266,1,140,6|8,3:2|0:2,0:0:0:0:
232,202,44725,2,0,L|263:359,1,140,2|0,0:2|3:2,0:0:0:0:
167,353,45211,2,0,P|133:358|101:346,1,70,8|0,0:2|0:2,0:0:0:0:
79,264,45536,2,0,L|3:291,1,70,0|0,3:2|0:0,0:0:0:0:
37,179,45860,2,0,P|96:162|162:232,2,140,8|0|8,0:2|0:0|0:2,0:0:0:0:
252,32,46833,6,0,P|235:49|243:167,1,140,2|8,3:2|0:2,0:0:0:0:
313,283,47320,2,0,P|330:266|322:148,1,140,2|0,0:2|3:2,0:0:0:0:
232,247,47806,2,0,L|223:326,1,70,8|0,0:2|0:2,0:0:0:0:
303,383,48130,1,0,3:2:0:0:
303,383,48211,1,0,3:2:0:0:
303,383,48292,1,8,0:3:0:0:
303,383,48374,1,4,0:3:0:0:
303,383,48455,1,4,3:2:0:0:
392,331,48617,2,0,L|443:345,3,35,0|0|8|4,3:2|3:2|0:3|0:3,0:0:0:0:
452,353,48941,2,0,P|448:301|488:208,1,140,4|4,3:2|3:2,0:0:0:0:
506,134,49428,6,0,B|521:97|521:97|502:25|437:17,1,140,2|8,3:2|0:2,0:0:0:0:
385,69,49914,2,0,B|356:87|356:87|303:46|235:50,1,140,2|0,0:2|3:2,0:0:0:0:
102,105,50401,2,0,P|137:127|202:99,1,105,8|0,0:2|0:0,0:0:0:0:
194,108,50725,2,0,P|144:78|35:265,1,350,2|0,3:2|3:2,0:0:0:0:
110,335,51698,2,0,L|205:325,1,70,8|0,0:2|0:2,0:0:0:0:
316,269,52022,6,0,P|264:232|177:258,1,140,2|8,3:2|0:2,0:0:0:0:
124,166,52509,2,0,P|176:129|263:155,1,140,2|0,0:2|3:2,0:0:0:0:
340,138,52995,2,0,P|356:85|359:52,1,70,8|0,0:2|0:2,0:0:0:0:
443,15,53320,2,0,P|456:66|466:362,1,350,2|2,2:2|0:2,0:0:0:0:
466,361,54211,1,2,0:2:0:0:
473,368,54292,2,0,P|419:365|390:340,1,70,8|4,0:2|0:3,0:0:0:0:
312,286,54617,6,0,P|234:298|150:317,1,140,6|8,3:2|0:2,0:0:0:0:
206,214,55103,2,0,P|128:202|43:186,1,140,2|0,0:2|3:2,0:0:0:0:
129,107,55590,2,0,P|126:57|119:22,1,70,8|0,0:2|0:2,0:0:0:0:
219,0,55914,2,0,P|222:50|229:85,1,70,0|0,3:2|0:0,0:0:0:0:
308,127,56238,2,0,B|340:113|383:134|385:164|418:165|458:160,1,140,8|0,0:2|0:0,0:0:0:0:
131,365,56887,6,0,P|125:323|118:284,1,70,8|0,0:2|0:2,0:0:0:0:
73,193,57211,2,0,P|102:237|195:233,1,140,2|8,3:2|0:2,0:0:0:0:
267,296,57698,2,0,P|296:252|389:256,1,140,2|0,0:2|3:2,0:0:0:0:
462,364,58184,2,0,L|473:275,1,70,8|0,0:2|0:2,0:0:0:0:
504,203,58509,6,0,L|476:42,2,140,6|8|0,3:2|0:2|3:2,0:0:0:0:
440,272,59320,1,0,3:2:0:0:
356,219,59482,2,0,P|311:209|265:215,1,70,8|8,0:2|0:3,0:0:0:0:
207,261,59806,2,0,P|174:283|98:286,2,105,4|2|8,2:3|0:2|0:2,0:0:0:0:
216,248,60374,1,8,0:2:0:0:
219,233,60455,2,0,P|199:184|185:148,1,70,8|8,0:3|0:3,0:0:0:0:
285,144,60779,2,0,P|265:95|251:59,1,70,4|4,0:3|0:3,0:0:0:0:
337,29,61104,5,6,3:2:0:0:
355,12,61266,1,0,0:0:0:0:
453,172,61590,1,0,3:2:0:0:
453,172,61752,2,0,P|475:198|486:252,1,70,8|0,0:2|0:2,0:0:0:0:
388,233,62076,1,2,3:2:0:0:
388,233,62239,2,0,P|386:275|238:310,1,210,0|8,0:0|0:2,0:0:0:0:
115,91,63049,5,2,3:2:0:0:
106,76,63212,1,2,0:2:0:0:
50,227,63536,1,0,3:2:0:0:
50,227,63698,2,0,P|51:268|66:318,1,70,8|0,0:2|0:2,0:0:0:0:
149,344,64022,1,2,3:2:0:0:
149,344,64185,2,0,P|200:347|286:314,1,140,0|0,0:0|3:2,0:0:0:0:
282,316,64590,1,0,3:2:0:0:
282,316,64671,1,8,0:2:0:0:
373,359,64833,1,8,0:2:0:0:
454,301,64995,6,0,P|447:249|434:208,1,70,6|2,3:2|0:2,0:0:0:0:
390,154,65320,2,0,P|397:102|410:61,1,70,0|0,0:0|3:2,0:0:0:0:
333,232,65644,2,0,P|298:235|264:243,1,70,8|0,0:2|0:2,0:0:0:0:
187,315,65969,2,0,P|152:311|118:303,1,70,2|0,3:2|0:2,0:0:0:0:
41,239,66293,2,0,P|33:166|65:105,1,140,10|8,2:2|0:2,0:0:0:0:
369,30,66941,6,0,P|380:78|388:114,1,70,6|0,3:2|0:0,0:0:0:0:
449,161,67266,1,8,0:2:0:0:
449,161,67428,1,0,3:2:0:0:
378,237,67590,1,8,0:2:0:0:
378,237,67752,1,2,0:2:0:0:
412,322,67914,2,0,P|452:329|498:231,2,140,6|8|8,3:2|0:2|0:3,0:0:0:0:
326,371,68725,1,4,0:3:0:0:
326,371,68806,1,4,0:3:0:0:
326,371,68887,6,0,P|285:353|241:351,1,70,14|0,0:2|3:2,0:0:0:0:
192,291,69212,2,0,P|160:311|103:318,1,70,8|0,0:2|3:2,0:0:0:0:
35,286,69536,1,8,0:2:0:0:
35,286,69617,1,0,3:2:0:0:
35,286,69698,1,0,3:2:0:0:
35,286,69779,1,0,3:2:0:0:
35,286,69860,2,0,P|41:216|53:117,2,140,8|8|8,0:2|0:2|0:2,0:0:0:0:
105,361,70671,1,4,0:3:0:0:
105,361,70752,1,4,0:3:0:0:
105,361,70833,6,0,P|148:373|194:361,1,70,14|0,0:2|3:2,0:0:0:0:
246,299,71158,2,0,L|231:200,1,70,8|0,0:2|3:2,0:0:0:0:
235,229,71401,1,0,3:2:0:0:
235,229,71482,2,0,L|243:137,1,70,8|0,0:2|3:2,0:0:0:0:
241,160,71725,1,0,3:2:0:0:
241,160,71806,2,0,L|228:60,1,70,8|0,0:2|3:2,0:0:0:0:
300,22,72131,1,8,0:2:0:0:
300,22,72212,1,0,3:2:0:0:
300,22,72293,1,0,3:2:0:0:
300,22,72374,1,0,3:2:0:0:
300,22,72455,2,0,P|345:15|388:43,1,70,10|2,0:2|3:2,0:0:0:0:
510,88,72779,6,0,P|456:103|419:86,1,70,6|0,3:2|3:2,0:0:0:0:
296,175,73103,2,0,P|341:168|384:196,1,70,8|0,0:2|3:2,0:0:0:0:
506,241,73427,2,0,P|452:256|415:239,1,70,8|0,0:2|3:2,0:0:0:0:
364,321,73752,1,8,0:2:0:0:
364,321,73833,1,0,3:2:0:0:
364,321,73914,1,0,3:2:0:0:
364,321,73995,1,0,3:2:0:0:
364,321,74076,6,0,P|315:332|201:308,1,140,2|4,0:2|3:2,0:0:0:0:
130,351,74562,1,8,0:2:0:0:
130,351,74643,1,8,0:2:0:0:
130,351,74724,2,0,P|89:365|81:370,3,35,8|8|8|8,0:2|0:2|0:2|0:2,0:0:0:0:
54,351,75049,6,0,L|29:118,2,210,6|2|8,3:2|0:2|0:2,0:0:0:0:
134,290,76184,2,0,P|180:306|257:260,1,140,2|0,3:2|3:2,0:0:0:0:
261,170,76670,1,8,0:2:0:0:
261,170,76832,2,0,P|297:130|388:147,1,140,2|0,3:2|3:2,0:0:0:0:
448,202,77319,2,0,L|436:275,1,70,8|0,0:2|0:2,0:0:0:0:
498,349,77643,5,2,3:2:0:0:
288,301,77967,1,8,0:2:0:0:
357,109,78292,1,0,3:0:0:0:
357,109,78454,1,0,3:2:0:0:
357,109,78616,2,0,P|320:114|266:138,2,70,8|0|0,0:2|3:0|0:2,0:0:0:0:
434,172,79103,6,0,P|485:160|516:127,1,70,0|8,3:2|0:2,0:0:0:0:
512,56,79427,1,2,0:1:0:0:
420,35,79589,2,0,P|381:18|326:23,1,70,8|0,0:2|3:2,0:0:0:0:
353,16,79832,1,4,0:3:0:0:
353,16,79913,2,0,P|301:46|262:46,1,70,14|0,2:2|0:0,0:0:0:0:
203,77,80238,6,0,P|150:53|72:80,2,140,6|8|2,3:2|0:2|0:0,0:0:0:0:
215,176,81049,1,0,0:0:0:0:
215,176,81211,2,0,L|223:262,1,70,8|0,0:2|3:0,0:0:0:0:
165,326,81535,1,0,0:0:0:0:
165,326,81697,1,0,3:2:0:0:
83,283,81859,1,8,0:2:0:0:
83,283,82021,6,0,P|30:293|7:204,1,140,2|0,3:2|3:2,0:0:0:0:
86,174,82508,2,0,P|139:184|162:95,1,140,8|0,0:2|3:2,0:0:0:0:
114,59,82994,1,0,3:2:0:0:
194,12,83157,2,0,P|270:20|359:35,1,140,8|0,0:2|0:2,0:0:0:0:
416,77,83643,1,8,0:3:0:0:
416,77,83724,1,8,0:3:0:0:
416,77,83805,1,4,3:2:0:0:
385,159,83967,1,8,0:2:0:0:
385,159,84048,1,8,0:2:0:0:
385,159,84130,6,0,L|379:211,3,35,8|8|8|8,0:2|0:2|0:3|0:3,0:0:0:0:
381,233,84454,2,0,P|417:261|403:373,1,140,4|4,3:2|0:3,0:0:0:0:
251,328,84940,2,0,P|245:260|292:211,1,140,4|6,3:2|3:2,0:0:0:0:
246,132,85427,1,8,0:2:0:0:
246,132,85508,1,8,0:2:0:0:
246,132,85589,1,8,0:2:0:0:
246,132,85670,1,8,0:2:0:0:
246,132,85751,1,6,3:2:0:0:
179,194,85913,6,0,P|140:218|49:162,1,140,0|0,0:0|3:2,0:0:0:0:
32,102,86400,2,0,P|45:152|45:191,1,70,8|2,0:2|3:2,0:0:0:0:
9,274,86724,2,0,L|165:320,1,140,0|8,0:2|0:2,0:0:0:0:
229,369,87211,2,0,P|287:351|386:313,1,140,2|0,3:2|3:2,0:0:0:0:
444,360,87697,2,0,P|456:301|481:204,2,140,8|0|0,0:2|3:2|3:2,0:0:0:0:
503,81,88670,5,0,0:2:0:0:
503,81,88832,1,0,3:2:0:0:
430,27,88994,1,8,0:2:0:0:
430,27,89157,2,0,P|397:51|291:31,1,140,4|0,0:3|3:2,0:0:0:0:
234,109,89643,1,8,0:2:0:0:
178,37,89805,1,2,0:2:0:0:
97,90,89967,2,0,P|74:116|99:216,1,140,2|14,0:2|0:2,0:0:0:0:
419,269,90616,6,0,L|489:259,1,70,6|0,3:2|3:2,0:0:0:0:
322,227,90940,2,0,L|253:238,1,70,8|0,0:2|3:2,0:0:0:0:
378,148,91265,2,0,L|447:137,1,70,0|0,3:2|3:2,0:0:0:0:
297,94,91589,2,0,L|228:105,1,70,8|0,0:2|3:2,0:0:0:0:
155,50,91913,5,6,3:2:0:0:
180,260,92238,1,8,0:2:0:0:
370,110,92562,1,8,0:2:0:0:
296,135,92724,1,0,3:2:0:0:
302,56,92886,6,0,B|331:33|353:10|353:10|387:29|437:44,1,140,8|6,0:2|3:2,0:0:0:0:
472,109,93373,1,8,0:2:0:0:
472,109,93454,1,8,0:2:0:0:
472,109,93535,2,0,P|470:154|468:202,1,70,8|8,0:2|0:3,0:0:0:0:
508,258,93859,1,8,0:3:0:0:
508,258,93940,1,8,0:3:0:0:
508,258,94021,2,0,P|525:300|514:345,1,70,4|4,0:3|0:3,0:0:0:0:
446,371,94346,1,4,0:3:0:0:
372,313,94508,6,0,L|199:303,1,140,6|0,3:2|3:2,0:0:0:0:
158,359,94994,2,0,L|74:241,1,140,14|0,2:2|0:2,0:0:0:0:
5,189,95481,2,0,L|27:97,1,70,6|0,3:2|3:2,0:0:0:0:
21,120,95724,1,0,3:2:0:0:
21,120,95805,1,0,3:2:0:0:
37,29,95967,2,0,L|136:15,1,70,6|8,3:2|0:3,0:0:0:0:
106,19,96211,1,8,0:3:0:0:
106,19,96292,1,8,0:3:0:0:
188,90,96454,6,0,P|237:108|307:58,1,140,4|6,0:3|3:2,0:0:0:0:
212,279,97103,2,0,P|336:271|453:394,1,280,6|0,3:2|0:0,0:0:0:0:
256,192,97832,12,0,99373,0:0:0:0:
