osu file format v14

[General]
AudioFilename: audio.mp3
AudioLeadIn: 0
PreviewTime: 217005
Countdown: 0
SampleSet: Normal
StackLeniency: 0.7
Mode: 1
LetterboxInBreaks: 0
WidescreenStoryboard: 1

[Editor]
Bookmarks: 31626,58108,84591,111074,124315,147488,160729,190522,210384,217005,230246,243488,246798,260039
DistanceSpacing: 0.3
BeatDivisor: 8
GridSize: 32
TimelineZoom: 2

[Metadata]
Title:Beyond the Darkness
TitleUnicode:Beyond the Darkness
Artist:SWORD OF JUSTICE
ArtistUnicode:SWORD OF JUSTICE
Creator:arley_
Version:uone's Oni
Source:
Tags:fa featured artist japanese jp metal melodic power rock jrock j-rock 平松俊紀 Hiramatsu Toshinori souwer new zealand uone
BeatmapID:4103130
BeatmapSetID:1956925

[Difficulty]
HPDrainRate:5
CircleSize:3
OverallDifficulty:6
ApproachRate:9
SliderMultiplier:1.4
SliderTickRate:1

[Events]
//Background and Video events
0,0,"bg.jpg",0,-60
//Break Periods
2,190727,202936
//Storyboard Layer 0 (Background)
//Storyboard Layer 1 (Fail)
//Storyboard Layer 2 (Pass)
//Storyboard Layer 3 (Foreground)
//Storyboard Layer 4 (Overlay)
//Storyboard Sound Samples

[TimingPoints]
1838,413.793103448276,4,1,0,90,1,0
84544,-100,4,1,0,95,0,0
84596,-100,4,1,0,95,0,1
107769,-100,4,1,0,95,0,0
111027,-100,4,1,0,90,0,0
190527,-133.333333333333,4,1,0,90,0,0
190631,-133.333333333333,4,1,0,50,0,0
203665,-133.333333333333,4,1,0,70,0,0
210286,-111.111111111111,4,1,0,90,0,0
214088,-108.847564083592,4,1,0,90,0,0
214294,-107.747395833333,4,1,0,90,0,0
214501,-106.669244775302,4,1,0,90,0,0
214708,-105.612456526595,4,1,0,90,0,0
214915,-104.576402382194,4,1,0,90,0,0
215122,-103.560478067705,4,1,0,90,0,0
215329,-102.564102564103,4,1,0,90,0,0
215639,-101.10729285987,4,1,0,90,0,0
215950,-99.691288306603,4,1,0,90,0,0
216156,-98.767642407424,4,1,0,90,0,0
216363,-97.8609546617,4,1,0,90,0,0
216467,-97.411674686208,4,1,0,90,0,0
216570,-96.970762289799,4,1,0,90,0,0
216674,-96.529600466608,4,1,0,90,0,0
216777,-96.096619199001,4,1,0,90,0,0
216958,-95.238095238095,4,1,0,95,0,0
217010,-95.2380952380952,4,1,0,95,0,1
245148,-95.2380952380952,4,1,0,95,0,0
245217,-111.111111111111,4,1,0,90,0,0
246734,-100,4,1,0,90,0,0
261674,-111.111111111111,4,1,0,90,0,0

[HitObjects]
256,192,1010,5,8,0:0:0:0:
256,192,1217,1,0,0:0:0:0:
256,192,1320,1,0,0:0:0:0:
256,192,1424,1,0,0:0:0:0:
256,192,1838,1,12,0:0:0:0:
256,192,3493,1,12,0:0:0:0:
256,192,4734,1,12,0:0:0:0:
256,192,5148,1,4,0:0:0:0:
256,192,5975,1,4,0:0:0:0:
256,192,6803,1,12,0:0:0:0:
256,192,7424,1,8,0:0:0:0:
256,192,7527,1,8,0:0:0:0:
256,192,7631,1,0,0:0:0:0:
256,192,7941,1,0,0:0:0:0:
256,192,8251,1,0,0:0:0:0:
256,192,8458,1,12,0:0:0:0:
256,192,8734,1,0,0:0:0:0:
256,192,8872,1,0,0:0:0:0:
256,192,9148,1,0,0:0:0:0:
256,192,9286,1,8,0:0:0:0:
256,192,9562,1,8,0:0:0:0:
256,192,9700,1,0,0:0:0:0:
256,192,10113,1,12,0:0:0:0:
256,192,10527,1,0,0:0:0:0:
256,192,10941,1,12,0:0:0:0:
256,192,11355,1,0,0:0:0:0:
256,192,11769,1,12,0:0:0:0:
256,192,12182,1,0,0:0:0:0:
256,192,12389,1,12,0:0:0:0:
256,192,12803,1,0,0:0:0:0:
256,192,13010,1,12,0:0:0:0:
256,192,13424,1,12,0:0:0:0:
256,192,13838,1,0,0:0:0:0:
256,192,14044,1,0,0:0:0:0:
256,192,14251,1,8,0:0:0:0:
256,192,14355,1,8,0:0:0:0:
256,192,14458,1,8,0:0:0:0:
256,192,14562,1,8,0:0:0:0:
256,192,14665,1,8,0:0:0:0:
256,192,14872,1,8,0:0:0:0:
256,192,15079,1,4,0:0:0:0:
256,192,15493,1,0,0:0:0:0:
256,192,15596,1,0,0:0:0:0:
256,192,15700,1,8,0:0:0:0:
256,192,15906,1,0,0:0:0:0:
256,192,16113,1,8,0:0:0:0:
256,192,16217,1,0,0:0:0:0:
256,192,16424,1,0,0:0:0:0:
256,192,16527,1,8,0:0:0:0:
256,192,16734,1,0,0:0:0:0:
256,192,16941,1,8,0:0:0:0:
256,192,17044,1,8,0:0:0:0:
256,192,17148,1,0,0:0:0:0:
256,192,17251,1,0,0:0:0:0:
256,192,17355,1,8,0:0:0:0:
256,192,17562,1,0,0:0:0:0:
256,192,17769,1,8,0:0:0:0:
256,192,17872,1,8,0:0:0:0:
256,192,17975,1,0,0:0:0:0:
256,192,18182,1,8,0:0:0:0:
256,192,18389,1,0,0:0:0:0:
256,192,18596,1,8,0:0:0:0:
256,192,18803,1,0,0:0:0:0:
256,192,18906,1,0,0:0:0:0:
256,192,19010,1,8,0:0:0:0:
256,192,19217,1,8,0:0:0:0:
256,192,19424,1,0,0:0:0:0:
256,192,19527,1,8,0:0:0:0:
256,192,19734,1,8,0:0:0:0:
256,192,19838,1,0,0:0:0:0:
256,192,20044,1,0,0:0:0:0:
256,192,20251,1,8,0:0:0:0:
256,192,20355,1,8,0:0:0:0:
256,192,20458,1,0,0:0:0:0:
256,192,20562,1,0,0:0:0:0:
256,192,20665,1,8,0:0:0:0:
256,192,20872,1,0,0:0:0:0:
256,192,21079,1,0,0:0:0:0:
256,192,21182,1,8,0:0:0:0:
256,192,21700,1,4,0:0:0:0:
256,192,21906,1,8,0:0:0:0:
256,192,22113,1,0,0:0:0:0:
256,192,22217,1,0,0:0:0:0:
256,192,22320,1,8,0:0:0:0:
256,192,22527,1,0,0:0:0:0:
256,192,22734,1,8,0:0:0:0:
256,192,22838,1,0,0:0:0:0:
256,192,23044,1,0,0:0:0:0:
256,192,23148,1,8,0:0:0:0:
256,192,23355,1,0,0:0:0:0:
256,192,23562,1,8,0:0:0:0:
256,192,23769,1,0,0:0:0:0:
256,192,23872,1,0,0:0:0:0:
256,192,23975,1,8,0:0:0:0:
256,192,24079,1,8,0:0:0:0:
256,192,24182,1,0,0:0:0:0:
256,192,24389,1,8,0:0:0:0:
256,192,24493,1,8,0:0:0:0:
256,192,24596,1,0,0:0:0:0:
256,192,24803,1,8,0:0:0:0:
256,192,25010,1,4,0:0:0:0:
256,192,25217,1,8,0:0:0:0:
256,192,25424,1,0,0:0:0:0:
256,192,25527,1,0,0:0:0:0:
256,192,25631,1,8,0:0:0:0:
256,192,25838,1,8,0:0:0:0:
256,192,26044,1,0,0:0:0:0:
256,192,26148,1,8,0:0:0:0:
256,192,26355,1,8,0:0:0:0:
256,192,26458,1,0,0:0:0:0:
256,192,26665,1,0,0:0:0:0:
256,192,26769,1,0,0:0:0:0:
256,192,26872,1,8,0:0:0:0:
256,192,27079,1,0,0:0:0:0:
256,192,27182,1,0,0:0:0:0:
256,192,27286,1,8,0:0:0:0:
256,192,27389,1,8,0:0:0:0:
256,192,27493,1,0,0:0:0:0:
256,192,27700,1,0,0:0:0:0:
256,192,27803,1,8,0:0:0:0:
256,192,28320,1,4,0:0:0:0:
256,192,29148,1,12,0:0:0:0:
256,192,29975,1,12,0:0:0:0:
256,192,30182,1,8,0:0:0:0:
256,192,30286,1,8,0:0:0:0:
256,192,30389,1,0,0:0:0:0:
256,192,30596,1,0,0:0:0:0:
256,192,30700,1,0,0:0:0:0:
256,192,30803,1,8,0:0:0:0:
256,192,31010,1,0,0:0:0:0:
256,192,31217,1,8,0:0:0:0:
256,192,31320,1,8,0:0:0:0:
256,192,31424,1,8,0:0:0:0:
256,192,31631,1,4,0:0:0:0:
256,192,32044,1,0,0:0:0:0:
256,192,32251,1,8,0:0:0:0:
256,192,32458,1,0,0:0:0:0:
256,192,32665,1,8,0:0:0:0:
256,192,32769,1,8,0:0:0:0:
256,192,32872,1,0,0:0:0:0:
256,192,33079,1,8,0:0:0:0:
256,192,33286,1,0,0:0:0:0:
256,192,33493,1,8,0:0:0:0:
256,192,33700,1,0,0:0:0:0:
256,192,33803,1,0,0:0:0:0:
256,192,33906,1,8,0:0:0:0:
256,192,34113,1,0,0:0:0:0:
256,192,34320,1,8,0:0:0:0:
256,192,34424,1,0,0:0:0:0:
256,192,34631,1,0,0:0:0:0:
256,192,34734,1,8,0:0:0:0:
256,192,34941,1,0,0:0:0:0:
256,192,35148,1,8,0:0:0:0:
256,192,35355,1,0,0:0:0:0:
256,192,35458,1,0,0:0:0:0:
256,192,35562,1,8,0:0:0:0:
256,192,35769,1,0,0:0:0:0:
256,192,35975,1,8,0:0:0:0:
256,192,36079,1,8,0:0:0:0:
256,192,36182,1,0,0:0:0:0:
256,192,36389,1,8,0:0:0:0:
256,192,36596,1,0,0:0:0:0:
256,192,36803,1,8,0:0:0:0:
256,192,36906,1,8,0:0:0:0:
256,192,37010,1,0,0:0:0:0:
256,192,37113,1,0,0:0:0:0:
256,192,37217,1,8,0:0:0:0:
256,192,37424,1,0,0:0:0:0:
256,192,37631,1,8,0:0:0:0:
256,192,37734,1,0,0:0:0:0:
256,192,37941,1,0,0:0:0:0:
256,192,38044,1,8,0:0:0:0:
256,192,38251,1,4,0:0:0:0:
256,192,38665,1,0,0:0:0:0:
256,192,38872,1,8,0:0:0:0:
256,192,39079,1,0,0:0:0:0:
256,192,39286,1,8,0:0:0:0:
256,192,39389,1,8,0:0:0:0:
256,192,39493,1,0,0:0:0:0:
256,192,39700,1,8,0:0:0:0:
256,192,39906,1,0,0:0:0:0:
256,192,40113,1,8,0:0:0:0:
256,192,40320,1,0,0:0:0:0:
256,192,40424,1,0,0:0:0:0:
256,192,40527,1,8,0:0:0:0:
256,192,40734,1,0,0:0:0:0:
256,192,40941,1,8,0:0:0:0:
256,192,41044,1,0,0:0:0:0:
256,192,41251,1,0,0:0:0:0:
256,192,41355,1,8,0:0:0:0:
256,192,41562,1,0,0:0:0:0:
256,192,41769,1,8,0:0:0:0:
256,192,41872,1,8,0:0:0:0:
256,192,41975,1,0,0:0:0:0:
256,192,42079,1,0,0:0:0:0:
256,192,42182,1,8,0:0:0:0:
256,192,42389,1,0,0:0:0:0:
256,192,42596,1,8,0:0:0:0:
256,192,42700,1,8,0:0:0:0:
256,192,42803,1,0,0:0:0:0:
256,192,43010,1,8,0:0:0:0:
256,192,43217,1,0,0:0:0:0:
256,192,43424,1,8,0:0:0:0:
256,192,43631,1,0,0:0:0:0:
256,192,43734,1,0,0:0:0:0:
256,192,43838,1,8,0:0:0:0:
256,192,43941,1,8,0:0:0:0:
256,192,44044,1,0,0:0:0:0:
256,192,44251,1,8,0:0:0:0:
256,192,44458,1,0,0:0:0:0:
256,192,44562,1,8,0:0:0:0:
256,192,44665,1,8,0:0:0:0:
256,192,44872,1,4,0:0:0:0:
256,192,45286,1,0,0:0:0:0:
256,192,45493,1,8,0:0:0:0:
256,192,45700,1,0,0:0:0:0:
256,192,45906,1,8,0:0:0:0:
256,192,46010,1,8,0:0:0:0:
256,192,46113,1,0,0:0:0:0:
256,192,46320,1,8,0:0:0:0:
256,192,46527,1,0,0:0:0:0:
256,192,46734,1,8,0:0:0:0:
256,192,46941,1,0,0:0:0:0:
256,192,47044,1,0,0:0:0:0:
256,192,47148,1,8,0:0:0:0:
256,192,47355,1,0,0:0:0:0:
256,192,47562,1,8,0:0:0:0:
256,192,47665,1,0,0:0:0:0:
256,192,47872,1,0,0:0:0:0:
256,192,47975,1,8,0:0:0:0:
256,192,48182,1,0,0:0:0:0:
256,192,48389,1,0,0:0:0:0:
256,192,48596,1,8,0:0:0:0:
256,192,48700,1,8,0:0:0:0:
256,192,48803,1,8,0:0:0:0:
256,192,49010,1,8,0:0:0:0:
256,192,49217,1,0,0:0:0:0:
256,192,49320,1,0,0:0:0:0:
256,192,49424,1,8,0:0:0:0:
256,192,49631,1,8,0:0:0:0:
256,192,49838,1,0,0:0:0:0:
256,192,50044,1,0,0:0:0:0:
256,192,50148,1,0,0:0:0:0:
256,192,50251,1,0,0:0:0:0:
256,192,50355,1,0,0:0:0:0:
256,192,50458,1,8,0:0:0:0:
256,192,50665,1,0,0:0:0:0:
256,192,50872,1,8,0:0:0:0:
256,192,50975,1,0,0:0:0:0:
256,192,51182,1,0,0:0:0:0:
256,192,51286,1,8,0:0:0:0:
256,192,51493,1,4,0:0:0:0:
256,192,51700,1,8,0:0:0:0:
256,192,51803,1,8,0:0:0:0:
256,192,51906,1,0,0:0:0:0:
256,192,52113,1,8,0:0:0:0:
256,192,52320,1,0,0:0:0:0:
256,192,52424,1,0,0:0:0:0:
256,192,52527,1,8,0:0:0:0:
256,192,52631,1,0,0:0:0:0:
256,192,52838,1,0,0:0:0:0:
256,192,52941,1,8,0:0:0:0:
256,192,53148,1,0,0:0:0:0:
256,192,53355,1,8,0:0:0:0:
256,192,53458,1,0,0:0:0:0:
256,192,53665,1,0,0:0:0:0:
256,192,53769,1,8,0:0:0:0:
256,192,53872,1,8,0:0:0:0:
256,192,53975,1,0,0:0:0:0:
256,192,54182,1,8,0:0:0:0:
256,192,54389,1,0,0:0:0:0:
256,192,54493,1,0,0:0:0:0:
256,192,54596,1,8,0:0:0:0:
256,192,54803,1,4,0:0:0:0:
256,192,55217,1,8,0:0:0:0:
256,192,55320,1,8,0:0:0:0:
256,192,55424,1,8,0:0:0:0:
256,192,55631,1,0,0:0:0:0:
256,192,55838,1,8,0:0:0:0:
256,192,55941,1,0,0:0:0:0:
256,192,56148,1,0,0:0:0:0:
256,192,56251,1,8,0:0:0:0:
256,192,56458,1,0,0:0:0:0:
256,192,56665,1,8,0:0:0:0:
256,192,56872,1,0,0:0:0:0:
256,192,56975,1,0,0:0:0:0:
256,192,57079,1,8,0:0:0:0:
256,192,57182,1,8,0:0:0:0:
256,192,57286,1,0,0:0:0:0:
256,192,57493,1,0,0:0:0:0:
256,192,57700,1,8,0:0:0:0:
256,192,57803,1,8,0:0:0:0:
256,192,57906,1,8,0:0:0:0:
256,192,58113,1,4,0:0:0:0:
256,192,58527,1,0,0:0:0:0:
256,192,58734,1,8,0:0:0:0:
256,192,58941,1,0,0:0:0:0:
256,192,59148,1,8,0:0:0:0:
256,192,59251,1,0,0:0:0:0:
256,192,59355,1,8,0:0:0:0:
256,192,59562,1,8,0:0:0:0:
256,192,59769,1,0,0:0:0:0:
256,192,59975,1,8,0:0:0:0:
256,192,60182,1,0,0:0:0:0:
256,192,60286,1,0,0:0:0:0:
256,192,60389,1,8,0:0:0:0:
256,192,60596,1,0,0:0:0:0:
256,192,60803,1,8,0:0:0:0:
256,192,60906,1,8,0:0:0:0:
256,192,61010,1,0,0:0:0:0:
256,192,61113,1,0,0:0:0:0:
256,192,61217,1,8,0:0:0:0:
256,192,61424,1,0,0:0:0:0:
256,192,61631,1,8,0:0:0:0:
256,192,61838,1,0,0:0:0:0:
256,192,61941,1,0,0:0:0:0:
256,192,62044,1,8,0:0:0:0:
256,192,62251,1,0,0:0:0:0:
256,192,62458,1,8,0:0:0:0:
256,192,62562,1,8,0:0:0:0:
256,192,62665,1,8,0:0:0:0:
256,192,62872,1,8,0:0:0:0:
256,192,63079,1,0,0:0:0:0:
256,192,63286,1,8,0:0:0:0:
256,192,63493,1,0,0:0:0:0:
256,192,63596,1,0,0:0:0:0:
256,192,63700,1,8,0:0:0:0:
256,192,63906,1,0,0:0:0:0:
256,192,64113,1,8,0:0:0:0:
256,192,64217,1,8,0:0:0:0:
256,192,64320,1,0,0:0:0:0:
256,192,64424,1,0,0:0:0:0:
256,192,64527,1,0,0:0:0:0:
256,192,64734,1,4,0:0:0:0:
256,192,65148,1,0,0:0:0:0:
256,192,65355,1,8,0:0:0:0:
256,192,65458,1,8,0:0:0:0:
256,192,65562,1,0,0:0:0:0:
256,192,65769,1,8,0:0:0:0:
256,192,65975,1,0,0:0:0:0:
256,192,66079,1,8,0:0:0:0:
256,192,66182,1,8,0:0:0:0:
256,192,66389,1,0,0:0:0:0:
256,192,66596,1,8,0:0:0:0:
256,192,66803,1,0,0:0:0:0:
256,192,66906,1,0,0:0:0:0:
256,192,67010,1,8,0:0:0:0:
256,192,67217,1,0,0:0:0:0:
256,192,67424,1,8,0:0:0:0:
256,192,67527,1,0,0:0:0:0:
256,192,67631,1,0,0:0:0:0:
256,192,67838,1,8,0:0:0:0:
256,192,68044,1,0,0:0:0:0:
256,192,68148,1,0,0:0:0:0:
256,192,68251,1,8,0:0:0:0:
256,192,68355,1,8,0:0:0:0:
256,192,68458,1,0,0:0:0:0:
256,192,68665,1,8,0:0:0:0:
256,192,68872,1,0,0:0:0:0:
256,192,68975,1,0,0:0:0:0:
256,192,69079,1,8,0:0:0:0:
256,192,69182,1,8,0:0:0:0:
256,192,69286,1,8,0:0:0:0:
256,192,69493,1,8,0:0:0:0:
256,192,69700,1,0,0:0:0:0:
256,192,69803,1,0,0:0:0:0:
256,192,69906,1,0,0:0:0:0:
256,192,70010,1,0,0:0:0:0:
256,192,70113,1,8,0:0:0:0:
256,192,70320,1,8,0:0:0:0:
256,192,70527,1,4,0:0:0:0:
256,192,70838,1,12,0:0:0:0:
256,192,71148,1,12,0:0:0:0:
256,192,71355,1,0,0:0:0:0:
256,192,71769,1,0,0:0:0:0:
256,192,71975,1,8,0:0:0:0:
256,192,72182,1,0,0:0:0:0:
256,192,72389,1,8,0:0:0:0:
256,192,72493,1,8,0:0:0:0:
256,192,72596,1,8,0:0:0:0:
256,192,72803,1,8,0:0:0:0:
256,192,73010,1,0,0:0:0:0:
256,192,73217,1,8,0:0:0:0:
256,192,73424,1,0,0:0:0:0:
256,192,73527,1,0,0:0:0:0:
256,192,73631,1,8,0:0:0:0:
256,192,73838,1,0,0:0:0:0:
256,192,74044,1,8,0:0:0:0:
256,192,74148,1,8,0:0:0:0:
256,192,74251,1,0,0:0:0:0:
256,192,74355,1,0,0:0:0:0:
256,192,74458,1,8,0:0:0:0:
256,192,74665,1,0,0:0:0:0:
256,192,74872,1,8,0:0:0:0:
256,192,75079,1,0,0:0:0:0:
256,192,75182,1,0,0:0:0:0:
256,192,75286,1,8,0:0:0:0:
256,192,75493,1,0,0:0:0:0:
256,192,75700,1,8,0:0:0:0:
256,192,75803,1,0,0:0:0:0:
256,192,75906,1,8,0:0:0:0:
256,192,76113,1,8,0:0:0:0:
256,192,76320,1,0,0:0:0:0:
256,192,76527,1,8,0:0:0:0:
256,192,76734,1,0,0:0:0:0:
256,192,76838,1,0,0:0:0:0:
256,192,76941,1,8,0:0:0:0:
256,192,77148,1,0,0:0:0:0:
256,192,77355,1,8,0:0:0:0:
256,192,77562,1,0,0:0:0:0:
256,192,77665,1,8,0:0:0:0:
256,192,77769,1,8,0:0:0:0:
256,192,77975,1,4,0:0:0:0:
256,192,78389,1,0,0:0:0:0:
256,192,78493,1,0,0:0:0:0:
256,192,78596,1,8,0:0:0:0:
256,192,78803,1,0,0:0:0:0:
256,192,79010,1,8,0:0:0:0:
256,192,79113,1,8,0:0:0:0:
256,192,79217,1,0,0:0:0:0:
256,192,79424,1,8,0:0:0:0:
256,192,79631,1,0,0:0:0:0:
256,192,79838,1,8,0:0:0:0:
256,192,79941,1,8,0:0:0:0:
256,192,80044,1,0,0:0:0:0:
256,192,80148,1,0,0:0:0:0:
256,192,80251,1,8,0:0:0:0:
256,192,80458,1,0,0:0:0:0:
256,192,80665,1,8,0:0:0:0:
256,192,80769,1,8,0:0:0:0:
256,192,80872,1,0,0:0:0:0:
256,192,81079,1,8,0:0:0:0:
256,192,81286,1,0,0:0:0:0:
256,192,81493,1,8,0:0:0:0:
256,192,81596,1,0,0:0:0:0:
256,192,81803,1,0,0:0:0:0:
256,192,81906,1,8,0:0:0:0:
256,192,82113,1,0,0:0:0:0:
256,192,82217,1,0,0:0:0:0:
256,192,82320,1,8,0:0:0:0:
256,192,82424,1,0,0:0:0:0:
256,192,82631,1,0,0:0:0:0:
256,192,82734,1,8,0:0:0:0:
256,192,82941,1,0,0:0:0:0:
256,192,83148,1,8,0:0:0:0:
256,192,83251,1,8,0:0:0:0:
256,192,83355,1,0,0:0:0:0:
256,192,83562,1,8,0:0:0:0:
256,192,83769,1,4,0:0:0:0:
256,192,84079,1,12,0:0:0:0:
256,192,84389,1,12,0:0:0:0:
256,192,84596,1,4,0:0:0:0:
256,192,85010,1,0,0:0:0:0:
256,192,85217,1,8,0:0:0:0:
256,192,85424,1,0,0:0:0:0:
256,192,85631,1,8,0:0:0:0:
256,192,85734,1,0,0:0:0:0:
256,192,85941,1,0,0:0:0:0:
256,192,86044,1,8,0:0:0:0:
256,192,86251,1,0,0:0:0:0:
256,192,86458,1,8,0:0:0:0:
256,192,86562,1,0,0:0:0:0:
256,192,86769,1,0,0:0:0:0:
256,192,86872,1,8,0:0:0:0:
256,192,86975,1,8,0:0:0:0:
256,192,87079,1,0,0:0:0:0:
256,192,87286,1,8,0:0:0:0:
256,192,87493,1,0,0:0:0:0:
256,192,87596,1,0,0:0:0:0:
256,192,87700,1,8,0:0:0:0:
256,192,87906,1,0,0:0:0:0:
256,192,88113,1,8,0:0:0:0:
256,192,88217,1,8,0:0:0:0:
256,192,88320,1,0,0:0:0:0:
256,192,88527,1,8,0:0:0:0:
256,192,88734,1,0,0:0:0:0:
256,192,88941,1,8,0:0:0:0:
256,192,89044,1,0,0:0:0:0:
256,192,89251,1,0,0:0:0:0:
256,192,89355,1,8,0:0:0:0:
256,192,89562,1,0,0:0:0:0:
256,192,89665,1,0,0:0:0:0:
256,192,89769,1,8,0:0:0:0:
256,192,89872,1,0,0:0:0:0:
256,192,90079,1,0,0:0:0:0:
256,192,90182,1,8,0:0:0:0:
256,192,90389,1,0,0:0:0:0:
256,192,90596,1,8,0:0:0:0:
256,192,90700,1,0,0:0:0:0:
256,192,90803,1,0,0:0:0:0:
256,192,90906,1,0,0:0:0:0:
256,192,91010,1,8,0:0:0:0:
256,192,91217,1,4,0:0:0:0:
256,192,91631,1,0,0:0:0:0:
256,192,91734,1,0,0:0:0:0:
256,192,91838,1,8,0:0:0:0:
256,192,92044,1,0,0:0:0:0:
256,192,92251,1,8,0:0:0:0:
256,192,92355,1,0,0:0:0:0:
256,192,92562,1,0,0:0:0:0:
256,192,92665,1,8,0:0:0:0:
256,192,92769,1,8,0:0:0:0:
256,192,92872,1,0,0:0:0:0:
256,192,93079,1,8,0:0:0:0:
256,192,93286,1,0,0:0:0:0:
256,192,93389,1,0,0:0:0:0:
256,192,93493,1,8,0:0:0:0:
256,192,93596,1,8,0:0:0:0:
256,192,93700,1,0,0:0:0:0:
256,192,93906,1,8,0:0:0:0:
256,192,94010,1,0,0:0:0:0:
256,192,94217,1,0,0:0:0:0:
256,192,94320,1,8,0:0:0:0:
256,192,94527,1,4,0:0:0:0:
256,192,94734,1,8,0:0:0:0:
256,192,94838,1,8,0:0:0:0:
256,192,94941,1,0,0:0:0:0:
256,192,95148,1,8,0:0:0:0:
256,192,95355,1,0,0:0:0:0:
256,192,95458,1,0,0:0:0:0:
256,192,95562,1,8,0:0:0:0:
256,192,95665,1,0,0:0:0:0:
256,192,95872,1,0,0:0:0:0:
256,192,95975,1,8,0:0:0:0:
256,192,96079,1,8,0:0:0:0:
256,192,96182,1,0,0:0:0:0:
256,192,96389,1,8,0:0:0:0:
256,192,96493,1,0,0:0:0:0:
256,192,96596,1,0,0:0:0:0:
256,192,96700,1,0,0:0:0:0:
256,192,96803,1,8,0:0:0:0:
256,192,97010,1,4,0:0:0:0:
256,192,97320,1,12,0:0:0:0:
256,192,97631,1,12,0:0:0:0:
256,192,97838,1,4,0:0:0:0:
256,192,98251,1,0,0:0:0:0:
256,192,98458,1,8,0:0:0:0:
256,192,98665,1,0,0:0:0:0:
256,192,98872,1,8,0:0:0:0:
256,192,98975,1,0,0:0:0:0:
256,192,99182,1,0,0:0:0:0:
256,192,99286,1,8,0:0:0:0:
256,192,99493,1,0,0:0:0:0:
256,192,99700,1,8,0:0:0:0:
256,192,99803,1,0,0:0:0:0:
256,192,100010,1,0,0:0:0:0:
256,192,100113,1,8,0:0:0:0:
256,192,100217,1,8,0:0:0:0:
256,192,100320,1,0,0:0:0:0:
256,192,100527,1,8,0:0:0:0:
256,192,100631,1,0,0:0:0:0:
256,192,100734,1,0,0:0:0:0:
256,192,100838,1,0,0:0:0:0:
256,192,100941,1,8,0:0:0:0:
256,192,101148,1,0,0:0:0:0:
256,192,101355,1,8,0:0:0:0:
256,192,101458,1,0,0:0:0:0:
256,192,101562,1,0,0:0:0:0:
256,192,101769,1,8,0:0:0:0:
256,192,101975,1,0,0:0:0:0:
256,192,102182,1,8,0:0:0:0:
256,192,102286,1,8,0:0:0:0:
256,192,102493,1,0,0:0:0:0:
256,192,102596,1,8,0:0:0:0:
256,192,102803,1,0,0:0:0:0:
256,192,102906,1,0,0:0:0:0:
256,192,103010,1,8,0:0:0:0:
256,192,103113,1,0,0:0:0:0:
256,192,103320,1,0,0:0:0:0:
256,192,103424,1,8,0:0:0:0:
256,192,103527,1,8,0:0:0:0:
256,192,103631,1,0,0:0:0:0:
256,192,103838,1,8,0:0:0:0:
256,192,103941,1,8,0:0:0:0:
256,192,104044,1,0,0:0:0:0:
256,192,104458,1,4,0:0:0:0:
256,192,104665,1,8,0:0:0:0:
256,192,104872,1,0,0:0:0:0:
256,192,104975,1,0,0:0:0:0:
256,192,105079,1,8,0:0:0:0:
256,192,105182,1,8,0:0:0:0:
256,192,105286,1,0,0:0:0:0:
256,192,105493,1,8,0:0:0:0:
256,192,105596,1,0,0:0:0:0:
256,192,105803,1,0,0:0:0:0:
256,192,105906,1,8,0:0:0:0:
256,192,106113,1,4,0:0:0:0:
256,192,106320,1,8,0:0:0:0:
256,192,106424,1,0,0:0:0:0:
256,192,106631,1,8,0:0:0:0:
256,192,106734,1,0,0:0:0:0:
256,192,106941,1,8,0:0:0:0:
256,192,107251,1,8,0:0:0:0:
256,192,107562,1,8,0:0:0:0:
256,192,107769,1,4,0:0:0:0:
256,192,107975,1,8,0:0:0:0:
256,192,108182,1,0,0:0:0:0:
256,192,108286,1,0,0:0:0:0:
256,192,108389,1,8,0:0:0:0:
256,192,108596,1,0,0:0:0:0:
256,192,108803,1,8,0:0:0:0:
256,192,108906,1,0,0:0:0:0:
256,192,109113,1,0,0:0:0:0:
256,192,109217,1,8,0:0:0:0:
256,192,109424,1,4,0:0:0:0:
256,192,109631,1,8,0:0:0:0:
256,192,109734,1,8,0:0:0:0:
256,192,109838,1,0,0:0:0:0:
256,192,109941,1,0,0:0:0:0:
256,192,110044,1,0,0:0:0:0:
256,192,110251,1,8,0:0:0:0:
256,192,110458,1,0,0:0:0:0:
256,192,110562,1,0,0:0:0:0:
256,192,110665,1,8,0:0:0:0:
256,192,111079,1,4,0:0:0:0:
256,192,111286,1,0,0:0:0:0:
256,192,111389,1,0,0:0:0:0:
256,192,111493,1,8,0:0:0:0:
256,192,111700,1,0,0:0:0:0:
256,192,111906,1,8,0:0:0:0:
256,192,112010,1,0,0:0:0:0:
256,192,112113,1,0,0:0:0:0:
256,192,112217,1,0,0:0:0:0:
256,192,112320,1,8,0:0:0:0:
256,192,112527,1,8,0:0:0:0:
256,192,112734,1,0,0:0:0:0:
256,192,112941,1,0,0:0:0:0:
256,192,113044,1,8,0:0:0:0:
256,192,113148,1,8,0:0:0:0:
256,192,113355,1,0,0:0:0:0:
256,192,113562,1,8,0:0:0:0:
256,192,113665,1,8,0:0:0:0:
256,192,113769,1,0,0:0:0:0:
256,192,113872,1,0,0:0:0:0:
256,192,113975,1,8,0:0:0:0:
256,192,114389,1,0,0:0:0:0:
256,192,114596,1,8,0:0:0:0:
256,192,114700,1,8,0:0:0:0:
256,192,114803,1,8,0:0:0:0:
256,192,115010,1,0,0:0:0:0:
256,192,115113,1,0,0:0:0:0:
256,192,115217,1,8,0:0:0:0:
256,192,115424,1,0,0:0:0:0:
256,192,115631,1,8,0:0:0:0:
256,192,115734,1,8,0:0:0:0:
256,192,115838,1,8,0:0:0:0:
256,192,115941,1,8,0:0:0:0:
256,192,116044,1,0,0:0:0:0:
256,192,116251,1,8,0:0:0:0:
256,192,116355,1,0,0:0:0:0:
256,192,116458,1,8,0:0:0:0:
256,192,116665,1,0,0:0:0:0:
256,192,116769,1,8,0:0:0:0:
256,192,116872,1,8,0:0:0:0:
256,192,117079,1,0,0:0:0:0:
256,192,117182,1,8,0:0:0:0:
256,192,117286,1,0,0:0:0:0:
256,192,117700,1,4,0:0:0:0:
256,192,117906,1,8,0:0:0:0:
256,192,118010,1,0,0:0:0:0:
256,192,118113,1,0,0:0:0:0:
256,192,118320,1,8,0:0:0:0:
256,192,118527,1,0,0:0:0:0:
256,192,118631,1,0,0:0:0:0:
256,192,118734,1,0,0:0:0:0:
256,192,118838,1,0,0:0:0:0:
256,192,118941,1,8,0:0:0:0:
256,192,119148,1,8,0:0:0:0:
256,192,119355,1,0,0:0:0:0:
256,192,119562,1,8,0:0:0:0:
256,192,119665,1,8,0:0:0:0:
256,192,119769,1,0,0:0:0:0:
256,192,119975,1,8,0:0:0:0:
256,192,120182,1,0,0:0:0:0:
256,192,120286,1,0,0:0:0:0:
256,192,120389,1,8,0:0:0:0:
256,192,120493,1,0,0:0:0:0:
256,192,120596,1,8,0:0:0:0:
256,192,121010,1,4,0:0:0:0:
256,192,121217,1,8,0:0:0:0:
256,192,121320,1,8,0:0:0:0:
256,192,121424,1,0,0:0:0:0:
256,192,121631,1,0,0:0:0:0:
256,192,121734,1,0,0:0:0:0:
256,192,121838,1,8,0:0:0:0:
256,192,122044,1,0,0:0:0:0:
256,192,122251,1,8,0:0:0:0:
256,192,122355,1,8,0:0:0:0:
256,192,122458,1,8,0:0:0:0:
256,192,122562,1,8,0:0:0:0:
256,192,122665,1,0,0:0:0:0:
256,192,122872,1,8,0:0:0:0:
256,192,123079,1,0,0:0:0:0:
256,192,123182,1,8,0:0:0:0:
256,192,123286,1,0,0:0:0:0:
256,192,123493,1,8,0:0:0:0:
256,192,123700,1,8,0:0:0:0:
256,192,123803,1,8,0:0:0:0:
256,192,123906,1,0,0:0:0:0:
256,192,124010,1,0,0:0:0:0:
256,192,124113,1,0,0:0:0:0:
256,192,124320,1,12,0:0:0:0:
256,192,124734,1,0,0:0:0:0:
256,192,124941,1,8,0:0:0:0:
256,192,125148,1,0,0:0:0:0:
256,192,125355,1,8,0:0:0:0:
256,192,125458,1,0,0:0:0:0:
256,192,125665,1,0,0:0:0:0:
256,192,125769,1,8,0:0:0:0:
256,192,125975,1,0,0:0:0:0:
256,192,126182,1,8,0:0:0:0:
256,192,126389,1,0,0:0:0:0:
256,192,126493,1,0,0:0:0:0:
256,192,126596,1,8,0:0:0:0:
256,192,126803,1,0,0:0:0:0:
256,192,127010,1,8,0:0:0:0:
256,192,127113,1,0,0:0:0:0:
256,192,127320,1,0,0:0:0:0:
256,192,127424,1,8,0:0:0:0:
256,192,127631,1,0,0:0:0:0:
256,192,127838,1,8,0:0:0:0:
256,192,127941,1,8,0:0:0:0:
256,192,128044,1,0,0:0:0:0:
256,192,128251,1,8,0:0:0:0:
256,192,128458,1,0,0:0:0:0:
256,192,128665,1,8,0:0:0:0:
256,192,128769,1,0,0:0:0:0:
256,192,128975,1,0,0:0:0:0:
256,192,129079,1,8,0:0:0:0:
256,192,129182,1,8,0:0:0:0:
256,192,129286,1,0,0:0:0:0:
256,192,129493,1,8,0:0:0:0:
256,192,129700,1,0,0:0:0:0:
256,192,129803,1,0,0:0:0:0:
256,192,129906,1,8,0:0:0:0:
256,192,130010,1,8,0:0:0:0:
256,192,130113,1,0,0:0:0:0:
256,192,130320,1,8,0:0:0:0:
256,192,130424,1,0,0:0:0:0:
256,192,130527,1,8,0:0:0:0:
256,192,130734,1,8,0:0:0:0:
256,192,130941,1,4,0:0:0:0:
256,192,131355,1,0,0:0:0:0:
256,192,131562,1,8,0:0:0:0:
256,192,131769,1,0,0:0:0:0:
256,192,131872,1,0,0:0:0:0:
256,192,131975,1,8,0:0:0:0:
256,192,132079,1,0,0:0:0:0:
256,192,132286,1,0,0:0:0:0:
256,192,132389,1,8,0:0:0:0:
256,192,132596,1,0,0:0:0:0:
256,192,132803,1,8,0:0:0:0:
256,192,132906,1,8,0:0:0:0:
256,192,133010,1,0,0:0:0:0:
256,192,133217,1,8,0:0:0:0:
256,192,133424,1,0,0:0:0:0:
256,192,133527,1,8,0:0:0:0:
256,192,133631,1,0,0:0:0:0:
256,192,133734,1,0,0:0:0:0:
256,192,133838,1,8,0:0:0:0:
256,192,134044,1,8,0:0:0:0:
256,192,134251,1,4,0:0:0:0:
256,192,134458,1,8,0:0:0:0:
256,192,134665,1,0,0:0:0:0:
256,192,134769,1,0,0:0:0:0:
256,192,134872,1,8,0:0:0:0:
256,192,135079,1,0,0:0:0:0:
256,192,135286,1,8,0:0:0:0:
256,192,135389,1,0,0:0:0:0:
256,192,135493,1,0,0:0:0:0:
256,192,135596,1,0,0:0:0:0:
256,192,135700,1,8,0:0:0:0:
256,192,135906,1,0,0:0:0:0:
256,192,136113,1,8,0:0:0:0:
256,192,136217,1,8,0:0:0:0:
256,192,136320,1,0,0:0:0:0:
256,192,136424,1,0,0:0:0:0:
256,192,136527,1,0,0:0:0:0:
256,192,136734,1,12,0:0:0:0:
256,192,137044,1,12,0:0:0:0:
256,192,137355,1,8,0:0:0:0:
256,192,137562,1,4,0:0:0:0:
256,192,137975,1,0,0:0:0:0:
256,192,138182,1,8,0:0:0:0:
256,192,138389,1,0,0:0:0:0:
256,192,138596,1,8,0:0:0:0:
256,192,138700,1,8,0:0:0:0:
256,192,138803,1,0,0:0:0:0:
256,192,139010,1,8,0:0:0:0:
256,192,139217,1,0,0:0:0:0:
256,192,139320,1,0,0:0:0:0:
256,192,139424,1,0,0:0:0:0:
256,192,139631,1,8,0:0:0:0:
256,192,139734,1,8,0:0:0:0:
256,192,139838,1,8,0:0:0:0:
256,192,139941,1,8,0:0:0:0:
256,192,140044,1,0,0:0:0:0:
256,192,140251,1,8,0:0:0:0:
256,192,140355,1,0,0:0:0:0:
256,192,140562,1,0,0:0:0:0:
256,192,140665,1,8,0:0:0:0:
256,192,140872,1,0,0:0:0:0:
256,192,140975,1,0,0:0:0:0:
256,192,141079,1,0,0:0:0:0:
256,192,141286,1,8,0:0:0:0:
256,192,141389,1,0,0:0:0:0:
256,192,141493,1,0,0:0:0:0:
256,192,141700,1,8,0:0:0:0:
256,192,141803,1,8,0:0:0:0:
256,192,141906,1,0,0:0:0:0:
256,192,142113,1,8,0:0:0:0:
256,192,142217,1,8,0:0:0:0:
256,192,142320,1,0,0:0:0:0:
256,192,142424,1,0,0:0:0:0:
256,192,142527,1,8,0:0:0:0:
256,192,142941,1,0,0:0:0:0:
256,192,143148,1,8,0:0:0:0:
256,192,143251,1,8,0:0:0:0:
256,192,143355,1,0,0:0:0:0:
256,192,143562,1,8,0:0:0:0:
256,192,143665,1,0,0:0:0:0:
256,192,143872,1,0,0:0:0:0:
256,192,143975,1,8,0:0:0:0:
256,192,144182,1,4,0:0:0:0:
256,192,144389,1,8,0:0:0:0:
256,192,144596,1,0,0:0:0:0:
256,192,144700,1,8,0:0:0:0:
256,192,144803,1,8,0:0:0:0:
256,192,145010,1,0,0:0:0:0:
256,192,145113,1,0,0:0:0:0:
256,192,145217,1,0,0:0:0:0:
256,192,145320,1,0,0:0:0:0:
256,192,145424,1,8,0:0:0:0:
256,192,145631,1,8,0:0:0:0:
256,192,145838,1,4,0:0:0:0:
256,192,146044,1,8,0:0:0:0:
256,192,146148,1,8,0:0:0:0:
256,192,146251,1,8,0:0:0:0:
256,192,146458,1,12,0:0:0:0:
256,192,146769,1,0,0:0:0:0:
256,192,146872,1,0,0:0:0:0:
256,192,147079,1,8,0:0:0:0:
256,192,147286,1,8,0:0:0:0:
256,192,147493,1,4,0:0:0:0:
256,192,147906,1,0,0:0:0:0:
256,192,148010,1,0,0:0:0:0:
256,192,148113,1,8,0:0:0:0:
256,192,148320,1,0,0:0:0:0:
256,192,148527,1,8,0:0:0:0:
256,192,148631,1,0,0:0:0:0:
256,192,148838,1,0,0:0:0:0:
256,192,148941,1,8,0:0:0:0:
256,192,149044,1,8,0:0:0:0:
256,192,149148,1,0,0:0:0:0:
256,192,149355,1,8,0:0:0:0:
256,192,149458,1,0,0:0:0:0:
256,192,149665,1,0,0:0:0:0:
256,192,149769,1,8,0:0:0:0:
256,192,149975,1,0,0:0:0:0:
256,192,150182,1,8,0:0:0:0:
256,192,150286,1,0,0:0:0:0:
256,192,150389,1,0,0:0:0:0:
256,192,150596,1,8,0:0:0:0:
256,192,150803,1,4,0:0:0:0:
256,192,151010,1,8,0:0:0:0:
256,192,151217,1,0,0:0:0:0:
256,192,151320,1,0,0:0:0:0:
256,192,151424,1,8,0:0:0:0:
256,192,151631,1,8,0:0:0:0:
256,192,151838,1,0,0:0:0:0:
256,192,151941,1,8,0:0:0:0:
256,192,152148,1,8,0:0:0:0:
256,192,152251,1,0,0:0:0:0:
256,192,152458,1,0,0:0:0:0:
256,192,152665,1,8,0:0:0:0:
256,192,152769,1,8,0:0:0:0:
256,192,152872,1,0,0:0:0:0:
256,192,152975,1,0,0:0:0:0:
256,192,153079,1,8,0:0:0:0:
256,192,153286,1,0,0:0:0:0:
256,192,153493,1,0,0:0:0:0:
256,192,153596,1,8,0:0:0:0:
256,192,154113,1,4,0:0:0:0:
256,192,154320,1,8,0:0:0:0:
256,192,154527,1,0,0:0:0:0:
256,192,154631,1,0,0:0:0:0:
256,192,154734,1,8,0:0:0:0:
256,192,154941,1,0,0:0:0:0:
256,192,155148,1,8,0:0:0:0:
256,192,155251,1,8,0:0:0:0:
256,192,155355,1,0,0:0:0:0:
256,192,155458,1,0,0:0:0:0:
256,192,155562,1,8,0:0:0:0:
256,192,155769,1,0,0:0:0:0:
256,192,155975,1,8,0:0:0:0:
256,192,156182,1,0,0:0:0:0:
256,192,156286,1,0,0:0:0:0:
256,192,156389,1,8,0:0:0:0:
256,192,156493,1,8,0:0:0:0:
256,192,156596,1,0,0:0:0:0:
256,192,156803,1,8,0:0:0:0:
256,192,156906,1,0,0:0:0:0:
256,192,157010,1,8,0:0:0:0:
256,192,157217,1,8,0:0:0:0:
256,192,157424,1,4,0:0:0:0:
256,192,157631,1,8,0:0:0:0:
256,192,157734,1,0,0:0:0:0:
256,192,157941,1,0,0:0:0:0:
256,192,158044,1,8,0:0:0:0:
256,192,158251,1,8,0:0:0:0:
256,192,158458,1,0,0:0:0:0:
256,192,158562,1,8,0:0:0:0:
256,192,158769,1,8,0:0:0:0:
256,192,158872,1,0,0:0:0:0:
256,192,159079,1,8,0:0:0:0:
256,192,159182,1,8,0:0:0:0:
256,192,159286,1,8,0:0:0:0:
256,192,159493,1,0,0:0:0:0:
256,192,159596,1,0,0:0:0:0:
256,192,159700,1,8,0:0:0:0:
256,192,159803,1,8,0:0:0:0:
256,192,159906,1,0,0:0:0:0:
256,192,160113,1,0,0:0:0:0:
256,192,160217,1,8,0:0:0:0:
256,192,160527,1,8,0:0:0:0:
256,192,160734,1,4,0:0:0:0:
256,192,161148,1,0,0:0:0:0:
256,192,161355,1,8,0:0:0:0:
256,192,161562,1,0,0:0:0:0:
256,192,161769,1,8,0:0:0:0:
256,192,161872,1,8,0:0:0:0:
256,192,161975,1,8,0:0:0:0:
256,192,162182,1,8,0:0:0:0:
256,192,162389,1,0,0:0:0:0:
256,192,162596,1,8,0:0:0:0:
256,192,162803,1,0,0:0:0:0:
256,192,162906,1,0,0:0:0:0:
256,192,163010,1,8,0:0:0:0:
256,192,163217,1,0,0:0:0:0:
256,192,163424,1,8,0:0:0:0:
256,192,163527,1,8,0:0:0:0:
256,192,163631,1,0,0:0:0:0:
256,192,163734,1,0,0:0:0:0:
256,192,163838,1,8,0:0:0:0:
256,192,164044,1,0,0:0:0:0:
256,192,164251,1,8,0:0:0:0:
256,192,164458,1,0,0:0:0:0:
256,192,164562,1,0,0:0:0:0:
256,192,164665,1,8,0:0:0:0:
256,192,164872,1,0,0:0:0:0:
256,192,165079,1,8,0:0:0:0:
256,192,165182,1,0,0:0:0:0:
256,192,165286,1,8,0:0:0:0:
256,192,165493,1,8,0:0:0:0:
256,192,165700,1,0,0:0:0:0:
256,192,165906,1,8,0:0:0:0:
256,192,166113,1,0,0:0:0:0:
256,192,166217,1,0,0:0:0:0:
256,192,166320,1,8,0:0:0:0:
256,192,166527,1,0,0:0:0:0:
256,192,166734,1,8,0:0:0:0:
256,192,166838,1,8,0:0:0:0:
256,192,166941,1,0,0:0:0:0:
256,192,167044,1,0,0:0:0:0:
256,192,167148,1,0,0:0:0:0:
256,192,167355,1,4,0:0:0:0:
256,192,167769,1,0,0:0:0:0:
256,192,167975,1,8,0:0:0:0:
256,192,168079,1,0,0:0:0:0:
256,192,168182,1,0,0:0:0:0:
256,192,168389,1,8,0:0:0:0:
256,192,168596,1,0,0:0:0:0:
256,192,168700,1,0,0:0:0:0:
256,192,168803,1,8,0:0:0:0:
256,192,169010,1,0,0:0:0:0:
256,192,169217,1,8,0:0:0:0:
256,192,169424,1,0,0:0:0:0:
256,192,169527,1,8,0:0:0:0:
256,192,169631,1,8,0:0:0:0:
256,192,169838,1,0,0:0:0:0:
256,192,170044,1,8,0:0:0:0:
256,192,170148,1,8,0:0:0:0:
256,192,170251,1,0,0:0:0:0:
256,192,170458,1,8,0:0:0:0:
256,192,170665,1,0,0:0:0:0:
256,192,170769,1,0,0:0:0:0:
256,192,170872,1,0,0:0:0:0:
256,192,170975,1,0,0:0:0:0:
256,192,171079,1,8,0:0:0:0:
256,192,171286,1,8,0:0:0:0:
256,192,171493,1,0,0:0:0:0:
256,192,171596,1,0,0:0:0:0:
256,192,171700,1,8,0:0:0:0:
256,192,171803,1,8,0:0:0:0:
256,192,171906,1,0,0:0:0:0:
256,192,172113,1,8,0:0:0:0:
256,192,172320,1,0,0:0:0:0:
256,192,172527,1,8,0:0:0:0:
256,192,172631,1,8,0:0:0:0:
256,192,172734,1,0,0:0:0:0:
256,192,172838,1,0,0:0:0:0:
256,192,172941,1,8,0:0:0:0:
256,192,173148,1,4,0:0:0:0:
256,192,173458,1,12,0:0:0:0:
256,192,173769,1,12,0:0:0:0:
256,192,173975,1,0,0:0:0:0:
256,192,174389,1,0,0:0:0:0:
256,192,174596,1,8,0:0:0:0:
256,192,174803,1,0,0:0:0:0:
256,192,175010,1,8,0:0:0:0:
256,192,175113,1,8,0:0:0:0:
256,192,175217,1,0,0:0:0:0:
256,192,175424,1,8,0:0:0:0:
256,192,175631,1,0,0:0:0:0:
256,192,175838,1,8,0:0:0:0:
256,192,176044,1,0,0:0:0:0:
256,192,176148,1,0,0:0:0:0:
256,192,176251,1,8,0:0:0:0:
256,192,176458,1,0,0:0:0:0:
256,192,176665,1,8,0:0:0:0:
256,192,176769,1,8,0:0:0:0:
256,192,176872,1,0,0:0:0:0:
256,192,176975,1,0,0:0:0:0:
256,192,177079,1,8,0:0:0:0:
256,192,177286,1,0,0:0:0:0:
256,192,177493,1,8,0:0:0:0:
256,192,177700,1,0,0:0:0:0:
256,192,177803,1,0,0:0:0:0:
256,192,177906,1,8,0:0:0:0:
256,192,178010,1,8,0:0:0:0:
256,192,178113,1,0,0:0:0:0:
256,192,178320,1,8,0:0:0:0:
256,192,178424,1,0,0:0:0:0:
256,192,178631,1,0,0:0:0:0:
256,192,178734,1,8,0:0:0:0:
256,192,178941,1,0,0:0:0:0:
256,192,179148,1,8,0:0:0:0:
256,192,179355,1,0,0:0:0:0:
256,192,179458,1,0,0:0:0:0:
256,192,179562,1,8,0:0:0:0:
256,192,179769,1,0,0:0:0:0:
256,192,179975,1,8,0:0:0:0:
256,192,180182,1,0,0:0:0:0:
256,192,180286,1,8,0:0:0:0:
256,192,180389,1,8,0:0:0:0:
256,192,180596,1,4,0:0:0:0:
256,192,181010,1,0,0:0:0:0:
256,192,181113,1,0,0:0:0:0:
256,192,181217,1,8,0:0:0:0:
256,192,181424,1,0,0:0:0:0:
256,192,181631,1,8,0:0:0:0:
256,192,181734,1,8,0:0:0:0:
256,192,181838,1,0,0:0:0:0:
256,192,181941,1,0,0:0:0:0:
256,192,182044,1,8,0:0:0:0:
256,192,182251,1,0,0:0:0:0:
256,192,182458,1,8,0:0:0:0:
256,192,182562,1,8,0:0:0:0:
256,192,182665,1,0,0:0:0:0:
256,192,182872,1,8,0:0:0:0:
256,192,183079,1,0,0:0:0:0:
256,192,183182,1,0,0:0:0:0:
256,192,183286,1,8,0:0:0:0:
256,192,183389,1,8,0:0:0:0:
256,192,183493,1,0,0:0:0:0:
256,192,183700,1,8,0:0:0:0:
256,192,183906,1,4,0:0:0:0:
256,192,184217,1,0,0:0:0:0:
256,192,184320,1,8,0:0:0:0:
256,192,184527,1,0,0:0:0:0:
256,192,184631,1,0,0:0:0:0:
256,192,184734,1,8,0:0:0:0:
256,192,184941,1,0,0:0:0:0:
256,192,185148,1,8,0:0:0:0:
256,192,185251,1,0,0:0:0:0:
256,192,185355,1,0,0:0:0:0:
256,192,185458,1,0,0:0:0:0:
256,192,185562,1,8,0:0:0:0:
256,192,185769,1,0,0:0:0:0:
256,192,185975,1,8,0:0:0:0:
256,192,186079,1,8,0:0:0:0:
256,192,186182,1,0,0:0:0:0:
256,192,186286,1,0,0:0:0:0:
256,192,186389,1,8,0:0:0:0:
256,192,186596,1,0,0:0:0:0:
256,192,186803,1,8,0:0:0:0:
256,192,186906,1,8,0:0:0:0:
256,192,187010,1,8,0:0:0:0:
256,192,187113,1,8,0:0:0:0:
256,192,187217,1,0,0:0:0:0:
256,192,187424,1,8,0:0:0:0:
256,192,187527,1,0,0:0:0:0:
256,192,187734,1,8,0:0:0:0:
256,192,187838,1,0,0:0:0:0:
256,192,188044,1,8,0:0:0:0:
256,192,188355,1,0,0:0:0:0:
256,192,188665,1,0,0:0:0:0:
256,192,188872,1,12,0:0:0:0:
256,192,189182,1,12,0:0:0:0:
256,192,189493,1,12,0:0:0:0:
256,192,190527,1,4,0:0:0:0:
256,192,203769,5,0,0:0:0:0:
256,192,204596,1,0,0:0:0:0:
256,192,205424,1,8,0:0:0:0:
256,192,207079,1,0,0:0:0:0:
256,192,207906,1,8,0:0:0:0:
256,192,208734,1,8,0:0:0:0:
256,192,209562,1,8,0:0:0:0:
256,192,209769,1,0,0:0:0:0:
256,192,209872,1,0,0:0:0:0:
256,192,209975,1,0,0:0:0:0:
256,192,210389,1,12,0:0:0:0:
256,192,211217,1,0,0:0:0:0:
256,192,211631,1,12,0:0:0:0:
256,192,212044,1,4,0:0:0:0:
256,192,212872,1,4,0:0:0:0:
256,192,213700,1,12,0:0:0:0:
256,192,214113,1,0,0:0:0:0:
256,192,214320,1,0,0:0:0:0:
256,192,214527,1,8,0:0:0:0:
256,192,214734,1,8,0:0:0:0:
256,192,214941,1,8,0:0:0:0:
256,192,215148,1,8,0:0:0:0:
256,192,215355,1,4,0:0:0:0:
256,192,215665,1,12,0:0:0:0:
256,192,215975,1,12,0:0:0:0:
256,192,216182,1,4,0:0:0:0:
256,192,216389,1,8,0:0:0:0:
256,192,216493,1,8,0:0:0:0:
256,192,216596,1,8,0:0:0:0:
256,192,216700,1,8,0:0:0:0:
256,192,216803,1,8,0:0:0:0:
256,192,217010,1,4,0:0:0:0:
256,192,217424,1,0,0:0:0:0:
256,192,217631,1,8,0:0:0:0:
256,192,217734,1,8,0:0:0:0:
256,192,217838,1,0,0:0:0:0:
256,192,218044,1,8,0:0:0:0:
256,192,218148,1,0,0:0:0:0:
256,192,218355,1,0,0:0:0:0:
256,192,218458,1,8,0:0:0:0:
256,192,218665,1,0,0:0:0:0:
256,192,218872,1,8,0:0:0:0:
256,192,218975,1,0,0:0:0:0:
256,192,219182,1,0,0:0:0:0:
256,192,219286,1,8,0:0:0:0:
256,192,219389,1,8,0:0:0:0:
256,192,219493,1,0,0:0:0:0:
256,192,219700,1,8,0:0:0:0:
256,192,219906,1,0,0:0:0:0:
256,192,220010,1,0,0:0:0:0:
256,192,220113,1,8,0:0:0:0:
256,192,220320,1,0,0:0:0:0:
256,192,220527,1,8,0:0:0:0:
256,192,220631,1,8,0:0:0:0:
256,192,220734,1,0,0:0:0:0:
256,192,220941,1,8,0:0:0:0:
256,192,221044,1,0,0:0:0:0:
256,192,221148,1,0,0:0:0:0:
256,192,221355,1,8,0:0:0:0:
256,192,221458,1,0,0:0:0:0:
256,192,221665,1,0,0:0:0:0:
256,192,221769,1,8,0:0:0:0:
256,192,221975,1,0,0:0:0:0:
256,192,222079,1,0,0:0:0:0:
256,192,222182,1,8,0:0:0:0:
256,192,222286,1,0,0:0:0:0:
256,192,222493,1,0,0:0:0:0:
256,192,222596,1,8,0:0:0:0:
256,192,222803,1,0,0:0:0:0:
256,192,223010,1,8,0:0:0:0:
256,192,223113,1,0,0:0:0:0:
256,192,223217,1,0,0:0:0:0:
256,192,223320,1,0,0:0:0:0:
256,192,223424,1,8,0:0:0:0:
256,192,223631,1,4,0:0:0:0:
256,192,224044,1,0,0:0:0:0:
256,192,224148,1,0,0:0:0:0:
256,192,224251,1,8,0:0:0:0:
256,192,224458,1,0,0:0:0:0:
256,192,224665,1,8,0:0:0:0:
256,192,224769,1,0,0:0:0:0:
256,192,224975,1,0,0:0:0:0:
256,192,225079,1,8,0:0:0:0:
256,192,225182,1,8,0:0:0:0:
256,192,225286,1,0,0:0:0:0:
256,192,225493,1,8,0:0:0:0:
256,192,225700,1,0,0:0:0:0:
256,192,225803,1,0,0:0:0:0:
256,192,225906,1,8,0:0:0:0:
256,192,226010,1,8,0:0:0:0:
256,192,226113,1,0,0:0:0:0:
256,192,226320,1,8,0:0:0:0:
256,192,226424,1,0,0:0:0:0:
256,192,226631,1,0,0:0:0:0:
256,192,226734,1,8,0:0:0:0:
256,192,226941,1,4,0:0:0:0:
256,192,227148,1,8,0:0:0:0:
256,192,227251,1,8,0:0:0:0:
256,192,227355,1,0,0:0:0:0:
256,192,227562,1,8,0:0:0:0:
256,192,227769,1,0,0:0:0:0:
256,192,227872,1,0,0:0:0:0:
256,192,227975,1,8,0:0:0:0:
256,192,228079,1,0,0:0:0:0:
256,192,228286,1,0,0:0:0:0:
256,192,228389,1,8,0:0:0:0:
256,192,228493,1,8,0:0:0:0:
256,192,228596,1,0,0:0:0:0:
256,192,228803,1,8,0:0:0:0:
256,192,228906,1,0,0:0:0:0:
256,192,229010,1,0,0:0:0:0:
256,192,229113,1,0,0:0:0:0:
256,192,229217,1,8,0:0:0:0:
256,192,229424,1,4,0:0:0:0:
256,192,229734,1,12,0:0:0:0:
256,192,230044,1,12,0:0:0:0:
256,192,230251,1,4,0:0:0:0:
256,192,230665,1,0,0:0:0:0:
256,192,230872,1,8,0:0:0:0:
256,192,230975,1,8,0:0:0:0:
256,192,231079,1,0,0:0:0:0:
256,192,231286,1,8,0:0:0:0:
256,192,231389,1,0,0:0:0:0:
256,192,231596,1,0,0:0:0:0:
256,192,231700,1,8,0:0:0:0:
256,192,231906,1,0,0:0:0:0:
256,192,232113,1,8,0:0:0:0:
256,192,232217,1,0,0:0:0:0:
256,192,232424,1,0,0:0:0:0:
256,192,232527,1,8,0:0:0:0:
256,192,232631,1,8,0:0:0:0:
256,192,232734,1,0,0:0:0:0:
256,192,232941,1,8,0:0:0:0:
256,192,233044,1,0,0:0:0:0:
256,192,233148,1,0,0:0:0:0:
256,192,233251,1,0,0:0:0:0:
256,192,233355,1,8,0:0:0:0:
256,192,233562,1,0,0:0:0:0:
256,192,233769,1,8,0:0:0:0:
256,192,233872,1,0,0:0:0:0:
256,192,233975,1,0,0:0:0:0:
256,192,234182,1,8,0:0:0:0:
256,192,234286,1,8,0:0:0:0:
256,192,234389,1,0,0:0:0:0:
256,192,234596,1,8,0:0:0:0:
256,192,234700,1,8,0:0:0:0:
256,192,234906,1,0,0:0:0:0:
256,192,235010,1,8,0:0:0:0:
256,192,235217,1,0,0:0:0:0:
256,192,235320,1,0,0:0:0:0:
256,192,235424,1,8,0:0:0:0:
256,192,235527,1,0,0:0:0:0:
256,192,235734,1,0,0:0:0:0:
256,192,235838,1,8,0:0:0:0:
256,192,235941,1,8,0:0:0:0:
256,192,236044,1,0,0:0:0:0:
256,192,236251,1,8,0:0:0:0:
256,192,236355,1,8,0:0:0:0:
256,192,236458,1,0,0:0:0:0:
256,192,236872,1,4,0:0:0:0:
256,192,237079,1,8,0:0:0:0:
256,192,237286,1,0,0:0:0:0:
256,192,237389,1,0,0:0:0:0:
256,192,237493,1,8,0:0:0:0:
256,192,237596,1,8,0:0:0:0:
256,192,237700,1,0,0:0:0:0:
256,192,237906,1,8,0:0:0:0:
256,192,238010,1,0,0:0:0:0:
256,192,238217,1,0,0:0:0:0:
256,192,238320,1,8,0:0:0:0:
256,192,238527,1,4,0:0:0:0:
256,192,238734,1,8,0:0:0:0:
256,192,238838,1,0,0:0:0:0:
256,192,239044,1,8,0:0:0:0:
256,192,239148,1,0,0:0:0:0:
256,192,239355,1,8,0:0:0:0:
256,192,239665,1,8,0:0:0:0:
256,192,239975,1,8,0:0:0:0:
256,192,240182,1,4,0:0:0:0:
256,192,240389,1,8,0:0:0:0:
256,192,240596,1,0,0:0:0:0:
256,192,240700,1,8,0:0:0:0:
256,192,240803,1,8,0:0:0:0:
256,192,241010,1,0,0:0:0:0:
256,192,241217,1,8,0:0:0:0:
256,192,241320,1,0,0:0:0:0:
256,192,241527,1,0,0:0:0:0:
256,192,241631,1,8,0:0:0:0:
256,192,241734,1,8,0:0:0:0:
256,192,241838,1,0,0:0:0:0:
256,192,242044,1,8,0:0:0:0:
256,192,242148,1,8,0:0:0:0:
256,192,242251,1,0,0:0:0:0:
256,192,242355,1,0,0:0:0:0:
256,192,242458,1,0,0:0:0:0:
256,192,242665,1,8,0:0:0:0:
256,192,242872,1,0,0:0:0:0:
256,192,242975,1,0,0:0:0:0:
256,192,243079,1,8,0:0:0:0:
256,192,243182,1,8,0:0:0:0:
256,192,243286,1,8,0:0:0:0:
256,192,243493,1,4,0:0:0:0:
256,192,243700,1,8,0:0:0:0:
256,192,243803,1,8,0:0:0:0:
256,192,243906,1,0,0:0:0:0:
256,192,244113,1,8,0:0:0:0:
256,192,244320,1,0,0:0:0:0:
256,192,244424,1,0,0:0:0:0:
256,192,244527,1,0,0:0:0:0:
256,192,244631,1,0,0:0:0:0:
256,192,244734,1,8,0:0:0:0:
256,192,244838,1,8,0:0:0:0:
256,192,244941,1,8,0:0:0:0:
256,192,245148,1,4,0:0:0:0:
256,192,246182,1,0,0:0:0:0:
256,192,246286,1,0,0:0:0:0:
256,192,246389,1,0,0:0:0:0:
256,192,246803,1,12,0:0:0:0:
256,192,248458,1,12,0:0:0:0:
256,192,249700,1,12,0:0:0:0:
256,192,250113,1,4,0:0:0:0:
256,192,250941,1,4,0:0:0:0:
256,192,251769,1,12,0:0:0:0:
256,192,252389,1,8,0:0:0:0:
256,192,252493,1,8,0:0:0:0:
256,192,252596,1,0,0:0:0:0:
256,192,252906,1,0,0:0:0:0:
256,192,253217,1,0,0:0:0:0:
256,192,253424,1,12,0:0:0:0:
256,192,253700,1,0,0:0:0:0:
256,192,253838,1,0,0:0:0:0:
256,192,254113,1,0,0:0:0:0:
256,192,254251,1,8,0:0:0:0:
256,192,254527,1,8,0:0:0:0:
256,192,254665,1,0,0:0:0:0:
256,192,255079,1,12,0:0:0:0:
256,192,255493,1,0,0:0:0:0:
256,192,255906,1,12,0:0:0:0:
256,192,256320,1,0,0:0:0:0:
256,192,256734,1,12,0:0:0:0:
256,192,257148,1,0,0:0:0:0:
256,192,257355,1,12,0:0:0:0:
256,192,257769,1,0,0:0:0:0:
256,192,257975,1,12,0:0:0:0:
256,192,258389,1,12,0:0:0:0:
256,192,258596,1,8,0:0:0:0:
256,192,258700,1,8,0:0:0:0:
256,192,258803,1,0,0:0:0:0:
256,192,258906,1,0,0:0:0:0:
256,192,259010,1,0,0:0:0:0:
256,192,259217,1,8,0:0:0:0:
256,192,259320,1,8,0:0:0:0:
256,192,259424,1,0,0:0:0:0:
256,192,259527,1,0,0:0:0:0:
256,192,259631,1,8,0:0:0:0:
256,192,259838,1,8,0:0:0:0:
256,192,260044,1,4,0:0:0:0:
256,192,261700,1,0,0:0:0:0:
256,192,261803,1,0,0:0:0:0:
256,192,261906,1,0,0:0:0:0:
