osu file format v14

[General]
AudioFilename: audio.mp3
AudioLeadIn: 0
PreviewTime: 155297
Countdown: 0
SampleSet: Soft
StackLeniency: 0.7
Mode: 3
LetterboxInBreaks: 0
SpecialStyle: 0
WidescreenStoryboard: 1

[Editor]
Bookmarks: 255,12998,29989,45917,50164,67155,84147,101138,113881,130872,147863,156359,190341,203085
DistanceSpacing: 0.5
BeatDivisor: 4
GridSize: 32
TimelineZoom: 0.8

[Metadata]
Title:SPRINGIRLS
TitleUnicode:봄처녀
Artist:SWJA
ArtistUnicode:선우정아
Creator:Garalulu
Version:Hyper
Source:
Tags:Sunwoojunga Sunwoo Jung-A 백경진 Brad Wheeler bk! of Astro Bits The Barberettes realmeee chch Magic Strawberry Sound msbsound K-pop KPOP Dance Pop Korean
BeatmapID:2407223
BeatmapSetID:1142143

[Difficulty]
HPDrainRate:8
CircleSize:7
OverallDifficulty:8
ApproachRate:10
SliderMultiplier:1.4
SliderTickRate:1

[Events]
//Background and Video events
0,0,"SPRINGIRLS.jpg",0,0
//Break Periods
//Storyboard Layer 0 (Background)
//Storyboard Layer 1 (Fail)
//Storyboard Layer 2 (Pass)
//Storyboard Layer 3 (Foreground)
//Storyboard Layer 4 (Overlay)
//Storyboard Sound Samples

[TimingPoints]
255,530.973451327434,4,2,1,80,1,0
45917,530.973451327434,4,2,1,80,1,0
84147,-100,4,2,1,80,0,1
91580,-100,4,2,1,20,0,1
91846,-100,4,2,1,40,0,1
92111,-100,4,2,1,60,0,1
92377,-100,4,2,1,80,0,1
101138,-100,4,2,1,80,0,0
156359,-100,4,2,1,80,0,1
163793,-100,4,2,1,20,0,1
164059,-100,4,2,1,40,0,1
164324,-100,4,2,1,60,0,1
164590,-100,4,2,1,80,0,1
180784,-100,4,2,1,20,0,1
181050,-100,4,2,1,40,0,1
181315,-100,4,2,1,60,0,1
181581,-100,4,2,1,80,0,1
190341,-100,4,2,1,80,0,0

[HitObjects]
36,192,255,5,2,0:1:0:0:
109,192,255,1,8,0:1:0:0:
182,192,520,1,0,0:0:0:0:
109,192,785,1,8,0:0:0:0:
402,192,785,1,2,0:1:0:0:
475,192,785,1,0,0:0:0:0:
329,192,1051,1,0,0:0:0:0:
256,192,1316,1,2,0:1:0:0:
402,192,1316,1,8,0:1:0:0:
182,192,1582,1,2,0:1:0:0:
329,192,1582,1,0,0:0:0:0:
36,192,1847,1,2,0:1:0:0:
109,192,1847,1,8,0:0:0:0:
256,192,1847,1,0,0:0:0:0:
402,192,2113,1,2,0:0:0:0:
36,192,2378,1,8,0:1:0:0:
109,192,2378,1,2,0:1:0:0:
182,192,2644,1,0,0:0:0:0:
109,192,2909,1,2,0:1:0:0:
402,192,2909,1,8,0:0:0:0:
475,192,2909,1,0,0:0:0:0:
329,192,3175,1,0,0:0:0:0:
256,192,3440,1,2,0:1:0:0:
402,192,3440,1,8,0:1:0:0:
182,192,3706,1,2,0:1:0:0:
329,192,3706,1,0,0:0:0:0:
36,192,3971,1,2,0:1:0:0:
109,192,3971,1,8,0:0:0:0:
256,192,3971,1,0,0:0:0:0:
402,192,4237,1,2,0:0:0:0:
109,192,4502,1,8,0:0:0:0:
329,192,4502,1,2,0:0:0:0:
475,192,4502,1,10,0:1:0:0:
109,192,5033,1,8,0:0:0:0:
256,192,5033,1,8,0:1:0:0:
402,192,5033,1,2,0:0:0:0:
109,192,5564,1,8,0:0:0:0:
182,192,5564,1,8,0:1:0:0:
329,192,5564,1,2,0:0:0:0:
109,192,6095,1,8,0:0:0:0:
182,192,6095,1,8,0:1:0:0:
256,192,6095,1,2,0:0:0:0:
329,192,6361,1,4,0:0:0:0:
475,192,6361,1,0,0:0:0:0:
36,192,6626,1,8,0:1:0:0:
182,192,6626,1,2,0:1:0:0:
109,192,6892,1,0,0:0:0:0:
36,192,7157,1,2,0:1:0:0:
329,192,7157,1,8,0:0:0:0:
475,192,7157,1,0,0:0:0:0:
402,192,7423,1,0,0:0:0:0:
256,192,7688,1,2,0:1:0:0:
475,192,7688,1,8,0:1:0:0:
182,192,7954,1,2,0:1:0:0:
329,192,7954,1,0,0:0:0:0:
109,192,8219,1,2,0:1:0:0:
256,192,8219,1,8,0:0:0:0:
402,192,8219,1,0,0:0:0:0:
475,192,8485,1,2,0:0:0:0:
36,192,8750,1,2,0:1:0:0:
182,192,8750,1,8,0:1:0:0:
109,192,9016,1,0,0:0:0:0:
36,192,9281,1,8,0:0:0:0:
329,192,9281,1,2,0:1:0:0:
475,192,9281,1,0,0:0:0:0:
402,192,9547,1,0,0:0:0:0:
256,192,9812,1,8,0:1:0:0:
475,192,9812,1,2,0:1:0:0:
182,192,10078,1,2,0:1:0:0:
329,192,10078,1,0,0:0:0:0:
109,192,10343,1,8,0:0:0:0:
256,192,10343,1,2,0:1:0:0:
402,192,10343,1,0,0:0:0:0:
329,192,10608,1,2,0:0:0:0:
402,192,10874,1,8,0:0:0:0:
182,192,10874,1,2,0:0:0:0:
36,192,10874,1,10,0:1:0:0:
109,192,11405,1,8,0:0:0:0:
256,192,11405,1,8,0:1:0:0:
402,192,11405,1,2,0:0:0:0:
182,192,11936,1,8,0:0:0:0:
329,192,11936,1,8,0:1:0:0:
402,192,11936,1,2,0:0:0:0:
256,192,12467,1,8,0:0:0:0:
329,192,12467,1,8,0:1:0:0:
402,192,12467,1,2,0:0:0:0:
36,192,12732,1,4,0:0:0:0:
182,192,12732,1,0,0:0:0:0:
329,192,12998,1,8,0:1:0:0:
475,192,12998,1,0,0:0:0:0:
256,192,13263,1,2,0:1:0:0:
182,192,13396,1,0,0:0:0:0:
36,192,13529,1,8,0:0:0:0:
109,192,13529,1,2,0:1:0:0:
329,192,13529,1,0,0:0:0:0:
402,192,13662,1,0,0:0:0:0:
256,192,13794,1,2,0:1:0:0:
329,192,13927,1,0,0:0:0:0:
402,192,14060,1,8,0:1:0:0:
475,192,14060,1,2,0:1:0:0:
182,192,14325,1,2,0:1:0:0:
329,192,14325,1,0,0:0:0:0:
36,192,14591,1,8,0:0:0:0:
109,192,14591,1,0,0:0:0:0:
256,192,14591,1,0,0:0:0:0:
402,192,14856,1,2,0:0:0:0:
36,192,15122,1,8,0:1:0:0:
182,192,15122,1,0,0:0:0:0:
256,192,15387,1,2,0:1:0:0:
329,192,15520,1,0,0:0:0:0:
182,192,15653,1,8,0:0:0:0:
402,192,15653,1,2,0:1:0:0:
475,192,15653,1,0,0:0:0:0:
109,192,15785,1,0,0:0:0:0:
256,192,15918,1,2,0:1:0:0:
182,192,16051,1,0,0:0:0:0:
36,192,16184,1,8,0:1:0:0:
109,192,16184,1,2,0:1:0:0:
182,192,16449,1,2,0:1:0:0:
329,192,16449,1,0,0:0:0:0:
256,192,16715,1,8,0:0:0:0:
402,192,16715,1,0,0:0:0:0:
475,192,16715,1,0,0:0:0:0:
109,192,16980,1,2,0:0:0:0:
182,192,17246,1,8,0:1:0:0:
402,192,17246,1,0,0:0:0:0:
329,192,17511,1,2,0:1:0:0:
182,192,17644,1,0,0:0:0:0:
36,192,17777,1,8,0:0:0:0:
109,192,17777,1,2,0:1:0:0:
475,192,17777,1,0,0:0:0:0:
256,192,17909,1,0,0:0:0:0:
402,192,18042,1,2,0:1:0:0:
182,192,18175,1,0,0:0:0:0:
329,192,18308,1,8,0:1:0:0:
475,192,18308,1,2,0:1:0:0:
109,192,18573,1,2,0:1:0:0:
182,192,18573,1,0,0:0:0:0:
36,192,18839,1,8,0:0:0:0:
256,192,18839,1,0,0:0:0:0:
402,192,18839,1,0,0:0:0:0:
109,192,19104,1,2,0:0:0:0:
182,192,19370,1,8,0:0:0:0:
329,192,19370,1,2,0:1:0:0:
475,192,19370,1,8,0:1:0:0:
182,192,19901,1,8,0:0:0:0:
329,192,19901,1,8,0:1:0:0:
475,192,19901,1,2,0:1:0:0:
329,192,20431,1,12,0:0:0:0:
182,192,20431,1,10,0:1:0:0:
402,192,20564,1,0,0:0:0:0:
109,192,20697,1,2,0:1:0:0:
256,192,20697,1,0,0:0:0:0:
329,192,20830,1,0,0:0:0:0:
182,192,20962,1,10,0:1:0:0:
36,192,20962,1,8,0:0:0:0:
256,192,21095,1,8,0:0:0:0:
402,192,21095,1,0,0:0:0:0:
36,192,21228,1,8,0:0:0:0:
109,192,21228,1,0,0:0:0:0:
182,192,21493,1,8,0:1:0:0:
475,192,21493,1,0,0:0:0:0:
402,192,21759,1,2,0:1:0:0:
329,192,21892,1,0,0:0:0:0:
36,192,22024,1,8,0:0:0:0:
109,192,22024,1,2,0:1:0:0:
256,192,22024,1,0,0:0:0:0:
402,192,22157,1,0,0:0:0:0:
182,192,22290,1,2,0:1:0:0:
329,192,22423,1,0,0:0:0:0:
109,192,22555,1,8,0:1:0:0:
256,192,22555,1,2,0:1:0:0:
402,192,22821,1,0,0:0:0:0:
475,192,22821,1,0,0:0:0:0:
36,192,23086,1,8,0:0:0:0:
182,192,23086,1,0,0:0:0:0:
329,192,23086,1,0,0:0:0:0:
475,192,23352,1,2,0:0:0:0:
36,192,23617,1,8,0:1:0:0:
329,192,23617,1,0,0:0:0:0:
109,192,23883,1,2,0:1:0:0:
182,192,24016,1,0,0:0:0:0:
256,192,24148,1,2,0:1:0:0:
402,192,24148,1,8,0:0:0:0:
475,192,24148,1,0,0:0:0:0:
109,192,24281,1,0,0:0:0:0:
329,192,24414,1,2,0:1:0:0:
182,192,24547,1,0,0:0:0:0:
256,192,24679,1,2,0:1:0:0:
402,192,24679,1,8,0:1:0:0:
36,192,24945,1,0,0:0:0:0:
109,192,24945,1,0,0:0:0:0:
182,192,25210,1,8,0:0:0:0:
329,192,25210,1,2,0:1:0:0:
475,192,25210,1,0,0:0:0:0:
36,192,25476,1,2,0:0:0:0:
109,192,25741,1,8,0:1:0:0:
256,192,25741,1,0,0:0:0:0:
475,192,26007,1,2,0:1:0:0:
329,192,26139,1,0,0:0:0:0:
36,192,26272,1,8,0:0:0:0:
182,192,26272,1,2,0:1:0:0:
402,192,26272,1,0,0:0:0:0:
256,192,26405,1,0,0:0:0:0:
109,192,26538,1,2,0:1:0:0:
182,192,26670,1,0,0:0:0:0:
256,192,26803,1,8,0:1:0:0:
329,192,26803,1,2,0:1:0:0:
109,192,27069,1,0,0:0:0:0:
402,192,27069,1,2,0:1:0:0:
36,192,27334,1,8,0:0:0:0:
182,192,27334,1,0,0:0:0:0:
256,192,27334,1,0,0:0:0:0:
475,192,27600,1,2,0:0:0:0:
36,192,27865,1,8,0:0:0:0:
182,192,27865,1,2,0:1:0:0:
329,192,27865,1,8,0:1:0:0:
36,192,28396,1,8,0:0:0:0:
182,192,28396,1,8,0:1:0:0:
329,192,28396,1,2,0:1:0:0:
329,192,28927,1,12,0:0:0:0:
182,192,28927,1,10,0:1:0:0:
109,192,29060,1,0,0:0:0:0:
256,192,29193,1,2,0:1:0:0:
402,192,29193,1,0,0:0:0:0:
182,192,29325,1,0,0:0:0:0:
329,192,29458,1,8,0:0:0:0:
475,192,29458,128,10,29989:0:1:0:0:
109,192,29591,1,8,0:0:0:0:
256,192,29591,1,0,0:0:0:0:
36,192,29724,1,8,0:0:0:0:
402,192,29724,1,0,0:0:0:0:
182,192,29989,1,8,0:1:0:0:
329,192,29989,128,2,31582:0:1:0:0:
109,192,30255,1,0,0:0:0:0:
402,192,30520,1,8,0:0:0:0:
475,192,30520,1,0,0:0:0:0:
182,192,30653,1,0,0:0:0:0:
36,192,30785,1,0,0:0:0:0:
109,192,31051,1,8,0:1:0:0:
256,192,31051,1,0,0:0:0:0:
182,192,31316,1,0,0:0:0:0:
36,192,31582,128,2,32113:0:1:0:0:
402,192,31582,1,4,0:0:0:0:
475,192,31582,1,8,0:0:0:0:
182,192,31715,1,0,0:0:0:0:
329,192,31847,1,0,0:0:0:0:
256,192,32113,128,2,33440:0:1:0:0:
402,192,32113,1,8,0:1:0:0:
475,192,32378,1,0,0:0:0:0:
36,192,32644,1,8,0:0:0:0:
109,192,32644,1,0,0:0:0:0:
329,192,32777,1,0,0:0:0:0:
475,192,32909,1,0,0:0:0:0:
182,192,33175,1,8,0:1:0:0:
402,192,33175,1,0,0:0:0:0:
329,192,33440,128,2,33706:0:1:0:0:
475,192,33440,1,2,0:0:0:0:
36,192,33706,1,8,0:0:0:0:
402,192,33706,128,2,33971:0:1:0:0:
109,192,33706,1,0,0:0:0:0:
475,192,33971,128,2,34237:0:1:0:0:
256,192,33971,1,2,0:0:0:0:
182,192,34237,1,8,0:1:0:0:
329,192,34237,128,2,35299:0:1:0:0:
256,192,34502,1,0,0:0:0:0:
109,192,34768,1,8,0:0:0:0:
402,192,34768,1,2,0:1:0:0:
182,192,34901,1,0,0:0:0:0:
256,192,35033,1,0,0:0:0:0:
36,192,35299,1,8,0:1:0:0:
109,192,35299,1,2,0:1:0:0:
182,192,35564,1,2,0:1:0:0:
329,192,35564,1,0,0:0:0:0:
36,192,35830,1,4,0:0:0:0:
256,192,35830,1,8,0:0:0:0:
475,192,35830,1,2,0:1:0:0:
402,192,35962,1,0,0:0:0:0:
329,192,36095,1,0,0:0:0:0:
109,192,36361,1,2,0:1:0:0:
256,192,36361,1,8,0:1:0:0:
402,192,36626,1,0,0:0:0:0:
36,192,36892,1,8,0:0:0:0:
182,192,36892,1,2,0:1:0:0:
329,192,36892,1,0,0:0:0:0:
402,192,37024,1,0,0:0:0:0:
475,192,37157,1,0,0:0:0:0:
109,192,37423,1,8,0:1:0:0:
256,192,37423,1,2,0:1:0:0:
402,192,37688,1,2,0:1:0:0:
475,192,37688,1,2,0:0:0:0:
329,192,37954,1,0,0:0:0:0:
36,192,37954,128,2,38485:0:1:0:0:
182,192,37954,1,8,0:0:0:0:
256,192,38219,1,2,0:0:0:0:
182,192,38485,128,2,40078:0:1:0:0:
402,192,38485,1,8,0:1:0:0:
475,192,38750,1,0,0:0:0:0:
109,192,39016,1,8,0:0:0:0:
329,192,39016,1,0,0:0:0:0:
402,192,39148,1,0,0:0:0:0:
475,192,39281,1,0,0:0:0:0:
36,192,39547,1,8,0:1:0:0:
329,192,39547,1,0,0:0:0:0:
402,192,39812,1,0,0:0:0:0:
109,192,40078,1,4,0:0:0:0:
475,192,40078,128,2,40608:0:1:0:0:
36,192,40078,1,8,0:0:0:0:
329,192,40343,1,0,0:0:0:0:
256,192,40608,128,2,41139:0:1:0:0:
182,192,40608,1,8,0:1:0:0:
475,192,40874,1,0,0:0:0:0:
36,192,41139,1,8,0:0:0:0:
109,192,41139,1,0,0:0:0:0:
402,192,41139,1,0,0:0:0:0:
475,192,41405,1,0,0:0:0:0:
36,192,41670,1,8,0:1:0:0:
329,192,41670,1,0,0:0:0:0:
109,192,41936,128,2,42201:0:1:0:0:
256,192,41936,1,2,0:0:0:0:
36,192,42201,1,8,0:0:0:0:
182,192,42201,128,2,42467:0:1:0:0:
402,192,42201,1,0,0:0:0:0:
256,192,42467,128,2,42732:0:1:0:0:
475,192,42467,1,2,0:0:0:0:
329,192,42732,128,2,44060:0:1:0:0:
402,192,42732,1,8,0:1:0:0:
109,192,42998,1,0,0:0:0:0:
36,192,43263,1,8,0:0:0:0:
182,192,43263,1,0,0:0:0:0:
475,192,43263,1,0,0:0:0:0:
256,192,43529,1,0,0:0:0:0:
182,192,43794,1,8,0:1:0:0:
402,192,43794,1,0,0:0:0:0:
109,192,44060,128,2,44325:0:1:0:0:
36,192,44060,1,0,0:0:0:0:
475,192,44325,1,0,0:0:0:0:
182,192,44325,128,2,44591:0:1:0:0:
329,192,44325,1,8,0:0:0:0:
256,192,44591,128,2,44856:0:1:0:0:
402,192,44591,1,2,0:0:0:0:
329,192,44856,1,8,0:0:0:0:
475,192,44856,1,10,0:1:0:0:
36,192,44989,1,8,0:0:0:0:
182,192,44989,1,0,0:0:0:0:
36,192,45255,1,8,0:0:0:0:
182,192,45255,1,0,0:0:0:0:
329,192,45387,1,8,0:0:0:0:
475,192,45387,1,0,0:0:0:0:
109,192,45917,1,8,0:1:0:0:
402,192,45917,1,0,0:0:0:0:
256,192,46182,1,0,0:0:0:0:
36,192,46447,1,8,0:0:0:0:
329,192,46447,1,0,0:0:0:0:
402,192,46447,1,0,0:0:0:0:
182,192,46713,1,0,0:0:0:0:
36,192,46978,1,8,0:1:0:0:
475,192,46978,1,0,0:0:0:0:
329,192,47244,1,0,0:0:0:0:
109,192,47509,1,8,0:0:0:0:
402,192,47509,1,2,0:1:0:0:
475,192,47509,1,0,0:0:0:0:
256,192,47775,1,2,0:0:0:0:
182,192,48040,1,2,0:1:0:0:
329,192,48040,1,8,0:1:0:0:
256,192,48306,1,0,0:0:0:0:
182,192,48571,1,8,0:1:0:0:
329,192,48571,1,0,0:0:0:0:
475,192,48837,1,2,0:0:0:0:
402,192,49102,1,0,0:0:0:0:
109,192,49368,1,0,0:0:0:0:
182,192,49633,1,4,0:0:0:0:
329,192,49633,1,0,0:0:0:0:
475,192,49633,1,0,0:0:0:0:
36,192,50164,1,8,0:1:0:0:
402,192,50164,1,0,0:0:0:0:
182,192,50430,1,2,0:1:0:0:
256,192,50563,1,0,0:0:0:0:
36,192,50695,1,8,0:0:0:0:
109,192,50695,1,2,0:1:0:0:
475,192,50695,1,0,0:0:0:0:
329,192,50828,1,0,0:0:0:0:
182,192,50961,1,2,0:1:0:0:
256,192,51093,1,0,0:0:0:0:
109,192,51226,1,8,0:1:0:0:
402,192,51226,1,2,0:1:0:0:
182,192,51492,1,2,0:1:0:0:
329,192,51492,1,0,0:0:0:0:
256,192,51757,1,8,0:0:0:0:
402,192,51757,1,0,0:0:0:0:
475,192,51757,1,0,0:0:0:0:
36,192,52023,1,2,0:0:0:0:
109,192,52288,1,8,0:1:0:0:
475,192,52288,1,0,0:0:0:0:
329,192,52554,1,2,0:1:0:0:
256,192,52686,1,0,0:0:0:0:
36,192,52819,1,8,0:0:0:0:
402,192,52819,1,2,0:1:0:0:
475,192,52819,1,0,0:0:0:0:
182,192,52952,1,0,0:0:0:0:
329,192,53085,1,2,0:1:0:0:
256,192,53217,1,0,0:0:0:0:
109,192,53350,1,8,0:1:0:0:
402,192,53350,1,2,0:1:0:0:
182,192,53616,1,2,0:1:0:0:
329,192,53616,1,0,0:0:0:0:
36,192,53881,1,8,0:0:0:0:
109,192,53881,1,0,0:0:0:0:
256,192,53881,1,0,0:0:0:0:
475,192,54147,1,2,0:0:0:0:
182,192,54412,1,8,0:1:0:0:
402,192,54412,1,0,0:0:0:0:
256,192,54678,1,2,0:1:0:0:
329,192,54810,1,0,0:0:0:0:
109,192,54943,1,8,0:0:0:0:
182,192,54943,1,2,0:1:0:0:
475,192,54943,1,0,0:0:0:0:
402,192,55076,1,0,0:0:0:0:
329,192,55209,1,2,0:1:0:0:
475,192,55341,1,0,0:0:0:0:
36,192,55474,1,8,0:1:0:0:
256,192,55474,1,2,0:1:0:0:
182,192,55740,1,2,0:1:0:0:
402,192,55740,1,0,0:0:0:0:
109,192,56005,1,8,0:0:0:0:
329,192,56005,1,0,0:0:0:0:
475,192,56005,1,0,0:0:0:0:
256,192,56270,1,2,0:0:0:0:
36,192,56536,1,8,0:0:0:0:
182,192,56536,1,2,0:1:0:0:
402,192,56536,1,8,0:1:0:0:
36,192,57067,1,8,0:0:0:0:
182,192,57067,1,8,0:1:0:0:
402,192,57067,1,2,0:1:0:0:
182,192,57598,1,12,0:0:0:0:
36,192,57598,1,10,0:1:0:0:
329,192,57731,1,0,0:0:0:0:
109,192,57863,1,2,0:1:0:0:
256,192,57863,1,0,0:0:0:0:
402,192,57996,1,0,0:0:0:0:
182,192,58129,1,8,0:0:0:0:
475,192,58129,1,10,0:1:0:0:
36,192,58262,1,8,0:0:0:0:
329,192,58262,1,0,0:0:0:0:
109,192,58394,1,8,0:0:0:0:
256,192,58394,1,0,0:0:0:0:
402,192,58660,1,8,0:1:0:0:
475,192,58660,1,0,0:0:0:0:
182,192,58925,1,2,0:1:0:0:
329,192,59058,1,0,0:0:0:0:
36,192,59191,1,8,0:0:0:0:
256,192,59191,1,2,0:1:0:0:
475,192,59191,1,0,0:0:0:0:
109,192,59324,1,0,0:0:0:0:
182,192,59456,1,2,0:1:0:0:
329,192,59589,1,0,0:0:0:0:
109,192,59722,1,8,0:1:0:0:
256,192,59722,1,2,0:1:0:0:
402,192,59987,1,0,0:0:0:0:
475,192,59987,1,0,0:0:0:0:
36,192,60253,1,8,0:0:0:0:
256,192,60253,1,0,0:0:0:0:
329,192,60253,1,0,0:0:0:0:
182,192,60518,1,2,0:0:0:0:
36,192,60784,1,8,0:1:0:0:
109,192,60784,1,0,0:0:0:0:
329,192,61049,1,2,0:1:0:0:
182,192,61182,1,0,0:0:0:0:
36,192,61315,1,2,0:1:0:0:
256,192,61315,1,8,0:0:0:0:
475,192,61315,1,0,0:0:0:0:
402,192,61447,1,0,0:0:0:0:
329,192,61580,1,2,0:1:0:0:
182,192,61713,1,0,0:0:0:0:
256,192,61846,1,2,0:1:0:0:
402,192,61846,1,8,0:1:0:0:
36,192,62111,1,0,0:0:0:0:
109,192,62111,1,0,0:0:0:0:
182,192,62377,1,8,0:0:0:0:
256,192,62377,1,2,0:1:0:0:
475,192,62377,1,0,0:0:0:0:
329,192,62642,1,2,0:0:0:0:
109,192,62908,1,8,0:1:0:0:
402,192,62908,1,0,0:0:0:0:
182,192,63173,1,2,0:1:0:0:
36,192,63306,1,0,0:0:0:0:
109,192,63439,1,8,0:0:0:0:
256,192,63439,1,2,0:1:0:0:
475,192,63439,1,0,0:0:0:0:
402,192,63571,1,0,0:0:0:0:
329,192,63704,1,2,0:1:0:0:
475,192,63837,1,0,0:0:0:0:
182,192,63970,1,8,0:1:0:0:
402,192,63970,1,2,0:1:0:0:
109,192,64235,1,2,0:1:0:0:
256,192,64235,1,0,0:0:0:0:
36,192,64501,1,8,0:0:0:0:
329,192,64501,1,0,0:0:0:0:
475,192,64501,1,0,0:0:0:0:
182,192,64766,1,2,0:0:0:0:
109,192,65032,1,8,0:0:0:0:
329,192,65032,1,2,0:1:0:0:
475,192,65032,1,8,0:1:0:0:
109,192,65563,1,8,0:0:0:0:
329,192,65563,1,8,0:1:0:0:
475,192,65563,1,2,0:1:0:0:
329,192,66093,1,10,0:1:0:0:
475,192,66093,1,12,0:0:0:0:
182,192,66226,1,0,0:0:0:0:
256,192,66359,1,2,0:1:0:0:
402,192,66359,1,0,0:0:0:0:
109,192,66492,1,0,0:0:0:0:
36,192,66624,128,10,67155:0:1:0:0:
329,192,66624,1,8,0:0:0:0:
182,192,66757,1,8,0:0:0:0:
475,192,66757,1,0,0:0:0:0:
256,192,66890,1,8,0:0:0:0:
402,192,66890,1,0,0:0:0:0:
109,192,67155,128,2,68748:0:1:0:0:
329,192,67155,1,8,0:1:0:0:
329,192,67421,1,0,0:0:0:0:
36,192,67686,1,8,0:0:0:0:
182,192,67686,1,0,0:0:0:0:
329,192,67819,1,0,0:0:0:0:
475,192,67952,1,0,0:0:0:0:
256,192,68217,1,8,0:1:0:0:
402,192,68217,1,0,0:0:0:0:
256,192,68483,1,0,0:0:0:0:
402,192,68748,1,4,0:0:0:0:
475,192,68748,128,2,69279:0:1:0:0:
182,192,68748,1,8,0:0:0:0:
256,192,68881,1,0,0:0:0:0:
109,192,69014,1,0,0:0:0:0:
402,192,69279,128,2,70607:0:1:0:0:
36,192,69279,1,8,0:1:0:0:
36,192,69545,1,0,0:0:0:0:
182,192,69810,1,8,0:0:0:0:
329,192,69810,1,0,0:0:0:0:
36,192,69943,1,0,0:0:0:0:
256,192,70076,1,0,0:0:0:0:
109,192,70341,1,8,0:1:0:0:
475,192,70341,1,0,0:0:0:0:
329,192,70607,128,2,70872:0:1:0:0:
182,192,70607,1,2,0:0:0:0:
36,192,70872,1,8,0:0:0:0:
256,192,70872,128,2,71138:0:1:0:0:
402,192,70872,1,0,0:0:0:0:
182,192,71138,128,2,71403:0:1:0:0:
109,192,71138,1,2,0:0:0:0:
36,192,71403,1,8,0:1:0:0:
329,192,71403,128,2,72465:0:1:0:0:
475,192,71403,1,0,0:0:0:0:
256,192,71669,1,0,0:0:0:0:
36,192,71934,1,8,0:0:0:0:
475,192,71934,1,2,0:1:0:0:
182,192,72200,1,0,0:0:0:0:
36,192,72465,1,8,0:1:0:0:
475,192,72465,1,2,0:1:0:0:
109,192,72731,1,2,0:1:0:0:
402,192,72731,1,0,0:0:0:0:
182,192,72996,1,4,0:0:0:0:
256,192,72996,1,8,0:0:0:0:
329,192,72996,1,2,0:1:0:0:
475,192,73262,1,0,0:0:0:0:
109,192,73527,1,2,0:1:0:0:
402,192,73527,1,8,0:1:0:0:
256,192,73793,1,0,0:0:0:0:
109,192,74058,1,8,0:0:0:0:
402,192,74058,1,2,0:1:0:0:
329,192,74324,1,0,0:0:0:0:
109,192,74589,1,8,0:1:0:0:
402,192,74589,1,2,0:1:0:0:
36,192,74855,1,2,0:1:0:0:
475,192,74855,1,2,0:0:0:0:
182,192,75120,1,8,0:0:0:0:
256,192,75120,128,2,75651:0:1:0:0:
329,192,75120,1,0,0:0:0:0:
109,192,75386,1,2,0:0:0:0:
36,192,75651,1,8,0:1:0:0:
402,192,75651,128,2,77244:0:1:0:0:
36,192,75917,1,0,0:0:0:0:
256,192,76182,1,8,0:0:0:0:
329,192,76182,1,0,0:0:0:0:
109,192,76315,1,0,0:0:0:0:
182,192,76447,1,0,0:0:0:0:
36,192,76713,1,8,0:1:0:0:
256,192,76713,1,0,0:0:0:0:
256,192,76978,1,0,0:0:0:0:
475,192,77244,1,8,0:0:0:0:
329,192,77244,128,2,77775:0:1:0:0:
109,192,77244,1,4,0:0:0:0:
109,192,77509,1,0,0:0:0:0:
256,192,77775,128,2,78306:0:1:0:0:
475,192,77775,1,8,0:1:0:0:
402,192,78040,1,0,0:0:0:0:
36,192,78306,1,8,0:0:0:0:
182,192,78306,1,0,0:0:0:0:
475,192,78306,1,0,0:0:0:0:
329,192,78571,1,0,0:0:0:0:
109,192,78837,1,8,0:1:0:0:
475,192,78837,1,0,0:0:0:0:
256,192,79102,128,2,79368:0:1:0:0:
182,192,79102,1,2,0:0:0:0:
36,192,79368,1,8,0:0:0:0:
329,192,79368,128,2,79633:0:1:0:0:
475,192,79368,1,0,0:0:0:0:
182,192,79633,128,2,79899:0:1:0:0:
402,192,79633,1,2,0:0:0:0:
109,192,79899,128,2,81226:0:1:0:0:
475,192,79899,1,8,0:1:0:0:
256,192,80164,1,0,0:0:0:0:
329,192,80430,1,8,0:0:0:0:
402,192,80430,1,0,0:0:0:0:
182,192,80563,1,0,0:0:0:0:
256,192,80695,1,0,0:0:0:0:
329,192,80828,1,0,0:0:0:0:
36,192,80961,1,8,0:1:0:0:
182,192,80961,1,0,0:0:0:0:
256,192,81226,128,2,81492:0:1:0:0:
402,192,81226,1,0,0:0:0:0:
36,192,81492,1,8,0:0:0:0:
182,192,81492,128,2,81757:0:1:0:0:
109,192,81492,1,0,0:0:0:0:
329,192,81757,128,2,82023:0:1:0:0:
475,192,81757,1,2,0:0:0:0:
109,192,82023,1,8,0:1:0:0:
256,192,82023,1,2,0:1:0:0:
329,192,82155,1,8,0:0:0:0:
402,192,82155,1,0,0:0:0:0:
109,192,82421,1,8,0:0:0:0:
182,192,82421,1,0,0:0:0:0:
256,192,82554,1,8,0:0:0:0:
402,192,82554,1,0,0:0:0:0:
329,192,82554,1,0,0:0:0:0:
36,192,84147,1,8,0:1:0:0:
109,192,84147,1,2,0:1:0:0:
256,192,84147,1,0,0:0:0:0:
402,192,84412,1,0,0:0:0:0:
256,192,84545,1,0,0:0:0:0:
109,192,84678,1,8,0:0:0:0:
182,192,84678,1,2,0:1:0:0:
475,192,84678,1,0,0:0:0:0:
329,192,84810,1,4,0:1:0:0:
109,192,84943,1,2,0:1:0:0:
402,192,84943,1,0,0:0:0:0:
329,192,85076,1,4,0:1:0:0:
36,192,85209,1,2,0:1:0:0:
256,192,85209,1,8,0:1:0:0:
475,192,85209,1,0,0:0:0:0:
109,192,85474,1,4,0:1:0:0:
256,192,85474,1,2,0:1:0:0:
182,192,85740,1,8,0:0:0:0:
329,192,85740,1,4,0:0:0:0:
402,192,85740,1,0,0:0:0:0:
109,192,86005,1,2,0:0:0:0:
182,192,86138,1,2,0:1:0:0:
256,192,86270,1,8,0:1:0:0:
402,192,86270,1,2,0:1:0:0:
475,192,86270,1,0,0:0:0:0:
109,192,86536,1,0,0:0:0:0:
256,192,86669,1,0,0:0:0:0:
36,192,86801,1,8,0:0:0:0:
329,192,86801,1,2,0:1:0:0:
475,192,86801,1,0,0:0:0:0:
182,192,86934,1,4,0:1:0:0:
109,192,87067,1,0,0:0:0:0:
402,192,87067,1,0,0:0:0:0:
182,192,87200,1,4,0:1:0:0:
36,192,87332,1,8,0:1:0:0:
256,192,87332,1,0,0:0:0:0:
475,192,87332,1,0,0:0:0:0:
329,192,87598,1,4,0:1:0:0:
402,192,87598,1,2,0:1:0:0:
109,192,87863,1,8,0:0:0:0:
256,192,87863,1,4,0:0:0:0:
402,192,87863,1,0,0:0:0:0:
329,192,88129,1,2,0:1:0:0:
182,192,88129,1,2,0:0:0:0:
36,192,88394,1,8,0:1:0:0:
256,192,88394,1,2,0:1:0:0:
475,192,88394,1,0,0:0:0:0:
109,192,88660,1,0,0:0:0:0:
182,192,88793,1,0,0:0:0:0:
36,192,88925,1,8,0:0:0:0:
402,192,88925,1,2,0:1:0:0:
475,192,88925,1,0,0:0:0:0:
256,192,89058,1,4,0:1:0:0:
329,192,89191,1,2,0:1:0:0:
36,192,89191,1,0,0:0:0:0:
256,192,89324,1,4,0:1:0:0:
109,192,89456,1,8,0:1:0:0:
182,192,89456,1,2,0:1:0:0:
402,192,89456,1,0,0:0:0:0:
256,192,89722,1,4,0:1:0:0:
475,192,89722,1,2,0:1:0:0:
36,192,89987,1,8,0:0:0:0:
109,192,89987,1,4,0:0:0:0:
329,192,89987,1,2,0:1:0:0:
182,192,90253,1,2,0:1:0:0:
402,192,90253,1,2,0:0:0:0:
109,192,90518,1,8,0:1:0:0:
256,192,90518,1,2,0:1:0:0:
109,192,90784,128,0,91315:0:0:0:0:
256,192,91049,1,8,0:1:0:0:
402,192,91049,1,0,0:0:0:0:
402,192,91315,128,0,91846:0:0:0:0:
36,192,91580,1,8,0:1:0:0:
182,192,91580,1,0,0:0:0:0:
36,192,91846,128,12,92377:0:0:0:0:
182,192,91846,128,2,92377:0:1:0:0:
329,192,92111,1,8,0:1:0:0:
475,192,92111,1,8,0:0:0:0:
329,192,92377,128,2,92642:0:1:0:0:
475,192,92377,128,8,92642:0:0:0:0:
109,192,92642,1,8,0:1:0:0:
256,192,92642,1,2,0:1:0:0:
402,192,92642,1,0,0:0:0:0:
182,192,92908,1,0,0:0:0:0:
329,192,93040,1,0,0:0:0:0:
109,192,93173,1,8,0:0:0:0:
402,192,93173,1,2,0:1:0:0:
475,192,93173,1,0,0:0:0:0:
256,192,93306,1,4,0:1:0:0:
109,192,93439,1,2,0:1:0:0:
329,192,93439,1,0,0:0:0:0:
256,192,93571,1,4,0:1:0:0:
36,192,93704,1,2,0:1:0:0:
182,192,93704,1,8,0:1:0:0:
402,192,93704,1,0,0:0:0:0:
256,192,93970,1,4,0:1:0:0:
402,192,93970,1,2,0:1:0:0:
109,192,94235,1,8,0:0:0:0:
182,192,94235,1,4,0:0:0:0:
329,192,94235,1,2,0:1:0:0:
182,192,94501,1,2,0:0:0:0:
402,192,94501,1,2,0:1:0:0:
109,192,94766,1,8,0:1:0:0:
256,192,94766,1,2,0:1:0:0:
475,192,94766,1,0,0:0:0:0:
329,192,95032,1,0,0:0:0:0:
182,192,95164,1,0,0:0:0:0:
36,192,95297,1,8,0:0:0:0:
109,192,95297,1,2,0:1:0:0:
402,192,95297,1,0,0:0:0:0:
256,192,95430,1,4,0:1:0:0:
402,192,95563,1,0,0:0:0:0:
182,192,95563,1,0,0:0:0:0:
256,192,95695,1,4,0:1:0:0:
109,192,95828,1,8,0:1:0:0:
329,192,95828,1,0,0:0:0:0:
475,192,95828,1,0,0:0:0:0:
182,192,96093,1,4,0:1:0:0:
256,192,96093,1,2,0:1:0:0:
182,192,96359,1,8,0:0:0:0:
329,192,96359,1,4,0:0:0:0:
402,192,96359,1,0,0:0:0:0:
109,192,96624,1,2,0:0:0:0:
256,192,96624,1,2,0:1:0:0:
256,192,96890,1,8,0:1:0:0:
402,192,96890,1,2,0:1:0:0:
475,192,96890,1,0,0:0:0:0:
182,192,97155,1,0,0:0:0:0:
256,192,97288,1,0,0:0:0:0:
36,192,97421,1,8,0:0:0:0:
109,192,97421,1,2,0:1:0:0:
475,192,97421,1,0,0:0:0:0:
329,192,97554,1,4,0:1:0:0:
475,192,97686,1,2,0:1:0:0:
182,192,97686,1,0,0:0:0:0:
329,192,97819,1,4,0:1:0:0:
36,192,97952,1,8,0:1:0:0:
256,192,97952,1,2,0:1:0:0:
402,192,97952,1,0,0:0:0:0:
109,192,98217,1,4,0:1:0:0:
182,192,98217,1,2,0:1:0:0:
109,192,98483,1,8,0:0:0:0:
329,192,98483,1,4,0:0:0:0:
402,192,98483,1,2,0:1:0:0:
256,192,98748,1,2,0:0:0:0:
402,192,98748,1,2,0:1:0:0:
329,192,99014,1,8,0:0:0:0:
182,192,99014,1,10,0:1:0:0:
36,192,99014,1,2,0:0:0:0:
36,192,99545,1,8,0:0:0:0:
182,192,99545,1,2,0:0:0:0:
329,192,99545,1,8,0:1:0:0:
36,192,100076,1,8,0:1:0:0:
182,192,100076,1,2,0:0:0:0:
329,192,100076,1,8,0:0:0:0:
36,192,100607,1,8,0:1:0:0:
182,192,100607,1,0,0:0:0:0:
329,192,100607,1,0,0:0:0:0:
402,192,100740,1,8,0:0:0:0:
475,192,100740,1,0,0:0:0:0:
36,192,100872,1,8,0:0:0:0:
109,192,100872,1,0,0:0:0:0:
256,192,100872,1,0,0:0:0:0:
182,192,101138,1,2,0:1:0:0:
329,192,101138,1,8,0:1:0:0:
402,192,101403,1,0,0:0:0:0:
36,192,101669,1,8,0:0:0:0:
182,192,101669,1,2,0:1:0:0:
329,192,101669,1,0,0:0:0:0:
109,192,101934,1,0,0:0:0:0:
182,192,102200,1,2,0:1:0:0:
329,192,102200,1,8,0:1:0:0:
109,192,102465,1,2,0:1:0:0:
256,192,102465,1,0,0:0:0:0:
36,192,102731,1,2,0:1:0:0:
329,192,102731,1,8,0:0:0:0:
402,192,102731,1,0,0:0:0:0:
182,192,102996,1,2,0:0:0:0:
182,192,103262,1,8,0:1:0:0:
329,192,103262,1,2,0:1:0:0:
402,192,103527,1,0,0:0:0:0:
36,192,103793,1,2,0:1:0:0:
182,192,103793,1,8,0:0:0:0:
329,192,103793,1,0,0:0:0:0:
109,192,104058,1,0,0:0:0:0:
182,192,104324,1,2,0:1:0:0:
329,192,104324,1,8,0:1:0:0:
109,192,104589,1,2,0:1:0:0:
256,192,104589,1,0,0:0:0:0:
36,192,104855,1,2,0:1:0:0:
329,192,104855,1,8,0:0:0:0:
402,192,104855,1,0,0:0:0:0:
182,192,105120,1,2,0:0:0:0:
36,192,105386,1,8,0:0:0:0:
109,192,105386,1,10,0:1:0:0:
475,192,105386,1,2,0:0:0:0:
182,192,105917,1,8,0:0:0:0:
256,192,105917,1,8,0:1:0:0:
475,192,105917,1,2,0:0:0:0:
109,192,106447,1,8,0:0:0:0:
182,192,106447,1,8,0:1:0:0:
475,192,106447,1,2,0:0:0:0:
256,192,106978,1,8,0:0:0:0:
329,192,106978,1,8,0:1:0:0:
475,192,106978,1,2,0:0:0:0:
36,192,107244,1,4,0:0:0:0:
109,192,107244,1,0,0:0:0:0:
182,192,107509,1,8,0:1:0:0:
329,192,107509,1,2,0:1:0:0:
109,192,107775,1,0,0:0:0:0:
36,192,108040,1,2,0:1:0:0:
256,192,108040,1,8,0:0:0:0:
475,192,108040,1,0,0:0:0:0:
402,192,108306,1,0,0:0:0:0:
36,192,108571,1,2,0:1:0:0:
329,192,108571,1,8,0:1:0:0:
109,192,108837,1,2,0:1:0:0:
256,192,108837,1,0,0:0:0:0:
36,192,109102,1,2,0:1:0:0:
182,192,109102,1,8,0:0:0:0:
402,192,109102,1,0,0:0:0:0:
329,192,109368,1,2,0:0:0:0:
182,192,109633,1,2,0:1:0:0:
329,192,109633,1,8,0:1:0:0:
109,192,109899,1,0,0:0:0:0:
36,192,110164,1,8,0:0:0:0:
256,192,110164,1,2,0:1:0:0:
475,192,110164,1,0,0:0:0:0:
402,192,110430,1,0,0:0:0:0:
36,192,110695,1,8,0:1:0:0:
329,192,110695,1,2,0:1:0:0:
109,192,110961,1,2,0:1:0:0:
256,192,110961,1,0,0:0:0:0:
36,192,111226,1,8,0:0:0:0:
182,192,111226,1,2,0:1:0:0:
402,192,111226,1,0,0:0:0:0:
329,192,111492,1,2,0:0:0:0:
475,192,111757,1,8,0:0:0:0:
402,192,111757,1,10,0:1:0:0:
36,192,111757,1,2,0:0:0:0:
36,192,112288,1,8,0:0:0:0:
256,192,112288,1,8,0:1:0:0:
329,192,112288,1,2,0:0:0:0:
329,192,112819,128,10,113881:0:1:0:0:
402,192,112819,1,8,0:0:0:0:
36,192,112819,1,2,0:0:0:0:
182,192,113350,1,2,0:0:0:0:
256,192,113350,1,8,0:0:0:0:
36,192,113350,128,10,113881:0:1:0:0:
402,192,113616,1,4,0:0:0:0:
475,192,113616,1,0,0:0:0:0:
109,192,113881,1,8,0:1:0:0:
256,192,113881,1,0,0:0:0:0:
182,192,114147,128,2,114943:0:1:0:0:
36,192,114412,1,8,0:0:0:0:
329,192,114412,128,2,114943:0:1:0:0:
109,192,114412,1,0,0:0:0:0:
475,192,114678,128,2,114943:0:1:0:0:
109,192,114943,128,2,115474:0:1:0:0:
256,192,114943,1,8,0:1:0:0:
182,192,115474,1,8,0:0:0:0:
402,192,115474,128,2,116005:0:1:0:0:
329,192,115474,1,0,0:0:0:0:
109,192,116005,1,8,0:1:0:0:
256,192,116005,1,0,0:0:0:0:
36,192,116270,128,2,117067:0:1:0:0:
475,192,116536,1,0,0:0:0:0:
182,192,116536,128,2,117067:0:1:0:0:
402,192,116536,1,8,0:0:0:0:
329,192,116801,128,2,117067:0:1:0:0:
109,192,117067,128,2,117598:0:1:0:0:
475,192,117067,1,8,0:1:0:0:
256,192,117332,128,2,117598:0:1:0:0:
36,192,117598,1,8,0:0:0:0:
402,192,117598,128,2,118129:0:1:0:0:
329,192,117598,1,0,0:0:0:0:
182,192,118129,1,8,0:1:0:0:
475,192,118129,1,0,0:0:0:0:
329,192,118394,128,2,119191:0:1:0:0:
475,192,118660,1,0,0:0:0:0:
36,192,118660,128,2,119191:0:1:0:0:
402,192,118660,1,8,0:0:0:0:
182,192,118925,128,2,119191:0:1:0:0:
109,192,119191,1,8,0:1:0:0:
256,192,119191,128,2,119722:0:1:0:0:
475,192,119722,1,0,0:0:0:0:
109,192,119722,128,2,120253:0:1:0:0:
329,192,119722,1,8,0:0:0:0:
36,192,120253,1,2,0:1:0:0:
256,192,120253,1,8,0:1:0:0:
402,192,120253,1,8,0:0:0:0:
36,192,120784,1,2,0:1:0:0:
256,192,120784,1,8,0:1:0:0:
402,192,120784,1,8,0:0:0:0:
36,192,121315,1,10,0:1:0:0:
182,192,121315,1,12,0:0:0:0:
329,192,121447,1,0,0:0:0:0:
402,192,121580,1,2,0:1:0:0:
475,192,121580,1,0,0:0:0:0:
182,192,121713,1,0,0:0:0:0:
36,192,121846,1,8,0:0:0:0:
109,192,121846,1,10,0:1:0:0:
329,192,121978,1,8,0:0:0:0:
475,192,121978,1,0,0:0:0:0:
36,192,122111,1,8,0:0:0:0:
182,192,122111,1,0,0:0:0:0:
256,192,122377,1,8,0:1:0:0:
402,192,122377,1,0,0:0:0:0:
329,192,122642,128,2,123439:0:1:0:0:
475,192,122908,1,0,0:0:0:0:
182,192,122908,128,2,123439:0:1:0:0:
402,192,122908,1,8,0:0:0:0:
36,192,123173,128,2,123439:0:1:0:0:
256,192,123439,1,8,0:1:0:0:
402,192,123439,128,2,123970:0:1:0:0:
329,192,123970,1,0,0:0:0:0:
109,192,123970,128,2,124501:0:1:0:0:
182,192,123970,1,8,0:0:0:0:
256,192,124501,1,8,0:1:0:0:
402,192,124501,1,0,0:0:0:0:
475,192,124766,128,2,125563:0:1:0:0:
36,192,125032,1,8,0:0:0:0:
329,192,125032,128,2,125563:0:1:0:0:
109,192,125032,1,0,0:0:0:0:
182,192,125297,128,2,125563:0:1:0:0:
36,192,125563,1,8,0:1:0:0:
402,192,125563,128,2,126093:0:1:0:0:
475,192,126093,1,0,0:0:0:0:
109,192,126093,128,2,126624:0:1:0:0:
182,192,126093,1,8,0:0:0:0:
36,192,126624,1,8,0:1:0:0:
329,192,126624,1,0,0:0:0:0:
182,192,126890,128,2,127686:0:1:0:0:
36,192,127155,1,8,0:0:0:0:
475,192,127155,128,2,127686:0:1:0:0:
109,192,127155,1,0,0:0:0:0:
329,192,127421,128,2,127686:0:1:0:0:
256,192,127686,128,2,128217:0:1:0:0:
402,192,127686,1,8,0:1:0:0:
36,192,128217,128,8,128748:0:0:0:0:
402,192,128217,128,2,128748:0:1:0:0:
182,192,128217,1,0,0:0:0:0:
109,192,128748,1,2,0:1:0:0:
256,192,128748,1,8,0:1:0:0:
475,192,128748,1,8,0:0:0:0:
109,192,129279,1,2,0:1:0:0:
256,192,129279,1,8,0:1:0:0:
475,192,129279,1,8,0:0:0:0:
475,192,129810,1,10,0:1:0:0:
329,192,129810,1,12,0:0:0:0:
182,192,129943,1,0,0:0:0:0:
36,192,130076,1,2,0:1:0:0:
109,192,130076,1,0,0:0:0:0:
329,192,130209,1,0,0:0:0:0:
402,192,130341,1,8,0:0:0:0:
475,192,130341,1,10,0:1:0:0:
36,192,130474,1,8,0:0:0:0:
182,192,130474,1,0,0:0:0:0:
329,192,130607,1,8,0:0:0:0:
475,192,130607,1,0,0:0:0:0:
109,192,130872,128,2,131005:0:1:0:0:
256,192,131138,128,2,131270:0:1:0:0:
36,192,131403,128,2,131536:0:1:0:0:
182,192,131669,128,2,131801:0:1:0:0:
109,192,131801,128,2,131934:0:1:0:0:
36,192,131934,128,2,132067:0:1:0:0:
182,192,132200,128,2,132332:0:1:0:0:
36,192,132465,1,2,0:1:0:0:
256,192,132465,1,4,0:0:0:0:
402,192,132465,1,0,0:0:0:0:
109,192,132996,128,2,133129:0:1:0:0:
256,192,133262,128,2,133394:0:1:0:0:
36,192,133527,128,2,133660:0:1:0:0:
182,192,133793,128,2,133925:0:1:0:0:
109,192,133925,128,2,134058:0:1:0:0:
36,192,134058,128,2,134191:0:1:0:0:
182,192,134324,128,2,134456:0:1:0:0:
36,192,134589,1,2,0:1:0:0:
256,192,134589,1,4,0:0:0:0:
402,192,134589,1,0,0:0:0:0:
109,192,135120,128,2,135253:0:1:0:0:
256,192,135386,128,2,135518:0:1:0:0:
182,192,135651,128,2,135784:0:1:0:0:
109,192,135917,128,2,136049:0:1:0:0:
36,192,136049,128,2,136182:0:1:0:0:
182,192,136182,128,2,136315:0:1:0:0:
109,192,136447,128,2,136580:0:1:0:0:
36,192,136713,1,4,0:0:0:0:
256,192,136713,1,2,0:1:0:0:
402,192,136713,1,0,0:0:0:0:
182,192,138040,128,2,138173:0:1:0:0:
182,192,138571,128,2,138837:0:1:0:0:
109,192,138837,1,4,0:0:0:0:
329,192,138837,1,0,0:0:0:0:
402,192,138837,1,0,0:0:0:0:
402,192,139368,128,2,139501:0:1:0:0:
256,192,139633,128,2,139766:0:1:0:0:
109,192,139899,1,4,0:0:0:0:
475,192,139899,128,2,140032:0:1:0:0:
329,192,140164,128,2,140297:0:1:0:0:
402,192,140297,128,2,140430:0:1:0:0:
475,192,140430,128,2,140563:0:1:0:0:
329,192,140695,128,2,140828:0:1:0:0:
109,192,140961,1,4,0:0:0:0:
256,192,140961,1,2,0:1:0:0:
475,192,140961,1,0,0:0:0:0:
402,192,141492,128,2,141624:0:1:0:0:
256,192,141757,128,2,141890:0:1:0:0:
109,192,142023,1,4,0:0:0:0:
475,192,142023,128,2,142155:0:1:0:0:
329,192,142288,128,2,142421:0:1:0:0:
402,192,142421,128,2,142554:0:1:0:0:
475,192,142554,128,2,142686:0:1:0:0:
329,192,142819,128,2,142952:0:1:0:0:
109,192,143085,1,2,0:1:0:0:
256,192,143085,1,4,0:0:0:0:
475,192,143085,1,0,0:0:0:0:
402,192,143616,128,2,143748:0:1:0:0:
256,192,143881,128,2,144014:0:1:0:0:
109,192,144147,1,4,0:0:0:0:
329,192,144147,128,2,144279:0:1:0:0:
402,192,144412,128,2,144545:0:1:0:0:
475,192,144545,128,2,144678:0:1:0:0:
329,192,144678,128,2,144810:0:1:0:0:
402,192,144943,128,2,145076:0:1:0:0:
109,192,145209,1,4,0:0:0:0:
256,192,145209,1,2,0:1:0:0:
475,192,145209,1,0,0:0:0:0:
109,192,146270,1,4,0:0:0:0:
109,192,147067,1,4,0:0:0:0:
109,192,147332,1,4,0:0:0:0:
329,192,147332,1,0,0:0:0:0:
402,192,147332,1,0,0:0:0:0:
36,192,147863,1,8,0:1:0:0:
182,192,147863,1,0,0:0:0:0:
402,192,148129,128,2,148394:0:1:0:0:
109,192,148129,1,0,0:0:0:0:
36,192,148394,1,8,0:0:0:0:
256,192,148394,1,0,0:0:0:0:
329,192,148394,1,0,0:0:0:0:
402,192,148660,128,2,148925:0:1:0:0:
182,192,148660,1,0,0:0:0:0:
36,192,148925,1,8,0:1:0:0:
109,192,148925,1,0,0:0:0:0:
256,192,149191,1,0,0:0:0:0:
182,192,149456,1,8,0:0:0:0:
329,192,149456,1,4,0:0:0:0:
402,192,149456,1,0,0:0:0:0:
256,192,149722,1,0,0:0:0:0:
36,192,149987,1,8,0:1:0:0:
182,192,149987,1,0,0:0:0:0:
475,192,150253,128,2,150518:0:1:0:0:
109,192,150253,1,0,0:0:0:0:
36,192,150518,1,8,0:0:0:0:
256,192,150518,1,0,0:0:0:0:
329,192,150518,1,0,0:0:0:0:
475,192,150784,128,2,151049:0:1:0:0:
182,192,150784,1,0,0:0:0:0:
36,192,151049,1,8,0:1:0:0:
109,192,151049,1,0,0:0:0:0:
256,192,151315,1,2,0:0:0:0:
182,192,151580,1,4,0:0:0:0:
329,192,151580,1,8,0:0:0:0:
402,192,151580,1,0,0:0:0:0:
256,192,151846,1,2,0:0:0:0:
36,192,152111,1,8,0:1:0:0:
402,192,152111,1,0,0:0:0:0:
182,192,152377,1,0,0:0:0:0:
109,192,152642,1,8,0:0:0:0:
329,192,152642,1,0,0:0:0:0:
475,192,152642,1,0,0:0:0:0:
256,192,152908,1,0,0:0:0:0:
182,192,153173,1,8,0:1:0:0:
402,192,153173,1,0,0:0:0:0:
109,192,153439,128,2,153571:0:1:0:0:
402,192,153704,1,8,0:0:0:0:
182,192,153704,128,2,153837:0:1:0:0:
475,192,153704,1,4,0:0:0:0:
256,192,153970,128,2,154102:0:0:0:0:
329,192,154235,128,2,154368:0:1:0:0:
109,192,154235,1,8,0:1:0:0:
402,192,154501,128,2,154633:0:1:0:0:
256,192,154766,1,8,0:1:0:0:
475,192,154766,128,2,155297:0:1:0:0:
109,192,154766,1,0,0:0:0:0:
36,192,155164,1,8,0:1:0:0:
182,192,155164,1,0,0:0:0:0:
329,192,155297,1,8,0:1:0:0:
402,192,155297,1,0,0:0:0:0:
36,192,156359,1,8,0:1:0:0:
109,192,156359,1,2,0:1:0:0:
256,192,156359,1,0,0:0:0:0:
329,192,156624,1,0,0:0:0:0:
329,192,156757,1,0,0:0:0:0:
36,192,156890,1,8,0:0:0:0:
109,192,156890,1,2,0:1:0:0:
475,192,156890,1,0,0:0:0:0:
329,192,157023,1,4,0:1:0:0:
109,192,157155,1,2,0:1:0:0:
475,192,157155,1,0,0:0:0:0:
329,192,157288,1,4,0:1:0:0:
36,192,157421,1,2,0:1:0:0:
182,192,157421,1,8,0:1:0:0:
475,192,157421,1,0,0:0:0:0:
36,192,157686,1,4,0:1:0:0:
256,192,157686,1,2,0:1:0:0:
182,192,157952,1,8,0:0:0:0:
329,192,157952,1,4,0:0:0:0:
402,192,157952,1,0,0:0:0:0:
36,192,158217,1,2,0:0:0:0:
182,192,158350,1,2,0:1:0:0:
256,192,158483,1,8,0:1:0:0:
402,192,158483,1,2,0:1:0:0:
475,192,158483,1,0,0:0:0:0:
182,192,158748,1,0,0:0:0:0:
182,192,158881,1,0,0:0:0:0:
36,192,159014,1,8,0:0:0:0:
329,192,159014,1,2,0:1:0:0:
475,192,159014,1,0,0:0:0:0:
182,192,159147,1,4,0:1:0:0:
36,192,159279,1,0,0:0:0:0:
402,192,159279,1,0,0:0:0:0:
182,192,159412,1,4,0:1:0:0:
36,192,159545,1,8,0:1:0:0:
329,192,159545,1,0,0:0:0:0:
475,192,159545,1,0,0:0:0:0:
256,192,159810,1,4,0:1:0:0:
402,192,159810,1,2,0:1:0:0:
109,192,160076,1,8,0:0:0:0:
182,192,160076,1,4,0:0:0:0:
402,192,160076,1,0,0:0:0:0:
329,192,160341,1,2,0:1:0:0:
475,192,160341,1,2,0:0:0:0:
36,192,160607,1,8,0:1:0:0:
109,192,160607,1,2,0:1:0:0:
329,192,160607,1,0,0:0:0:0:
182,192,160872,1,0,0:0:0:0:
182,192,161005,1,0,0:0:0:0:
109,192,161138,1,8,0:0:0:0:
402,192,161138,1,2,0:1:0:0:
475,192,161138,1,0,0:0:0:0:
182,192,161270,1,4,0:1:0:0:
109,192,161403,1,2,0:1:0:0:
402,192,161403,1,0,0:0:0:0:
182,192,161536,1,4,0:1:0:0:
109,192,161669,1,8,0:1:0:0:
329,192,161669,1,2,0:1:0:0:
475,192,161669,1,0,0:0:0:0:
256,192,161934,1,4,0:1:0:0:
475,192,161934,1,2,0:1:0:0:
36,192,162200,1,8,0:0:0:0:
182,192,162200,1,4,0:0:0:0:
256,192,162200,1,2,0:1:0:0:
36,192,162465,1,2,0:1:0:0:
402,192,162465,1,2,0:0:0:0:
109,192,162731,1,8,0:1:0:0:
256,192,162731,128,2,162996:0:1:0:0:
109,192,162996,128,0,163793:0:0:0:0:
256,192,163262,128,8,163527:0:1:0:0:
402,192,163262,1,0,0:0:0:0:
402,192,163527,128,0,164324:0:0:0:0:
36,192,163793,1,8,0:1:0:0:
256,192,163793,128,0,164058:0:0:0:0:
36,192,164058,128,12,164855:0:0:0:0:
182,192,164058,128,2,164855:0:1:0:0:
256,192,164324,128,8,164589:0:1:0:0:
475,192,164324,1,8,0:0:0:0:
329,192,164589,128,2,164855:0:1:0:0:
475,192,164589,128,8,164855:0:0:0:0:
109,192,164855,1,8,0:1:0:0:
256,192,164855,1,2,0:1:0:0:
402,192,164855,1,0,0:0:0:0:
182,192,165120,1,0,0:0:0:0:
182,192,165253,1,0,0:0:0:0:
36,192,165386,1,8,0:0:0:0:
329,192,165386,1,2,0:1:0:0:
475,192,165386,1,0,0:0:0:0:
256,192,165518,1,4,0:1:0:0:
36,192,165651,1,2,0:1:0:0:
475,192,165651,1,0,0:0:0:0:
256,192,165784,1,4,0:1:0:0:
36,192,165917,1,2,0:1:0:0:
182,192,165917,1,8,0:1:0:0:
402,192,165917,1,0,0:0:0:0:
109,192,166182,1,4,0:1:0:0:
402,192,166182,1,2,0:1:0:0:
109,192,166447,1,8,0:0:0:0:
182,192,166447,1,4,0:0:0:0:
329,192,166447,1,2,0:1:0:0:
256,192,166713,1,2,0:0:0:0:
329,192,166713,1,2,0:1:0:0:
109,192,166978,1,8,0:1:0:0:
256,192,166978,1,2,0:1:0:0:
402,192,166978,1,0,0:0:0:0:
329,192,167244,1,0,0:0:0:0:
329,192,167377,1,0,0:0:0:0:
36,192,167509,1,8,0:0:0:0:
182,192,167509,1,2,0:1:0:0:
475,192,167509,1,0,0:0:0:0:
256,192,167642,1,4,0:1:0:0:
109,192,167775,1,0,0:0:0:0:
475,192,167775,1,0,0:0:0:0:
256,192,167908,1,4,0:1:0:0:
36,192,168040,1,8,0:1:0:0:
329,192,168040,1,0,0:0:0:0:
475,192,168040,1,0,0:0:0:0:
182,192,168306,1,4,0:1:0:0:
402,192,168306,1,2,0:1:0:0:
109,192,168571,1,8,0:0:0:0:
329,192,168571,1,4,0:0:0:0:
402,192,168571,1,0,0:0:0:0:
182,192,168837,1,2,0:0:0:0:
256,192,168837,1,2,0:1:0:0:
36,192,169102,1,8,0:1:0:0:
182,192,169102,1,2,0:1:0:0:
475,192,169102,1,0,0:0:0:0:
402,192,169368,1,0,0:0:0:0:
402,192,169501,1,0,0:0:0:0:
36,192,169633,1,8,0:0:0:0:
109,192,169633,1,2,0:1:0:0:
256,192,169633,1,0,0:0:0:0:
402,192,169766,1,4,0:1:0:0:
109,192,169899,1,2,0:1:0:0:
256,192,169899,1,0,0:0:0:0:
402,192,170032,1,4,0:1:0:0:
109,192,170164,1,8,0:1:0:0:
182,192,170164,1,2,0:1:0:0:
329,192,170164,1,0,0:0:0:0:
256,192,170430,1,4,0:1:0:0:
329,192,170430,1,2,0:1:0:0:
36,192,170695,1,8,0:0:0:0:
182,192,170695,1,4,0:0:0:0:
475,192,170695,1,2,0:1:0:0:
182,192,170961,1,2,0:0:0:0:
256,192,170961,1,2,0:1:0:0:
475,192,171226,128,10,172819:0:1:0:0:
329,192,171226,1,8,0:0:0:0:
109,192,171226,1,2,0:0:0:0:
36,192,171757,128,8,172819:0:0:0:0:
182,192,171757,1,2,0:0:0:0:
402,192,171757,1,8,0:1:0:0:
109,192,172288,1,8,0:1:0:0:
329,192,172288,1,2,0:0:0:0:
256,192,172288,128,8,172819:0:0:0:0:
109,192,172819,1,8,0:1:0:0:
182,192,172819,1,0,0:0:0:0:
329,192,172819,1,0,0:0:0:0:
402,192,172952,1,8,0:0:0:0:
256,192,173085,1,2,0:1:0:0:
109,192,173085,1,8,0:0:0:0:
329,192,173217,1,8,0:0:0:0:
402,192,173217,1,0,0:0:0:0:
36,192,173350,1,8,0:1:0:0:
182,192,173350,1,2,0:1:0:0:
256,192,173350,1,0,0:0:0:0:
109,192,173616,1,0,0:0:0:0:
329,192,173616,1,0,0:0:0:0:
329,192,173748,1,0,0:0:0:0:
36,192,173881,1,8,0:0:0:0:
256,192,173881,1,2,0:1:0:0:
402,192,173881,1,0,0:0:0:0:
475,192,173881,1,0,0:0:0:0:
182,192,174014,1,4,0:1:0:0:
36,192,174147,1,2,0:1:0:0:
475,192,174147,1,0,0:0:0:0:
182,192,174279,1,4,0:1:0:0:
36,192,174412,1,2,0:1:0:0:
329,192,174412,1,8,0:1:0:0:
402,192,174412,1,0,0:0:0:0:
182,192,174678,1,4,0:1:0:0:
329,192,174678,1,2,0:1:0:0:
36,192,174810,1,4,0:1:0:0:
182,192,174943,1,8,0:0:0:0:
256,192,174943,1,4,0:0:0:0:
402,192,174943,1,0,0:0:0:0:
475,192,174943,1,0,0:0:0:0:
109,192,175209,1,2,0:0:0:0:
329,192,175209,1,2,0:1:0:0:
182,192,175341,1,2,0:1:0:0:
256,192,175474,1,8,0:1:0:0:
329,192,175474,1,2,0:1:0:0:
475,192,175474,1,0,0:0:0:0:
182,192,175740,1,0,0:0:0:0:
402,192,175740,1,0,0:0:0:0:
182,192,175872,1,0,0:0:0:0:
36,192,176005,1,8,0:0:0:0:
109,192,176005,1,2,0:1:0:0:
256,192,176005,1,0,0:0:0:0:
475,192,176005,1,0,0:0:0:0:
329,192,176138,1,4,0:1:0:0:
36,192,176270,1,0,0:0:0:0:
475,192,176270,1,0,0:0:0:0:
329,192,176403,1,4,0:1:0:0:
109,192,176536,1,8,0:1:0:0:
182,192,176536,1,0,0:0:0:0:
475,192,176536,1,0,0:0:0:0:
182,192,176801,1,4,0:1:0:0:
329,192,176801,1,2,0:1:0:0:
475,192,176934,1,4,0:1:0:0:
36,192,177067,1,8,0:0:0:0:
109,192,177067,1,4,0:0:0:0:
256,192,177067,1,0,0:0:0:0:
329,192,177067,1,0,0:0:0:0:
182,192,177332,1,2,0:1:0:0:
402,192,177332,1,2,0:0:0:0:
109,192,177598,1,8,0:1:0:0:
329,192,177598,1,2,0:1:0:0:
402,192,177598,1,0,0:0:0:0:
256,192,177863,1,0,0:0:0:0:
256,192,177996,1,0,0:0:0:0:
36,192,178129,1,8,0:0:0:0:
182,192,178129,1,2,0:1:0:0:
402,192,178129,1,0,0:0:0:0:
475,192,178129,1,0,0:0:0:0:
329,192,178262,1,4,0:1:0:0:
36,192,178394,1,2,0:1:0:0:
182,192,178394,1,0,0:0:0:0:
329,192,178527,1,4,0:1:0:0:
109,192,178660,1,8,0:1:0:0:
256,192,178660,1,2,0:1:0:0:
475,192,178660,1,0,0:0:0:0:
329,192,178925,1,4,0:1:0:0:
475,192,178925,1,2,0:1:0:0:
182,192,179058,1,4,0:1:0:0:
402,192,179191,1,8,0:0:0:0:
109,192,179191,1,4,0:0:0:0:
36,192,179191,1,2,0:1:0:0:
256,192,179191,1,0,0:0:0:0:
182,192,179456,1,2,0:1:0:0:
329,192,179456,1,2,0:0:0:0:
36,192,179722,1,8,0:1:0:0:
109,192,179722,1,2,0:1:0:0:
475,192,179722,128,0,179855:0:0:0:0:
329,192,179855,128,0,179987:0:0:0:0:
109,192,179987,128,4,180253:0:0:0:0:
402,192,179987,128,0,180120:0:0:0:0:
475,192,180120,128,0,180253:0:0:0:0:
36,192,180253,1,2,0:1:0:0:
182,192,180253,1,8,0:0:0:0:
256,192,180253,128,0,180386:0:0:0:0:
402,192,180386,128,0,180518:0:0:0:0:
36,192,180518,128,4,180784:0:0:0:0:
329,192,180518,128,0,180651:0:0:0:0:
256,192,180651,128,0,180784:0:0:0:0:
109,192,180784,1,8,0:1:0:0:
182,192,180784,1,2,0:1:0:0:
475,192,180784,128,4,180917:0:0:0:0:
329,192,180917,128,8,181049:0:0:0:0:
109,192,181049,128,12,181580:0:0:0:0:
402,192,181049,1,2,0:1:0:0:
475,192,181182,1,8,0:0:0:0:
256,192,181315,1,12,0:0:0:0:
182,192,181315,1,10,0:1:0:0:
402,192,181447,1,8,0:0:0:0:
475,192,181447,1,0,0:0:0:0:
36,192,181580,128,2,181846:0:1:0:0:
329,192,181580,1,8,0:0:0:0:
182,192,181713,1,8,0:0:0:0:
256,192,181713,1,0,0:0:0:0:
109,192,181846,1,8,0:1:0:0:
402,192,181846,1,2,0:1:0:0:
475,192,181846,1,0,0:0:0:0:
182,192,182111,1,0,0:0:0:0:
329,192,182111,1,0,0:0:0:0:
182,192,182244,1,0,0:0:0:0:
36,192,182377,1,8,0:0:0:0:
109,192,182377,1,2,0:1:0:0:
256,192,182377,1,0,0:0:0:0:
475,192,182377,1,0,0:0:0:0:
402,192,182509,1,4,0:1:0:0:
109,192,182642,1,2,0:1:0:0:
256,192,182642,1,0,0:0:0:0:
402,192,182775,1,4,0:1:0:0:
109,192,182908,1,2,0:1:0:0:
182,192,182908,1,8,0:1:0:0:
329,192,182908,1,0,0:0:0:0:
256,192,183173,1,4,0:1:0:0:
329,192,183173,1,2,0:1:0:0:
402,192,183306,1,4,0:1:0:0:
36,192,183439,1,8,0:0:0:0:
109,192,183439,1,4,0:0:0:0:
182,192,183439,1,2,0:1:0:0:
475,192,183439,1,0,0:0:0:0:
182,192,183704,1,2,0:0:0:0:
329,192,183704,1,2,0:1:0:0:
36,192,183970,1,8,0:1:0:0:
256,192,183970,1,2,0:1:0:0:
402,192,183970,1,0,0:0:0:0:
182,192,184235,1,0,0:0:0:0:
329,192,184235,1,0,0:0:0:0:
329,192,184368,1,0,0:0:0:0:
36,192,184501,1,8,0:0:0:0:
256,192,184501,1,2,0:1:0:0:
402,192,184501,1,0,0:0:0:0:
475,192,184501,1,0,0:0:0:0:
109,192,184633,1,4,0:1:0:0:
256,192,184766,1,0,0:0:0:0:
329,192,184766,1,0,0:0:0:0:
109,192,184899,1,4,0:1:0:0:
182,192,185032,1,8,0:1:0:0:
402,192,185032,1,0,0:0:0:0:
475,192,185032,1,0,0:0:0:0:
182,192,185297,1,4,0:1:0:0:
256,192,185297,1,2,0:1:0:0:
109,192,185430,1,4,0:1:0:0:
36,192,185563,1,8,0:0:0:0:
256,192,185563,1,4,0:0:0:0:
402,192,185563,1,0,0:0:0:0:
475,192,185563,1,0,0:0:0:0:
182,192,185828,1,2,0:0:0:0:
329,192,185828,1,2,0:1:0:0:
36,192,186093,1,8,0:1:0:0:
182,192,186093,1,2,0:1:0:0:
475,192,186093,1,0,0:0:0:0:
402,192,186359,1,0,0:0:0:0:
402,192,186492,1,0,0:0:0:0:
36,192,186624,1,8,0:0:0:0:
109,192,186624,1,2,0:1:0:0:
256,192,186624,1,0,0:0:0:0:
329,192,186624,1,0,0:0:0:0:
475,192,186757,1,4,0:1:0:0:
109,192,186890,1,2,0:1:0:0:
256,192,186890,1,0,0:0:0:0:
475,192,187023,1,4,0:1:0:0:
109,192,187155,1,8,0:1:0:0:
182,192,187155,1,2,0:1:0:0:
329,192,187155,1,0,0:0:0:0:
329,192,187421,1,4,0:1:0:0:
256,192,187421,1,2,0:1:0:0:
475,192,187554,1,4,0:1:0:0:
36,192,187686,1,8,0:0:0:0:
109,192,187686,1,4,0:0:0:0:
182,192,187686,1,2,0:1:0:0:
402,192,187686,1,0,0:0:0:0:
182,192,187952,1,2,0:0:0:0:
329,192,187952,1,2,0:1:0:0:
36,192,188217,1,8,0:0:0:0:
256,192,188217,1,2,0:0:0:0:
402,192,188217,1,8,0:1:0:0:
475,192,188217,1,2,0:1:0:0:
36,192,188748,1,8,0:0:0:0:
256,192,188748,1,2,0:0:0:0:
402,192,188748,1,8,0:1:0:0:
475,192,188748,1,0,0:0:0:0:
36,192,189279,1,8,0:1:0:0:
256,192,189279,1,2,0:0:0:0:
402,192,189279,1,8,0:0:0:0:
475,192,189279,1,0,0:0:0:0:
36,192,189810,1,8,0:1:0:0:
256,192,189810,1,0,0:0:0:0:
402,192,189810,1,0,0:0:0:0:
475,192,189810,1,0,0:0:0:0:
109,192,189943,1,8,0:0:0:0:
182,192,189943,1,0,0:0:0:0:
256,192,190076,1,8,0:0:0:0:
329,192,190076,1,0,0:0:0:0:
475,192,190076,1,0,0:0:0:0:
36,192,190341,1,2,0:1:0:0:
109,192,190341,1,8,0:1:0:0:
182,192,190607,1,0,0:0:0:0:
109,192,190872,1,8,0:0:0:0:
402,192,190872,1,2,0:1:0:0:
475,192,190872,1,0,0:0:0:0:
329,192,191138,1,0,0:0:0:0:
256,192,191403,1,2,0:1:0:0:
402,192,191403,1,8,0:1:0:0:
182,192,191669,1,2,0:1:0:0:
329,192,191669,1,0,0:0:0:0:
36,192,191934,1,2,0:1:0:0:
109,192,191934,1,8,0:0:0:0:
256,192,191934,1,0,0:0:0:0:
402,192,192200,1,2,0:0:0:0:
36,192,192465,1,8,0:1:0:0:
109,192,192465,1,2,0:1:0:0:
182,192,192731,1,0,0:0:0:0:
109,192,192996,1,2,0:1:0:0:
402,192,192996,1,8,0:0:0:0:
475,192,192996,1,0,0:0:0:0:
329,192,193262,1,0,0:0:0:0:
256,192,193527,1,2,0:1:0:0:
402,192,193527,1,8,0:1:0:0:
182,192,193793,1,2,0:1:0:0:
329,192,193793,1,0,0:0:0:0:
36,192,194058,1,2,0:1:0:0:
109,192,194058,1,8,0:0:0:0:
256,192,194058,1,0,0:0:0:0:
402,192,194324,1,2,0:0:0:0:
109,192,194589,1,8,0:0:0:0:
329,192,194589,1,2,0:0:0:0:
475,192,194589,1,10,0:1:0:0:
109,192,195120,1,8,0:0:0:0:
256,192,195120,1,8,0:1:0:0:
402,192,195120,1,2,0:0:0:0:
109,192,195651,1,8,0:0:0:0:
182,192,195651,1,8,0:1:0:0:
329,192,195651,1,2,0:0:0:0:
109,192,196182,1,8,0:0:0:0:
182,192,196182,1,8,0:1:0:0:
256,192,196182,1,2,0:0:0:0:
329,192,196447,1,4,0:0:0:0:
475,192,196447,1,0,0:0:0:0:
36,192,196713,1,8,0:1:0:0:
182,192,196713,1,2,0:1:0:0:
109,192,196978,1,0,0:0:0:0:
36,192,197244,1,2,0:1:0:0:
329,192,197244,1,8,0:0:0:0:
475,192,197244,1,0,0:0:0:0:
402,192,197509,1,0,0:0:0:0:
256,192,197775,1,2,0:1:0:0:
475,192,197775,1,8,0:1:0:0:
182,192,198040,1,2,0:1:0:0:
329,192,198040,1,0,0:0:0:0:
109,192,198306,1,2,0:1:0:0:
256,192,198306,1,8,0:0:0:0:
402,192,198306,1,0,0:0:0:0:
475,192,198571,1,2,0:0:0:0:
36,192,198837,1,2,0:1:0:0:
182,192,198837,1,8,0:1:0:0:
109,192,199102,1,0,0:0:0:0:
36,192,199368,1,8,0:0:0:0:
329,192,199368,1,2,0:1:0:0:
475,192,199368,1,0,0:0:0:0:
402,192,199633,1,0,0:0:0:0:
256,192,199899,1,8,0:1:0:0:
475,192,199899,1,2,0:1:0:0:
182,192,200164,1,2,0:1:0:0:
329,192,200164,1,0,0:0:0:0:
109,192,200430,1,8,0:0:0:0:
256,192,200430,1,2,0:1:0:0:
402,192,200430,1,0,0:0:0:0:
329,192,200695,1,2,0:0:0:0:
36,192,200961,1,10,0:1:0:0:
182,192,200961,1,2,0:0:0:0:
402,192,200961,1,8,0:0:0:0:
109,192,201492,1,8,0:0:0:0:
256,192,201492,1,8,0:1:0:0:
402,192,201492,1,2,0:0:0:0:
182,192,202023,1,8,0:0:0:0:
329,192,202023,1,8,0:1:0:0:
402,192,202023,1,2,0:0:0:0:
256,192,202554,1,8,0:0:0:0:
329,192,202554,1,8,0:1:0:0:
402,192,202554,1,2,0:0:0:0:
36,192,202819,1,4,0:0:0:0:
182,192,202819,1,0,0:0:0:0:
