osu file format v14

[General]
AudioFilename: audio.mp3
AudioLeadIn: 0
PreviewTime: 63530
Countdown: 0
SampleSet: Soft
StackLeniency: 0.7
Mode: 0
LetterboxInBreaks: 0
WidescreenStoryboard: 1

[Editor]
DistanceSpacing: 1.4
BeatDivisor: 4
GridSize: 4
TimelineZoom: 0.9399995

[Metadata]
Title:Zhi Yin Ni Tai Mei (Cut Ver.)
TitleUnicode:只因你太美 (Cut Ver.)
Artist:SWIN-S
ArtistUnicode:SWIN-S
Creator:Mafumafu
Version:Sandrew's Hard
Source:
Tags:SWIN 蔡徐坤 刘也 赵品霖 俞更寅 何屹繁 吾木提·吐尔逊 WILLIUS RK Chinese cpop c-pop pop New World Electro Hip-hop Rap Zhiyin Nitaimei Sandrew kanor Regraz
BeatmapID:1988093
BeatmapSetID:948483

[Difficulty]
HPDrainRate:4
CircleSize:3.7
OverallDifficulty:7
ApproachRate:8
SliderMultiplier:2.39999990463257
SliderTickRate:1

[Events]
//Background and Video events
0,0,"5aec00b96f5ca.jpg",0,0
//Break Periods
//Storyboard Layer 0 (Background)
//Storyboard Layer 1 (Fail)
//Storyboard Layer 2 (Pass)
//Storyboard Layer 3 (Foreground)
//Storyboard Layer 4 (Overlay)
//Storyboard Sound Samples

[TimingPoints]
1288,560.747663551402,4,2,0,60,1,0
55119,-133.333333333333,4,2,0,60,0,0
64091,-100,4,2,0,60,0,1
81474,-100,4,2,0,60,0,0
82035,-100,4,2,0,60,0,1
99979,-133.333333333333,4,2,0,60,0,0

[Colours]
Combo1 : 242,24,57
Combo2 : 0,202,0
Combo3 : 18,124,255

[HitObjects]
67,61,446,5,0,0:0:0:0:
67,61,727,1,0,0:0:0:0:
67,61,1007,1,0,0:0:0:0:
67,61,1288,6,0,L|195:55,1,119.999995231629
348,99,1848,1,0,0:0:0:0:
348,99,1988,2,0,P|356:68|350:29,2,59.9999976158143
187,151,2549,2,0,P|179:182|185:221,2,59.9999976158143
262,188,2970,2,0,L|341:184,1,59.9999976158143
401,211,3250,2,0,P|438:213|480:199,1,59.9999976158143
499,316,3530,6,0,P|445:300|375:330,1,119.999995231629
304,339,3951,1,0,0:0:0:0:
304,339,4091,2,0,L|244:342,1,59.9999976158143
160,353,4372,2,0,L|100:356,1,59.9999976158143
31,308,4652,2,0,P|18:338|25:387,1,59.9999976158143
104,270,4932,2,0,P|117:240|110:191,1,59.9999976158143
63,90,5213,2,0,P|82:116|128:134,1,59.9999976158143
243,143,5493,2,0,P|210:146|171:177,1,59.9999976158143
318,95,5773,6,0,P|330:152|305:206,1,119.999995231629
205,342,6334,1,0,0:0:0:0:
205,342,6474,2,0,L|109:345,2,59.9999976158143
373,333,7035,2,0,L|469:336,2,59.9999976158143
291,353,7456,2,0,P|290:316|313:277,1,59.9999976158143
367,247,7736,2,0,L|382:173,1,59.9999976158143
456,61,8016,6,0,L|467:210,1,119.999995231629
378,188,8437,1,0,0:0:0:0:
378,188,8577,2,0,L|374:104,1,59.9999976158143
464,180,8858,2,0,L|466:239,1,59.9999976158143
375,128,9138,2,0,L|372:68,1,59.9999976158143
291,46,9418,1,0,0:0:0:0:
291,46,9559,1,0,0:0:0:0:
260,124,9699,2,0,L|256:223,1,89.9999964237214
277,249,9979,2,0,P|308:246|358:257,1,59.9999976158143
450,340,10259,6,0,P|396:350|325:338,1,119.999995231629
172,289,10819,1,0,0:0:0:0:
172,289,10959,2,0,L|165:358,2,59.9999976158143
336,249,11520,2,0,L|347:178,2,59.9999976158143
263,204,11942,2,0,P|231:208|182:198,1,59.9999976158143
127,170,12222,2,0,L|56:163,1,59.9999976158143
20,73,12502,6,0,L|151:63,1,119.999995231629
223,54,12923,1,0,0:0:0:0:
223,54,13063,2,0,P|259:56|300:46,1,59.9999976158143
364,33,13344,2,0,P|393:28|423:30,1,59.9999976158143
485,87,13624,2,0,L|506:17,1,59.9999976158143
410,113,13904,2,0,L|389:183,1,59.9999976158143
442,297,14185,2,0,L|391:243,1,59.9999976158143
264,230,14465,2,0,L|335:213,1,59.9999976158143
199,289,14745,6,0,P|175:229|208:162,1,119.999995231629
291,42,15306,1,0,0:0:0:0:
291,42,15446,2,0,L|361:38,2,59.9999976158143
122,36,16007,2,0,L|52:32,2,59.9999976158143
204,18,16428,2,0,P|203:53|188:93,1,59.9999976158143
123,118,16708,2,0,L|118:185,1,59.9999976158143
39,297,16988,6,0,L|36:148,1,119.999995231629
118,177,17409,1,0,0:0:0:0:
118,177,17549,2,0,L|119:236,1,59.9999976158143
198,265,17830,2,0,L|196:205,1,59.9999976158143
115,351,18250,1,0,0:0:0:0:
115,351,18390,2,0,L|187:350,1,59.9999976158143
257,331,18671,1,0,0:0:0:0:
257,331,18811,1,0,0:0:0:0:
339,348,18951,1,0,0:0:0:0:
339,348,19091,1,0,0:0:0:0:
479,333,19231,6,0,L|400:325,1,59.9999976158143
339,348,19512,2,0,P|335:316|362:265,1,59.9999976158143
415,248,19792,2,0,P|422:219|418:189,1,59.9999976158143
338,210,20073,2,0,L|278:203,1,59.9999976158143
209,155,20353,2,0,L|149:148,1,59.9999976158143
53,80,20633,2,0,L|112:73,1,59.9999976158143
112,73,21054,6,0,L|171:66,2,59.9999976158143
242,21,21474,2,0,P|253:49|254:79,1,59.9999976158143
336,98,21755,2,0,P|354:74|380:59,1,59.9999976158143
410,137,22035,2,0,L|493:116,1,59.9999976158143
438,44,22316,2,0,L|379:58,1,59.9999976158143
338,179,22596,2,0,L|337:240,1,59.9999976158143
416,265,22876,2,0,L|466:210,1,59.9999976158143
353,319,23157,1,0,0:0:0:0:
353,319,23437,6,0,P|375:339|421:349,1,59.9999976158143
273,293,23717,2,0,B|236:325|236:325|242:241,1,119.999995231629
241,254,24278,2,0,L|248:126,1,119.999995231629
192,327,25400,2,0,L|130:328,1,59.9999976158143
53,358,25680,6,0,P|47:323|64:280,1,59.9999976158143
118,248,25960,1,0,0:0:0:0:
59,186,26101,2,0,L|51:99,1,59.9999976158143
53,126,26521,1,0,0:0:0:0:
97,54,26661,2,0,L|174:46,1,59.9999976158143
156,47,27082,1,0,0:0:0:0:
219,120,27222,2,0,L|227:207,1,59.9999976158143
224,179,27643,1,0,0:0:0:0:
224,179,27923,6,0,L|216:250,1,59.9999976158143
314,174,28203,2,0,B|304:117|304:117|332:48,1,119.999995231629
248,29,28624,1,0,0:0:0:0:
327,59,28764,2,0,B|381:78|381:78|427:137,1,119.999995231629
493,86,29185,1,0,0:0:0:0:
419,128,29325,2,0,B|374:165|374:165|300:175,1,119.999995231629
326,256,29745,1,0,0:0:0:0:
410,261,29886,2,0,P|372:284|430:303,1,119.999995231629
298,338,30306,5,0,0:0:0:0:
221,304,30446,2,0,P|161:305|108:340,1,119.999995231629
28,353,30867,1,0,0:0:0:0:
111,336,31007,2,0,P|140:283|136:220,1,119.999995231629
107,146,31428,1,0,0:0:0:0:
137,225,31568,2,0,P|167:276|224:304,1,119.999995231629
298,338,31988,1,0,0:0:0:0:
250,220,32129,2,0,P|219:175|267:171,1,119.999995231629
263,168,32689,6,0,L|345:165,1,59.9999976158143
400,133,32970,2,0,L|482:130,1,59.9999976158143
453,47,33250,2,0,L|393:49,1,59.9999976158143
316,82,33531,2,0,L|256:84,1,59.9999976158143
203,18,33811,2,0,P|139:31|76:12,1,119.999995231629
34,83,34231,2,0,P|59:97|97:102,1,59.9999976158143
90,102,34652,6,0,L|175:115,1,59.9999976158143
247,189,34932,2,0,L|168:192,1,59.9999976158143
104,208,35213,2,0,L|25:211,1,59.9999976158143
30,293,35493,2,0,L|109:290,1,59.9999976158143
173,274,35774,2,0,L|252:271,1,59.9999976158143
293,330,36054,2,0,P|237:325|241:263,1,119.999995231629
232,271,36615,2,0,L|173:274,1,59.9999976158143
247,189,36895,2,0,L|187:191,1,59.9999976158143
299,116,37175,6,0,B|329:140|336:180|336:180|366:134,1,119.999995231629
360,142,37736,2,0,L|370:64,1,59.9999976158143
443,46,38016,1,0,0:0:0:0:
443,46,38297,2,0,L|450:105,1,59.9999976158143
476,185,38577,2,0,L|468:244,1,59.9999976158143
491,325,38858,2,0,P|454:282|392:279,1,119.999995231629
393,278,39418,6,0,P|362:325|346:269,1,119.999995231629
334,288,39979,2,0,P|313:252|274:233,1,59.9999976158143
217,264,40259,1,0,0:0:0:0:
217,264,40540,2,0,P|196:300|199:343,1,59.9999976158143
111,328,40820,2,0,P|90:292|51:273,1,59.9999976158143
162,194,41101,2,0,P|134:204|105:202,1,59.9999976158143
217,264,41381,2,0,P|196:300|199:343,1,59.9999976158143
250,180,41661,6,0,B|241:154|244:129|244:129|173:114,1,119.999995231629
177,114,42222,2,0,L|34:89,1,119.999995231629
10,23,42643,1,0,0:0:0:0:
93,16,42783,2,0,L|211:36,1,119.999995231629
177,114,43203,1,0,0:0:0:0:
260,101,43344,2,0,B|291:76|291:40|291:40|331:39|365:24,1,119.999995231629
339,33,43904,6,0,P|385:67|421:29,1,119.999995231629
421,28,44465,2,0,L|449:104,1,59.9999976158143
455,167,44745,1,0,0:0:0:0:
455,167,45026,2,0,L|427:243,1,59.9999976158143
441,306,45306,2,0,L|479:352,1,59.9999976158143
367,270,45587,2,0,L|307:270,1,59.9999976158143
434,223,45867,2,0,L|455:167,1,59.9999976158143
243,208,46147,6,0,P|220:260|240:329,1,119.999995231629
233,319,46708,2,0,B|113:229|115:373|0:312,1,239.999990463257
279,65,47830,2,0,B|341:40|345:86|405:58,1,119.999995231629
396,61,48390,6,0,L|473:55,1,59.9999976158143
479,137,48671,2,0,L|419:141,1,59.9999976158143
390,220,48951,2,0,P|395:166|328:170,1,119.999995231629
340,156,49512,2,0,P|284:144|206:163,1,119.999995231629
153,201,49932,1,0,0:0:0:0:
241,210,50073,2,0,P|237:181|224:155,1,59.9999976158143
66,202,50353,2,0,P|69:231|83:257,1,59.9999976158143
98,118,50633,6,0,B|59:105|27:123|27:123|33:64,1,119.999995231629
31,76,51194,2,0,L|36:5,1,59.9999976158143
118,27,51474,1,0,0:0:0:0:
118,27,51755,2,0,L|197:22,1,59.9999976158143
261,22,52035,2,0,L|340:27,1,59.9999976158143
405,29,52316,2,0,P|354:52|338:128,1,119.999995231629
334,109,52876,6,0,P|341:157|406:140,1,119.999995231629
400,151,53437,2,0,P|435:152|478:182,1,59.9999976158143
501,233,53717,1,0,0:0:0:0:
501,233,53998,2,0,P|500:268|470:311,1,59.9999976158143
421,338,54278,2,0,P|386:337|343:307,1,59.9999976158143
328,198,54559,2,0,P|316:226|317:256,1,59.9999976158143
400,151,54839,2,0,P|435:152|478:182,1,59.9999976158143
328,112,55119,5,0,0:0:0:0:
322,90,55680,1,0,0:0:0:0:
316,67,56241,1,0,0:0:0:0:
310,45,56802,1,0,0:0:0:0:
184,272,57362,5,0,0:0:0:0:
190,294,57923,1,0,0:0:0:0:
196,317,58484,1,0,0:0:0:0:
202,339,59045,1,0,0:0:0:0:
336,264,59605,6,0,L|434:241,1,89.9999998569489
328,112,60166,2,0,L|305:14,1,89.9999998569489
176,120,60727,2,0,L|78:143,1,89.9999998569489
184,272,61288,2,0,L|207:370,1,89.9999998569489
336,264,61848,6,0,L|300:247,2,22.4999999642372
383,330,62129,2,0,L|386:352,2,22.4999999642372
415,258,62409,2,0,L|432:244,2,22.4999999642372
336,264,62689,1,0,0:0:0:0:
384,329,62830,1,0,0:0:0:0:
415,258,62970,1,0,0:0:0:0:
64,46,63530,1,0,0:0:0:0:
64,46,64091,6,0,L|52:174,1,119.999995231629
193,258,64652,1,0,0:0:0:0:
193,258,64792,2,0,L|269:254,2,59.9999976158143
52,165,65353,2,0,L|59:86,2,59.9999976158143
60,248,65773,2,0,P|96:237|121:216,1,59.9999976158143
143,144,66054,2,0,L|150:65,1,59.9999976158143
266,41,66334,6,0,P|329:32|402:49,1,119.999995231629
462,72,66755,1,0,0:0:0:0:
462,72,66895,2,0,L|465:148,1,59.9999976158143
482,213,67175,2,0,L|485:289,1,59.9999976158143
450,350,67456,2,0,P|486:354|527:347,1,59.9999976158143
404,278,67736,2,0,P|367:273|327:281,1,59.9999976158143
253,167,68016,2,0,P|263:195|281:220,1,59.9999976158143
233,353,68297,2,0,P|252:330|265:303,1,59.9999976158143
187,105,68577,6,0,P|239:78|297:90,1,119.999995231629
465,87,69138,1,0,0:0:0:0:
465,87,69278,2,0,L|470:20,2,59.9999976158143
453,255,69839,2,0,L|448:314,2,59.9999976158143
460,171,70259,2,0,P|423:177|389:205,1,59.9999976158143
367,264,70540,2,0,L|362:323,1,59.9999976158143
239,339,70820,6,0,L|90:344,1,119.999995231629
54,289,71241,1,0,0:0:0:0:
54,289,71381,2,0,L|49:220,1,59.9999976158143
127,198,71661,2,0,L|131:257,1,59.9999976158143
56,150,71942,2,0,L|51:90,1,59.9999976158143
119,40,72222,1,0,0:0:0:0:
119,40,72362,1,0,0:0:0:0:
202,37,72502,2,0,L|311:33,1,89.9999964237214
319,66,72783,2,0,P|326:99|320:132,1,59.9999976158143
448,46,73063,6,0,P|458:111|445:182,1,119.999995231629
313,262,73624,1,0,0:0:0:0:
313,262,73764,2,0,P|269:265|234:259,2,59.9999976158143
450,164,74325,2,0,P|460:122|452:81,2,59.9999976158143
450,247,74745,2,0,L|383:225,1,59.9999976158143
358,150,75026,2,0,P|358:120|366:91,1,59.9999976158143
246,41,75306,6,0,L|112:40,1,119.999995231629
50,72,75727,1,0,0:0:0:0:
50,72,75867,2,0,P|41:108|51:144,1,59.9999976158143
31,212,76147,2,0,P|34:241|25:270,1,59.9999976158143
59,347,76428,2,0,L|-18:348,1,59.9999976158143
108,278,76708,2,0,L|185:281,1,59.9999976158143
259,167,76988,2,0,L|231:220,1,59.9999976158143
279,353,77269,2,0,L|247:303,1,59.9999976158143
324,105,77549,6,0,P|272:78|214:90,1,119.999995231629
47,87,78110,1,0,0:0:0:0:
47,87,78250,2,0,L|42:20,2,59.9999976158143
59,255,78811,2,0,L|64:314,2,59.9999976158143
52,171,79231,2,0,P|89:177|123:205,1,59.9999976158143
145,264,79512,2,0,L|150:323,1,59.9999976158143
285,338,79792,6,0,P|348:325|429:363,1,119.999995231629
459,280,80213,1,0,0:0:0:0:
459,280,80353,2,0,L|464:211,1,59.9999976158143
386,189,80633,2,0,L|382:248,1,59.9999976158143
467,103,81054,1,0,0:0:0:0:
467,103,81194,2,0,L|472:34,1,59.9999976158143
387,34,81474,1,0,0:0:0:0:
387,34,81615,1,0,0:0:0:0:
305,53,81755,1,0,0:0:0:0:
305,53,81895,1,0,0:0:0:0:
146,58,82035,6,0,B|180:40|216:55|216:55|220:98|244:114,2,119.999995231629
146,58,82876,2,0,L|83:48,1,59.9999976158143
37,153,83157,2,0,L|158:146,1,119.999995231629
229,99,83577,1,0,0:0:0:0:
229,182,83717,2,0,L|222:257,1,59.9999976158143
278,305,83998,1,0,0:0:0:0:
278,305,84278,6,0,P|223:326|168:306,2,119.999995231629
278,305,85119,1,0,0:0:0:0:
278,305,85400,2,0,P|314:313|345:351,1,59.9999976158143
405,288,85680,2,0,P|393:252|411:206,1,59.9999976158143
479,246,85960,2,0,P|485:314|398:372,1,179.999992847443
397,230,86521,6,0,B|411:175|456:167|456:167|462:130,2,119.999995231629
397,230,87362,2,0,L|310:240,1,59.9999976158143
340,131,87643,2,0,L|472:139,1,119.999995231629
459,138,88203,2,0,P|467:96|492:72,1,59.9999976158143
412,28,88484,2,0,P|371:42|338:32,1,59.9999976158143
263,90,88764,6,0,B|248:122|253:148|253:148|227:164|200:194,2,119.999995231629
263,90,89605,2,0,L|252:19,1,59.9999976158143
137,32,89886,2,0,L|124:159,1,119.999995231629
137,234,90306,1,0,0:0:0:0:
220,243,90446,2,0,P|218:213|206:186,1,59.9999976158143
53,224,90727,2,0,P|54:253|67:281,1,59.9999976158143
213,337,91007,6,0,B|147:320|147:320|137:348|104:360,2,119.999995231629
212,338,91848,2,0,L|283:341,1,59.9999976158143
307,233,92129,2,0,L|184:237,1,119.999995231629
115,280,92549,1,0,0:0:0:0:
114,196,92689,2,0,L|114:120,1,59.9999976158143
54,77,92970,1,0,0:0:0:0:
54,77,93250,6,0,P|107:51|164:67,1,119.999995231629
164,67,93811,2,0,L|252:58,1,59.9999976158143
307,53,94091,1,0,0:0:0:0:
307,53,94372,2,0,P|354:45|377:24,1,59.9999976158143
444,57,94652,2,0,P|474:93|504:103,1,59.9999976158143
363,38,94932,2,0,P|391:134|469:176,1,179.999992847443
471,347,95493,6,0,B|475:253|475:253|427:264,2,119.999995231629
470,346,96334,2,0,L|399:354,1,59.9999976158143
329,254,96615,2,0,L|452:258,1,119.999995231629
448,257,97175,2,0,P|457:214|476:189,1,59.9999976158143
416,131,97456,2,0,P|374:144|343:140,1,59.9999976158143
276,38,97736,6,0,P|277:67|289:95,1,59.9999976158143
183,178,98017,2,0,P|212:176|240:164,1,59.9999976158143
324,271,98297,2,0,P|322:241|310:213,1,59.9999976158143
416,131,98577,2,0,P|374:144|343:140,1,59.9999976158143
240,164,98858,1,0,0:0:0:0:
289,95,98998,2,0,L|323:71,2,29.9999988079071
206,89,99278,1,0,0:0:0:0:
240,164,99418,2,0,L|232:239,1,59.9999976158143
222,307,99699,1,0,0:0:0:0:
222,307,99839,1,0,0:0:0:0:
130,302,99979,6,0,B|182:281|182:316|254:297,1,89.9999998569489
