osu file format v14

[General]
AudioFilename: audio.mp3
AudioLeadIn: 0
PreviewTime: 63530
Countdown: 0
SampleSet: Soft
StackLeniency: 0.7
Mode: 0
LetterboxInBreaks: 0
WidescreenStoryboard: 1

[Editor]
Bookmarks: 37175,82035
DistanceSpacing: 1
BeatDivisor: 4
GridSize: 4
TimelineZoom: 0.9399995

[Metadata]
Title:Zhi Yin Ni Tai Mei (Cut Ver.)
TitleUnicode:只因你太美 (Cut Ver.)
Artist:SWIN-S
ArtistUnicode:SWIN-S
Creator:Mafumafu
Version:Normal
Source:
Tags:SWIN 蔡徐坤 刘也 赵品霖 俞更寅 何屹繁 吾木提·吐尔逊 WILLIUS RK Chinese cpop c-pop pop New World Electro Hip-hop Rap Zhiyin Nitaimei Sandrew kanor Regraz
BeatmapID:2015757
BeatmapSetID:948483

[Difficulty]
HPDrainRate:4
CircleSize:3.3
OverallDifficulty:4.1
ApproachRate:5.5
SliderMultiplier:1.79999990463257
SliderTickRate:1

[Events]
//Background and Video events
0,0,"5aec00b96f5ca.jpg",0,0
//Break Periods
//Storyboard Layer 0 (Background)
//Storyboard Layer 1 (Fail)
//Storyboard Layer 2 (Pass)
//Storyboard Layer 3 (Foreground)
//Storyboard Layer 4 (Overlay)
//Storyboard Sound Samples

[TimingPoints]
1288,560.747663551402,4,2,0,60,1,0
55119,-100,4,2,0,60,0,0
64091,-100,4,2,0,60,0,1
81474,-100,4,2,0,60,0,0
82035,-100,4,2,0,60,0,1
99979,-100,4,2,0,60,0,0

[Colours]
Combo1 : 242,24,57
Combo2 : 0,202,0
Combo3 : 18,124,255

[HitObjects]
294,97,1288,5,0,0:0:0:0:
359,35,1568,2,0,P|448:33|476:132,1,179.999990463257
441,186,2409,2,0,L|323:168,1,89.9999952316285
282,230,2970,2,0,P|298:290|275:347,2,89.9999952316285
192,220,3811,6,0,P|152:279|38:244,1,179.999990463257
65,176,4652,2,0,L|52:80,1,89.9999952316285
118,25,5213,2,0,P|189:52|194:88,1,89.9999952316285
204,147,5773,5,0,0:0:0:0:
277,95,6054,2,0,P|342:119|426:45,1,179.999990463257
501,101,6895,2,0,L|491:208,1,89.9999952316285
489,280,7456,2,0,P|425:277|385:295,1,89.9999952316285
350,359,8016,6,0,L|151:349,1,179.999990463257
82,373,8858,1,0,0:0:0:0:
29,300,9138,2,0,B|16:260|16:260|27:212,1,89.9999952316285
108,174,9699,2,0,B|118:220|118:220|105:260,1,89.9999952316285
185,301,10259,5,0,0:0:0:0:
254,243,10540,2,0,P|336:238|405:314,1,179.999990463257
490,320,11381,2,0,L|507:213,1,89.9999952316285
443,163,11942,2,0,P|438:107|454:61,1,89.9999952316285
364,38,12502,6,0,P|286:25|167:53,2,179.999990463257
446,75,13904,1,0,0:0:0:0:
369,123,14185,2,0,P|308:137|257:126,1,89.9999952316285
194,155,14745,6,0,P|211:231|196:344,1,179.999990463257
110,348,15587,1,0,0:0:0:0:
37,294,15867,2,0,L|41:184,1,89.9999952316285
21,115,16428,2,0,P|79:120|123:158,1,89.9999952316285
182,182,16988,6,0,L|171:290,1,89.9999952316285
249,318,17549,1,0,0:0:0:0:
249,318,17830,1,0,0:0:0:0:
318,261,18110,2,0,P|383:253|424:276,1,89.9999952316285
484,303,18671,2,0,L|494:185,1,89.9999952316285
450,133,19231,5,0,0:0:0:0:
287,55,19792,2,0,P|229:78|176:66,1,89.9999952316285
122,34,20353,2,0,P|55:31|8:41,2,89.9999952316285
120,124,21194,1,0,0:0:0:0:
120,124,21474,6,0,L|136:346,1,179.999990463257
212,346,22316,1,0,0:0:0:0:
272,279,22596,2,0,P|333:274|369:292,1,89.9999952316285
435,122,23437,1,0,0:0:0:0:
371,58,23717,6,0,P|309:87|174:58,2,179.999990463257
459,39,25119,1,0,0:0:0:0:
435,122,25400,2,0,P|437:190|453:221,1,89.9999952316285
441,298,25960,6,0,P|335:276|261:304,1,179.999990463257
200,357,26802,1,0,0:0:0:0:
113,333,27082,2,0,P|85:257|124:133,1,179.999990463257
190,188,27923,1,0,0:0:0:0:
262,135,28203,6,0,P|321:155|367:142,1,89.9999952316285
396,75,28764,2,0,L|505:68,1,89.9999952316285
492,159,29325,1,0,0:0:0:0:
492,159,29605,1,0,0:0:0:0:
492,159,29886,2,0,P|491:235|482:266,1,89.9999952316285
425,312,30446,6,0,P|354:302|330:313,1,89.9999952316285
248,301,31007,2,0,P|187:334|145:331,1,89.9999952316285
82,304,31568,1,0,0:0:0:0:
82,304,31848,1,0,0:0:0:0:
82,304,32129,2,0,L|73:184,1,89.9999952316285
56,126,32689,6,0,P|137:97|220:159,1,179.999990463257
282,199,33530,1,0,0:0:0:0:
341,130,33811,2,0,P|428:98|502:154,1,179.999990463257
457,223,34652,1,0,0:0:0:0:
473,311,34932,6,0,P|417:351|379:349,1,89.9999952316285
325,299,35493,2,0,L|226:299,2,89.9999952316285
371,221,36334,1,0,0:0:0:0:
339,136,36615,2,0,P|263:125|223:137,1,89.9999952316285
176,77,37175,5,0,0:0:0:0:
176,77,37736,2,0,L|186:179,1,89.9999952316285
142,246,38297,2,0,P|94:262|35:248,2,89.9999952316285
206,308,39138,1,0,0:0:0:0:
265,240,39418,6,0,P|322:226|394:319,1,179.999990463257
484,305,40259,1,0,0:0:0:0:
484,305,40540,2,0,L|498:191,1,89.9999952316285
502,125,41101,2,0,P|454:146|391:134,1,89.9999952316285
359,75,41661,6,0,L|261:89,1,89.9999952316285
105,161,42502,1,0,0:0:0:0:
105,161,42783,2,0,P|90:105|103:70,2,89.9999952316285
193,178,43624,1,0,0:0:0:0:
193,178,43904,6,0,P|140:244|49:233,1,179.999990463257
105,161,44745,1,0,0:0:0:0:
101,70,45026,2,0,P|34:51|3:58,2,89.9999952316285
191,70,45867,1,0,0:0:0:0:
272,31,46147,5,0,0:0:0:0:
451,50,46708,2,0,L|443:151,1,89.9999952316285
424,227,47269,2,0,P|358:250|286:169,1,179.999990463257
310,92,48110,1,0,0:0:0:0:
310,92,48671,5,0,0:0:0:0:
239,36,48951,2,0,L|131:39,1,89.9999952316285
90,106,49512,2,0,P|25:100|-2:68,2,89.9999952316285
148,174,50353,1,0,0:0:0:0:
229,135,50633,5,0,0:0:0:0:
317,154,50914,2,0,P|303:270|325:342,1,179.999990463257
403,296,51755,2,0,P|459:293|499:304,2,89.9999952316285
384,207,52596,1,0,0:0:0:0:
384,207,52876,6,0,P|313:213|231:137,1,179.999990463257
234,55,53717,1,0,0:0:0:0:
143,53,53998,2,0,P|86:48|47:58,2,89.9999952316285
142,143,54839,1,0,0:0:0:0:
142,143,55119,6,0,L|148:263,1,89.9999952316285
149,323,55680,2,0,P|85:346|29:245,2,179.999990463257
237,308,57082,1,0,0:0:0:0:
237,308,57362,6,0,P|282:323|318:363,1,89.9999952316285
399,331,57923,2,0,L|496:340,1,89.9999952316285
490,249,58484,2,0,P|496:170|485:65,1,179.999990463257
401,100,59325,1,0,0:0:0:0:
401,100,59605,6,0,P|338:95|298:68,1,89.9999952316285
241,31,60166,2,0,P|190:35|143:65,2,89.9999952316285
315,82,61007,1,0,0:0:0:0:
254,149,61288,2,0,L|274:242,1,89.9999952316285
196,283,61848,5,0,0:0:0:0:
138,213,62129,1,0,0:0:0:0:
55,248,62409,1,0,0:0:0:0:
57,337,62689,1,0,0:0:0:0:
145,355,62970,1,0,0:0:0:0:
324,341,63530,2,0,L|435:333,1,89.9999952316285
502,351,64091,6,0,P|487:281|500:164,1,179.999990463257
407,163,64932,1,0,0:0:0:0:
407,163,65213,2,0,P|352:185|311:178,1,89.9999952316285
254,123,65773,2,0,L|263:22,1,89.9999952316285
173,48,66334,6,0,P|107:34|49:137,1,179.999990463257
118,167,67175,1,0,0:0:0:0:
118,167,67456,2,0,P|61:207|21:210,1,89.9999952316285
27,298,68016,1,0,0:0:0:0:
27,298,68297,1,0,0:0:0:0:
27,298,68577,6,0,B|78:295|78:295|138:324|138:324|204:318,1,179.999990463257
265,255,69418,1,0,0:0:0:0:
335,311,69699,2,0,P|399:317|442:342,1,89.9999952316285
487,266,70259,1,0,0:0:0:0:
487,266,70540,1,0,0:0:0:0:
443,187,70820,6,0,P|392:213|265:177,1,179.999990463257
186,194,71661,2,0,P|204:240|193:300,1,89.9999952316285
132,338,72222,2,0,L|26:324,1,89.9999952316285
42,236,72783,1,0,0:0:0:0:
50,146,73063,6,0,B|39:101|48:56|48:56|96:57|146:84,1,179.999990463257
202,136,73904,2,0,P|267:110|284:75,2,89.9999952316285
137,199,74745,2,0,L|151:316,1,89.9999952316285
222,338,75306,6,0,B|278:317|289:283|289:283|322:304|380:290,1,179.999990463257
451,341,76147,1,0,0:0:0:0:
451,341,76428,2,0,P|464:288|451:247,1,89.9999952316285
423,170,76988,2,0,L|309:187,1,89.9999952316285
259,132,77549,6,0,L|55:122,1,179.999990463257
37,203,78390,1,0,0:0:0:0:
37,203,78671,2,0,P|66:260|66:298,1,89.9999952316285
137,341,79231,2,0,P|196:312|216:278,1,89.9999952316285
192,204,79792,5,0,0:0:0:0:
280,184,80073,1,0,0:0:0:0:
306,270,80353,2,0,P|355:286|382:330,1,89.9999952316285
463,342,80914,1,0,0:0:0:0:
463,342,81194,1,0,0:0:0:0:
463,342,81474,2,0,L|468:238,1,89.9999952316285
474,162,82035,6,0,B|413:167|382:77|382:77|346:93|308:86,1,179.999990463257
266,34,82876,1,0,0:0:0:0:
266,34,83157,2,0,L|53:22,1,179.999990463257
8,69,83998,1,0,0:0:0:0:
8,69,84278,6,0,P|48:110|103:112,1,89.9999952316285
164,144,84839,2,0,L|268:130,1,89.9999952316285
342,121,85400,2,0,P|318:67|265:51,2,89.9999952316285
430,105,86241,1,0,0:0:0:0:
430,105,86521,6,0,P|461:165|439:277,1,179.999990463257
363,228,87362,2,0,P|308:232|268:258,2,89.9999952316285
442,272,88203,1,0,0:0:0:0:
442,272,88484,1,0,0:0:0:0:
404,353,88764,6,0,L|191:333,1,179.999990463257
176,260,89605,1,0,0:0:0:0:
176,260,89886,2,0,P|115:268|86:309,2,89.9999952316285
255,216,90727,1,0,0:0:0:0:
319,279,91007,6,0,P|369:306|459:214,1,179.999990463257
454,151,91848,1,0,0:0:0:0:
454,151,92129,2,0,P|458:91|445:47,2,89.9999952316285
364,161,92970,1,0,0:0:0:0:
364,161,93250,6,0,P|278:139|181:164,1,179.999990463257
106,190,94091,2,0,L|108:88,1,89.9999952316285
23,68,94652,1,0,0:0:0:0:
23,68,94932,2,0,L|21:157,1,89.9999952316285
23,248,95493,6,0,P|38:327|143:336,1,179.999990463257
176,272,96334,2,0,L|160:166,1,89.9999952316285
149,93,96895,1,0,0:0:0:0:
216,33,97175,2,0,P|272:47|291:87,1,89.9999952316285
377,61,97736,5,0,0:0:0:0:
465,48,98016,1,0,0:0:0:0:
481,136,98297,1,0,0:0:0:0:
393,149,98577,1,0,0:0:0:0:
328,212,98858,2,0,P|270:197|245:150,1,89.9999952316285
226,89,99418,1,0,0:0:0:0:
226,89,99699,2,0,L|116:99,1,89.9999952316285
