osu file format v14

[General]
AudioFilename: audio.mp3
AudioLeadIn: 0
PreviewTime: 7928
Countdown: 0
SampleSet: Soft
StackLeniency: 0.6
Mode: 0
LetterboxInBreaks: 0
WidescreenStoryboard: 1

[Editor]
DistanceSpacing: 4.6
BeatDivisor: 4
GridSize: 4
TimelineZoom: 1.4

[Metadata]
Title:Pivo
TitleUnicode:Пиво
Artist:SVG
ArtistUnicode:SVG
Creator:KysT_T
Version:Hard
Source:
Tags:
BeatmapID:1885333
BeatmapSetID:903066

[Difficulty]
HPDrainRate:5
CircleSize:3.8
OverallDifficulty:6
ApproachRate:8
SliderMultiplier:1.6
SliderTickRate:1

[Events]
//Background and Video events
0,0,"WnbDuzYz4Ko.jpg",0,0
//Break Periods
//Storyboard Layer 0 (Background)
//Storyboard Layer 1 (Fail)
//Storyboard Layer 2 (Pass)
//Storyboard Layer 3 (Foreground)
//Storyboard Sound Samples

[TimingPoints]
60,491.803278688525,4,2,1,50,1,0
7928,491.803278688525,4,2,2,55,1,1
7928,-76.9230769230769,4,2,2,55,0,1
22682,-76.9230769230769,4,2,1,55,0,1
23666,490.464551674528,4,2,2,33,1,1
23666,-66.6666666666667,4,2,2,33,0,1
39115,-76.9230769230769,4,2,2,33,0,0
40341,-76.9230769230769,4,2,2,5,0,0

[Colours]
Combo1 : 251,224,153
Combo2 : 239,198,56

[HitObjects]
87,116,60,6,0,P|156:137|254:116,1,160,12|8,0:0|0:0,0:0:0:0:
266,213,1043,2,0,P|328:198|446:219,1,160,12|8,0:0|0:0,0:0:0:0:
206,317,1781,1,0,0:0:0:0:
206,317,2027,2,0,P|150:303|34:329,1,160,8|0,0:0|0:0,0:0:0:0:
80,195,2764,1,4,0:0:0:0:
216,156,3010,5,8,0:0:0:0:
126,77,3256,1,4,0:0:0:0:
172,238,3502,5,4,0:0:0:0:
282,109,3748,1,4,0:0:0:0:
282,109,3994,2,0,P|334:80|434:74,1,160,12|8,0:0|0:0,0:0:0:0:
474,284,4978,2,0,P|422:313|322:319,1,160,12|0,0:0|0:0,0:0:0:0:
308,203,5715,1,0,0:0:0:0:
308,203,5961,2,0,P|279:157|300:46,1,160,0|8,0:0|0:0,0:0:0:0:
352,123,6699,5,4,0:0:0:0:
162,98,6945,5,2,0:0:0:0:
229,209,7191,6,0,L|255:247,2,40,2|2|2,0:0|0:0|0:0,0:0:0:0:
44,248,7682,1,2,0:0:0:0:
153,320,7928,6,0,P|204:338|261:334,1,103.999995239258,4|2,0:0|0:0,0:0:0:0:
244,195,8419,2,0,P|295:177|352:181,1,103.999995239258,8|2,0:0|0:0,0:0:0:0:
403,323,8911,1,8,0:0:0:0:
456,173,9157,1,2,0:0:0:0:
462,147,9280,1,2,0:0:0:0:
461,123,9403,2,0,P|441:71|403:37,1,103.999995239258,8|0,0:0|0:0,0:0:0:0:
332,187,9895,6,0,P|322:244|340:301,1,103.999995239258,4|2,0:0|0:0,0:0:0:0:
216,196,10387,1,8,0:0:0:0:
231,337,10632,1,2,0:0:0:0:
114,233,10878,2,0,P|72:189|32:160,1,103.999995239258,8|2,0:0|0:0,0:0:0:0:
18,146,11247,1,2,0:0:0:0:
14,120,11370,2,0,P|21:51|44:7,1,103.999995239258,8|2,0:0|0:0,0:0:0:0:
172,38,11862,6,0,P|236:51|295:48,1,103.999995239258,4|2,0:0|0:0,0:0:0:0:
165,236,12354,1,8,0:0:0:0:
227,139,12600,1,2,0:0:0:0:
266,303,12846,2,0,P|320:329|366:333,1,103.999995239258,8|2,0:0|0:0,0:0:0:0:
406,332,13214,1,2,0:0:0:0:
442,320,13337,2,0,P|475:273|484:221,1,103.999995239258,8|0,0:0|0:0,0:0:0:0:
331,170,13829,6,0,P|315:109|319:63,1,103.999995239258,4|2,0:0|0:0,0:0:0:0:
219,178,14321,2,0,P|204:231|209:291,1,103.999995239258,8|2,0:0|0:0,0:0:0:0:
128,160,14813,1,8,0:0:0:0:
63,312,15059,1,2,0:0:0:0:
78,333,15182,1,2,0:0:0:0:
105,344,15305,2,0,P|157:353|216:348,1,103.999995239258,8|0,0:0|0:0,0:0:0:0:
241,202,15796,6,0,P|296:184|352:182,1,103.999995239258,4|2,0:0|0:0,0:0:0:0:
317,295,16288,1,8,0:0:0:0:
457,205,16534,1,2,0:0:0:0:
314,114,16780,2,0,P|259:89|221:52,1,103.999995239258,8|2,0:0|0:0,0:0:0:0:
199,34,17149,1,2,0:0:0:0:
148,30,17272,2,0,P|102:61|35:69,1,103.999995239258,8|2,0:0|0:0,0:0:0:0:
209,142,17764,6,0,P|224:205|211:258,1,103.999995239258,4|2,0:0|0:0,0:0:0:0:
126,211,18255,1,8,0:0:0:0:
189,350,18501,1,2,0:0:0:0:
116,299,18747,1,8,0:0:0:0:
278,272,18993,1,2,0:0:0:0:
305,267,19116,1,2,0:0:0:0:
338,259,19239,2,0,P|393:243|435:212,1,103.999995239258,8|2,0:0|0:0,0:0:0:0:
348,52,19731,6,0,P|415:70|468:71,1,103.999995239258,4|2,0:0|0:0,0:0:0:0:
292,146,20223,1,8,0:0:0:0:
428,170,20468,1,2,0:0:0:0:
280,244,20714,2,0,P|216:258|168:252,1,103.999995239258,8|2,0:0|0:0,0:0:0:0:
138,234,21083,1,2,0:0:0:0:
96,214,21206,2,0,P|57:264|49:310,1,103.999995239258,8|2,0:0|0:0,0:0:0:0:
256,192,21575,12,0,22559,0:0:0:0:
398,264,22682,5,2,0:0:0:0:
339,157,22928,1,2,0:0:0:0:
315,123,23050,1,2,0:0:0:0:
300,100,23173,1,2,0:0:0:0:
217,244,23419,1,2,0:0:0:0:
81,104,23666,5,4,0:0:0:0:
21,262,23911,1,8,0:0:0:0:
197,41,24156,5,4,0:0:0:0:
137,199,24401,1,8,0:0:0:0:
271,121,24646,2,0,P|328:93|386:81,1,120.000004577637,4|2,0:0|0:0,0:0:0:0:
415,81,25014,1,2,0:0:0:0:
456,76,25137,2,0,P|481:141|474:200,1,120.000004577637,6|8,0:0|0:0,0:0:0:0:
337,350,25627,5,4,0:0:0:0:
393,204,25873,1,8,0:0:0:0:
469,353,26118,5,4,0:0:0:0:
283,253,26363,1,8,0:0:0:0:
393,204,26608,2,0,P|409:139|401:85,1,120.000004577637,8|10,0:0|0:0,0:0:0:0:
379,53,26976,1,2,0:0:0:0:
340,42,27099,2,0,P|274:50|219:39,1,120.000004577637,10|8,0:0|0:0,0:0:0:0:
311,167,27589,5,4,0:0:0:0:
153,31,27834,1,8,0:0:0:0:
305,267,28080,5,4,0:0:0:0:
147,131,28325,1,8,0:0:0:0:
173,292,28570,1,4,0:0:0:0:
311,167,28815,1,10,0:0:0:0:
333,145,28938,1,2,0:0:0:0:
362,120,29061,2,0,P|409:76|462:54,1,120.000004577637,10|8,0:0|0:0,0:0:0:0:
488,292,29551,5,4,0:0:0:0:
444,148,29796,1,8,0:0:0:0:
404,263,30042,2,0,P|352:310|300:330,1,120.000004577637,4|8,0:0|0:0,0:0:0:0:
257,175,30532,2,0,P|257:111|231:52,1,120.000004577637,8|10,0:0|0:0,0:0:0:0:
214,36,30900,1,2,0:0:0:0:
179,28,31022,2,0,P|106:41|57:28,1,120.000004577637,10|8,0:0|0:0,0:0:0:0:
184,209,31513,5,4,0:0:0:0:
36,98,31758,1,8,0:0:0:0:
191,315,32003,5,4,0:0:0:0:
43,204,32248,1,8,0:0:0:0:
184,209,32494,2,0,P|263:207|320:200,1,120.000004577637,8|10,0:0|0:0,0:0:0:0:
345,198,32862,1,2,0:0:0:0:
389,194,32984,2,0,P|417:267|412:310,1,120.000004577637,10|8,0:0|0:0,0:0:0:0:
441,118,33475,6,0,P|465:49|501:13,1,120.000004577637,4|8,0:0|0:0,0:0:0:0:
321,111,33965,2,0,P|243:142|198:143,1,120.000004577637,4|8,0:0|0:0,0:0:0:0:
341,251,34456,1,4,0:0:0:0:
173,212,34701,1,2,0:0:0:0:
143,189,34824,1,2,0:0:0:0:
117,163,34946,2,0,P|72:110|46:46,1,120.000004577637,8|8,0:0|0:0,0:0:0:0:
277,179,35437,5,4,0:0:0:0:
156,32,35682,1,8,0:0:0:0:
320,89,35927,5,4,0:0:0:0:
194,236,36172,1,8,0:0:0:0:
241,62,36418,5,4,0:0:0:0:
367,232,36663,1,10,0:0:0:0:
393,258,36785,1,2,0:0:0:0:
420,288,36908,1,6,0:0:0:0:
194,236,37153,1,8,0:0:0:0:
403,163,37399,5,4,0:0:0:0:
266,303,37644,1,8,0:0:0:0:
308,122,37889,5,4,0:0:0:0:
353,342,38134,1,8,0:0:0:0:
236,187,38379,2,0,P|203:161|125:127,3,120.000004577637,2|2|2|2,0:0|0:0|0:0|0:0,0:0:0:0:
256,192,39238,12,0,40341,0:0:0:0:
