osu file format v14

[General]
AudioFilename: audio.mp3
AudioLeadIn: 0
PreviewTime: 74710
Countdown: 0
SampleSet: Soft
StackLeniency: 0.7
Mode: 3
LetterboxInBreaks: 0
SpecialStyle: 0
WidescreenStoryboard: 0

[Editor]
DistanceSpacing: 0.5
BeatDivisor: 4
GridSize: 4
TimelineZoom: 2.1

[Metadata]
Title:planetarium
TitleUnicode:planetarium
Artist:SUi
ArtistUnicode:SUi
Creator:Reba
Version:NOVICE
Source:SOUND VOLTEX IV HEAVENLY HAVEN
Tags:Exclusive to Asia! Contest アジア限定!コンテスト
BeatmapID:1670745
BeatmapSetID:785196

[Difficulty]
HPDrainRate:7
CircleSize:7
OverallDifficulty:7
ApproachRate:5
SliderMultiplier:1.4
SliderTickRate:1

[Events]
//Background and Video events
0,0,"planetarium BG.jpg",0,0
//Break Periods
//Storyboard Layer 0 (Background)
//Storyboard Layer 1 (Fail)
//Storyboard Layer 2 (Pass)
//Storyboard Layer 3 (Foreground)
//Storyboard Layer 4 (Overlay)
//Storyboard Sound Samples

[TimingPoints]
1545,333.333333333333,4,2,1,50,1,0
12044,333.333333333333,4,2,1,50,1,0

[HitObjects]
256,192,1545,5,0,0:0:0:50:CrashR.wav
256,192,1711,1,0,0:0:0:50:CrashR.wav
182,192,2044,1,0,0:0:0:50:CrashR.wav
182,192,2211,1,0,0:0:0:50:CrashR.wav
109,192,2544,1,0,0:0:0:50:CrashR.wav
109,192,2711,128,0,3044:0:0:0:50:CrashR.wav
402,192,3044,1,0,0:0:0:0:
256,192,3211,128,0,3544:0:0:0:0:
182,192,3544,128,0,3878:0:0:0:0:
109,192,3878,128,0,4211:0:0:0:0:
329,192,4211,1,0,0:0:0:50:CrashR.wav
329,192,4378,1,0,0:0:0:50:CrashR.wav
402,192,4711,1,0,0:0:0:50:CrashR.wav
402,192,4878,1,0,0:0:0:50:CrashR.wav
475,192,5211,1,0,0:0:0:50:CrashR.wav
475,192,5378,128,0,5711:0:0:0:50:CrashR.wav
329,192,5711,1,0,0:0:0:0:
182,192,5878,128,0,6211:0:0:0:0:
109,192,6211,128,0,6544:0:0:0:0:
36,192,6544,128,0,6878:0:0:0:0:
329,192,6878,1,0,0:0:0:50:CrashR.wav
329,192,7044,1,0,0:0:0:50:CrashR.wav
182,192,7378,1,0,0:0:0:50:CrashR.wav
182,192,7544,1,0,0:0:0:50:CrashR.wav
36,192,7878,1,0,0:0:0:50:CrashR.wav
36,192,8044,128,0,8378:0:0:0:50:CrashR.wav
256,192,8378,1,0,0:0:0:0:
402,192,8544,128,0,8878:0:0:0:0:
329,192,8878,128,0,9211:0:0:0:0:
256,192,9211,128,0,9544:0:0:0:0:
109,192,9544,1,0,0:0:0:50:CrashR.wav
109,192,9711,1,0,0:0:0:50:CrashR.wav
256,192,10044,1,0,0:0:0:50:CrashR.wav
256,192,10211,1,0,0:0:0:50:CrashR.wav
402,192,10544,128,0,12044:0:0:0:50:CrashR.wav
36,192,12044,1,0,0:0:0:0:
182,192,12210,1,0,0:0:0:0:
329,192,12377,1,0,0:0:0:0:
475,192,12544,1,0,0:0:0:0:
402,192,12710,1,0,0:0:0:0:
329,192,12877,1,0,0:0:0:0:
256,192,13043,1,0,0:0:0:0:
182,192,13210,1,0,0:0:0:0:
109,192,13377,1,0,0:0:0:50:CrashR.wav
36,192,13377,1,0,0:0:0:50:BaSS.wav
329,192,13543,1,0,0:0:0:0:
329,192,13710,1,0,0:0:0:50:Impact.wav
402,192,14043,1,0,0:0:0:50:BaSS.wav
402,192,14210,1,0,0:0:0:0:
475,192,14543,1,0,0:0:0:0:
475,192,14710,128,0,15043:0:0:0:50:BaSS.wav
329,192,15043,1,0,0:0:0:50:Impact.wav
182,192,15210,128,0,15543:0:0:0:0:
109,192,15543,128,0,15877:0:0:0:0:
402,192,15877,1,0,0:0:0:0:
36,192,16210,1,0,0:0:0:0:
36,192,16377,1,0,0:0:0:50:Impact.wav
109,192,16710,1,0,0:0:0:50:BaSS.wav
109,192,16877,1,0,0:0:0:0:
182,192,17210,1,0,0:0:0:0:
182,192,17377,128,0,17710:0:0:0:50:BaSS.wav
329,192,17710,1,0,0:0:0:50:Impact.wav
475,192,17877,128,0,18210:0:0:0:0:
402,192,18210,128,0,18543:0:0:0:0:
109,192,18543,1,0,0:0:0:0:
256,192,18877,1,0,0:0:0:0:
256,192,19043,1,0,0:0:0:50:Impact.wav
329,192,19377,1,0,0:0:0:50:BaSS.wav
329,192,19543,1,0,0:0:0:0:
402,192,19877,1,0,0:0:0:0:
402,192,20043,128,0,20377:0:0:0:50:BaSS.wav
182,192,20377,1,0,0:0:0:50:Impact.wav
36,192,20543,128,0,20877:0:0:0:0:
109,192,20877,128,0,21210:0:0:0:0:
402,192,21210,1,0,0:0:0:0:
402,192,21543,1,0,0:0:0:50:BaSS.wav
256,192,21710,1,0,0:0:0:50:BaSS.wav
109,192,21877,1,0,0:0:0:50:BaSS.wav
329,192,22043,1,0,0:0:0:50:BaSS.wav
402,192,22210,1,0,0:0:0:50:BaSS.wav
475,192,22377,128,0,22710:0:0:0:50:BaSS.wav
256,192,22710,1,0,0:0:0:50:CrashR.wav
36,192,23043,128,0,23543:0:0:0:0:
329,192,23543,1,0,0:0:0:0:
182,192,23877,1,0,0:0:0:0:
475,192,24043,128,0,24710:0:0:0:0:
36,192,24710,128,0,25377:0:0:0:0:
182,192,25043,128,0,25377:0:0:0:0:
475,192,25377,1,0,0:0:0:50:CrashR.wav
329,192,25377,1,0,0:0:0:50:BaSS.wav
256,192,25543,1,0,0:0:0:0:
182,192,25710,1,0,0:0:0:50:Impact.wav
36,192,25710,1,0,0:0:0:0:
329,192,25877,1,0,0:0:0:0:
475,192,26043,1,0,0:0:0:50:BaSS.wav
109,192,26043,1,0,0:0:0:0:
256,192,26210,1,0,0:0:0:0:
402,192,26377,1,0,0:0:0:50:Impact.wav
182,192,26377,1,0,0:0:0:0:
329,192,26543,1,0,0:0:0:0:
256,192,26710,1,0,0:0:0:50:BaSS.wav
36,192,26710,1,0,0:0:0:0:
182,192,26877,1,0,0:0:0:0:
109,192,27043,1,0,0:0:0:50:Impact.wav
402,192,27043,1,0,0:0:0:0:
329,192,27210,1,0,0:0:0:0:
256,192,27377,1,0,0:0:0:50:BaSS.wav
475,192,27377,1,0,0:0:0:0:
402,192,27543,1,0,0:0:0:0:
329,192,27710,1,0,0:0:0:50:Impact.wav
182,192,27710,1,0,0:0:0:0:
109,192,27877,1,0,0:0:0:0:
36,192,28043,1,0,0:0:0:50:BaSS.wav
329,192,28043,1,0,0:0:0:0:
475,192,28210,1,0,0:0:0:0:
256,192,28377,1,0,0:0:0:50:Impact.wav
109,192,28377,1,0,0:0:0:0:
402,192,28543,1,0,0:0:0:0:
182,192,28710,1,0,0:0:0:50:BaSS.wav
36,192,28710,1,0,0:0:0:0:
329,192,28877,1,0,0:0:0:0:
475,192,29043,1,0,0:0:0:50:Impact.wav
109,192,29043,1,0,0:0:0:0:
256,192,29210,1,0,0:0:0:0:
402,192,29377,1,0,0:0:0:50:BaSS.wav
36,192,29377,1,0,0:0:0:0:
329,192,29543,1,0,0:0:0:0:
256,192,29710,1,0,0:0:0:50:Impact.wav
109,192,29710,1,0,0:0:0:0:
402,192,29877,1,0,0:0:0:0:
182,192,30043,1,0,0:0:0:50:BaSS.wav
36,192,30043,1,0,0:0:0:0:
329,192,30210,1,0,0:0:0:50:BaSS.wav
475,192,30210,1,0,0:0:0:0:
36,192,30377,1,0,0:0:0:50:BaSS.wav
182,192,30377,1,0,0:0:0:0:
329,192,30543,1,0,0:0:0:50:BaSS.wav
475,192,30543,1,0,0:0:0:0:
182,192,30710,128,0,31543:0:0:0:50:BaSS.wav
329,192,31543,1,0,0:0:0:0:
402,192,31710,1,0,0:0:0:0:
475,192,31877,128,0,33043:0:0:0:0:
256,192,33043,1,0,0:0:0:0:
109,192,33210,1,0,0:0:0:0:
109,192,33377,128,0,33877:0:0:0:0:
402,192,33877,128,0,34210:0:0:0:0:
36,192,34210,128,0,34710:0:0:0:0:
475,192,34710,128,0,35043:0:0:0:0:
256,192,35043,1,0,0:0:0:0:
36,192,35210,128,0,35543:0:0:0:0:
182,192,35543,1,0,0:0:0:0:
329,192,35710,128,0,36043:0:0:0:0:
475,192,36043,128,0,37043:0:0:0:0:
182,192,37043,1,0,0:0:0:0:
109,192,37210,1,0,0:0:0:0:
36,192,37377,128,0,38043:0:0:0:0:
329,192,38043,128,0,38377:0:0:0:0:
402,192,38377,128,0,38710:0:0:0:0:
475,192,38710,128,0,39710:0:0:0:0:
329,192,39710,1,0,0:0:0:0:
182,192,39877,1,0,0:0:0:0:
36,192,40043,128,0,40377:0:0:0:0:
256,192,40377,1,0,0:0:0:0:
475,192,40543,128,0,40877:0:0:0:0:
36,192,40877,128,0,41377:0:0:0:0:
475,192,41377,1,0,0:0:0:50:CrashR.wav
329,192,41377,1,0,0:0:0:50:BaSS.wav
182,192,41710,1,0,0:0:0:50:Impact.wav
329,192,42043,1,0,0:0:0:50:BaSS.wav
182,192,42377,1,0,0:0:0:50:Impact.wav
329,192,42710,1,0,0:0:0:50:BaSS.wav
36,192,42710,1,0,0:0:0:0:
256,192,43043,1,0,0:0:0:50:Impact.wav
182,192,43377,1,0,0:0:0:50:BaSS.wav
109,192,43710,1,0,0:0:0:50:Impact.wav
256,192,43877,1,0,0:0:0:0:
402,192,44043,128,0,44377:0:0:0:50:CrashR.wav
36,192,44043,1,0,0:0:0:50:BaSS.wav
182,192,44377,1,0,0:0:0:50:CrashR.wav
36,192,44543,128,0,44877:0:0:0:50:CrashR.wav
329,192,44543,1,0,0:0:0:50:BaSS.wav
256,192,44877,1,0,0:0:0:50:CrashR.wav
475,192,44877,1,0,0:0:0:50:BaSS.wav
182,192,45210,128,0,45377:0:0:0:50:BaSS.wav
475,192,45377,1,0,0:0:0:50:CrashR.wav
36,192,45377,1,0,0:0:0:50:BaSS.wav
402,192,45543,1,0,0:0:0:0:
329,192,45710,1,0,0:0:0:0:
256,192,45877,128,0,46377:0:0:0:50:CrashR.wav
109,192,45877,1,0,0:0:0:50:BaSS.wav
475,192,46377,1,0,0:0:0:50:BaSS.wav
329,192,46543,1,0,0:0:0:50:BaSS.wav
182,192,46710,128,0,47877:0:0:0:50:CrashR.wav
36,192,46710,1,0,0:0:0:50:BaSS.wav
329,192,47877,1,0,0:0:0:0:
475,192,48043,128,0,49043:0:0:0:50:CrashR.wav
36,192,48043,1,0,0:0:0:50:BaSS.wav
256,192,49043,128,0,49377:0:0:0:50:BaSS.wav
36,192,49377,128,0,49710:0:0:0:50:BaSS.wav
475,192,49377,1,0,0:0:0:0:
329,192,49710,1,0,0:0:0:0:
475,192,49877,128,0,50377:0:0:0:0:
36,192,50377,128,0,50710:0:0:0:0:
402,192,50710,1,0,0:0:0:0:
256,192,50877,1,0,0:0:0:0:
109,192,51043,1,0,0:0:0:0:
256,192,51210,1,0,0:0:0:0:
475,192,51377,1,0,0:0:0:0:
329,192,51543,1,0,0:0:0:0:
182,192,51710,128,0,52043:0:0:0:0:
36,192,52043,1,0,0:0:0:50:CrashR.wav
475,192,52043,128,0,52377:0:0:0:50:BaSS.wav
329,192,52377,128,0,52710:0:0:0:0:
182,192,52543,1,0,0:0:0:50:CrashR.wav
36,192,52710,128,0,53043:0:0:0:0:
475,192,53043,1,0,0:0:0:50:CrashR.wav
329,192,53043,1,0,0:0:0:50:BaSS.wav
182,192,53210,1,0,0:0:0:0:
36,192,53377,128,0,53710:0:0:0:50:CrashR.wav
402,192,53377,1,0,0:0:0:50:BaSS.wav
109,192,53710,128,0,54043:0:0:0:0:
182,192,54043,128,0,54377:0:0:0:0:
329,192,54377,1,0,0:0:0:50:CrashR.wav
475,192,54377,1,0,0:0:0:50:BaSS.wav
256,192,54543,1,0,0:0:0:0:
182,192,54710,1,0,0:0:0:50:CrashR.wav
36,192,54710,128,0,55043:0:0:0:50:BaSS.wav
329,192,55043,128,0,55377:0:0:0:0:
182,192,55210,1,0,0:0:0:50:CrashR.wav
475,192,55377,128,0,55710:0:0:0:0:
36,192,55710,1,0,0:0:0:50:CrashR.wav
182,192,55710,1,0,0:0:0:50:BaSS.wav
329,192,55877,1,0,0:0:0:0:
109,192,56043,1,0,0:0:0:50:CrashR.wav
475,192,56043,128,0,56377:0:0:0:50:BaSS.wav
402,192,56377,128,0,56710:0:0:0:0:
329,192,56710,128,0,57043:0:0:0:0:
256,192,57043,128,0,57377:0:0:0:50:CrashR.wav
36,192,57043,1,0,0:0:0:50:BaSS.wav
182,192,57377,128,0,57710:0:0:0:50:CrashR.wav
475,192,57377,1,0,0:0:0:50:BaSS.wav
329,192,57710,128,0,58043:0:0:0:50:CrashR.wav
36,192,57710,1,0,0:0:0:50:BaSS.wav
182,192,57877,1,0,0:0:0:50:CrashR.wav
475,192,58043,128,0,58377:0:0:0:0:
182,192,58210,1,0,0:0:0:50:CrashR.wav
36,192,58377,128,0,58710:0:0:0:0:
475,192,58710,128,0,59043:0:0:0:50:CrashR.wav
256,192,58710,1,0,0:0:0:50:BaSS.wav
402,192,59043,128,0,59377:0:0:0:0:
329,192,59377,128,0,59710:0:0:0:0:
36,192,59710,128,0,60043:0:0:0:50:CrashR.wav
182,192,59710,1,0,0:0:0:50:BaSS.wav
475,192,60043,1,0,0:0:0:50:CrashR.wav
329,192,60043,1,0,0:0:0:50:BaSS.wav
256,192,60210,1,0,0:0:0:0:
182,192,60377,1,0,0:0:0:50:Impact.wav
36,192,60377,1,0,0:0:0:0:
329,192,60543,1,0,0:0:0:0:
475,192,60710,1,0,0:0:0:50:BaSS.wav
109,192,60710,1,0,0:0:0:0:
256,192,60877,1,0,0:0:0:0:
402,192,61043,1,0,0:0:0:50:Impact.wav
36,192,61043,1,0,0:0:0:0:
329,192,61210,1,0,0:0:0:0:
256,192,61377,1,0,0:0:0:50:BaSS.wav
475,192,61377,1,0,0:0:0:0:
182,192,61543,1,0,0:0:0:0:
109,192,61710,1,0,0:0:0:50:Impact.wav
36,192,61710,1,0,0:0:0:0:
256,192,61877,1,0,0:0:0:0:
402,192,62043,1,0,0:0:0:50:BaSS.wav
475,192,62043,1,0,0:0:0:0:
182,192,62210,1,0,0:0:0:0:
329,192,62377,1,0,0:0:0:50:Impact.wav
475,192,62377,1,0,0:0:0:0:
182,192,62543,1,0,0:0:0:50:BaSS.wav
36,192,62543,1,0,0:0:0:0:
475,192,62710,1,0,0:0:0:50:CrashR.wav
329,192,62710,128,0,63043:0:0:0:50:BaSS.wav
182,192,63043,128,0,63377:0:0:0:50:CrashR.wav
36,192,63043,1,0,0:0:0:50:BaSS.wav
475,192,63210,1,0,0:0:0:50:CrashR.wav
109,192,63377,128,0,63710:0:0:0:0:
329,192,63543,1,0,0:0:0:50:CrashR.wav
256,192,63710,1,0,0:0:0:0:
182,192,63877,1,0,0:0:0:50:CrashR.wav
36,192,63877,1,0,0:0:0:50:BaSS.wav
329,192,64043,128,0,64377:0:0:0:0:
182,192,64210,1,0,0:0:0:50:CrashR.wav
36,192,64377,128,0,64710:0:0:0:50:CrashR.wav
256,192,64543,1,0,0:0:0:50:CrashR.wav
475,192,64710,128,0,65043:0:0:0:50:CrashR.wav
329,192,64877,1,0,0:0:0:50:CrashR.wav
182,192,65043,128,0,65377:0:0:0:50:CrashR.wav
402,192,65210,1,0,0:0:0:0:
36,192,65377,1,0,0:0:0:50:CrashR.wav
256,192,65377,128,0,65710:0:0:0:50:BaSS.wav
329,192,65710,128,0,66043:0:0:0:50:CrashR.wav
475,192,65710,1,0,0:0:0:50:BaSS.wav
109,192,65877,1,0,0:0:0:50:CrashR.wav
402,192,66043,128,0,66377:0:0:0:0:
182,192,66210,1,0,0:0:0:50:CrashR.wav
36,192,66377,1,0,0:0:0:0:
475,192,66543,1,0,0:0:0:50:CrashR.wav
329,192,66543,1,0,0:0:0:50:BaSS.wav
182,192,66710,128,0,67043:0:0:0:0:
402,192,66877,1,0,0:0:0:50:CrashR.wav
36,192,67043,128,0,67377:0:0:0:50:CrashR.wav
475,192,67210,1,0,0:0:0:50:CrashR.wav
182,192,67377,1,0,0:0:0:50:CrashR.wav
329,192,67543,1,0,0:0:0:50:CrashR.wav
256,192,68043,1,0,0:0:0:50:CrashR.wav
475,192,68043,128,0,68377:0:0:0:50:BaSS.wav
182,192,68377,1,0,0:0:0:50:CrashR.wav
329,192,68377,128,0,68710:0:0:0:50:BaSS.wav
36,192,68543,1,0,0:0:0:50:CrashR.wav
182,192,68710,128,0,69043:0:0:0:0:
475,192,68877,1,0,0:0:0:50:CrashR.wav
36,192,69043,128,0,69377:0:0:0:0:
402,192,69210,1,0,0:0:0:50:CrashR.wav
256,192,69377,128,0,69710:0:0:0:0:
475,192,69543,1,0,0:0:0:50:CrashR.wav
182,192,69710,128,0,70043:0:0:0:50:CrashR.wav
402,192,69877,1,0,0:0:0:50:CrashR.wav
109,192,70043,128,0,70377:0:0:0:50:CrashR.wav
329,192,70210,1,0,0:0:0:50:CrashR.wav
36,192,70377,128,0,70710:0:0:0:50:CrashR.wav
256,192,70543,1,0,0:0:0:0:
475,192,70710,1,0,0:0:0:50:CrashR.wav
402,192,70710,1,0,0:0:0:50:BaSS.wav
329,192,70877,1,0,0:0:0:50:BaSS.wav
256,192,71043,1,0,0:0:0:50:BaSS.wav
109,192,71043,1,0,0:0:0:0:
402,192,71210,1,0,0:0:0:50:BaSS.wav
36,192,71377,1,0,0:0:0:50:CrashR.wav
182,192,71377,1,0,0:0:0:50:BaSS.wav
329,192,71543,1,0,0:0:0:50:BaSS.wav
475,192,71710,1,0,0:0:0:50:BaSS.wav
109,192,71710,1,0,0:0:0:0:
256,192,71877,1,0,0:0:0:50:BaSS.wav
402,192,72043,1,0,0:0:0:50:CrashR.wav
475,192,72043,1,0,0:0:0:50:BaSS.wav
36,192,72210,1,0,0:0:0:50:BaSS.wav
182,192,72210,1,0,0:0:0:0:
475,192,72377,1,0,0:0:0:50:BaSS.wav
329,192,72377,1,0,0:0:0:0:
109,192,72543,1,0,0:0:0:50:BaSS.wav
36,192,72543,1,0,0:0:0:0:
256,192,72710,128,0,73377:0:0:0:0:
475,192,73210,128,0,73377:0:0:0:0:
36,192,73377,1,0,0:0:0:50:CrashR.wav
182,192,73543,1,0,0:0:0:50:CrashR.wav
329,192,73710,1,0,0:0:0:50:CrashR.wav
475,192,73877,1,0,0:0:0:50:CrashR.wav
256,192,74043,128,0,74710:0:0:0:0:
36,192,74710,1,0,0:0:0:50:BaSS.wav
475,192,74710,1,0,0:0:0:0:
109,192,74877,1,0,0:0:0:0:
182,192,75043,1,0,0:0:0:0:
256,192,75210,1,0,0:0:0:0:
329,192,75377,1,0,0:0:0:0:
182,192,75543,1,0,0:0:0:0:
36,192,75710,1,0,0:0:0:50:Impact.wav
402,192,75710,1,0,0:0:0:0:
256,192,75877,1,0,0:0:0:50:Impact.wav
109,192,76043,1,0,0:0:0:50:CrashR.wav
475,192,76043,128,0,76377:0:0:0:50:BaSS.wav
329,192,76377,1,0,0:0:0:50:Impact.wav
182,192,76627,1,0,0:0:0:0:
36,192,76877,1,0,0:0:0:0:
109,192,77043,1,0,0:0:0:50:Impact.wav
182,192,77210,1,0,0:0:0:0:
475,192,77377,128,0,77710:0:0:0:50:BaSS.wav
256,192,77377,1,0,0:0:0:0:
182,192,77710,1,0,0:0:0:50:Impact.wav
109,192,77960,1,0,0:0:0:0:
36,192,78210,1,0,0:0:0:0:
182,192,78377,1,0,0:0:0:50:Impact.wav
329,192,78543,1,0,0:0:0:0:
475,192,78710,128,0,79043:0:0:0:50:BaSS.wav
109,192,78710,1,0,0:0:0:0:
256,192,79043,1,0,0:0:0:50:Impact.wav
182,192,79293,1,0,0:0:0:0:
109,192,79543,1,0,0:0:0:0:
256,192,79710,1,0,0:0:0:50:Impact.wav
402,192,79877,1,0,0:0:0:0:
36,192,80043,128,0,80377:0:0:0:50:BaSS.wav
182,192,80043,1,0,0:0:0:0:
329,192,80377,1,0,0:0:0:50:Impact.wav
475,192,80543,128,0,80710:0:0:0:0:
256,192,80710,1,0,0:0:0:50:BaSS.wav
36,192,80877,128,0,81043:0:0:0:0:
182,192,81043,1,0,0:0:0:50:Impact.wav
329,192,81210,1,0,0:0:0:0:
475,192,81377,128,0,81710:0:0:0:50:BaSS.wav
109,192,81377,1,0,0:0:0:0:
182,192,81710,1,0,0:0:0:50:Impact.wav
109,192,81960,1,0,0:0:0:0:
36,192,82210,1,0,0:0:0:0:
329,192,82377,1,0,0:0:0:50:Impact.wav
182,192,82543,1,0,0:0:0:0:
36,192,82710,128,0,83043:0:0:0:50:BaSS.wav
475,192,82710,1,0,0:0:0:0:
329,192,83043,1,0,0:0:0:50:Impact.wav
402,192,83293,1,0,0:0:0:0:
475,192,83543,1,0,0:0:0:0:
329,192,83710,1,0,0:0:0:50:Impact.wav
182,192,83877,1,0,0:0:0:0:
36,192,84043,1,0,0:0:0:50:BaSS.wav
402,192,84043,128,0,84377:0:0:0:0:
109,192,84293,1,0,0:0:0:0:
182,192,84543,1,0,0:0:0:0:
402,192,84710,1,0,0:0:0:50:BaSS.wav
256,192,84877,1,0,0:0:0:0:
109,192,85043,1,0,0:0:0:50:Impact.wav
329,192,85210,1,0,0:0:0:0:
475,192,85377,128,0,85710:0:0:0:50:BaSS.wav
36,192,85377,1,0,0:0:0:0:
182,192,85710,1,0,0:0:0:50:Impact.wav
36,192,85960,1,0,0:0:0:0:
402,192,86210,1,0,0:0:0:0:
256,192,86377,1,0,0:0:0:50:Impact.wav
109,192,86543,1,0,0:0:0:0:
475,192,86710,1,0,0:0:0:50:CrashR.wav
329,192,86710,1,0,0:0:0:50:BaSS.wav
256,192,86877,1,0,0:0:0:0:
182,192,87043,1,0,0:0:0:50:Impact.wav
36,192,87043,1,0,0:0:0:0:
329,192,87210,1,0,0:0:0:0:
475,192,87377,1,0,0:0:0:50:BaSS.wav
109,192,87377,1,0,0:0:0:0:
256,192,87543,1,0,0:0:0:0:
402,192,87710,1,0,0:0:0:50:Impact.wav
36,192,87710,1,0,0:0:0:0:
182,192,87877,1,0,0:0:0:0:
329,192,88043,1,0,0:0:0:50:BaSS.wav
475,192,88043,1,0,0:0:0:0:
256,192,88210,1,0,0:0:0:0:
182,192,88377,1,0,0:0:0:50:Impact.wav
402,192,88377,1,0,0:0:0:0:
109,192,88543,1,0,0:0:0:0:
36,192,88710,1,0,0:0:0:50:BaSS.wav
329,192,88710,1,0,0:0:0:0:
256,192,88877,1,0,0:0:0:0:
182,192,89043,1,0,0:0:0:50:Impact.wav
475,192,89043,1,0,0:0:0:0:
402,192,89210,1,0,0:0:0:0:
329,192,89377,1,0,0:0:0:50:BaSS.wav
36,192,89377,1,0,0:0:0:0:
256,192,89543,1,0,0:0:0:0:
182,192,89710,1,0,0:0:0:50:Impact.wav
475,192,89710,1,0,0:0:0:0:
329,192,89877,1,0,0:0:0:0:
402,192,90043,1,0,0:0:0:50:BaSS.wav
109,192,90043,1,0,0:0:0:0:
475,192,90210,1,0,0:0:0:0:
182,192,90377,1,0,0:0:0:50:Impact.wav
36,192,90377,1,0,0:0:0:0:
256,192,90543,1,0,0:0:0:0:
329,192,90710,1,0,0:0:0:50:BaSS.wav
402,192,90710,1,0,0:0:0:0:
182,192,90877,1,0,0:0:0:0:
36,192,91043,1,0,0:0:0:50:Impact.wav
475,192,91043,1,0,0:0:0:0:
402,192,91210,1,0,0:0:0:0:
329,192,91377,1,0,0:0:0:50:BaSS.wav
182,192,91377,1,0,0:0:0:0:
109,192,91543,1,0,0:0:0:0:
36,192,91710,1,0,0:0:0:50:Impact.wav
256,192,91710,1,0,0:0:0:0:
329,192,91877,1,0,0:0:0:0:
402,192,92043,1,0,0:0:0:50:BaSS.wav
475,192,92043,1,0,0:0:0:0:
256,192,92210,1,0,0:0:0:0:
109,192,92377,1,0,0:0:0:50:Impact.wav
36,192,92377,1,0,0:0:0:0:
182,192,92543,1,0,0:0:0:0:
402,192,92710,1,0,0:0:0:50:BaSS.wav
256,192,92710,1,0,0:0:0:0:
109,192,92877,1,0,0:0:0:0:
329,192,93043,1,0,0:0:0:50:Impact.wav
475,192,93043,1,0,0:0:0:0:
182,192,93210,1,0,0:0:0:0:
36,192,93377,1,0,0:0:0:50:BaSS.wav
402,192,93377,1,0,0:0:0:0:
256,192,93543,1,0,0:0:0:0:
109,192,93710,1,0,0:0:0:50:Impact.wav
329,192,93710,1,0,0:0:0:0:
402,192,93877,1,0,0:0:0:0:
475,192,94043,1,0,0:0:0:50:BaSS.wav
182,192,94043,1,0,0:0:0:0:
256,192,94210,1,0,0:0:0:0:
329,192,94377,1,0,0:0:0:50:Impact.wav
36,192,94377,1,0,0:0:0:0:
182,192,94543,1,0,0:0:0:0:
475,192,94710,1,0,0:0:0:50:CrashR.wav
329,192,94710,1,0,0:0:0:50:BaSS.wav
256,192,94960,1,0,0:0:0:50:CrashR.wav
182,192,95210,1,0,0:0:0:50:BaSS.wav
36,192,95377,1,0,0:0:0:50:BaSS.wav
329,192,95377,1,0,0:0:0:0:
402,192,95627,1,0,0:0:0:50:BaSS.wav
475,192,95877,1,0,0:0:0:50:BaSS.wav
36,192,96043,128,0,97377:0:0:0:0:
475,192,96710,128,0,97377:0:0:0:0:
329,192,97377,1,0,0:0:0:0:
182,192,97543,1,0,0:0:0:50:CrashR.wav
182,192,97710,1,0,0:0:0:50:CrashR.wav
109,192,98043,1,0,0:0:0:50:CrashR.wav
109,192,98210,1,0,0:0:0:50:CrashR.wav
36,192,98543,1,0,0:0:0:50:CrashR.wav
36,192,98710,128,0,99043:0:0:0:50:BaSS.wav
182,192,99043,128,0,99210:0:0:0:0:
475,192,99210,1,0,0:0:0:0:
256,192,99543,128,0,99710:0:0:0:0:
182,192,99710,128,0,99877:0:0:0:0:
109,192,99877,128,0,100043:0:0:0:0:
329,192,100210,1,0,0:0:0:50:CrashR.wav
329,192,100377,1,0,0:0:0:50:CrashR.wav
402,192,100710,1,0,0:0:0:50:CrashR.wav
402,192,100877,1,0,0:0:0:50:CrashR.wav
475,192,101210,1,0,0:0:0:50:CrashR.wav
475,192,101377,128,0,101710:0:0:0:50:CrashR.wav
329,192,101710,128,0,101877:0:0:0:0:
182,192,101877,1,0,0:0:0:0:
36,192,102210,128,0,102377:0:0:0:0:
256,192,102377,128,0,102543:0:0:0:0:
475,192,102543,128,0,102710:0:0:0:0:
329,192,102877,1,0,0:0:0:50:CrashR.wav
329,192,103043,1,0,0:0:0:50:CrashR.wav
182,192,103377,1,0,0:0:0:50:CrashR.wav
182,192,103543,1,0,0:0:0:50:CrashR.wav
36,192,103877,1,0,0:0:0:50:CrashR.wav
36,192,104043,128,0,104377:0:0:0:50:BaSS.wav
182,192,104377,128,0,104543:0:0:0:0:
402,192,104543,1,0,0:0:0:0:
329,192,104877,128,0,105210:0:0:0:0:
36,192,105210,1,0,0:0:0:0:
182,192,105543,1,0,0:0:0:50:CrashR.wav
182,192,105710,1,0,0:0:0:50:CrashR.wav
329,192,106043,1,0,0:0:0:50:CrashR.wav
329,192,106210,1,0,0:0:0:50:CrashR.wav
475,192,106543,1,0,0:0:0:50:CrashR.wav
475,192,106710,128,0,107210:0:0:0:0:
329,192,107210,128,0,107710:0:0:0:0:
182,192,107710,128,0,108043:0:0:0:0:
475,192,108043,128,0,108210:0:0:0:50:CrashR.wav
36,192,108043,1,0,0:0:0:50:BaSS.wav
329,192,108210,128,0,108377:0:0:0:0:
182,192,108377,128,0,108543:0:0:0:50:Impact.wav
36,192,108543,128,0,108710:0:0:0:0:
256,192,108710,128,0,108877:0:0:0:50:BaSS.wav
329,192,108877,128,0,109043:0:0:0:0:
402,192,109043,128,0,109210:0:0:0:50:Impact.wav
475,192,109210,128,0,109377:0:0:0:0:
36,192,109377,128,0,109543:0:0:0:50:BaSS.wav
182,192,109543,128,0,109710:0:0:0:0:
329,192,109710,128,0,109877:0:0:0:50:Impact.wav
475,192,109877,128,0,110043:0:0:0:0:
256,192,110043,128,0,110210:0:0:0:50:BaSS.wav
182,192,110210,128,0,110377:0:0:0:0:
109,192,110377,128,0,110543:0:0:0:50:Impact.wav
36,192,110543,128,0,110710:0:0:0:0:
402,192,110710,128,0,110877:0:0:0:50:BaSS.wav
256,192,110877,128,0,111043:0:0:0:0:
109,192,111043,128,0,111210:0:0:0:50:Impact.wav
329,192,111210,128,0,111377:0:0:0:0:
475,192,111377,128,0,111543:0:0:0:50:BaSS.wav
182,192,111543,128,0,111710:0:0:0:0:
36,192,111710,128,0,111877:0:0:0:50:Impact.wav
256,192,111877,128,0,112043:0:0:0:0:
329,192,112043,128,0,112210:0:0:0:50:BaSS.wav
402,192,112210,128,0,112377:0:0:0:0:
475,192,112377,128,0,112543:0:0:0:50:Impact.wav
36,192,112543,128,0,112710:0:0:0:0:
182,192,112710,128,0,112877:0:0:0:50:BaSS.wav
329,192,112877,128,0,113043:0:0:0:0:
475,192,113043,128,0,113210:0:0:0:50:Impact.wav
256,192,113210,128,0,113377:0:0:0:0:
36,192,113377,128,0,113543:0:0:0:50:BaSS.wav
109,192,113543,128,0,113710:0:0:0:0:
182,192,113710,128,0,113877:0:0:0:50:Impact.wav
36,192,113877,128,0,114043:0:0:0:0:
402,192,114043,128,0,114210:0:0:0:50:BaSS.wav
256,192,114210,128,0,114377:0:0:0:0:
109,192,114377,128,0,114543:0:0:0:50:Impact.wav
329,192,114543,128,0,114710:0:0:0:0:
475,192,114710,128,0,114877:0:0:0:50:BaSS.wav
182,192,114877,128,0,115043:0:0:0:0:
109,192,115043,128,0,115210:0:0:0:50:Impact.wav
36,192,115210,128,0,115377:0:0:0:0:
402,192,115377,128,0,115543:0:0:0:50:BaSS.wav
256,192,115543,128,0,115710:0:0:0:0:
109,192,115710,128,0,115877:0:0:0:50:Impact.wav
329,192,115877,128,0,116043:0:0:0:0:
182,192,116043,1,0,0:0:0:50:BaSS.wav
36,192,116210,1,0,0:0:0:50:BaSS.wav
329,192,116377,1,0,0:0:0:50:BaSS.wav
475,192,116543,1,0,0:0:0:50:BaSS.wav
182,192,116710,1,0,0:0:0:50:BaSS.wav
256,192,116877,1,0,0:0:0:50:BaSS.wav
329,192,117043,1,0,0:0:0:50:BaSS.wav
402,192,117210,1,0,0:0:0:50:BaSS.wav
475,192,117377,1,0,0:0:0:50:CrashR.wav
36,192,117377,1,0,0:0:0:50:BaSS.wav
182,192,117543,1,0,0:0:0:0:
329,192,117710,1,0,0:0:0:0:
256,192,117877,1,0,0:0:0:0:
182,192,118043,1,0,0:0:0:0:
402,192,118210,1,0,0:0:0:0:
475,192,118377,1,0,0:0:0:0:
256,192,118543,1,0,0:0:0:0:
36,192,118710,1,0,0:0:0:0:
182,192,118877,1,0,0:0:0:0:
329,192,119043,1,0,0:0:0:0:
256,192,119210,1,0,0:0:0:0:
182,192,119377,1,0,0:0:0:0:
402,192,119543,1,0,0:0:0:0:
475,192,119710,1,0,0:0:0:0:
256,192,119877,1,0,0:0:0:0:
36,192,120043,1,0,0:0:0:0:
