osu file format v14

[General]
AudioFilename: audio.mp3
AudioLeadIn: 0
PreviewTime: 74710
Countdown: 0
SampleSet: Soft
StackLeniency: 0.7
Mode: 3
LetterboxInBreaks: 0
SpecialStyle: 0
WidescreenStoryboard: 0

[Editor]
DistanceSpacing: 0.5
BeatDivisor: 4
GridSize: 4
TimelineZoom: 2.699999

[Metadata]
Title:planetarium
TitleUnicode:planetarium
Artist:SUi
ArtistUnicode:SUi
Creator:Reba
Version:HEAVENLY
Source:SOUND VOLTEX IV HEAVENLY HAVEN
Tags:Exclusive to Asia! Contest アジア限定!コンテスト
BeatmapID:1648263
BeatmapSetID:785196

[Difficulty]
HPDrainRate:9
CircleSize:7
OverallDifficulty:8
ApproachRate:5
SliderMultiplier:1.4
SliderTickRate:1

[Events]
//Background and Video events
0,0,"planetarium BG.jpg",0,0
//Break Periods
//Storyboard Layer 0 (Background)
//Storyboard Layer 1 (Fail)
//Storyboard Layer 2 (Pass)
//Storyboard Layer 3 (Foreground)
//Storyboard Layer 4 (Overlay)
//Storyboard Sound Samples

[TimingPoints]
1545,333.333333333333,4,2,1,50,1,0
1546,-58.8235294117647,4,2,1,50,0,0
1628,-333.333333333333,4,2,1,50,0,0
1711,-40,4,2,1,50,0,0
1794,-133.333333333333,4,2,1,50,0,0
2044,-58.8235294117647,4,2,1,50,0,0
2128,-333.333333333333,4,2,1,50,0,0
2211,-40,4,2,1,50,0,0
2294,-133.333333333333,4,2,1,50,0,0
2544,-58.8235294117647,4,2,1,50,0,0
2628,-333.333333333333,4,2,1,50,0,0
2711,-100,4,2,1,50,0,0
4211,-58.8235294117647,4,2,1,50,0,0
4294,-333.333333333333,4,2,1,50,0,0
4378,-40,4,2,1,50,0,0
4461,-133.333333333333,4,2,1,50,0,0
4711,-58.8235294117647,4,2,1,50,0,0
4794,-333.333333333333,4,2,1,50,0,0
4878,-40,4,2,1,50,0,0
4961,-133.333333333333,4,2,1,50,0,0
5211,-58.8235294117647,4,2,1,50,0,0
5294,-333.333333333333,4,2,1,50,0,0
5378,-100,4,2,1,50,0,0
6878,-58.8235294117647,4,2,1,50,0,0
6961,-333.333333333333,4,2,1,50,0,0
7044,-40,4,2,1,50,0,0
7128,-133.333333333333,4,2,1,50,0,0
7378,-58.8235294117647,4,2,1,50,0,0
7461,-333.333333333333,4,2,1,50,0,0
7544,-40,4,2,1,50,0,0
7628,-133.333333333333,4,2,1,50,0,0
7878,-58.8235294117647,4,2,1,50,0,0
7961,-333.333333333333,4,2,1,50,0,0
8044,-100,4,2,1,50,0,0
9544,-58.8235294117647,4,2,1,50,0,0
9627,-333.333333333333,4,2,1,50,0,0
9710,-40,4,2,1,50,0,0
9794,-133.333333333333,4,2,1,50,0,0
10044,-58.8235294117647,4,2,1,50,0,0
10127,-333.333333333333,4,2,1,50,0,0
10210,-40,4,2,1,50,0,0
10294,-133.333333333333,4,2,1,50,0,0
10544,-100,4,2,1,50,0,0
12044,333.333333333333,4,2,1,50,1,0
24043,-50,4,2,1,50,0,0
24127,-111.111111111111,4,2,1,50,0,0
24210,-125,4,2,1,50,0,0
24293,-142.857142857143,4,2,1,50,0,0
24377,-166.666666666667,4,2,1,50,0,0
24460,-142.857142857143,4,2,1,50,0,0
24543,-125,4,2,1,50,0,0
24627,-111.111111111111,4,2,1,50,0,0
24710,-100,4,2,1,50,0,0
30710,-125,4,2,1,50,0,0
33377,-117.647058823529,4,2,1,50,0,0
36043,-111.111111111111,4,2,1,50,0,0
38710,-105.263157894737,4,2,1,50,0,0
41377,-100,4,2,1,50,0,0
52043,-52.6315789473684,4,2,1,50,0,0
52064,-1000,4,2,1,50,0,0
52085,-100,4,2,1,50,0,0
52543,-52.6315789473684,4,2,1,50,0,0
52564,-1000,4,2,1,50,0,0
52585,-100,4,2,1,50,0,0
53043,-52.6315789473684,4,2,1,50,0,0
53064,-1000,4,2,1,50,0,0
53085,-100,4,2,1,50,0,0
54710,-52.6315789473684,4,2,1,50,0,0
54731,-1000,4,2,1,50,0,0
54752,-100,4,2,1,50,0,0
55210,-52.6315789473684,4,2,1,50,0,0
55231,-1000,4,2,1,50,0,0
55252,-100,4,2,1,50,0,0
55710,-52.6315789473684,4,2,1,50,0,0
55731,-1000,4,2,1,50,0,0
55752,-100,4,2,1,50,0,0
56043,-52.6315789473684,4,2,1,50,0,0
56064,-1000,4,2,1,50,0,0
56085,-100,4,2,1,50,0,0
57043,-52.6315789473684,4,2,1,50,0,0
57064,-1000,4,2,1,50,0,0
57085,-100,4,2,1,50,0,0
57377,-52.6315789473684,4,2,1,50,0,0
57398,-1000,4,2,1,50,0,0
57419,-100,4,2,1,50,0,0
57877,-52.6315789473684,4,2,1,50,0,0
57898,-1000,4,2,1,50,0,0
57919,-100,4,2,1,50,0,0
58210,-52.6315789473684,4,2,1,50,0,0
58231,-1000,4,2,1,50,0,0
58252,-100,4,2,1,50,0,0
62710,-52.6315789473684,4,2,1,50,0,0
62731,-1000,4,2,1,50,0,0
62752,-100,4,2,1,50,0,0
63210,-52.6315789473684,4,2,1,50,0,0
63231,-1000,4,2,1,50,0,0
63252,-100,4,2,1,50,0,0
63543,-52.6315789473684,4,2,1,50,0,0
63564,-1000,4,2,1,50,0,0
63585,-100,4,2,1,50,0,0
63877,-52.6315789473684,4,2,1,50,0,0
63898,-1000,4,2,1,50,0,0
63919,-100,4,2,1,50,0,0
65377,-52.6315789473684,4,2,1,50,0,0
65398,-1000,4,2,1,50,0,0
65419,-100,4,2,1,50,0,0
65877,-52.6315789473684,4,2,1,50,0,0
65898,-1000,4,2,1,50,0,0
65919,-100,4,2,1,50,0,0
66210,-52.6315789473684,4,2,1,50,0,0
66231,-1000,4,2,1,50,0,0
66252,-100,4,2,1,50,0,0
66543,-52.6315789473684,4,2,1,50,0,0
66564,-1000,4,2,1,50,0,0
66585,-100,4,2,1,50,0,0
67543,-33.3333333333333,4,2,1,50,0,0
67627,-125,4,2,1,50,0,0
67710,-142.857142857143,4,2,1,50,0,0
67793,-166.666666666667,4,2,1,50,0,0
67877,-200,4,2,1,50,0,0
67960,-100,4,2,1,50,0,0
68043,-52.6315789473684,4,2,1,50,0,0
68064,-1000,4,2,1,50,0,0
68085,-100,4,2,1,50,0,0
68543,-52.6315789473684,4,2,1,50,0,0
68564,-1000,4,2,1,50,0,0
68585,-100,4,2,1,50,0,0
68877,-52.6315789473684,4,2,1,50,0,0
68898,-1000,4,2,1,50,0,0
68918,-100,4,2,1,50,0,0
69210,-52.6315789473684,4,2,1,50,0,0
69231,-1000,4,2,1,50,0,0
69252,-100,4,2,1,50,0,0
72710,-250,4,2,1,50,0,0
72793,-200,4,2,1,50,0,0
72877,-166.666666666667,4,2,1,50,0,0
72960,-142.857142857143,4,2,1,50,0,0
73043,-125,4,2,1,50,0,0
73127,-111.111111111111,4,2,1,50,0,0
73210,-100,4,2,1,50,0,0
73377,-62.5,4,2,1,50,0,0
73418,-250,4,2,1,50,0,0
73460,-62.5,4,2,1,50,0,0
73501,-250,4,2,1,50,0,0
73543,-62.5,4,2,1,50,0,0
73584,-250,4,2,1,50,0,0
73626,-62.5,4,2,1,50,0,0
73667,-250,4,2,1,50,0,0
73710,-62.5,4,2,1,50,0,0
73751,-250,4,2,1,50,0,0
73793,-62.5,4,2,1,50,0,0
73834,-250,4,2,1,50,0,0
73877,-62.5,4,2,1,50,0,0
73918,-250,4,2,1,50,0,0
73960,-100,4,2,1,50,0,0
74710,-89.2857142857143,4,2,1,50,0,0
74752,-102.040816326531,4,2,1,50,0,0
74793,-116.279069767442,4,2,1,50,0,0
74835,-131.578947368421,4,2,1,50,0,0
74877,-138.888888888889,4,2,1,50,0,0
74918,-140.845070422535,4,2,1,50,0,0
74960,-138.888888888889,4,2,1,50,0,0
75002,-136.986301369863,4,2,1,50,0,0
75043,-135.135135135135,4,2,1,50,0,0
75085,-133.333333333333,4,2,1,50,0,0
75127,-131.578947368421,4,2,1,50,0,0
75168,-129.87012987013,4,2,1,50,0,0
75210,-128.205128205128,4,2,1,50,0,0
75252,-125,4,2,1,50,0,0
75293,-121.951219512195,4,2,1,50,0,0
75335,-119.047619047619,4,2,1,50,0,0
75377,-116.279069767442,4,2,1,50,0,0
75460,-113.636363636364,4,2,1,50,0,0
75543,-111.111111111111,4,2,1,50,0,0
75627,-108.695652173913,4,2,1,50,0,0
75710,-106.382978723404,4,2,1,50,0,0
75793,-104.166666666667,4,2,1,50,0,0
75877,-102.040816326531,4,2,1,50,0,0
75960,-101.010101010101,4,2,1,50,0,0
76043,-100,4,2,1,50,0,0
94710,-58.8235294117647,4,2,1,50,0,0
94835,-333.333333333333,4,2,1,50,0,0
94960,-58.8235294117647,4,2,1,50,0,0
95085,-333.333333333333,4,2,1,50,0,0
95210,-58.8235294117647,4,2,1,50,0,0
95293,-333.333333333333,4,2,1,50,0,0
95377,-58.8235294117647,4,2,1,50,0,0
95502,-333.333333333333,4,2,1,50,0,0
95627,-58.8235294117647,4,2,1,50,0,0
95752,-333.333333333333,4,2,1,50,0,0
95877,-100,4,2,1,50,0,0
97543,-58.8235294117647,4,2,1,50,0,0
97627,-333.333333333333,4,2,1,50,0,0
97710,-40,4,2,1,50,0,0
97793,-133.333333333333,4,2,1,50,0,0
98043,-58.8235294117647,4,2,1,50,0,0
98127,-333.333333333333,4,2,1,50,0,0
98210,-40,4,2,1,50,0,0
98293,-133.333333333333,4,2,1,50,0,0
98543,-58.8235294117647,4,2,1,50,0,0
98627,-333.333333333333,4,2,1,50,0,0
98710,-100,4,2,1,50,0,0
100210,-58.8235294117647,4,2,1,50,0,0
100294,-333.333333333333,4,2,1,50,0,0
100377,-40,4,2,1,50,0,0
100460,-133.333333333333,4,2,1,50,0,0
100710,-58.8235294117647,4,2,1,50,0,0
100794,-333.333333333333,4,2,1,50,0,0
100877,-40,4,2,1,50,0,0
100960,-133.333333333333,4,2,1,50,0,0
101210,-58.8235294117647,4,2,1,50,0,0
101294,-333.333333333333,4,2,1,50,0,0
101377,-100,4,2,1,50,0,0
102877,-58.8235294117647,4,2,1,50,0,0
102961,-333.333333333333,4,2,1,50,0,0
103044,-40,4,2,1,50,0,0
103127,-133.333333333333,4,2,1,50,0,0
103377,-58.8235294117647,4,2,1,50,0,0
103461,-333.333333333333,4,2,1,50,0,0
103544,-40,4,2,1,50,0,0
103627,-133.333333333333,4,2,1,50,0,0
103877,-58.8235294117647,4,2,1,50,0,0
103961,-333.333333333333,4,2,1,50,0,0
104044,-100,4,2,1,50,0,0
105543,-58.8235294117647,4,2,1,50,0,0
105627,-333.333333333333,4,2,1,50,0,0
105710,-40,4,2,1,50,0,0
105793,-133.333333333333,4,2,1,50,0,0
106043,-58.8235294117647,4,2,1,50,0,0
106127,-333.333333333333,4,2,1,50,0,0
106210,-40,4,2,1,50,0,0
106293,-133.333333333333,4,2,1,50,0,0
106543,-58.8235294117647,4,2,1,50,0,0
106627,-333.333333333333,4,2,1,50,0,0
106710,-100,4,2,1,50,0,0

[HitObjects]
475,192,1545,5,0,0:0:0:50:CrashR.wav
256,192,1545,1,0,0:0:0:50:BaSS.wav
402,192,1545,1,0,0:0:0:0:
36,192,1545,1,0,0:0:0:0:
109,192,1545,1,0,0:0:0:0:
402,192,1711,1,0,0:0:0:50:CrashR.wav
475,192,1711,1,0,0:0:0:50:BaSS.wav
256,192,1711,1,0,0:0:0:0:
109,192,1711,1,0,0:0:0:0:
36,192,1711,1,0,0:0:0:0:
329,192,2044,1,0,0:0:0:50:CrashR.wav
475,192,2044,1,0,0:0:0:50:BaSS.wav
402,192,2044,1,0,0:0:0:0:
182,192,2044,1,0,0:0:0:0:
36,192,2044,1,0,0:0:0:0:
329,192,2211,1,0,0:0:0:50:CrashR.wav
475,192,2211,1,0,0:0:0:50:BaSS.wav
402,192,2211,1,0,0:0:0:0:
182,192,2211,1,0,0:0:0:0:
36,192,2211,1,0,0:0:0:0:
36,192,2544,1,0,0:0:0:50:CrashR.wav
109,192,2544,1,0,0:0:0:50:BaSS.wav
182,192,2544,1,0,0:0:0:0:
329,192,2544,1,0,0:0:0:0:
475,192,2544,1,0,0:0:0:0:
329,192,2711,1,0,0:0:0:50:CrashR.wav
182,192,2711,1,0,0:0:0:0:
109,192,2711,1,0,0:0:0:0:
36,192,2711,1,0,0:0:0:0:
402,192,2753,1,0,0:0:0:0:
475,192,2794,128,0,3044:0:0:0:0:
36,192,2878,128,0,3378:0:0:0:0:
402,192,3044,128,0,3211:0:0:0:0:
109,192,3044,128,0,3378:0:0:0:0:
329,192,3211,128,0,3544:0:0:0:0:
182,192,3211,128,0,3378:0:0:0:0:
256,192,3378,128,0,3711:0:0:0:0:
182,192,3544,128,0,3878:0:0:0:0:
475,192,3544,128,0,4044:0:0:0:0:
402,192,3711,128,0,4044:0:0:0:0:
36,192,3878,128,0,4211:0:0:0:0:
329,192,3878,128,0,4044:0:0:0:0:
475,192,4211,1,0,0:0:0:50:CrashR.wav
402,192,4211,1,0,0:0:0:50:BaSS.wav
109,192,4211,1,0,0:0:0:0:
329,192,4211,1,0,0:0:0:0:
182,192,4211,1,0,0:0:0:0:
182,192,4378,1,0,0:0:0:50:CrashR.wav
109,192,4378,1,0,0:0:0:50:BaSS.wav
329,192,4378,1,0,0:0:0:0:
475,192,4378,1,0,0:0:0:0:
402,192,4378,1,0,0:0:0:0:
109,192,4711,1,0,0:0:0:50:CrashR.wav
36,192,4711,1,0,0:0:0:50:BaSS.wav
475,192,4711,1,0,0:0:0:0:
256,192,4711,1,0,0:0:0:0:
182,192,4711,1,0,0:0:0:0:
36,192,4878,1,0,0:0:0:50:CrashR.wav
109,192,4878,1,0,0:0:0:50:BaSS.wav
475,192,4878,1,0,0:0:0:0:
256,192,4878,1,0,0:0:0:0:
182,192,4878,1,0,0:0:0:0:
329,192,5211,1,0,0:0:0:50:CrashR.wav
475,192,5211,1,0,0:0:0:50:BaSS.wav
402,192,5211,1,0,0:0:0:0:
36,192,5211,1,0,0:0:0:0:
182,192,5211,1,0,0:0:0:0:
402,192,5378,1,0,0:0:0:50:CrashR.wav
475,192,5378,1,0,0:0:0:0:
329,192,5378,1,0,0:0:0:0:
182,192,5378,1,0,0:0:0:0:
109,192,5419,1,0,0:0:0:0:
36,192,5461,128,0,5711:0:0:0:0:
182,192,5544,128,0,6044:0:0:0:0:
329,192,5711,128,0,5878:0:0:0:0:
109,192,5711,128,0,6044:0:0:0:0:
475,192,5878,128,0,6211:0:0:0:0:
36,192,5878,128,0,6044:0:0:0:0:
256,192,6044,128,0,6378:0:0:0:0:
402,192,6211,128,0,6544:0:0:0:0:
36,192,6211,128,0,6711:0:0:0:0:
109,192,6378,128,0,6711:0:0:0:0:
329,192,6544,128,0,6878:0:0:0:0:
182,192,6544,128,0,6711:0:0:0:0:
182,192,6878,1,0,0:0:0:50:CrashR.wav
36,192,6878,1,0,0:0:0:50:BaSS.wav
109,192,6878,1,0,0:0:0:0:
475,192,6878,1,0,0:0:0:0:
402,192,6878,1,0,0:0:0:0:
475,192,7044,1,0,0:0:0:50:CrashR.wav
402,192,7044,1,0,0:0:0:50:BaSS.wav
182,192,7044,1,0,0:0:0:0:
109,192,7044,1,0,0:0:0:0:
36,192,7044,1,0,0:0:0:0:
36,192,7378,1,0,0:0:0:50:CrashR.wav
475,192,7378,1,0,0:0:0:50:BaSS.wav
109,192,7378,1,0,0:0:0:0:
256,192,7378,1,0,0:0:0:0:
329,192,7378,1,0,0:0:0:0:
36,192,7544,1,0,0:0:0:50:CrashR.wav
109,192,7544,1,0,0:0:0:50:BaSS.wav
256,192,7544,1,0,0:0:0:0:
475,192,7544,1,0,0:0:0:0:
329,192,7544,1,0,0:0:0:0:
182,192,7878,1,0,0:0:0:50:CrashR.wav
475,192,7878,1,0,0:0:0:50:BaSS.wav
402,192,7878,1,0,0:0:0:0:
36,192,7878,1,0,0:0:0:0:
329,192,7878,1,0,0:0:0:0:
475,192,8044,1,0,0:0:0:50:CrashR.wav
402,192,8044,1,0,0:0:0:0:
36,192,8044,1,0,0:0:0:0:
329,192,8044,1,0,0:0:0:0:
109,192,8086,1,0,0:0:0:0:
182,192,8128,128,0,8378:0:0:0:0:
475,192,8211,128,0,8711:0:0:0:0:
402,192,8378,128,0,8711:0:0:0:0:
109,192,8378,128,0,8544:0:0:0:0:
329,192,8544,128,0,8711:0:0:0:0:
36,192,8544,128,0,8878:0:0:0:0:
256,192,8711,128,0,9044:0:0:0:0:
182,192,8878,128,0,9378:0:0:0:0:
475,192,8878,128,0,9211:0:0:0:0:
109,192,9044,128,0,9378:0:0:0:0:
36,192,9211,128,0,9378:0:0:0:0:
329,192,9211,128,0,9544:0:0:0:0:
182,192,9544,1,0,0:0:0:50:CrashR.wav
109,192,9544,1,0,0:0:0:50:BaSS.wav
36,192,9544,1,0,0:0:0:0:
475,192,9544,1,0,0:0:0:0:
402,192,9544,1,0,0:0:0:0:
475,192,9711,1,0,0:0:0:50:CrashR.wav
402,192,9711,1,0,0:0:0:50:BaSS.wav
182,192,9711,1,0,0:0:0:0:
109,192,9711,1,0,0:0:0:0:
36,192,9711,1,0,0:0:0:0:
475,192,10044,1,0,0:0:0:50:CrashR.wav
402,192,10044,1,0,0:0:0:50:BaSS.wav
36,192,10044,1,0,0:0:0:0:
256,192,10044,1,0,0:0:0:0:
109,192,10044,1,0,0:0:0:0:
475,192,10211,1,0,0:0:0:50:CrashR.wav
36,192,10211,1,0,0:0:0:50:BaSS.wav
256,192,10211,1,0,0:0:0:0:
109,192,10211,1,0,0:0:0:0:
402,192,10211,1,0,0:0:0:0:
182,192,10544,5,0,0:0:0:50:CrashR.wav
36,192,10544,1,0,0:0:0:50:BaSS.wav
109,192,10544,1,0,0:0:0:0:
475,192,10544,1,0,0:0:0:0:
402,192,10544,1,0,0:0:0:0:
256,192,10586,1,0,0:0:0:0:
329,192,10628,1,0,0:0:0:0:
402,192,10669,1,0,0:0:0:0:
475,192,10711,128,0,11211:0:0:0:0:
182,192,10711,1,0,0:0:0:0:
36,192,10794,1,0,0:0:0:0:
256,192,10878,1,0,0:0:0:0:
402,192,10961,1,0,0:0:0:0:
182,192,11044,1,0,0:0:0:0:
109,192,11128,1,0,0:0:0:0:
36,192,11211,1,0,0:0:0:0:
256,192,11294,1,0,0:0:0:0:
475,192,11378,1,0,0:0:0:0:
182,192,11461,1,0,0:0:0:0:
329,192,11544,1,0,0:0:0:0:
475,192,11628,1,0,0:0:0:0:
256,192,11711,1,0,0:0:0:0:
109,192,11794,1,0,0:0:0:0:
182,192,11878,1,0,0:0:0:0:
256,192,11961,1,0,0:0:0:0:
329,192,12044,1,0,0:0:0:0:
475,192,12044,1,0,0:0:0:0:
36,192,12044,1,0,0:0:0:0:
182,192,12127,1,0,0:0:0:0:
329,192,12210,1,0,0:0:0:0:
182,192,12294,1,0,0:0:0:0:
329,192,12377,1,0,0:0:0:0:
182,192,12460,1,0,0:0:0:0:
329,192,12544,1,0,0:0:0:0:
182,192,12627,1,0,0:0:0:0:
329,192,12710,1,0,0:0:0:0:
182,192,12794,1,0,0:0:0:0:
329,192,12877,1,0,0:0:0:0:
182,192,12919,1,0,0:0:0:0:
109,192,12960,1,0,0:0:0:0:
36,192,13002,1,0,0:0:0:0:
402,192,13043,1,0,0:0:0:0:
256,192,13085,1,0,0:0:0:0:
182,192,13127,1,0,0:0:0:0:
109,192,13168,1,0,0:0:0:0:
475,192,13210,1,0,0:0:0:0:
329,192,13252,1,0,0:0:0:0:
256,192,13293,1,0,0:0:0:0:
182,192,13335,1,0,0:0:0:0:
36,192,13377,128,0,13543:0:0:0:50:CrashR.wav
475,192,13377,1,0,0:0:0:50:BaSS.wav
402,192,13377,1,0,0:0:0:0:
109,192,13377,128,0,13543:0:0:0:0:
475,192,13543,128,0,13627:0:0:0:0:
402,192,13543,128,0,13627:0:0:0:0:
256,192,13543,1,0,0:0:0:0:
402,192,13710,128,0,13877:0:0:0:50:Impact.wav
475,192,13710,128,0,13877:0:0:0:0:
329,192,13710,1,0,0:0:0:0:
182,192,13710,1,0,0:0:0:0:
36,192,13710,1,0,0:0:0:0:
256,192,13877,1,0,0:0:0:0:
109,192,14043,128,0,14127:0:0:0:50:BaSS.wav
36,192,14043,128,0,14127:0:0:0:0:
329,192,14043,1,0,0:0:0:0:
475,192,14043,1,0,0:0:0:0:
36,192,14210,128,0,14377:0:0:0:0:
109,192,14210,128,0,14377:0:0:0:0:
256,192,14210,1,0,0:0:0:0:
182,192,14377,1,0,0:0:0:50:Impact.wav
329,192,14377,1,0,0:0:0:0:
475,192,14377,1,0,0:0:0:0:
109,192,14460,1,0,0:0:0:0:
402,192,14543,128,0,14627:0:0:0:0:
475,192,14543,128,0,14627:0:0:0:0:
256,192,14543,1,0,0:0:0:0:
36,192,14543,1,0,0:0:0:0:
329,192,14627,1,0,0:0:0:0:
402,192,14710,128,0,14877:0:0:0:50:BaSS.wav
36,192,14710,128,0,15210:0:0:0:0:
475,192,14710,128,0,14877:0:0:0:0:
182,192,14710,1,0,0:0:0:0:
329,192,14793,128,0,14960:0:0:0:0:
256,192,14877,128,0,15043:0:0:0:0:
182,192,14960,128,0,15127:0:0:0:0:
329,192,15043,128,0,15210:0:0:0:50:Impact.wav
475,192,15043,128,0,15377:0:0:0:0:
109,192,15043,1,0,0:0:0:0:
256,192,15127,128,0,15293:0:0:0:0:
182,192,15210,128,0,15377:0:0:0:0:
402,192,15210,128,0,15377:0:0:0:0:
109,192,15293,128,0,15460:0:0:0:0:
329,192,15377,1,0,0:0:0:50:BaSS.wav
256,192,15377,1,0,0:0:0:0:
36,192,15377,128,0,15543:0:0:0:0:
329,192,15543,128,0,15877:0:0:0:0:
182,192,15543,1,0,0:0:0:0:
109,192,15710,1,0,0:0:0:50:Impact.wav
475,192,15710,1,0,0:0:0:0:
402,192,15710,1,0,0:0:0:0:
36,192,15877,128,0,16043:0:0:0:0:
475,192,15877,128,0,16043:0:0:0:0:
182,192,15877,128,0,16210:0:0:0:0:
256,192,16043,1,0,0:0:0:50:BaSS.wav
402,192,16043,1,0,0:0:0:0:
329,192,16210,128,0,16293:0:0:0:0:
475,192,16210,128,0,16293:0:0:0:0:
36,192,16210,1,0,0:0:0:0:
36,192,16377,1,0,0:0:0:50:Impact.wav
182,192,16377,1,0,0:0:0:0:
329,192,16377,128,0,16543:0:0:0:0:
475,192,16377,128,0,16543:0:0:0:0:
109,192,16377,1,0,0:0:0:0:
256,192,16543,1,0,0:0:0:0:
182,192,16710,128,0,16793:0:0:0:50:BaSS.wav
36,192,16710,128,0,16793:0:0:0:0:
329,192,16710,1,0,0:0:0:0:
475,192,16710,1,0,0:0:0:0:
256,192,16877,1,0,0:0:0:0:
36,192,16877,128,0,17043:0:0:0:0:
182,192,16877,128,0,17043:0:0:0:0:
109,192,17043,1,0,0:0:0:50:Impact.wav
402,192,17043,1,0,0:0:0:0:
329,192,17043,1,0,0:0:0:0:
182,192,17127,1,0,0:0:0:0:
475,192,17210,128,0,17293:0:0:0:0:
402,192,17210,128,0,17293:0:0:0:0:
256,192,17210,1,0,0:0:0:0:
36,192,17210,1,0,0:0:0:0:
329,192,17293,1,0,0:0:0:0:
36,192,17377,1,0,0:0:0:50:BaSS.wav
109,192,17377,1,0,0:0:0:0:
475,192,17377,128,0,17710:0:0:0:0:
402,192,17377,128,0,17543:0:0:0:0:
329,192,17460,128,0,17627:0:0:0:0:
256,192,17543,128,0,17710:0:0:0:0:
182,192,17627,128,0,17793:0:0:0:0:
329,192,17710,128,0,17877:0:0:0:50:Impact.wav
36,192,17710,128,0,18127:0:0:0:0:
402,192,17710,1,0,0:0:0:0:
256,192,17793,128,0,17960:0:0:0:0:
475,192,17877,128,0,18710:0:0:0:0:
182,192,17877,128,0,18043:0:0:0:0:
109,192,17960,128,0,18127:0:0:0:0:
256,192,18043,128,0,18210:0:0:0:50:BaSS.wav
329,192,18043,1,0,0:0:0:0:
182,192,18127,128,0,18293:0:0:0:0:
402,192,18210,128,0,18710:0:0:0:0:
109,192,18210,128,0,18377:0:0:0:0:
36,192,18293,128,0,18460:0:0:0:0:
329,192,18377,1,0,0:0:0:50:Impact.wav
182,192,18377,128,0,18543:0:0:0:0:
256,192,18460,128,0,18627:0:0:0:0:
329,192,18543,128,0,18710:0:0:0:0:
36,192,18543,128,0,18710:0:0:0:0:
109,192,18543,128,0,18710:0:0:0:0:
182,192,18710,1,0,0:0:0:50:BaSS.wav
256,192,18710,1,0,0:0:0:0:
36,192,18877,128,0,18960:0:0:0:0:
475,192,18877,128,0,18960:0:0:0:0:
329,192,18877,1,0,0:0:0:0:
36,192,19043,128,0,19210:0:0:0:50:Impact.wav
475,192,19043,128,0,19210:0:0:0:0:
182,192,19043,1,0,0:0:0:0:
402,192,19043,1,0,0:0:0:0:
329,192,19043,1,0,0:0:0:0:
256,192,19210,1,0,0:0:0:0:
182,192,19377,128,0,19460:0:0:0:50:BaSS.wav
329,192,19377,128,0,19460:0:0:0:0:
36,192,19377,1,0,0:0:0:0:
475,192,19377,1,0,0:0:0:0:
329,192,19543,128,0,19710:0:0:0:0:
182,192,19543,128,0,19710:0:0:0:0:
402,192,19543,1,0,0:0:0:0:
36,192,19710,1,0,0:0:0:50:Impact.wav
475,192,19710,1,0,0:0:0:0:
109,192,19710,1,0,0:0:0:0:
182,192,19793,1,0,0:0:0:0:
475,192,19877,128,0,19960:0:0:0:0:
36,192,19877,128,0,19960:0:0:0:0:
256,192,19877,1,0,0:0:0:0:
329,192,19960,1,0,0:0:0:0:
36,192,20043,128,0,20210:0:0:0:50:BaSS.wav
182,192,20043,128,0,20210:0:0:0:0:
475,192,20043,128,0,20460:0:0:0:0:
402,192,20043,1,0,0:0:0:0:
256,192,20127,128,0,20293:0:0:0:0:
329,192,20210,128,0,20377:0:0:0:0:
402,192,20293,128,0,20460:0:0:0:0:
36,192,20377,128,0,20710:0:0:0:50:Impact.wav
109,192,20377,128,0,20543:0:0:0:0:
256,192,20377,1,0,0:0:0:0:
182,192,20460,128,0,20627:0:0:0:0:
402,192,20543,128,0,20710:0:0:0:0:
329,192,20543,128,0,20710:0:0:0:0:
256,192,20627,128,0,20793:0:0:0:0:
182,192,20710,128,0,20877:0:0:0:50:BaSS.wav
475,192,20710,1,0,0:0:0:0:
109,192,20793,128,0,20960:0:0:0:0:
36,192,20877,128,0,21210:0:0:0:0:
329,192,20877,128,0,21043:0:0:0:0:
402,192,20960,128,0,21127:0:0:0:0:
475,192,21043,128,0,21210:0:0:0:50:Impact.wav
256,192,21043,1,0,0:0:0:0:
109,192,21043,1,0,0:0:0:0:
182,192,21210,128,0,21543:0:0:0:0:
475,192,21377,1,0,0:0:0:50:BaSS.wav
329,192,21377,1,0,0:0:0:0:
402,192,21377,1,0,0:0:0:0:
475,192,21543,5,0,0:0:0:50:BaSS.wav
256,192,21543,1,0,0:0:0:0:
36,192,21543,1,0,0:0:0:0:
109,192,21543,1,0,0:0:0:0:
475,192,21710,1,0,0:0:0:50:BaSS.wav
36,192,21710,1,0,0:0:0:0:
256,192,21710,1,0,0:0:0:0:
109,192,21710,1,0,0:0:0:0:
36,192,21877,1,0,0:0:0:50:BaSS.wav
475,192,21877,1,0,0:0:0:0:
256,192,21877,1,0,0:0:0:0:
402,192,21960,1,0,0:0:0:50:BaSS.wav
329,192,21960,1,0,0:0:0:0:
109,192,21960,1,0,0:0:0:0:
256,192,22043,1,0,0:0:0:50:BaSS.wav
182,192,22043,1,0,0:0:0:0:
475,192,22043,1,0,0:0:0:0:
36,192,22127,1,0,0:0:0:50:BaSS.wav
329,192,22127,1,0,0:0:0:0:
109,192,22127,1,0,0:0:0:0:
182,192,22210,1,0,0:0:0:50:BaSS.wav
475,192,22210,1,0,0:0:0:0:
402,192,22210,1,0,0:0:0:0:
256,192,22293,1,0,0:0:0:50:BaSS.wav
36,192,22293,1,0,0:0:0:0:
109,192,22293,1,0,0:0:0:0:
475,192,22377,1,0,0:0:0:50:BaSS.wav
402,192,22377,1,0,0:0:0:0:
329,192,22377,1,0,0:0:0:0:
36,192,22460,1,0,0:0:0:50:BaSS.wav
109,192,22460,1,0,0:0:0:0:
182,192,22460,1,0,0:0:0:0:
475,192,22543,1,0,0:0:0:50:BaSS.wav
402,192,22543,1,0,0:0:0:0:
329,192,22543,1,0,0:0:0:0:
182,192,22627,1,0,0:0:0:50:BaSS.wav
36,192,22627,1,0,0:0:0:0:
109,192,22627,1,0,0:0:0:0:
475,192,22710,1,0,0:0:0:50:CrashR.wav
402,192,22710,1,0,0:0:0:50:BaSS.wav
329,192,22710,1,0,0:0:0:0:
256,192,22793,1,0,0:0:0:0:
182,192,22793,1,0,0:0:0:0:
109,192,22877,1,0,0:0:0:0:
36,192,22877,1,0,0:0:0:0:
402,192,22960,128,0,23127:0:0:0:0:
329,192,23043,128,0,23210:0:0:0:0:
256,192,23127,128,0,23293:0:0:0:0:
182,192,23210,128,0,23377:0:0:0:0:
329,192,23293,128,0,23710:0:0:0:0:
256,192,23377,128,0,23710:0:0:0:0:
182,192,23460,128,0,23710:0:0:0:0:
109,192,23543,128,0,23710:0:0:0:0:
36,192,23543,128,0,23710:0:0:0:0:
329,192,23877,1,0,0:0:0:0:
109,192,23877,1,0,0:0:0:0:
402,192,23960,1,0,0:0:0:0:
182,192,23960,1,0,0:0:0:0:
475,192,24043,128,0,24710:0:0:0:0:
36,192,24043,128,0,24710:0:0:0:0:
256,192,24043,1,0,0:0:0:0:
329,192,24710,1,0,0:0:0:0:
402,192,24752,1,0,0:0:0:0:
182,192,24793,1,0,0:0:0:0:
109,192,24835,1,0,0:0:0:0:
329,192,24877,1,0,0:0:0:0:
402,192,24918,1,0,0:0:0:0:
182,192,24960,1,0,0:0:0:0:
109,192,25002,1,0,0:0:0:0:
329,192,25043,1,0,0:0:0:0:
402,192,25085,1,0,0:0:0:0:
182,192,25127,1,0,0:0:0:0:
109,192,25168,1,0,0:0:0:0:
329,192,25210,1,0,0:0:0:0:
402,192,25252,1,0,0:0:0:0:
182,192,25293,1,0,0:0:0:0:
109,192,25335,1,0,0:0:0:0:
329,192,25377,1,0,0:0:0:50:CrashR.wav
475,192,25377,1,0,0:0:0:50:BaSS.wav
36,192,25377,1,0,0:0:0:0:
402,192,25377,1,0,0:0:0:0:
256,192,25460,1,0,0:0:0:0:
109,192,25460,1,0,0:0:0:0:
182,192,25543,1,0,0:0:0:0:
402,192,25543,1,0,0:0:0:0:
475,192,25543,1,0,0:0:0:0:
329,192,25627,1,0,0:0:0:0:
109,192,25627,1,0,0:0:0:0:
36,192,25710,1,0,0:0:0:50:Impact.wav
256,192,25710,1,0,0:0:0:0:
402,192,25710,1,0,0:0:0:0:
475,192,25710,1,0,0:0:0:0:
182,192,25793,1,0,0:0:0:0:
329,192,25793,1,0,0:0:0:0:
256,192,25877,1,0,0:0:0:0:
109,192,25877,1,0,0:0:0:0:
475,192,25877,1,0,0:0:0:0:
36,192,25960,1,0,0:0:0:0:
329,192,25960,1,0,0:0:0:0:
475,192,26043,1,0,0:0:0:50:BaSS.wav
182,192,26043,1,0,0:0:0:0:
402,192,26043,1,0,0:0:0:0:
256,192,26043,1,0,0:0:0:0:
109,192,26127,1,0,0:0:0:0:
329,192,26127,1,0,0:0:0:0:
36,192,26210,1,0,0:0:0:0:
256,192,26210,1,0,0:0:0:0:
475,192,26210,1,0,0:0:0:0:
182,192,26293,1,0,0:0:0:0:
329,192,26293,1,0,0:0:0:0:
402,192,26377,1,0,0:0:0:50:Impact.wav
109,192,26377,1,0,0:0:0:0:
36,192,26377,1,0,0:0:0:0:
475,192,26377,1,0,0:0:0:0:
256,192,26460,1,0,0:0:0:0:
182,192,26460,1,0,0:0:0:0:
329,192,26543,1,0,0:0:0:0:
402,192,26543,1,0,0:0:0:0:
36,192,26543,1,0,0:0:0:0:
109,192,26627,1,0,0:0:0:0:
256,192,26627,1,0,0:0:0:0:
182,192,26710,1,0,0:0:0:50:BaSS.wav
475,192,26710,1,0,0:0:0:0:
402,192,26710,1,0,0:0:0:0:
329,192,26710,1,0,0:0:0:0:
256,192,26793,1,0,0:0:0:0:
36,192,26793,1,0,0:0:0:0:
109,192,26877,1,0,0:0:0:0:
329,192,26877,1,0,0:0:0:0:
475,192,26877,1,0,0:0:0:0:
182,192,26960,1,0,0:0:0:0:
256,192,26960,1,0,0:0:0:0:
475,192,27043,1,0,0:0:0:50:Impact.wav
402,192,27043,1,0,0:0:0:0:
109,192,27043,1,0,0:0:0:0:
36,192,27043,1,0,0:0:0:0:
329,192,27127,1,0,0:0:0:0:
182,192,27127,1,0,0:0:0:0:
256,192,27210,1,0,0:0:0:0:
36,192,27210,1,0,0:0:0:0:
475,192,27210,1,0,0:0:0:0:
109,192,27293,1,0,0:0:0:0:
329,192,27293,1,0,0:0:0:0:
402,192,27377,1,0,0:0:0:50:BaSS.wav
182,192,27377,1,0,0:0:0:0:
36,192,27377,1,0,0:0:0:0:
475,192,27377,1,0,0:0:0:0:
256,192,27460,1,0,0:0:0:0:
329,192,27460,1,0,0:0:0:0:
402,192,27543,1,0,0:0:0:0:
109,192,27543,1,0,0:0:0:0:
36,192,27543,1,0,0:0:0:0:
182,192,27627,1,0,0:0:0:0:
475,192,27627,1,0,0:0:0:0:
256,192,27710,1,0,0:0:0:50:Impact.wav
329,192,27710,1,0,0:0:0:0:
109,192,27710,1,0,0:0:0:0:
36,192,27710,1,0,0:0:0:0:
402,192,27793,1,0,0:0:0:0:
182,192,27793,1,0,0:0:0:0:
256,192,27877,1,0,0:0:0:0:
475,192,27877,1,0,0:0:0:0:
109,192,27877,1,0,0:0:0:0:
36,192,27960,1,0,0:0:0:0:
329,192,27960,1,0,0:0:0:0:
402,192,28043,1,0,0:0:0:50:BaSS.wav
475,192,28043,1,0,0:0:0:0:
256,192,28043,1,0,0:0:0:0:
182,192,28043,1,0,0:0:0:0:
109,192,28127,1,0,0:0:0:0:
329,192,28127,1,0,0:0:0:0:
256,192,28210,1,0,0:0:0:0:
36,192,28210,1,0,0:0:0:0:
402,192,28210,1,0,0:0:0:0:
475,192,28293,1,0,0:0:0:0:
182,192,28293,1,0,0:0:0:0:
109,192,28377,1,0,0:0:0:50:Impact.wav
36,192,28377,1,0,0:0:0:0:
402,192,28377,1,0,0:0:0:0:
329,192,28377,1,0,0:0:0:0:
256,192,28460,1,0,0:0:0:0:
475,192,28460,1,0,0:0:0:0:
182,192,28543,1,0,0:0:0:0:
329,192,28543,1,0,0:0:0:0:
109,192,28543,1,0,0:0:0:0:
402,192,28627,1,0,0:0:0:0:
256,192,28627,1,0,0:0:0:0:
329,192,28710,1,0,0:0:0:50:BaSS.wav
475,192,28710,1,0,0:0:0:0:
109,192,28710,1,0,0:0:0:0:
36,192,28710,1,0,0:0:0:0:
182,192,28793,1,0,0:0:0:0:
256,192,28793,1,0,0:0:0:0:
109,192,28877,1,0,0:0:0:0:
329,192,28877,1,0,0:0:0:0:
402,192,28877,1,0,0:0:0:0:
36,192,28960,1,0,0:0:0:0:
256,192,28960,1,0,0:0:0:0:
182,192,29043,1,0,0:0:0:50:Impact.wav
475,192,29043,1,0,0:0:0:0:
402,192,29043,1,0,0:0:0:0:
329,192,29043,1,0,0:0:0:0:
109,192,29127,1,0,0:0:0:0:
256,192,29127,1,0,0:0:0:0:
182,192,29210,1,0,0:0:0:0:
36,192,29210,1,0,0:0:0:0:
402,192,29210,1,0,0:0:0:0:
329,192,29293,1,0,0:0:0:0:
475,192,29293,1,0,0:0:0:0:
256,192,29377,1,0,0:0:0:50:BaSS.wav
109,192,29377,1,0,0:0:0:0:
36,192,29377,1,0,0:0:0:0:
402,192,29377,1,0,0:0:0:0:
329,192,29460,1,0,0:0:0:0:
182,192,29460,1,0,0:0:0:0:
475,192,29543,1,0,0:0:0:0:
109,192,29543,1,0,0:0:0:0:
402,192,29543,1,0,0:0:0:0:
256,192,29627,1,0,0:0:0:0:
36,192,29627,1,0,0:0:0:0:
182,192,29710,1,0,0:0:0:50:Impact.wav
329,192,29710,1,0,0:0:0:0:
475,192,29710,1,0,0:0:0:0:
402,192,29710,1,0,0:0:0:0:
109,192,29793,1,0,0:0:0:0:
36,192,29793,1,0,0:0:0:0:
182,192,29877,1,0,0:0:0:0:
256,192,29877,1,0,0:0:0:0:
475,192,29877,1,0,0:0:0:0:
329,192,29960,1,0,0:0:0:0:
402,192,29960,1,0,0:0:0:0:
475,192,30043,1,0,0:0:0:50:BaSS.wav
182,192,30043,1,0,0:0:0:0:
109,192,30043,1,0,0:0:0:0:
36,192,30043,1,0,0:0:0:0:
256,192,30127,1,0,0:0:0:0:
329,192,30127,1,0,0:0:0:0:
402,192,30210,1,0,0:0:0:50:BaSS.wav
475,192,30210,1,0,0:0:0:0:
109,192,30210,1,0,0:0:0:0:
36,192,30210,1,0,0:0:0:0:
182,192,30293,1,0,0:0:0:0:
256,192,30293,1,0,0:0:0:0:
329,192,30377,1,0,0:0:0:50:BaSS.wav
402,192,30377,1,0,0:0:0:0:
36,192,30377,1,0,0:0:0:0:
475,192,30377,1,0,0:0:0:0:
109,192,30460,1,0,0:0:0:0:
182,192,30460,1,0,0:0:0:0:
256,192,30543,1,0,0:0:0:50:BaSS.wav
329,192,30543,1,0,0:0:0:0:
402,192,30543,1,0,0:0:0:0:
475,192,30543,1,0,0:0:0:0:
109,192,30627,1,0,0:0:0:0:
36,192,30627,1,0,0:0:0:0:
329,192,30710,1,0,0:0:0:50:BaSS.wav
182,192,30710,128,0,33377:0:0:0:0:
256,192,30710,1,0,0:0:0:0:
475,192,30752,1,0,0:0:0:0:
36,192,30877,1,0,0:0:0:0:
402,192,31043,1,0,0:0:0:0:
329,192,31210,1,0,0:0:0:0:
256,192,31377,1,0,0:0:0:0:
402,192,31543,1,0,0:0:0:0:
475,192,31543,1,0,0:0:0:0:
109,192,31710,1,0,0:0:0:0:
36,192,31710,1,0,0:0:0:0:
329,192,31877,1,0,0:0:0:0:
475,192,31877,1,0,0:0:0:0:
256,192,32043,1,0,0:0:0:0:
109,192,32210,1,0,0:0:0:0:
36,192,32377,1,0,0:0:0:0:
402,192,32543,1,0,0:0:0:0:
329,192,32710,1,0,0:0:0:0:
256,192,32877,1,0,0:0:0:0:
36,192,33043,1,0,0:0:0:0:
109,192,33043,1,0,0:0:0:0:
329,192,33210,1,0,0:0:0:0:
475,192,33210,1,0,0:0:0:0:
36,192,33377,128,0,34710:0:0:0:0:
256,192,33377,1,0,0:0:0:0:
109,192,33377,1,0,0:0:0:0:
475,192,33377,1,0,0:0:0:0:
329,192,33543,1,0,0:0:0:0:
402,192,33710,1,0,0:0:0:0:
475,192,33877,1,0,0:0:0:0:
182,192,33877,1,0,0:0:0:0:
329,192,34043,1,0,0:0:0:0:
402,192,34210,1,0,0:0:0:0:
109,192,34210,1,0,0:0:0:0:
256,192,34377,1,0,0:0:0:0:
182,192,34543,1,0,0:0:0:0:
329,192,34710,128,0,36043:0:0:0:0:
475,192,34710,1,0,0:0:0:0:
402,192,34710,1,0,0:0:0:0:
109,192,34710,1,0,0:0:0:0:
256,192,34877,1,0,0:0:0:0:
182,192,35043,1,0,0:0:0:0:
36,192,35043,1,0,0:0:0:0:
402,192,35210,1,0,0:0:0:0:
475,192,35210,1,0,0:0:0:0:
256,192,35377,1,0,0:0:0:0:
182,192,35543,1,0,0:0:0:0:
36,192,35543,1,0,0:0:0:0:
402,192,35710,1,0,0:0:0:0:
475,192,35710,1,0,0:0:0:0:
109,192,35877,1,0,0:0:0:0:
475,192,36043,128,0,37377:0:0:0:0:
182,192,36043,1,0,0:0:0:0:
402,192,36043,1,0,0:0:0:0:
256,192,36043,1,0,0:0:0:0:
109,192,36085,1,0,0:0:0:0:
36,192,36127,1,0,0:0:0:0:
329,192,36210,1,0,0:0:0:0:
256,192,36377,1,0,0:0:0:0:
182,192,36543,1,0,0:0:0:0:
329,192,36710,1,0,0:0:0:0:
182,192,36877,1,0,0:0:0:0:
402,192,37043,1,0,0:0:0:0:
329,192,37043,1,0,0:0:0:0:
256,192,37210,1,0,0:0:0:0:
182,192,37210,1,0,0:0:0:0:
36,192,37377,128,0,38043:0:0:0:0:
109,192,37377,1,0,0:0:0:0:
329,192,37377,1,0,0:0:0:0:
402,192,37377,1,0,0:0:0:0:
256,192,37543,1,0,0:0:0:0:
182,192,37710,1,0,0:0:0:0:
329,192,37877,1,0,0:0:0:0:
256,192,38043,128,0,38710:0:0:0:0:
475,192,38043,1,0,0:0:0:0:
402,192,38043,1,0,0:0:0:0:
109,192,38043,1,0,0:0:0:0:
182,192,38210,1,0,0:0:0:0:
329,192,38377,1,0,0:0:0:0:
475,192,38377,1,0,0:0:0:0:
36,192,38377,1,0,0:0:0:0:
182,192,38543,1,0,0:0:0:0:
36,192,38710,128,0,40043:0:0:0:0:
109,192,38710,1,0,0:0:0:0:
402,192,38710,1,0,0:0:0:0:
475,192,38710,1,0,0:0:0:0:
256,192,38877,1,0,0:0:0:0:
475,192,39043,128,0,39293:0:0:0:0:
329,192,39210,128,0,39460:0:0:0:0:
475,192,39377,1,0,0:0:0:0:
329,192,39543,1,0,0:0:0:0:
182,192,39710,1,0,0:0:0:0:
109,192,39710,1,0,0:0:0:0:
329,192,39877,1,0,0:0:0:0:
475,192,39877,1,0,0:0:0:0:
475,192,40043,128,0,40710:0:0:0:0:
329,192,40043,1,0,0:0:0:0:
109,192,40043,1,0,0:0:0:0:
256,192,40210,1,0,0:0:0:0:
36,192,40377,1,0,0:0:0:0:
182,192,40377,1,0,0:0:0:0:
329,192,40543,1,0,0:0:0:0:
402,192,40543,1,0,0:0:0:0:
256,192,40710,128,0,41377:0:0:0:0:
109,192,40710,1,0,0:0:0:0:
36,192,40710,1,0,0:0:0:0:
329,192,40877,1,0,0:0:0:0:
475,192,40877,1,0,0:0:0:0:
182,192,41043,1,0,0:0:0:0:
109,192,41210,1,0,0:0:0:0:
329,192,41377,128,0,41543:0:0:0:50:CrashR.wav
36,192,41377,128,0,41627:0:0:0:50:BaSS.wav
475,192,41377,1,0,0:0:0:0:
182,192,41377,1,0,0:0:0:0:
402,192,41460,128,0,41627:0:0:0:0:
109,192,41460,128,0,41627:0:0:0:0:
475,192,41543,128,0,42710:0:0:0:0:
182,192,41543,128,0,41627:0:0:0:0:
182,192,41710,1,0,0:0:0:50:Impact.wav
109,192,41710,1,0,0:0:0:0:
36,192,41710,1,0,0:0:0:0:
402,192,41710,1,0,0:0:0:0:
256,192,41877,1,0,0:0:0:0:
329,192,42043,1,0,0:0:0:50:BaSS.wav
402,192,42043,1,0,0:0:0:0:
36,192,42043,1,0,0:0:0:0:
109,192,42043,1,0,0:0:0:0:
256,192,42127,1,0,0:0:0:0:
182,192,42210,1,0,0:0:0:0:
329,192,42293,1,0,0:0:0:0:
109,192,42377,1,0,0:0:0:50:Impact.wav
36,192,42377,1,0,0:0:0:0:
256,192,42377,1,0,0:0:0:0:
402,192,42377,1,0,0:0:0:0:
182,192,42460,1,0,0:0:0:0:
329,192,42543,1,0,0:0:0:0:
256,192,42627,1,0,0:0:0:0:
182,192,42710,128,0,42877:0:0:0:50:BaSS.wav
402,192,42710,128,0,42960:0:0:0:0:
36,192,42710,1,0,0:0:0:0:
109,192,42793,128,0,42960:0:0:0:0:
329,192,42793,128,0,42960:0:0:0:0:
36,192,42877,128,0,43877:0:0:0:0:
256,192,42877,128,0,42960:0:0:0:0:
402,192,43043,1,0,0:0:0:50:Impact.wav
329,192,43043,1,0,0:0:0:0:
256,192,43043,1,0,0:0:0:0:
109,192,43043,1,0,0:0:0:0:
256,192,43210,1,0,0:0:0:0:
329,192,43377,1,0,0:0:0:50:BaSS.wav
182,192,43377,1,0,0:0:0:0:
109,192,43377,1,0,0:0:0:0:
475,192,43377,1,0,0:0:0:0:
402,192,43460,1,0,0:0:0:0:
329,192,43543,1,0,0:0:0:0:
256,192,43627,1,0,0:0:0:0:
182,192,43710,1,0,0:0:0:50:Impact.wav
475,192,43710,1,0,0:0:0:0:
402,192,43710,1,0,0:0:0:0:
109,192,43710,1,0,0:0:0:0:
329,192,43793,1,0,0:0:0:0:
256,192,43877,128,0,44043:0:0:0:0:
475,192,43877,128,0,44127:0:0:0:0:
182,192,43960,128,0,44127:0:0:0:0:
402,192,43960,128,0,44127:0:0:0:0:
109,192,44043,128,0,44377:0:0:0:50:CrashR.wav
329,192,44043,128,0,44127:0:0:0:50:BaSS.wav
36,192,44043,128,0,44377:0:0:0:0:
182,192,44210,1,0,0:0:0:0:
329,192,44210,1,0,0:0:0:0:
475,192,44377,128,0,44710:0:0:0:50:CrashR.wav
402,192,44377,128,0,44710:0:0:0:50:BaSS.wav
329,192,44377,128,0,44460:0:0:0:0:
182,192,44377,128,0,44460:0:0:0:0:
109,192,44543,128,0,44710:0:0:0:50:CrashR.wav
36,192,44543,128,0,44710:0:0:0:50:BaSS.wav
329,192,44543,128,0,44710:0:0:0:0:
182,192,44543,128,0,44710:0:0:0:0:
36,192,44877,128,0,45210:0:0:0:50:CrashR.wav
109,192,44877,128,0,45210:0:0:0:50:BaSS.wav
329,192,44877,128,0,45127:0:0:0:0:
475,192,44877,128,0,45127:0:0:0:0:
182,192,44877,128,0,45210:0:0:0:0:
329,192,45210,1,0,0:0:0:50:BaSS.wav
475,192,45210,1,0,0:0:0:0:
109,192,45293,1,0,0:0:0:50:BaSS.wav
36,192,45293,1,0,0:0:0:0:
402,192,45293,1,0,0:0:0:0:
182,192,45293,1,0,0:0:0:0:
475,192,45377,128,0,45710:0:0:0:50:CrashR.wav
256,192,45377,1,0,0:0:0:50:BaSS.wav
109,192,45377,1,0,0:0:0:0:
36,192,45377,1,0,0:0:0:0:
402,192,45543,128,0,45877:0:0:0:0:
182,192,45627,1,0,0:0:0:50:BaSS.wav
109,192,45627,1,0,0:0:0:0:
36,192,45627,1,0,0:0:0:0:
329,192,45710,128,0,46043:0:0:0:0:
256,192,45877,128,0,46210:0:0:0:50:CrashR.wav
182,192,45877,1,0,0:0:0:50:BaSS.wav
475,192,45877,1,0,0:0:0:0:
36,192,45877,1,0,0:0:0:0:
109,192,46043,1,0,0:0:0:50:BaSS.wav
402,192,46043,1,0,0:0:0:0:
475,192,46043,1,0,0:0:0:0:
329,192,46210,1,0,0:0:0:50:BaSS.wav
36,192,46210,1,0,0:0:0:0:
182,192,46210,1,0,0:0:0:0:
36,192,46377,1,0,0:0:0:50:BaSS.wav
256,192,46377,1,0,0:0:0:0:
109,192,46377,1,0,0:0:0:0:
329,192,46460,1,0,0:0:0:50:BaSS.wav
182,192,46460,1,0,0:0:0:0:
36,192,46543,128,0,46710:0:0:0:50:BaSS.wav
475,192,46543,1,0,0:0:0:0:
402,192,46543,1,0,0:0:0:0:
109,192,46627,128,0,46793:0:0:0:50:BaSS.wav
256,192,46627,1,0,0:0:0:0:
182,192,46710,128,0,47877:0:0:0:50:CrashR.wav
329,192,46710,1,0,0:0:0:50:BaSS.wav
475,192,46710,1,0,0:0:0:0:
402,192,46710,1,0,0:0:0:0:
475,192,46877,1,0,0:0:0:50:BaSS.wav
402,192,46877,1,0,0:0:0:0:
329,192,46877,1,0,0:0:0:0:
329,192,47043,1,0,0:0:0:50:BaSS.wav
402,192,47043,1,0,0:0:0:0:
475,192,47043,1,0,0:0:0:0:
109,192,47043,128,0,47877:0:0:0:0:
329,192,47210,1,0,0:0:0:50:BaSS.wav
475,192,47210,1,0,0:0:0:0:
402,192,47210,1,0,0:0:0:0:
475,192,47377,1,0,0:0:0:50:BaSS.wav
329,192,47377,1,0,0:0:0:0:
402,192,47377,1,0,0:0:0:0:
36,192,47377,128,0,47877:0:0:0:0:
329,192,47543,1,0,0:0:0:50:BaSS.wav
402,192,47543,1,0,0:0:0:0:
475,192,47543,1,0,0:0:0:0:
329,192,47710,1,0,0:0:0:50:BaSS.wav
402,192,47710,1,0,0:0:0:0:
475,192,47710,1,0,0:0:0:0:
329,192,47877,128,0,48043:0:0:0:0:
402,192,47960,128,0,48127:0:0:0:0:
475,192,48043,128,0,49043:0:0:0:50:CrashR.wav
182,192,48043,1,0,0:0:0:50:BaSS.wav
109,192,48043,1,0,0:0:0:0:
36,192,48043,1,0,0:0:0:0:
109,192,48210,1,0,0:0:0:50:BaSS.wav
36,192,48210,1,0,0:0:0:0:
182,192,48210,1,0,0:0:0:0:
109,192,48377,1,0,0:0:0:50:BaSS.wav
36,192,48377,1,0,0:0:0:0:
182,192,48377,1,0,0:0:0:0:
329,192,48460,1,0,0:0:0:50:BaSS.wav
256,192,48460,1,0,0:0:0:0:
402,192,48543,1,0,0:0:0:50:BaSS.wav
109,192,48543,1,0,0:0:0:0:
36,192,48543,1,0,0:0:0:0:
182,192,48627,1,0,0:0:0:50:BaSS.wav
256,192,48627,1,0,0:0:0:0:
329,192,48710,1,0,0:0:0:50:BaSS.wav
36,192,48710,1,0,0:0:0:0:
402,192,48710,1,0,0:0:0:0:
182,192,48793,1,0,0:0:0:50:BaSS.wav
109,192,48793,1,0,0:0:0:0:
256,192,48877,1,0,0:0:0:50:BaSS.wav
329,192,48877,1,0,0:0:0:0:
402,192,48877,1,0,0:0:0:0:
109,192,48960,1,0,0:0:0:50:BaSS.wav
36,192,48960,1,0,0:0:0:0:
329,192,49043,1,0,0:0:0:50:BaSS.wav
182,192,49043,1,0,0:0:0:0:
256,192,49043,128,0,49210:0:0:0:0:
109,192,49210,1,0,0:0:0:50:BaSS.wav
402,192,49210,1,0,0:0:0:0:
329,192,49293,1,0,0:0:0:50:BaSS.wav
182,192,49293,1,0,0:0:0:0:
256,192,49377,128,0,49710:0:0:0:50:BaSS.wav
109,192,49377,1,0,0:0:0:0:
475,192,49377,1,0,0:0:0:0:
402,192,49377,1,0,0:0:0:0:
36,192,49377,1,0,0:0:0:0:
329,192,49543,1,0,0:0:0:0:
182,192,49710,128,0,49877:0:0:0:0:
475,192,49710,1,0,0:0:0:0:
402,192,49710,1,0,0:0:0:0:
36,192,49877,128,0,50377:0:0:0:0:
329,192,49877,1,0,0:0:0:0:
182,192,50043,1,0,0:0:0:0:
475,192,50043,1,0,0:0:0:0:
402,192,50043,1,0,0:0:0:0:
256,192,50210,1,0,0:0:0:0:
329,192,50377,128,0,50543:0:0:0:0:
475,192,50377,1,0,0:0:0:0:
182,192,50543,128,0,50710:0:0:0:0:
36,192,50543,1,0,0:0:0:0:
475,192,50710,1,0,0:0:0:0:
402,192,50710,1,0,0:0:0:0:
109,192,50710,1,0,0:0:0:0:
256,192,50710,1,0,0:0:0:0:
475,192,50877,1,0,0:0:0:0:
402,192,50877,1,0,0:0:0:0:
109,192,50877,1,0,0:0:0:0:
256,192,50877,1,0,0:0:0:0:
329,192,51043,1,0,0:0:0:0:
475,192,51043,1,0,0:0:0:0:
36,192,51043,1,0,0:0:0:0:
182,192,51043,1,0,0:0:0:0:
475,192,51210,1,0,0:0:0:0:
329,192,51210,1,0,0:0:0:0:
36,192,51210,1,0,0:0:0:0:
182,192,51210,1,0,0:0:0:0:
36,192,51377,1,0,0:0:0:0:
109,192,51377,1,0,0:0:0:0:
256,192,51377,1,0,0:0:0:0:
402,192,51377,1,0,0:0:0:0:
109,192,51543,1,0,0:0:0:0:
36,192,51543,1,0,0:0:0:0:
256,192,51543,1,0,0:0:0:0:
402,192,51543,1,0,0:0:0:0:
475,192,51710,5,0,0:0:0:0:
402,192,51738,1,0,0:0:0:0:
329,192,51766,1,0,0:0:0:0:
36,192,51793,1,0,0:0:0:0:
109,192,51821,1,0,0:0:0:0:
182,192,51849,1,0,0:0:0:0:
256,192,51877,1,0,0:0:0:0:
329,192,51905,1,0,0:0:0:0:
402,192,51932,1,0,0:0:0:0:
475,192,51960,1,0,0:0:0:0:
36,192,51988,1,0,0:0:0:0:
109,192,52016,1,0,0:0:0:0:
329,192,52043,128,0,52377:0:0:0:50:CrashR.wav
475,192,52043,128,0,52377:0:0:0:50:BaSS.wav
402,192,52043,128,0,52377:0:0:0:0:
256,192,52043,128,0,52377:0:0:0:0:
182,192,52043,128,0,52377:0:0:0:0:
109,192,52210,128,0,52543:0:0:0:0:
36,192,52377,128,0,52543:0:0:0:0:
182,192,52543,128,0,52793:0:0:0:50:CrashR.wav
402,192,52543,128,0,52793:0:0:0:50:BaSS.wav
475,192,52543,128,0,52793:0:0:0:0:
329,192,52543,128,0,52793:0:0:0:0:
256,192,52543,128,0,52793:0:0:0:0:
36,192,52710,128,0,52960:0:0:0:0:
109,192,52793,128,0,52960:0:0:0:0:
182,192,52877,128,0,53210:0:0:0:0:
109,192,53043,128,0,53210:0:0:0:50:CrashR.wav
36,192,53043,128,0,53210:0:0:0:50:BaSS.wav
475,192,53043,128,0,53210:0:0:0:0:
329,192,53043,128,0,53210:0:0:0:0:
402,192,53043,128,0,53210:0:0:0:0:
256,192,53210,128,0,53377:0:0:0:0:
182,192,53377,128,0,53543:0:0:0:50:CrashR.wav
109,192,53377,128,0,53710:0:0:0:50:BaSS.wav
36,192,53377,128,0,53877:0:0:0:0:
402,192,53377,1,0,0:0:0:0:
329,192,53377,1,0,0:0:0:0:
475,192,53377,1,0,0:0:0:0:
475,192,53543,1,0,0:0:0:0:
402,192,53543,1,0,0:0:0:0:
329,192,53543,1,0,0:0:0:0:
256,192,53543,128,0,53877:0:0:0:0:
329,192,53710,1,0,0:0:0:0:
475,192,53710,1,0,0:0:0:0:
402,192,53710,1,0,0:0:0:0:
182,192,53710,128,0,54043:0:0:0:0:
329,192,53877,1,0,0:0:0:0:
475,192,53877,1,0,0:0:0:0:
402,192,53877,1,0,0:0:0:0:
109,192,53877,128,0,54210:0:0:0:0:
475,192,54043,1,0,0:0:0:0:
402,192,54043,1,0,0:0:0:0:
329,192,54043,1,0,0:0:0:0:
36,192,54043,128,0,54377:0:0:0:0:
329,192,54210,1,0,0:0:0:0:
402,192,54210,1,0,0:0:0:0:
475,192,54210,1,0,0:0:0:0:
182,192,54210,128,0,54543:0:0:0:0:
475,192,54377,1,0,0:0:0:50:CrashR.wav
402,192,54377,1,0,0:0:0:50:BaSS.wav
329,192,54377,1,0,0:0:0:0:
256,192,54377,128,0,54710:0:0:0:0:
329,192,54543,128,0,54877:0:0:0:0:
402,192,54710,128,0,55043:0:0:0:50:CrashR.wav
475,192,54710,128,0,55043:0:0:0:50:BaSS.wav
182,192,54710,128,0,55043:0:0:0:0:
109,192,54710,128,0,55043:0:0:0:0:
36,192,54710,128,0,55043:0:0:0:0:
256,192,54877,128,0,55210:0:0:0:0:
329,192,55043,128,0,55377:0:0:0:0:
402,192,55210,128,0,55543:0:0:0:50:CrashR.wav
475,192,55210,128,0,55543:0:0:0:50:BaSS.wav
182,192,55210,128,0,55293:0:0:0:0:
109,192,55210,128,0,55377:0:0:0:0:
36,192,55210,128,0,55460:0:0:0:0:
182,192,55377,128,0,55627:0:0:0:0:
109,192,55460,128,0,55627:0:0:0:0:
36,192,55543,128,0,55877:0:0:0:0:
475,192,55710,128,0,55877:0:0:0:50:CrashR.wav
402,192,55710,128,0,55877:0:0:0:50:BaSS.wav
329,192,55710,128,0,55877:0:0:0:0:
182,192,55710,128,0,55877:0:0:0:0:
109,192,55710,128,0,55877:0:0:0:0:
256,192,55877,128,0,56043:0:0:0:0:
329,192,56043,128,0,56210:0:0:0:50:CrashR.wav
402,192,56043,128,0,56377:0:0:0:50:BaSS.wav
475,192,56043,128,0,56543:0:0:0:0:
36,192,56043,128,0,56543:0:0:0:0:
109,192,56043,128,0,56543:0:0:0:0:
182,192,56210,128,0,56543:0:0:0:0:
256,192,56377,128,0,56710:0:0:0:0:
329,192,56543,128,0,56877:0:0:0:0:
402,192,56710,128,0,57043:0:0:0:0:
475,192,56877,128,0,57210:0:0:0:0:
182,192,57043,128,0,57210:0:0:0:50:CrashR.wav
256,192,57043,128,0,57210:0:0:0:50:BaSS.wav
109,192,57043,128,0,57210:0:0:0:0:
36,192,57043,128,0,57210:0:0:0:0:
329,192,57043,128,0,57210:0:0:0:0:
402,192,57210,128,0,57377:0:0:0:0:
36,192,57377,128,0,57543:0:0:0:50:CrashR.wav
475,192,57377,128,0,57543:0:0:0:50:BaSS.wav
109,192,57377,128,0,57543:0:0:0:0:
182,192,57377,128,0,57543:0:0:0:0:
256,192,57377,128,0,57710:0:0:0:0:
329,192,57543,128,0,57710:0:0:0:0:
109,192,57710,128,0,57793:0:0:0:50:CrashR.wav
182,192,57710,128,0,57793:0:0:0:50:BaSS.wav
36,192,57710,128,0,57793:0:0:0:0:
475,192,57710,128,0,57793:0:0:0:0:
402,192,57710,128,0,57793:0:0:0:0:
402,192,57877,128,0,58043:0:0:0:50:CrashR.wav
109,192,57877,128,0,58043:0:0:0:50:BaSS.wav
36,192,57877,128,0,58043:0:0:0:0:
475,192,57877,128,0,58043:0:0:0:0:
182,192,57877,128,0,58043:0:0:0:0:
329,192,58043,128,0,58210:0:0:0:0:
256,192,58127,128,0,58293:0:0:0:0:
182,192,58210,128,0,58377:0:0:0:50:CrashR.wav
109,192,58210,128,0,58543:0:0:0:50:BaSS.wav
402,192,58210,128,0,58543:0:0:0:0:
475,192,58210,128,0,58543:0:0:0:0:
36,192,58210,128,0,58543:0:0:0:0:
329,192,58377,128,0,58543:0:0:0:0:
256,192,58543,128,0,58710:0:0:0:0:
182,192,58710,5,0,0:0:0:50:CrashR.wav
109,192,58710,1,0,0:0:0:50:BaSS.wav
36,192,58710,1,0,0:0:0:0:
329,192,58710,128,0,58877:0:0:0:0:
402,192,58710,128,0,59043:0:0:0:0:
475,192,58710,128,0,59210:0:0:0:0:
182,192,58877,5,0,0:0:0:0:
109,192,58877,1,0,0:0:0:0:
36,192,58877,1,0,0:0:0:0:
256,192,58877,128,0,59210:0:0:0:0:
36,192,59043,1,0,0:0:0:0:
109,192,59043,1,0,0:0:0:0:
182,192,59043,1,0,0:0:0:0:
329,192,59043,128,0,59377:0:0:0:0:
182,192,59210,1,0,0:0:0:0:
109,192,59210,1,0,0:0:0:0:
36,192,59210,1,0,0:0:0:0:
402,192,59210,128,0,59543:0:0:0:0:
182,192,59377,1,0,0:0:0:0:
109,192,59377,1,0,0:0:0:0:
36,192,59377,1,0,0:0:0:0:
475,192,59377,128,0,59710:0:0:0:0:
36,192,59543,1,0,0:0:0:0:
109,192,59543,1,0,0:0:0:0:
182,192,59543,1,0,0:0:0:0:
329,192,59543,128,0,59877:0:0:0:0:
182,192,59710,1,0,0:0:0:50:CrashR.wav
109,192,59710,1,0,0:0:0:50:BaSS.wav
36,192,59710,1,0,0:0:0:0:
256,192,59710,128,0,60043:0:0:0:0:
402,192,59877,1,0,0:0:0:0:
475,192,59877,1,0,0:0:0:0:
182,192,59877,128,0,60043:0:0:0:0:
36,192,59877,1,0,0:0:0:0:
475,192,60043,1,0,0:0:0:50:CrashR.wav
402,192,60043,1,0,0:0:0:50:BaSS.wav
329,192,60043,1,0,0:0:0:0:
36,192,60043,1,0,0:0:0:0:
109,192,60043,1,0,0:0:0:0:
182,192,60127,1,0,0:0:0:0:
256,192,60127,1,0,0:0:0:0:
402,192,60210,1,0,0:0:0:0:
329,192,60210,1,0,0:0:0:0:
182,192,60293,1,0,0:0:0:0:
109,192,60293,1,0,0:0:0:0:
475,192,60377,1,0,0:0:0:50:Impact.wav
402,192,60377,1,0,0:0:0:0:
256,192,60377,1,0,0:0:0:0:
36,192,60377,1,0,0:0:0:0:
329,192,60460,1,0,0:0:0:0:
109,192,60460,1,0,0:0:0:0:
182,192,60543,1,0,0:0:0:0:
256,192,60543,1,0,0:0:0:0:
109,192,60627,1,0,0:0:0:0:
402,192,60627,1,0,0:0:0:0:
329,192,60710,1,0,0:0:0:50:BaSS.wav
36,192,60710,1,0,0:0:0:0:
475,192,60710,1,0,0:0:0:0:
256,192,60710,1,0,0:0:0:0:
109,192,60793,1,0,0:0:0:0:
182,192,60793,1,0,0:0:0:0:
329,192,60877,1,0,0:0:0:0:
402,192,60877,1,0,0:0:0:0:
182,192,60960,1,0,0:0:0:0:
256,192,60960,1,0,0:0:0:0:
36,192,61043,1,0,0:0:0:50:Impact.wav
109,192,61043,1,0,0:0:0:0:
475,192,61043,1,0,0:0:0:0:
402,192,61043,1,0,0:0:0:0:
329,192,61127,1,0,0:0:0:0:
182,192,61127,1,0,0:0:0:0:
256,192,61210,1,0,0:0:0:0:
475,192,61210,1,0,0:0:0:0:
182,192,61293,1,0,0:0:0:0:
109,192,61293,1,0,0:0:0:0:
36,192,61377,1,0,0:0:0:50:BaSS.wav
329,192,61377,1,0,0:0:0:0:
475,192,61377,1,0,0:0:0:0:
402,192,61377,1,0,0:0:0:0:
256,192,61460,1,0,0:0:0:0:
182,192,61460,1,0,0:0:0:0:
109,192,61543,1,0,0:0:0:0:
36,192,61543,1,0,0:0:0:0:
329,192,61627,1,0,0:0:0:0:
256,192,61627,1,0,0:0:0:0:
402,192,61710,1,0,0:0:0:50:Impact.wav
475,192,61710,1,0,0:0:0:0:
182,192,61710,1,0,0:0:0:0:
109,192,61710,1,0,0:0:0:0:
256,192,61793,1,0,0:0:0:0:
36,192,61793,1,0,0:0:0:0:
329,192,61877,1,0,0:0:0:0:
402,192,61877,1,0,0:0:0:0:
182,192,61960,1,0,0:0:0:0:
109,192,61960,1,0,0:0:0:0:
256,192,62043,1,0,0:0:0:50:BaSS.wav
36,192,62043,1,0,0:0:0:0:
402,192,62043,1,0,0:0:0:0:
475,192,62043,1,0,0:0:0:0:
329,192,62127,1,0,0:0:0:0:
109,192,62127,1,0,0:0:0:0:
182,192,62210,1,0,0:0:0:0:
402,192,62210,1,0,0:0:0:0:
256,192,62293,1,0,0:0:0:0:
109,192,62293,1,0,0:0:0:0:
475,192,62377,1,0,0:0:0:50:Impact.wav
36,192,62377,1,0,0:0:0:0:
329,192,62377,1,0,0:0:0:0:
402,192,62377,1,0,0:0:0:0:
256,192,62460,1,0,0:0:0:0:
182,192,62460,1,0,0:0:0:0:
109,192,62543,1,0,0:0:0:50:BaSS.wav
36,192,62543,1,0,0:0:0:0:
475,192,62543,1,0,0:0:0:0:
402,192,62543,1,0,0:0:0:0:
329,192,62627,1,0,0:0:0:0:
256,192,62627,1,0,0:0:0:0:
109,192,62710,1,0,0:0:0:50:CrashR.wav
36,192,62710,1,0,0:0:0:50:BaSS.wav
475,192,62710,1,0,0:0:0:0:
182,192,62710,1,0,0:0:0:0:
402,192,62710,1,0,0:0:0:0:
36,192,62877,128,0,63210:0:0:0:0:
109,192,63043,128,0,63210:0:0:0:50:CrashR.wav
402,192,63043,128,0,63127:0:0:0:50:BaSS.wav
329,192,63043,128,0,63127:0:0:0:0:
475,192,63043,128,0,63127:0:0:0:0:
256,192,63043,128,0,63127:0:0:0:0:
475,192,63210,128,0,63377:0:0:0:50:CrashR.wav
256,192,63210,128,0,63377:0:0:0:50:BaSS.wav
182,192,63210,128,0,63460:0:0:0:0:
329,192,63210,128,0,63377:0:0:0:0:
402,192,63210,128,0,63377:0:0:0:0:
36,192,63377,128,0,63543:0:0:0:0:
109,192,63460,128,0,63627:0:0:0:0:
182,192,63543,128,0,63710:0:0:0:50:CrashR.wav
256,192,63543,128,0,63710:0:0:0:50:BaSS.wav
402,192,63543,128,0,63710:0:0:0:0:
475,192,63543,128,0,63710:0:0:0:0:
329,192,63543,128,0,63877:0:0:0:0:
36,192,63710,128,0,64043:0:0:0:0:
182,192,63877,128,0,64210:0:0:0:50:CrashR.wav
109,192,63877,128,0,64043:0:0:0:50:BaSS.wav
256,192,63877,128,0,64043:0:0:0:0:
402,192,63877,128,0,64043:0:0:0:0:
475,192,63877,128,0,64043:0:0:0:0:
329,192,64043,128,0,64377:0:0:0:0:
256,192,64210,128,0,64543:0:0:0:50:CrashR.wav
475,192,64210,1,0,0:0:0:50:BaSS.wav
402,192,64210,1,0,0:0:0:0:
109,192,64210,1,0,0:0:0:0:
36,192,64210,1,0,0:0:0:0:
182,192,64377,128,0,64710:0:0:0:50:CrashR.wav
402,192,64377,1,0,0:0:0:50:BaSS.wav
475,192,64377,1,0,0:0:0:0:
109,192,64377,1,0,0:0:0:0:
36,192,64377,1,0,0:0:0:0:
329,192,64543,128,0,64877:0:0:0:50:CrashR.wav
475,192,64543,1,0,0:0:0:50:BaSS.wav
402,192,64543,1,0,0:0:0:0:
36,192,64543,1,0,0:0:0:0:
109,192,64543,1,0,0:0:0:0:
256,192,64710,128,0,65043:0:0:0:50:CrashR.wav
109,192,64710,1,0,0:0:0:50:BaSS.wav
36,192,64710,1,0,0:0:0:0:
475,192,64710,1,0,0:0:0:0:
402,192,64710,1,0,0:0:0:0:
182,192,64877,128,0,65210:0:0:0:50:CrashR.wav
109,192,64877,1,0,0:0:0:50:BaSS.wav
36,192,64877,1,0,0:0:0:0:
402,192,64877,1,0,0:0:0:0:
475,192,64877,1,0,0:0:0:0:
329,192,65043,128,0,65377:0:0:0:50:CrashR.wav
475,192,65043,1,0,0:0:0:50:BaSS.wav
402,192,65043,1,0,0:0:0:0:
109,192,65043,1,0,0:0:0:0:
36,192,65043,1,0,0:0:0:0:
256,192,65210,128,0,65377:0:0:0:0:
109,192,65210,1,0,0:0:0:0:
36,192,65210,1,0,0:0:0:0:
109,192,65377,1,0,0:0:0:50:CrashR.wav
36,192,65377,1,0,0:0:0:50:BaSS.wav
475,192,65377,1,0,0:0:0:0:
402,192,65377,1,0,0:0:0:0:
182,192,65377,1,0,0:0:0:0:
329,192,65543,128,0,65877:0:0:0:0:
402,192,65710,128,0,66043:0:0:0:50:CrashR.wav
182,192,65710,128,0,65793:0:0:0:50:BaSS.wav
109,192,65710,128,0,65793:0:0:0:0:
36,192,65710,128,0,65793:0:0:0:0:
256,192,65710,128,0,65793:0:0:0:0:
475,192,65877,128,0,66043:0:0:0:50:CrashR.wav
109,192,65877,128,0,66043:0:0:0:50:BaSS.wav
36,192,65877,128,0,66043:0:0:0:0:
182,192,65877,128,0,66043:0:0:0:0:
256,192,65877,128,0,66043:0:0:0:0:
329,192,66043,128,0,66210:0:0:0:0:
256,192,66127,128,0,66293:0:0:0:0:
182,192,66210,128,0,66377:0:0:0:50:CrashR.wav
109,192,66210,128,0,66377:0:0:0:50:BaSS.wav
36,192,66210,128,0,66377:0:0:0:0:
402,192,66210,128,0,66377:0:0:0:0:
475,192,66210,128,0,66377:0:0:0:0:
329,192,66377,128,0,66543:0:0:0:0:
182,192,66543,128,0,66877:0:0:0:50:CrashR.wav
109,192,66543,128,0,66710:0:0:0:50:BaSS.wav
36,192,66543,128,0,66710:0:0:0:0:
475,192,66543,128,0,66710:0:0:0:0:
256,192,66543,128,0,66710:0:0:0:0:
329,192,66710,128,0,67043:0:0:0:0:
256,192,66877,128,0,67210:0:0:0:50:CrashR.wav
109,192,66877,1,0,0:0:0:50:BaSS.wav
36,192,66877,1,0,0:0:0:0:
402,192,66877,1,0,0:0:0:0:
475,192,66877,1,0,0:0:0:0:
182,192,67043,128,0,67377:0:0:0:50:CrashR.wav
109,192,67043,1,0,0:0:0:50:BaSS.wav
36,192,67043,1,0,0:0:0:0:
475,192,67043,1,0,0:0:0:0:
402,192,67043,1,0,0:0:0:0:
329,192,67210,128,0,67543:0:0:0:50:CrashR.wav
109,192,67210,1,0,0:0:0:50:BaSS.wav
36,192,67210,1,0,0:0:0:0:
402,192,67210,1,0,0:0:0:0:
475,192,67210,1,0,0:0:0:0:
256,192,67377,128,0,67543:0:0:0:50:CrashR.wav
109,192,67377,1,0,0:0:0:50:BaSS.wav
36,192,67377,1,0,0:0:0:0:
475,192,67377,1,0,0:0:0:0:
402,192,67377,1,0,0:0:0:0:
182,192,67543,1,0,0:0:0:50:CrashR.wav
109,192,67543,1,0,0:0:0:50:BaSS.wav
36,192,67543,1,0,0:0:0:0:
402,192,67543,1,0,0:0:0:0:
475,192,67543,1,0,0:0:0:0:
36,192,68043,1,0,0:0:0:50:CrashR.wav
109,192,68043,1,0,0:0:0:50:BaSS.wav
475,192,68043,1,0,0:0:0:0:
402,192,68043,1,0,0:0:0:0:
256,192,68043,1,0,0:0:0:0:
475,192,68210,128,0,68543:0:0:0:0:
36,192,68377,128,0,68460:0:0:0:50:CrashR.wav
256,192,68377,128,0,68460:0:0:0:50:BaSS.wav
182,192,68377,128,0,68460:0:0:0:0:
402,192,68377,128,0,68543:0:0:0:0:
109,192,68377,128,0,68460:0:0:0:0:
182,192,68543,128,0,68710:0:0:0:50:CrashR.wav
109,192,68543,128,0,68710:0:0:0:50:BaSS.wav
329,192,68543,128,0,68793:0:0:0:0:
36,192,68543,128,0,68710:0:0:0:0:
256,192,68543,128,0,68710:0:0:0:0:
475,192,68710,128,0,68877:0:0:0:0:
402,192,68793,128,0,68960:0:0:0:0:
36,192,68877,128,0,69043:0:0:0:50:CrashR.wav
182,192,68877,128,0,69210:0:0:0:50:BaSS.wav
109,192,68877,128,0,69043:0:0:0:0:
329,192,68877,128,0,69043:0:0:0:0:
256,192,68877,128,0,69043:0:0:0:0:
475,192,69043,128,0,69377:0:0:0:0:
109,192,69210,128,0,69377:0:0:0:50:CrashR.wav
36,192,69210,128,0,69377:0:0:0:50:BaSS.wav
256,192,69210,128,0,69377:0:0:0:0:
329,192,69210,128,0,69543:0:0:0:0:
402,192,69210,128,0,69377:0:0:0:0:
182,192,69377,128,0,69877:0:0:0:0:
256,192,69543,128,0,69710:0:0:0:50:CrashR.wav
109,192,69543,1,0,0:0:0:50:BaSS.wav
36,192,69543,1,0,0:0:0:0:
402,192,69543,1,0,0:0:0:0:
475,192,69543,1,0,0:0:0:0:
329,192,69710,128,0,70043:0:0:0:50:CrashR.wav
109,192,69710,1,0,0:0:0:50:BaSS.wav
36,192,69710,1,0,0:0:0:0:
402,192,69710,1,0,0:0:0:0:
475,192,69710,1,0,0:0:0:0:
475,192,69877,1,0,0:0:0:50:CrashR.wav
402,192,69877,1,0,0:0:0:50:BaSS.wav
109,192,69877,1,0,0:0:0:0:
36,192,69877,1,0,0:0:0:0:
256,192,69877,128,0,70210:0:0:0:0:
182,192,70043,128,0,70543:0:0:0:50:CrashR.wav
402,192,70043,1,0,0:0:0:50:BaSS.wav
475,192,70043,1,0,0:0:0:0:
109,192,70043,1,0,0:0:0:0:
36,192,70043,1,0,0:0:0:0:
329,192,70210,128,0,70377:0:0:0:50:CrashR.wav
475,192,70210,1,0,0:0:0:50:BaSS.wav
402,192,70210,1,0,0:0:0:0:
109,192,70210,1,0,0:0:0:0:
36,192,70210,1,0,0:0:0:0:
256,192,70377,128,0,70710:0:0:0:50:CrashR.wav
402,192,70377,1,0,0:0:0:50:BaSS.wav
475,192,70377,1,0,0:0:0:0:
109,192,70377,1,0,0:0:0:0:
36,192,70377,1,0,0:0:0:0:
36,192,70543,1,0,0:0:0:0:
109,192,70543,1,0,0:0:0:0:
329,192,70543,128,0,70710:0:0:0:0:
475,192,70710,1,0,0:0:0:50:CrashR.wav
36,192,70710,1,0,0:0:0:50:BaSS.wav
109,192,70710,1,0,0:0:0:0:
402,192,70710,1,0,0:0:0:0:
182,192,70710,1,0,0:0:0:0:
256,192,70793,1,0,0:0:0:0:
329,192,70793,1,0,0:0:0:0:
109,192,70877,1,0,0:0:0:50:BaSS.wav
36,192,70877,1,0,0:0:0:0:
402,192,70877,1,0,0:0:0:0:
475,192,70960,1,0,0:0:0:0:
182,192,70960,1,0,0:0:0:0:
256,192,71043,1,0,0:0:0:50:BaSS.wav
329,192,71043,1,0,0:0:0:0:
36,192,71043,1,0,0:0:0:0:
402,192,71127,1,0,0:0:0:0:
109,192,71127,1,0,0:0:0:0:
182,192,71210,1,0,0:0:0:50:BaSS.wav
256,192,71210,1,0,0:0:0:0:
475,192,71210,1,0,0:0:0:0:
329,192,71293,1,0,0:0:0:0:
36,192,71293,1,0,0:0:0:0:
182,192,71377,1,0,0:0:0:50:CrashR.wav
109,192,71377,1,0,0:0:0:50:BaSS.wav
402,192,71377,1,0,0:0:0:0:
256,192,71460,1,0,0:0:0:0:
475,192,71460,1,0,0:0:0:0:
109,192,71543,1,0,0:0:0:50:BaSS.wav
36,192,71543,1,0,0:0:0:0:
329,192,71543,1,0,0:0:0:0:
402,192,71627,1,0,0:0:0:0:
256,192,71627,1,0,0:0:0:0:
475,192,71710,1,0,0:0:0:50:BaSS.wav
182,192,71710,1,0,0:0:0:0:
36,192,71710,1,0,0:0:0:0:
109,192,71793,1,0,0:0:0:0:
329,192,71793,1,0,0:0:0:0:
402,192,71877,1,0,0:0:0:50:BaSS.wav
475,192,71877,1,0,0:0:0:0:
256,192,71877,1,0,0:0:0:0:
182,192,71960,1,0,0:0:0:0:
329,192,71960,1,0,0:0:0:0:
36,192,72043,1,0,0:0:0:50:CrashR.wav
109,192,72043,1,0,0:0:0:50:BaSS.wav
402,192,72043,1,0,0:0:0:0:
475,192,72127,1,0,0:0:0:50:BaSS.wav
256,192,72127,1,0,0:0:0:0:
182,192,72127,1,0,0:0:0:0:
36,192,72210,1,0,0:0:0:50:BaSS.wav
329,192,72210,1,0,0:0:0:0:
402,192,72210,1,0,0:0:0:0:
182,192,72293,1,0,0:0:0:50:BaSS.wav
109,192,72293,1,0,0:0:0:0:
475,192,72293,1,0,0:0:0:0:
256,192,72377,1,0,0:0:0:50:BaSS.wav
329,192,72377,1,0,0:0:0:0:
36,192,72377,1,0,0:0:0:0:
402,192,72460,1,0,0:0:0:50:BaSS.wav
475,192,72460,1,0,0:0:0:0:
182,192,72460,1,0,0:0:0:0:
109,192,72543,1,0,0:0:0:50:BaSS.wav
36,192,72543,1,0,0:0:0:0:
329,192,72543,1,0,0:0:0:0:
256,192,72627,1,0,0:0:0:50:BaSS.wav
475,192,72627,1,0,0:0:0:0:
402,192,72627,1,0,0:0:0:0:
182,192,72710,128,0,73377:0:0:0:0:
329,192,73210,128,0,73377:0:0:0:0:
475,192,73377,5,0,0:0:0:50:CrashR.wav
402,192,73377,1,0,0:0:0:50:BaSS.wav
109,192,73377,1,0,0:0:0:0:
36,192,73377,1,0,0:0:0:0:
329,192,73460,1,0,0:0:0:50:CrashR.wav
256,192,73460,1,0,0:0:0:50:BaSS.wav
182,192,73460,1,0,0:0:0:0:
109,192,73543,1,0,0:0:0:50:CrashR.wav
36,192,73543,1,0,0:0:0:50:BaSS.wav
475,192,73543,1,0,0:0:0:0:
402,192,73543,1,0,0:0:0:0:
182,192,73627,1,0,0:0:0:50:CrashR.wav
256,192,73627,1,0,0:0:0:50:BaSS.wav
329,192,73627,1,0,0:0:0:0:
36,192,73710,1,0,0:0:0:50:CrashR.wav
109,192,73710,1,0,0:0:0:50:BaSS.wav
402,192,73710,1,0,0:0:0:0:
475,192,73710,1,0,0:0:0:0:
329,192,73793,1,0,0:0:0:50:CrashR.wav
256,192,73793,1,0,0:0:0:50:BaSS.wav
182,192,73793,1,0,0:0:0:0:
109,192,73877,1,0,0:0:0:50:CrashR.wav
36,192,73877,1,0,0:0:0:50:BaSS.wav
475,192,73877,1,0,0:0:0:0:
402,192,73877,1,0,0:0:0:0:
182,192,73960,1,0,0:0:0:50:CrashR.wav
256,192,73960,1,0,0:0:0:50:BaSS.wav
329,192,73960,1,0,0:0:0:0:
109,192,74043,128,0,74627:0:0:0:0:
36,192,74043,128,0,74627:0:0:0:0:
475,192,74043,128,0,74210:0:0:0:0:
402,192,74127,128,0,74293:0:0:0:0:
329,192,74210,128,0,74377:0:0:0:0:
256,192,74293,128,0,74460:0:0:0:0:
402,192,74377,128,0,74543:0:0:0:0:
329,192,74460,128,0,74710:0:0:0:0:
256,192,74543,128,0,74710:0:0:0:0:
182,192,74627,128,0,74710:0:0:0:0:
109,192,74710,1,0,0:0:0:50:BaSS.wav
36,192,74710,1,0,0:0:0:0:
402,192,74710,1,0,0:0:0:0:
475,192,74710,1,0,0:0:0:0:
329,192,74793,1,0,0:0:0:0:
256,192,74877,1,0,0:0:0:0:
182,192,74960,1,0,0:0:0:0:
329,192,75043,1,0,0:0:0:0:
475,192,75043,1,0,0:0:0:0:
36,192,75043,1,0,0:0:0:0:
109,192,75127,1,0,0:0:0:0:
256,192,75210,1,0,0:0:0:0:
182,192,75293,1,0,0:0:0:0:
402,192,75293,1,0,0:0:0:0:
109,192,75377,1,0,0:0:0:0:
36,192,75377,1,0,0:0:0:0:
329,192,75460,1,0,0:0:0:0:
475,192,75460,1,0,0:0:0:0:
109,192,75543,1,0,0:0:0:0:
36,192,75543,1,0,0:0:0:0:
329,192,75627,1,0,0:0:0:0:
475,192,75627,1,0,0:0:0:0:
182,192,75710,1,0,0:0:0:50:Impact.wav
36,192,75710,1,0,0:0:0:0:
109,192,75710,1,0,0:0:0:0:
402,192,75793,1,0,0:0:0:0:
475,192,75793,1,0,0:0:0:0:
256,192,75793,1,0,0:0:0:0:
182,192,75877,1,0,0:0:0:50:Impact.wav
36,192,75877,1,0,0:0:0:0:
109,192,75877,1,0,0:0:0:0:
475,192,75960,1,0,0:0:0:0:
402,192,75960,1,0,0:0:0:0:
256,192,75960,1,0,0:0:0:0:
36,192,76043,1,0,0:0:0:50:CrashR.wav
109,192,76043,1,0,0:0:0:50:BaSS.wav
329,192,76043,1,0,0:0:0:0:
182,192,76043,128,0,76210:0:0:0:0:
256,192,76127,128,0,76293:0:0:0:0:
402,192,76127,1,0,0:0:0:0:
475,192,76210,1,0,0:0:0:0:
36,192,76210,1,0,0:0:0:0:
109,192,76293,1,0,0:0:0:0:
329,192,76293,1,0,0:0:0:0:
475,192,76377,128,0,76543:0:0:0:50:Impact.wav
182,192,76377,1,0,0:0:0:0:
402,192,76377,1,0,0:0:0:0:
109,192,76460,1,0,0:0:0:0:
329,192,76460,1,0,0:0:0:0:
36,192,76543,1,0,0:0:0:0:
256,192,76543,1,0,0:0:0:0:
475,192,76627,128,0,76793:0:0:0:0:
182,192,76627,1,0,0:0:0:0:
36,192,76710,1,0,0:0:0:50:BaSS.wav
109,192,76710,1,0,0:0:0:0:
402,192,76710,1,0,0:0:0:0:
329,192,76793,1,0,0:0:0:0:
182,192,76793,1,0,0:0:0:0:
475,192,76877,128,0,77043:0:0:0:0:
256,192,76877,1,0,0:0:0:0:
402,192,76960,128,0,77127:0:0:0:0:
182,192,76960,1,0,0:0:0:0:
329,192,77043,128,0,77210:0:0:0:50:Impact.wav
109,192,77043,1,0,0:0:0:0:
36,192,77043,1,0,0:0:0:0:
256,192,77127,128,0,77293:0:0:0:0:
475,192,77127,1,0,0:0:0:0:
182,192,77210,128,0,77377:0:0:0:0:
402,192,77210,1,0,0:0:0:0:
109,192,77293,128,0,77460:0:0:0:0:
329,192,77293,1,0,0:0:0:0:
256,192,77377,1,0,0:0:0:50:BaSS.wav
36,192,77377,1,0,0:0:0:0:
402,192,77377,1,0,0:0:0:0:
475,192,77460,128,0,77627:0:0:0:0:
182,192,77460,1,0,0:0:0:0:
109,192,77543,1,0,0:0:0:0:
329,192,77543,1,0,0:0:0:0:
182,192,77627,1,0,0:0:0:0:
402,192,77627,1,0,0:0:0:0:
36,192,77710,128,0,77877:0:0:0:50:Impact.wav
475,192,77710,1,0,0:0:0:0:
256,192,77710,1,0,0:0:0:0:
402,192,77793,1,0,0:0:0:0:
182,192,77793,1,0,0:0:0:0:
109,192,77877,1,0,0:0:0:0:
329,192,77877,1,0,0:0:0:0:
36,192,77960,128,0,78127:0:0:0:0:
256,192,77960,1,0,0:0:0:0:
182,192,78043,1,0,0:0:0:50:BaSS.wav
402,192,78043,1,0,0:0:0:0:
475,192,78043,1,0,0:0:0:0:
109,192,78127,1,0,0:0:0:0:
329,192,78127,1,0,0:0:0:0:
36,192,78210,128,0,78377:0:0:0:0:
256,192,78210,1,0,0:0:0:0:
109,192,78293,128,0,78460:0:0:0:0:
329,192,78293,1,0,0:0:0:0:
182,192,78377,128,0,78543:0:0:0:50:Impact.wav
475,192,78377,1,0,0:0:0:0:
402,192,78377,1,0,0:0:0:0:
256,192,78460,128,0,78627:0:0:0:0:
36,192,78460,1,0,0:0:0:0:
329,192,78543,128,0,78710:0:0:0:0:
109,192,78543,1,0,0:0:0:0:
402,192,78627,128,0,78793:0:0:0:0:
182,192,78627,1,0,0:0:0:0:
256,192,78710,1,0,0:0:0:50:BaSS.wav
475,192,78710,1,0,0:0:0:0:
36,192,78710,1,0,0:0:0:0:
109,192,78793,128,0,78960:0:0:0:0:
329,192,78793,1,0,0:0:0:0:
402,192,78877,1,0,0:0:0:0:
475,192,78877,1,0,0:0:0:0:
182,192,78960,1,0,0:0:0:0:
36,192,78960,1,0,0:0:0:0:
402,192,79043,128,0,79210:0:0:0:50:Impact.wav
256,192,79043,1,0,0:0:0:0:
475,192,79043,1,0,0:0:0:0:
329,192,79127,1,0,0:0:0:0:
109,192,79127,1,0,0:0:0:0:
182,192,79210,1,0,0:0:0:0:
36,192,79210,1,0,0:0:0:0:
402,192,79293,128,0,79460:0:0:0:0:
256,192,79293,1,0,0:0:0:0:
329,192,79377,1,0,0:0:0:50:BaSS.wav
109,192,79377,1,0,0:0:0:0:
475,192,79377,1,0,0:0:0:0:
182,192,79460,1,0,0:0:0:0:
36,192,79460,1,0,0:0:0:0:
402,192,79543,128,0,79710:0:0:0:0:
256,192,79543,1,0,0:0:0:0:
329,192,79627,128,0,79793:0:0:0:0:
182,192,79627,1,0,0:0:0:0:
256,192,79710,128,0,79877:0:0:0:50:Impact.wav
109,192,79710,1,0,0:0:0:0:
36,192,79710,1,0,0:0:0:0:
182,192,79793,128,0,79960:0:0:0:0:
475,192,79793,1,0,0:0:0:0:
109,192,79877,128,0,80043:0:0:0:0:
402,192,79877,1,0,0:0:0:0:
36,192,79960,128,0,80127:0:0:0:0:
329,192,79960,1,0,0:0:0:0:
256,192,80043,1,0,0:0:0:50:BaSS.wav
402,192,80043,1,0,0:0:0:0:
182,192,80043,1,0,0:0:0:0:
475,192,80127,128,0,80293:0:0:0:0:
109,192,80127,1,0,0:0:0:0:
36,192,80210,1,0,0:0:0:0:
256,192,80210,1,0,0:0:0:0:
329,192,80293,1,0,0:0:0:0:
182,192,80293,1,0,0:0:0:0:
475,192,80377,128,0,80543:0:0:0:50:Impact.wav
402,192,80377,1,0,0:0:0:0:
109,192,80377,1,0,0:0:0:0:
256,192,80460,1,0,0:0:0:0:
36,192,80460,1,0,0:0:0:0:
109,192,80543,128,0,80710:0:0:0:0:
329,192,80543,1,0,0:0:0:0:
36,192,80627,128,0,80793:0:0:0:0:
402,192,80627,1,0,0:0:0:0:
475,192,80710,1,0,0:0:0:50:BaSS.wav
182,192,80710,1,0,0:0:0:0:
256,192,80710,1,0,0:0:0:0:
329,192,80793,1,0,0:0:0:0:
109,192,80793,1,0,0:0:0:0:
402,192,80877,128,0,81043:0:0:0:0:
36,192,80877,1,0,0:0:0:0:
475,192,80960,128,0,81127:0:0:0:0:
182,192,80960,1,0,0:0:0:0:
36,192,81043,1,0,0:0:0:50:Impact.wav
329,192,81043,1,0,0:0:0:0:
109,192,81043,1,0,0:0:0:0:
402,192,81127,1,0,0:0:0:0:
256,192,81127,128,0,81293:0:0:0:0:
475,192,81210,1,0,0:0:0:0:
109,192,81210,1,0,0:0:0:0:
182,192,81293,128,0,81460:0:0:0:0:
329,192,81293,1,0,0:0:0:0:
402,192,81377,1,0,0:0:0:50:BaSS.wav
475,192,81377,1,0,0:0:0:0:
36,192,81377,1,0,0:0:0:0:
109,192,81460,128,0,81627:0:0:0:0:
256,192,81460,1,0,0:0:0:0:
329,192,81543,1,0,0:0:0:0:
402,192,81543,1,0,0:0:0:0:
256,192,81627,1,0,0:0:0:0:
475,192,81627,1,0,0:0:0:0:
109,192,81710,128,0,81877:0:0:0:50:Impact.wav
182,192,81710,1,0,0:0:0:0:
402,192,81710,1,0,0:0:0:0:
329,192,81793,1,0,0:0:0:0:
256,192,81877,1,0,0:0:0:0:
402,192,81960,128,0,82127:0:0:0:0:
182,192,81960,1,0,0:0:0:0:
109,192,82043,1,0,0:0:0:50:BaSS.wav
36,192,82043,1,0,0:0:0:0:
329,192,82043,1,0,0:0:0:0:
256,192,82127,1,0,0:0:0:0:
475,192,82127,1,0,0:0:0:0:
402,192,82210,128,0,82377:0:0:0:0:
182,192,82210,1,0,0:0:0:0:
109,192,82293,1,0,0:0:0:0:
256,192,82293,1,0,0:0:0:0:
36,192,82377,1,0,0:0:0:50:Impact.wav
329,192,82377,1,0,0:0:0:0:
475,192,82377,1,0,0:0:0:0:
256,192,82460,128,0,82627:0:0:0:0:
182,192,82460,1,0,0:0:0:0:
109,192,82543,1,0,0:0:0:0:
402,192,82543,1,0,0:0:0:0:
36,192,82627,1,0,0:0:0:0:
329,192,82627,1,0,0:0:0:0:
109,192,82710,128,0,82877:0:0:0:50:BaSS.wav
256,192,82710,1,0,0:0:0:0:
475,192,82710,1,0,0:0:0:0:
36,192,82793,128,0,82960:0:0:0:0:
402,192,82793,1,0,0:0:0:0:
329,192,82877,1,0,0:0:0:0:
182,192,82877,1,0,0:0:0:0:
109,192,82960,1,0,0:0:0:0:
402,192,82960,1,0,0:0:0:0:
36,192,83043,128,0,83210:0:0:0:50:Impact.wav
475,192,83043,1,0,0:0:0:0:
256,192,83043,1,0,0:0:0:0:
182,192,83127,1,0,0:0:0:0:
329,192,83127,1,0,0:0:0:0:
402,192,83210,1,0,0:0:0:0:
109,192,83210,1,0,0:0:0:0:
475,192,83293,128,0,83460:0:0:0:0:
256,192,83293,1,0,0:0:0:0:
329,192,83377,1,0,0:0:0:50:BaSS.wav
36,192,83377,1,0,0:0:0:0:
109,192,83377,1,0,0:0:0:0:
402,192,83460,1,0,0:0:0:0:
182,192,83460,1,0,0:0:0:0:
475,192,83543,128,0,83710:0:0:0:0:
256,192,83543,1,0,0:0:0:0:
329,192,83627,1,0,0:0:0:0:
109,192,83627,1,0,0:0:0:0:
182,192,83710,1,0,0:0:0:50:Impact.wav
36,192,83710,1,0,0:0:0:0:
402,192,83710,1,0,0:0:0:0:
475,192,83793,128,0,83960:0:0:0:0:
256,192,83793,1,0,0:0:0:0:
402,192,83877,128,0,84043:0:0:0:0:
109,192,83877,1,0,0:0:0:0:
329,192,83960,128,0,84127:0:0:0:0:
182,192,83960,1,0,0:0:0:0:
36,192,84043,128,0,84210:0:0:0:50:BaSS.wav
475,192,84043,1,0,0:0:0:0:
256,192,84043,1,0,0:0:0:0:
402,192,84127,1,0,0:0:0:0:
109,192,84127,1,0,0:0:0:0:
329,192,84210,1,0,0:0:0:0:
182,192,84210,1,0,0:0:0:0:
109,192,84293,128,0,84460:0:0:0:0:
256,192,84293,1,0,0:0:0:0:
402,192,84377,1,0,0:0:0:50:Impact.wav
475,192,84377,1,0,0:0:0:0:
182,192,84377,1,0,0:0:0:0:
329,192,84460,1,0,0:0:0:0:
36,192,84460,1,0,0:0:0:0:
182,192,84543,128,0,84710:0:0:0:0:
256,192,84543,1,0,0:0:0:0:
36,192,84627,1,0,0:0:0:0:
329,192,84627,1,0,0:0:0:0:
109,192,84710,1,0,0:0:0:50:BaSS.wav
475,192,84710,1,0,0:0:0:0:
402,192,84710,1,0,0:0:0:0:
329,192,84793,128,0,84960:0:0:0:0:
182,192,84793,1,0,0:0:0:0:
402,192,84877,128,0,85043:0:0:0:0:
36,192,84877,1,0,0:0:0:0:
475,192,84960,128,0,85127:0:0:0:0:
256,192,84960,1,0,0:0:0:0:
329,192,85043,1,0,0:0:0:50:Impact.wav
109,192,85043,1,0,0:0:0:0:
36,192,85043,1,0,0:0:0:0:
182,192,85127,128,0,85293:0:0:0:0:
402,192,85127,1,0,0:0:0:0:
109,192,85210,128,0,85377:0:0:0:0:
475,192,85210,1,0,0:0:0:0:
36,192,85293,128,0,85460:0:0:0:0:
256,192,85293,1,0,0:0:0:0:
182,192,85377,1,0,0:0:0:50:BaSS.wav
329,192,85377,1,0,0:0:0:0:
402,192,85377,1,0,0:0:0:0:
475,192,85460,128,0,85627:0:0:0:0:
109,192,85460,1,0,0:0:0:0:
182,192,85543,1,0,0:0:0:0:
329,192,85543,1,0,0:0:0:0:
36,192,85627,128,0,85793:0:0:0:0:
402,192,85627,1,0,0:0:0:0:
109,192,85710,128,0,85877:0:0:0:50:Impact.wav
475,192,85710,1,0,0:0:0:0:
256,192,85710,1,0,0:0:0:0:
329,192,85793,1,0,0:0:0:0:
182,192,85793,1,0,0:0:0:0:
402,192,85877,128,0,86043:0:0:0:0:
36,192,85877,1,0,0:0:0:0:
475,192,85960,128,0,86127:0:0:0:0:
109,192,85960,1,0,0:0:0:0:
182,192,86043,1,0,0:0:0:50:BaSS.wav
329,192,86043,1,0,0:0:0:0:
256,192,86043,1,0,0:0:0:0:
109,192,86127,128,0,86293:0:0:0:0:
402,192,86127,1,0,0:0:0:0:
36,192,86210,128,0,86377:0:0:0:0:
475,192,86210,1,0,0:0:0:0:
182,192,86293,1,0,0:0:0:0:
402,192,86293,1,0,0:0:0:0:
475,192,86377,128,0,86543:0:0:0:50:Impact.wav
109,192,86377,1,0,0:0:0:0:
329,192,86377,1,0,0:0:0:0:
402,192,86460,128,0,86627:0:0:0:0:
36,192,86460,1,0,0:0:0:0:
329,192,86543,128,0,86710:0:0:0:0:
182,192,86543,1,0,0:0:0:0:
256,192,86627,128,0,86793:0:0:0:0:
109,192,86627,1,0,0:0:0:0:
36,192,86710,1,0,0:0:0:50:CrashR.wav
475,192,86710,1,0,0:0:0:50:BaSS.wav
402,192,86710,1,0,0:0:0:0:
182,192,86710,1,0,0:0:0:0:
329,192,86793,1,0,0:0:0:0:
109,192,86793,1,0,0:0:0:0:
256,192,86877,1,0,0:0:0:0:
182,192,86877,1,0,0:0:0:0:
475,192,86877,1,0,0:0:0:0:
402,192,86960,1,0,0:0:0:0:
109,192,86960,1,0,0:0:0:0:
36,192,87043,1,0,0:0:0:50:Impact.wav
329,192,87043,1,0,0:0:0:0:
256,192,87043,1,0,0:0:0:0:
475,192,87043,1,0,0:0:0:0:
182,192,87127,1,0,0:0:0:0:
402,192,87127,1,0,0:0:0:0:
109,192,87210,1,0,0:0:0:0:
329,192,87210,1,0,0:0:0:0:
36,192,87210,1,0,0:0:0:0:
256,192,87293,1,0,0:0:0:0:
402,192,87293,1,0,0:0:0:0:
475,192,87377,1,0,0:0:0:50:BaSS.wav
182,192,87377,1,0,0:0:0:0:
36,192,87377,1,0,0:0:0:0:
109,192,87377,1,0,0:0:0:0:
256,192,87460,1,0,0:0:0:0:
329,192,87460,1,0,0:0:0:0:
402,192,87543,1,0,0:0:0:0:
475,192,87543,1,0,0:0:0:0:
182,192,87543,1,0,0:0:0:0:
109,192,87627,1,0,0:0:0:0:
256,192,87627,1,0,0:0:0:0:
329,192,87710,1,0,0:0:0:50:Impact.wav
402,192,87710,1,0,0:0:0:0:
475,192,87710,1,0,0:0:0:0:
36,192,87710,1,0,0:0:0:0:
256,192,87793,1,0,0:0:0:0:
182,192,87793,1,0,0:0:0:0:
109,192,87877,1,0,0:0:0:0:
36,192,87877,1,0,0:0:0:0:
329,192,87877,1,0,0:0:0:0:
402,192,87960,1,0,0:0:0:0:
182,192,87960,1,0,0:0:0:0:
256,192,88043,1,0,0:0:0:50:BaSS.wav
475,192,88043,1,0,0:0:0:0:
109,192,88043,1,0,0:0:0:0:
36,192,88043,1,0,0:0:0:0:
329,192,88127,1,0,0:0:0:0:
402,192,88127,1,0,0:0:0:0:
182,192,88210,1,0,0:0:0:0:
109,192,88210,1,0,0:0:0:0:
475,192,88210,1,0,0:0:0:0:
256,192,88293,1,0,0:0:0:0:
36,192,88293,1,0,0:0:0:0:
109,192,88377,1,0,0:0:0:50:Impact.wav
329,192,88377,1,0,0:0:0:0:
402,192,88377,1,0,0:0:0:0:
475,192,88377,1,0,0:0:0:0:
182,192,88460,1,0,0:0:0:0:
256,192,88460,1,0,0:0:0:0:
109,192,88543,1,0,0:0:0:0:
36,192,88543,1,0,0:0:0:0:
329,192,88543,1,0,0:0:0:0:
402,192,88627,1,0,0:0:0:0:
256,192,88627,1,0,0:0:0:0:
182,192,88710,1,0,0:0:0:50:BaSS.wav
475,192,88710,1,0,0:0:0:0:
109,192,88710,1,0,0:0:0:0:
36,192,88710,1,0,0:0:0:0:
329,192,88793,1,0,0:0:0:0:
402,192,88793,1,0,0:0:0:0:
256,192,88877,1,0,0:0:0:0:
182,192,88877,1,0,0:0:0:0:
36,192,88877,1,0,0:0:0:0:
329,192,88960,1,0,0:0:0:0:
109,192,88960,1,0,0:0:0:0:
182,192,89043,1,0,0:0:0:50:Impact.wav
475,192,89043,1,0,0:0:0:0:
402,192,89043,1,0,0:0:0:0:
256,192,89043,1,0,0:0:0:0:
109,192,89127,1,0,0:0:0:0:
329,192,89127,1,0,0:0:0:0:
36,192,89210,1,0,0:0:0:0:
256,192,89210,1,0,0:0:0:0:
402,192,89210,1,0,0:0:0:0:
475,192,89293,1,0,0:0:0:0:
182,192,89293,1,0,0:0:0:0:
109,192,89377,1,0,0:0:0:50:BaSS.wav
36,192,89377,1,0,0:0:0:0:
329,192,89377,1,0,0:0:0:0:
402,192,89377,1,0,0:0:0:0:
256,192,89460,1,0,0:0:0:0:
475,192,89460,1,0,0:0:0:0:
182,192,89543,1,0,0:0:0:0:
109,192,89543,1,0,0:0:0:0:
329,192,89543,1,0,0:0:0:0:
402,192,89627,1,0,0:0:0:0:
256,192,89627,1,0,0:0:0:0:
329,192,89710,1,0,0:0:0:50:Impact.wav
475,192,89710,1,0,0:0:0:0:
109,192,89710,1,0,0:0:0:0:
36,192,89710,1,0,0:0:0:0:
182,192,89793,1,0,0:0:0:0:
402,192,89793,1,0,0:0:0:0:
256,192,89877,1,0,0:0:0:0:
475,192,89877,1,0,0:0:0:0:
36,192,89877,1,0,0:0:0:0:
329,192,89960,1,0,0:0:0:0:
109,192,89960,1,0,0:0:0:0:
182,192,90043,1,0,0:0:0:50:BaSS.wav
402,192,90043,1,0,0:0:0:0:
475,192,90043,1,0,0:0:0:0:
36,192,90043,1,0,0:0:0:0:
256,192,90127,1,0,0:0:0:0:
329,192,90127,1,0,0:0:0:0:
182,192,90210,1,0,0:0:0:0:
109,192,90210,1,0,0:0:0:0:
475,192,90210,1,0,0:0:0:0:
402,192,90293,1,0,0:0:0:0:
329,192,90293,1,0,0:0:0:0:
256,192,90377,1,0,0:0:0:50:Impact.wav
475,192,90377,1,0,0:0:0:0:
109,192,90377,1,0,0:0:0:0:
36,192,90377,1,0,0:0:0:0:
182,192,90460,1,0,0:0:0:0:
329,192,90460,1,0,0:0:0:0:
402,192,90543,1,0,0:0:0:0:
256,192,90543,1,0,0:0:0:0:
36,192,90543,1,0,0:0:0:0:
475,192,90627,1,0,0:0:0:0:
182,192,90627,1,0,0:0:0:0:
109,192,90710,1,0,0:0:0:50:BaSS.wav
36,192,90710,1,0,0:0:0:0:
329,192,90710,1,0,0:0:0:0:
402,192,90710,1,0,0:0:0:0:
256,192,90793,1,0,0:0:0:0:
182,192,90793,1,0,0:0:0:0:
475,192,90877,1,0,0:0:0:0:
402,192,90877,1,0,0:0:0:0:
109,192,90877,1,0,0:0:0:0:
36,192,90960,1,0,0:0:0:0:
329,192,90960,1,0,0:0:0:0:
256,192,91043,1,0,0:0:0:50:Impact.wav
182,192,91043,1,0,0:0:0:0:
475,192,91043,1,0,0:0:0:0:
402,192,91043,1,0,0:0:0:0:
109,192,91127,1,0,0:0:0:0:
329,192,91127,1,0,0:0:0:0:
475,192,91210,1,0,0:0:0:0:
36,192,91210,1,0,0:0:0:0:
256,192,91210,1,0,0:0:0:0:
182,192,91293,1,0,0:0:0:0:
329,192,91293,1,0,0:0:0:0:
402,192,91377,1,0,0:0:0:50:BaSS.wav
256,192,91377,1,0,0:0:0:0:
109,192,91377,1,0,0:0:0:0:
36,192,91377,1,0,0:0:0:0:
329,192,91460,1,0,0:0:0:0:
475,192,91460,1,0,0:0:0:0:
402,192,91543,1,0,0:0:0:0:
182,192,91543,1,0,0:0:0:0:
36,192,91543,1,0,0:0:0:0:
109,192,91627,1,0,0:0:0:0:
329,192,91627,1,0,0:0:0:0:
256,192,91710,1,0,0:0:0:50:Impact.wav
36,192,91710,1,0,0:0:0:0:
475,192,91710,1,0,0:0:0:0:
402,192,91710,1,0,0:0:0:0:
182,192,91793,1,0,0:0:0:0:
329,192,91793,1,0,0:0:0:0:
109,192,91877,1,0,0:0:0:0:
475,192,91877,1,0,0:0:0:0:
402,192,91877,1,0,0:0:0:0:
256,192,91960,1,0,0:0:0:0:
36,192,91960,1,0,0:0:0:0:
475,192,92043,1,0,0:0:0:50:BaSS.wav
402,192,92043,1,0,0:0:0:0:
109,192,92043,1,0,0:0:0:0:
329,192,92043,1,0,0:0:0:0:
182,192,92127,1,0,0:0:0:0:
256,192,92127,1,0,0:0:0:0:
329,192,92210,1,0,0:0:0:0:
36,192,92210,1,0,0:0:0:0:
109,192,92210,1,0,0:0:0:0:
402,192,92293,1,0,0:0:0:0:
182,192,92293,1,0,0:0:0:0:
475,192,92377,1,0,0:0:0:50:Impact.wav
256,192,92377,1,0,0:0:0:0:
36,192,92377,1,0,0:0:0:0:
329,192,92377,1,0,0:0:0:0:
182,192,92460,1,0,0:0:0:0:
402,192,92460,1,0,0:0:0:0:
109,192,92543,1,0,0:0:0:0:
329,192,92543,1,0,0:0:0:0:
36,192,92543,1,0,0:0:0:0:
256,192,92627,1,0,0:0:0:0:
402,192,92627,1,0,0:0:0:0:
475,192,92710,1,0,0:0:0:50:BaSS.wav
182,192,92710,1,0,0:0:0:0:
109,192,92710,1,0,0:0:0:0:
36,192,92710,1,0,0:0:0:0:
329,192,92793,1,0,0:0:0:0:
256,192,92793,1,0,0:0:0:0:
402,192,92877,1,0,0:0:0:0:
109,192,92877,1,0,0:0:0:0:
36,192,92877,1,0,0:0:0:0:
475,192,92960,1,0,0:0:0:0:
182,192,92960,1,0,0:0:0:0:
256,192,93043,1,0,0:0:0:50:Impact.wav
329,192,93043,1,0,0:0:0:0:
109,192,93043,1,0,0:0:0:0:
36,192,93043,1,0,0:0:0:0:
402,192,93127,1,0,0:0:0:0:
182,192,93127,1,0,0:0:0:0:
256,192,93210,1,0,0:0:0:0:
475,192,93210,1,0,0:0:0:0:
109,192,93210,1,0,0:0:0:0:
36,192,93293,1,0,0:0:0:0:
329,192,93293,1,0,0:0:0:0:
402,192,93377,1,0,0:0:0:50:BaSS.wav
475,192,93377,1,0,0:0:0:0:
182,192,93377,1,0,0:0:0:0:
256,192,93377,1,0,0:0:0:0:
109,192,93460,1,0,0:0:0:0:
329,192,93460,1,0,0:0:0:0:
256,192,93543,1,0,0:0:0:0:
36,192,93543,1,0,0:0:0:0:
475,192,93543,1,0,0:0:0:0:
402,192,93627,1,0,0:0:0:0:
182,192,93627,1,0,0:0:0:0:
329,192,93710,1,0,0:0:0:50:Impact.wav
109,192,93710,1,0,0:0:0:0:
36,192,93710,1,0,0:0:0:0:
475,192,93710,1,0,0:0:0:0:
256,192,93793,1,0,0:0:0:0:
182,192,93793,1,0,0:0:0:0:
329,192,93877,1,0,0:0:0:0:
402,192,93877,1,0,0:0:0:0:
36,192,93877,1,0,0:0:0:0:
182,192,93960,1,0,0:0:0:0:
109,192,93960,1,0,0:0:0:0:
256,192,94043,1,0,0:0:0:50:BaSS.wav
475,192,94043,1,0,0:0:0:0:
402,192,94043,1,0,0:0:0:0:
36,192,94043,1,0,0:0:0:0:
182,192,94127,1,0,0:0:0:0:
329,192,94127,1,0,0:0:0:0:
256,192,94210,1,0,0:0:0:0:
109,192,94210,1,0,0:0:0:0:
475,192,94210,1,0,0:0:0:0:
36,192,94293,1,0,0:0:0:0:
329,192,94293,1,0,0:0:0:0:
182,192,94377,1,0,0:0:0:50:Impact.wav
109,192,94377,1,0,0:0:0:0:
402,192,94377,1,0,0:0:0:0:
475,192,94377,1,0,0:0:0:0:
256,192,94460,1,0,0:0:0:0:
329,192,94460,1,0,0:0:0:0:
109,192,94543,1,0,0:0:0:0:
402,192,94543,1,0,0:0:0:0:
36,192,94543,1,0,0:0:0:0:
256,192,94627,1,0,0:0:0:0:
182,192,94627,1,0,0:0:0:0:
475,192,94710,5,0,0:0:0:50:CrashR.wav
402,192,94710,1,0,0:0:0:50:BaSS.wav
36,192,94710,1,0,0:0:0:0:
109,192,94710,1,0,0:0:0:0:
329,192,94710,1,0,0:0:0:0:
475,192,94960,1,0,0:0:0:50:CrashR.wav
36,192,94960,1,0,0:0:0:50:BaSS.wav
329,192,94960,1,0,0:0:0:0:
402,192,94960,1,0,0:0:0:0:
182,192,94960,1,0,0:0:0:0:
256,192,95210,1,0,0:0:0:50:BaSS.wav
109,192,95210,1,0,0:0:0:0:
36,192,95210,1,0,0:0:0:0:
402,192,95210,1,0,0:0:0:0:
475,192,95210,1,0,0:0:0:0:
256,192,95377,1,0,0:0:0:50:BaSS.wav
475,192,95377,1,0,0:0:0:0:
36,192,95377,1,0,0:0:0:0:
402,192,95377,1,0,0:0:0:0:
109,192,95377,1,0,0:0:0:0:
475,192,95627,1,0,0:0:0:50:BaSS.wav
329,192,95627,1,0,0:0:0:0:
36,192,95627,1,0,0:0:0:0:
182,192,95627,1,0,0:0:0:0:
109,192,95627,1,0,0:0:0:0:
182,192,95877,1,0,0:0:0:50:BaSS.wav
36,192,95877,1,0,0:0:0:0:
402,192,95877,1,0,0:0:0:0:
329,192,95877,1,0,0:0:0:0:
109,192,95877,1,0,0:0:0:0:
475,192,96043,1,0,0:0:0:0:
329,192,96085,1,0,0:0:0:0:
36,192,96127,1,0,0:0:0:0:
182,192,96168,1,0,0:0:0:0:
475,192,96210,1,0,0:0:0:0:
329,192,96252,1,0,0:0:0:0:
36,192,96293,1,0,0:0:0:0:
182,192,96335,1,0,0:0:0:0:
475,192,96377,1,0,0:0:0:0:
329,192,96418,1,0,0:0:0:0:
36,192,96460,1,0,0:0:0:0:
182,192,96502,1,0,0:0:0:0:
475,192,96543,1,0,0:0:0:0:
329,192,96585,1,0,0:0:0:0:
36,192,96627,1,0,0:0:0:0:
182,192,96668,1,0,0:0:0:0:
402,192,96710,1,0,0:0:0:0:
329,192,96752,1,0,0:0:0:0:
109,192,96793,1,0,0:0:0:0:
182,192,96835,1,0,0:0:0:0:
402,192,96877,1,0,0:0:0:0:
329,192,96918,1,0,0:0:0:0:
109,192,96960,1,0,0:0:0:0:
182,192,97002,1,0,0:0:0:0:
256,192,97043,1,0,0:0:0:0:
329,192,97085,1,0,0:0:0:0:
402,192,97127,1,0,0:0:0:0:
475,192,97168,1,0,0:0:0:0:
36,192,97210,1,0,0:0:0:0:
109,192,97252,1,0,0:0:0:0:
182,192,97293,1,0,0:0:0:0:
256,192,97335,1,0,0:0:0:0:
329,192,97377,1,0,0:0:0:0:
402,192,97377,1,0,0:0:0:0:
475,192,97377,1,0,0:0:0:0:
475,192,97543,1,0,0:0:0:50:CrashR.wav
402,192,97543,1,0,0:0:0:50:BaSS.wav
329,192,97543,1,0,0:0:0:0:
182,192,97543,1,0,0:0:0:0:
36,192,97543,1,0,0:0:0:0:
36,192,97710,1,0,0:0:0:50:CrashR.wav
182,192,97710,1,0,0:0:0:50:BaSS.wav
329,192,97710,1,0,0:0:0:0:
402,192,97710,1,0,0:0:0:0:
475,192,97710,1,0,0:0:0:0:
256,192,98043,1,0,0:0:0:50:CrashR.wav
109,192,98043,1,0,0:0:0:50:BaSS.wav
36,192,98043,1,0,0:0:0:0:
402,192,98043,1,0,0:0:0:0:
475,192,98043,1,0,0:0:0:0:
256,192,98210,1,0,0:0:0:50:CrashR.wav
109,192,98210,1,0,0:0:0:50:BaSS.wav
36,192,98210,1,0,0:0:0:0:
475,192,98210,1,0,0:0:0:0:
402,192,98210,1,0,0:0:0:0:
329,192,98543,1,0,0:0:0:50:CrashR.wav
475,192,98543,1,0,0:0:0:50:BaSS.wav
182,192,98543,1,0,0:0:0:0:
36,192,98543,1,0,0:0:0:0:
109,192,98543,1,0,0:0:0:0:
182,192,98710,1,0,0:0:0:50:BaSS.wav
109,192,98710,1,0,0:0:0:0:
36,192,98710,1,0,0:0:0:0:
329,192,98710,1,0,0:0:0:0:
475,192,98710,128,0,99043:0:0:0:0:
256,192,98877,1,0,0:0:0:0:
182,192,98960,1,0,0:0:0:0:
109,192,99043,1,0,0:0:0:0:
36,192,99043,1,0,0:0:0:0:
329,192,99043,128,0,99377:0:0:0:0:
475,192,99210,128,0,99377:0:0:0:0:
109,192,99210,1,0,0:0:0:0:
182,192,99293,1,0,0:0:0:0:
256,192,99377,1,0,0:0:0:0:
402,192,99377,1,0,0:0:0:0:
182,192,99460,1,0,0:0:0:0:
109,192,99460,1,0,0:0:0:0:
36,192,99543,128,0,100043:0:0:0:0:
402,192,99543,1,0,0:0:0:0:
475,192,99543,1,0,0:0:0:0:
329,192,99627,1,0,0:0:0:0:
182,192,99627,1,0,0:0:0:0:
109,192,99710,128,0,100043:0:0:0:0:
475,192,99710,1,0,0:0:0:0:
402,192,99710,1,0,0:0:0:0:
182,192,99877,128,0,100043:0:0:0:0:
402,192,99877,1,0,0:0:0:0:
475,192,99877,1,0,0:0:0:0:
329,192,99960,1,0,0:0:0:0:
256,192,99960,1,0,0:0:0:0:
182,192,100210,1,0,0:0:0:50:CrashR.wav
109,192,100210,1,0,0:0:0:50:BaSS.wav
36,192,100210,1,0,0:0:0:0:
402,192,100210,1,0,0:0:0:0:
475,192,100210,1,0,0:0:0:0:
475,192,100377,1,0,0:0:0:50:CrashR.wav
402,192,100377,1,0,0:0:0:50:BaSS.wav
182,192,100377,1,0,0:0:0:0:
36,192,100377,1,0,0:0:0:0:
109,192,100377,1,0,0:0:0:0:
329,192,100710,1,0,0:0:0:50:CrashR.wav
109,192,100710,1,0,0:0:0:50:BaSS.wav
36,192,100710,1,0,0:0:0:0:
475,192,100710,1,0,0:0:0:0:
402,192,100710,1,0,0:0:0:0:
109,192,100877,1,0,0:0:0:50:CrashR.wav
36,192,100877,1,0,0:0:0:50:BaSS.wav
329,192,100877,1,0,0:0:0:0:
402,192,100877,1,0,0:0:0:0:
475,192,100877,1,0,0:0:0:0:
256,192,101210,1,0,0:0:0:50:CrashR.wav
329,192,101210,1,0,0:0:0:50:BaSS.wav
36,192,101210,1,0,0:0:0:0:
475,192,101210,1,0,0:0:0:0:
182,192,101210,1,0,0:0:0:0:
256,192,101377,1,0,0:0:0:50:CrashR.wav
475,192,101377,1,0,0:0:0:0:
329,192,101377,1,0,0:0:0:0:
182,192,101377,1,0,0:0:0:0:
36,192,101377,128,0,101710:0:0:0:0:
256,192,101543,1,0,0:0:0:0:
182,192,101627,1,0,0:0:0:0:
109,192,101710,128,0,102043:0:0:0:0:
475,192,101710,1,0,0:0:0:0:
329,192,101710,1,0,0:0:0:0:
36,192,101877,128,0,102043:0:0:0:0:
402,192,101877,1,0,0:0:0:0:
329,192,101960,1,0,0:0:0:0:
256,192,102043,1,0,0:0:0:0:
182,192,102043,1,0,0:0:0:0:
329,192,102127,1,0,0:0:0:0:
402,192,102127,1,0,0:0:0:0:
475,192,102210,128,0,102710:0:0:0:0:
182,192,102210,1,0,0:0:0:0:
36,192,102210,1,0,0:0:0:0:
256,192,102293,1,0,0:0:0:0:
329,192,102293,1,0,0:0:0:0:
402,192,102377,128,0,102710:0:0:0:0:
109,192,102377,1,0,0:0:0:0:
36,192,102377,1,0,0:0:0:0:
329,192,102543,128,0,102710:0:0:0:0:
109,192,102543,1,0,0:0:0:0:
36,192,102543,1,0,0:0:0:0:
256,192,102627,1,0,0:0:0:0:
182,192,102627,1,0,0:0:0:0:
475,192,102877,1,0,0:0:0:50:CrashR.wav
402,192,102877,1,0,0:0:0:50:BaSS.wav
329,192,102877,1,0,0:0:0:0:
182,192,102877,1,0,0:0:0:0:
36,192,102877,1,0,0:0:0:0:
36,192,103043,1,0,0:0:0:50:CrashR.wav
182,192,103043,1,0,0:0:0:50:BaSS.wav
329,192,103043,1,0,0:0:0:0:
402,192,103043,1,0,0:0:0:0:
475,192,103043,1,0,0:0:0:0:
256,192,103377,1,0,0:0:0:50:CrashR.wav
402,192,103377,1,0,0:0:0:50:BaSS.wav
475,192,103377,1,0,0:0:0:0:
109,192,103377,1,0,0:0:0:0:
36,192,103377,1,0,0:0:0:0:
256,192,103543,1,0,0:0:0:50:CrashR.wav
402,192,103543,1,0,0:0:0:50:BaSS.wav
475,192,103543,1,0,0:0:0:0:
109,192,103543,1,0,0:0:0:0:
36,192,103543,1,0,0:0:0:0:
36,192,103877,1,0,0:0:0:50:CrashR.wav
256,192,103877,1,0,0:0:0:50:BaSS.wav
475,192,103877,1,0,0:0:0:0:
402,192,103877,1,0,0:0:0:0:
329,192,103877,1,0,0:0:0:0:
329,192,104043,1,0,0:0:0:50:BaSS.wav
402,192,104043,1,0,0:0:0:0:
475,192,104043,1,0,0:0:0:0:
256,192,104043,1,0,0:0:0:0:
36,192,104043,128,0,104377:0:0:0:0:
182,192,104210,1,0,0:0:0:0:
256,192,104293,1,0,0:0:0:0:
475,192,104377,128,0,104710:0:0:0:0:
329,192,104377,1,0,0:0:0:0:
109,192,104377,1,0,0:0:0:0:
402,192,104543,128,0,104710:0:0:0:0:
182,192,104543,1,0,0:0:0:0:
109,192,104627,1,0,0:0:0:0:
36,192,104710,1,0,0:0:0:0:
329,192,104710,1,0,0:0:0:0:
256,192,104793,1,0,0:0:0:0:
109,192,104793,1,0,0:0:0:0:
182,192,104877,128,0,105377:0:0:0:0:
402,192,104877,1,0,0:0:0:0:
475,192,104877,1,0,0:0:0:0:
329,192,104960,1,0,0:0:0:0:
36,192,104960,1,0,0:0:0:0:
256,192,105043,1,0,0:0:0:0:
475,192,105043,1,0,0:0:0:0:
36,192,105210,128,0,105377:0:0:0:0:
402,192,105210,1,0,0:0:0:0:
475,192,105210,1,0,0:0:0:0:
329,192,105293,1,0,0:0:0:0:
256,192,105293,1,0,0:0:0:0:
182,192,105543,1,0,0:0:0:50:CrashR.wav
36,192,105543,1,0,0:0:0:50:BaSS.wav
475,192,105543,1,0,0:0:0:0:
329,192,105543,1,0,0:0:0:0:
402,192,105543,1,0,0:0:0:0:
329,192,105710,1,0,0:0:0:50:CrashR.wav
402,192,105710,1,0,0:0:0:50:BaSS.wav
475,192,105710,1,0,0:0:0:0:
182,192,105710,1,0,0:0:0:0:
36,192,105710,1,0,0:0:0:0:
36,192,106043,1,0,0:0:0:50:CrashR.wav
256,192,106043,1,0,0:0:0:50:BaSS.wav
475,192,106043,1,0,0:0:0:0:
182,192,106043,1,0,0:0:0:0:
329,192,106043,1,0,0:0:0:0:
36,192,106210,1,0,0:0:0:50:CrashR.wav
256,192,106210,1,0,0:0:0:50:BaSS.wav
475,192,106210,1,0,0:0:0:0:
182,192,106210,1,0,0:0:0:0:
329,192,106210,1,0,0:0:0:0:
475,192,106543,1,0,0:0:0:50:CrashR.wav
329,192,106543,1,0,0:0:0:50:BaSS.wav
182,192,106543,1,0,0:0:0:0:
109,192,106543,1,0,0:0:0:0:
36,192,106543,1,0,0:0:0:0:
475,192,106710,128,0,107877:0:0:0:0:
329,192,106710,1,0,0:0:0:0:
182,192,106710,1,0,0:0:0:0:
109,192,106710,1,0,0:0:0:0:
36,192,106710,1,0,0:0:0:0:
256,192,106877,5,0,0:0:0:0:
182,192,106960,1,0,0:0:0:0:
109,192,107043,1,0,0:0:0:0:
36,192,107043,1,0,0:0:0:0:
256,192,107210,128,0,107877:0:0:0:0:
36,192,107210,1,0,0:0:0:0:
182,192,107293,1,0,0:0:0:0:
402,192,107377,1,0,0:0:0:0:
329,192,107377,1,0,0:0:0:0:
182,192,107460,1,0,0:0:0:0:
109,192,107460,1,0,0:0:0:0:
329,192,107543,1,0,0:0:0:0:
402,192,107543,1,0,0:0:0:0:
182,192,107627,1,0,0:0:0:0:
109,192,107627,1,0,0:0:0:0:
36,192,107710,128,0,107877:0:0:0:0:
329,192,107710,1,0,0:0:0:0:
402,192,107710,1,0,0:0:0:0:
402,192,107877,1,0,0:0:0:50:BaSS.wav
329,192,107877,1,0,0:0:0:0:
182,192,107877,1,0,0:0:0:0:
109,192,107877,1,0,0:0:0:0:
475,192,108043,128,0,108293:0:0:0:50:CrashR.wav
256,192,108043,1,0,0:0:0:50:BaSS.wav
109,192,108043,128,0,108127:0:0:0:0:
36,192,108043,128,0,108210:0:0:0:0:
402,192,108127,128,0,108293:0:0:0:0:
329,192,108210,128,0,108293:0:0:0:0:
182,192,108210,128,0,108377:0:0:0:0:
109,192,108293,128,0,108460:0:0:0:0:
36,192,108377,128,0,108543:0:0:0:50:Impact.wav
475,192,108377,1,0,0:0:0:0:
402,192,108377,1,0,0:0:0:0:
256,192,108377,128,0,108627:0:0:0:0:
329,192,108460,128,0,108627:0:0:0:0:
402,192,108543,128,0,108627:0:0:0:0:
182,192,108543,128,0,108710:0:0:0:0:
109,192,108627,128,0,108793:0:0:0:0:
36,192,108710,128,0,108877:0:0:0:50:BaSS.wav
329,192,108710,1,0,0:0:0:0:
256,192,108710,1,0,0:0:0:0:
475,192,108710,128,0,108960:0:0:0:0:
402,192,108793,128,0,108960:0:0:0:0:
329,192,108877,128,0,108960:0:0:0:0:
182,192,108877,128,0,109043:0:0:0:0:
109,192,108960,128,0,109127:0:0:0:0:
36,192,109043,128,0,109210:0:0:0:50:Impact.wav
475,192,109043,1,0,0:0:0:0:
402,192,109043,1,0,0:0:0:0:
256,192,109043,128,0,109293:0:0:0:0:
329,192,109127,128,0,109293:0:0:0:0:
402,192,109210,128,0,109293:0:0:0:0:
182,192,109210,1,0,0:0:0:0:
109,192,109293,1,0,0:0:0:0:
36,192,109377,128,0,109627:0:0:0:50:BaSS.wav
475,192,109377,128,0,109543:0:0:0:0:
402,192,109377,128,0,109460:0:0:0:0:
256,192,109377,1,0,0:0:0:0:
109,192,109460,128,0,109627:0:0:0:0:
182,192,109543,128,0,109627:0:0:0:0:
329,192,109543,128,0,109710:0:0:0:0:
402,192,109627,128,0,109793:0:0:0:0:
475,192,109710,128,0,109877:0:0:0:50:Impact.wav
36,192,109710,1,0,0:0:0:0:
109,192,109710,1,0,0:0:0:0:
256,192,109710,128,0,109960:0:0:0:0:
182,192,109793,128,0,109960:0:0:0:0:
109,192,109877,128,0,109960:0:0:0:0:
329,192,109877,128,0,110043:0:0:0:0:
402,192,109960,128,0,110127:0:0:0:0:
475,192,110043,128,0,110210:0:0:0:50:BaSS.wav
182,192,110043,1,0,0:0:0:0:
256,192,110043,1,0,0:0:0:0:
36,192,110043,128,0,110293:0:0:0:0:
109,192,110127,128,0,110293:0:0:0:0:
182,192,110210,128,0,110293:0:0:0:0:
329,192,110210,128,0,110377:0:0:0:0:
402,192,110293,128,0,110460:0:0:0:0:
475,192,110377,128,0,110543:0:0:0:50:Impact.wav
36,192,110377,1,0,0:0:0:0:
109,192,110377,1,0,0:0:0:0:
256,192,110377,128,0,110627:0:0:0:0:
182,192,110460,128,0,110627:0:0:0:0:
109,192,110543,128,0,110627:0:0:0:0:
329,192,110543,1,0,0:0:0:0:
402,192,110627,1,0,0:0:0:0:
475,192,110710,128,0,110960:0:0:0:50:BaSS.wav
36,192,110710,1,0,0:0:0:0:
182,192,110710,128,0,110877:0:0:0:0:
109,192,110710,128,0,110793:0:0:0:0:
402,192,110793,128,0,110960:0:0:0:0:
329,192,110877,128,0,110960:0:0:0:0:
109,192,110877,128,0,111043:0:0:0:0:
182,192,110960,128,0,111127:0:0:0:0:
402,192,111043,1,0,0:0:0:50:Impact.wav
475,192,111043,1,0,0:0:0:0:
256,192,111043,128,0,111210:0:0:0:0:
36,192,111043,128,0,111293:0:0:0:0:
329,192,111127,128,0,111293:0:0:0:0:
402,192,111210,128,0,111377:0:0:0:0:
109,192,111210,128,0,111293:0:0:0:0:
182,192,111293,1,0,0:0:0:0:
256,192,111377,128,0,111627:0:0:0:50:BaSS.wav
475,192,111377,1,0,0:0:0:0:
109,192,111377,128,0,111460:0:0:0:0:
36,192,111377,128,0,111543:0:0:0:0:
329,192,111460,128,0,111627:0:0:0:0:
182,192,111543,128,0,111710:0:0:0:0:
402,192,111543,128,0,111627:0:0:0:0:
109,192,111627,128,0,111793:0:0:0:0:
36,192,111710,128,0,111877:0:0:0:50:Impact.wav
256,192,111710,1,0,0:0:0:0:
329,192,111710,1,0,0:0:0:0:
475,192,111710,128,0,111960:0:0:0:0:
402,192,111793,128,0,111960:0:0:0:0:
182,192,111877,1,0,0:0:0:0:
329,192,111877,128,0,111960:0:0:0:0:
109,192,111960,1,0,0:0:0:0:
36,192,112043,128,0,112293:0:0:0:50:BaSS.wav
475,192,112043,1,0,0:0:0:0:
329,192,112043,128,0,112210:0:0:0:0:
402,192,112043,128,0,112127:0:0:0:0:
109,192,112127,128,0,112293:0:0:0:0:
182,192,112210,128,0,112293:0:0:0:0:
402,192,112210,128,0,112377:0:0:0:0:
329,192,112293,128,0,112460:0:0:0:0:
109,192,112377,1,0,0:0:0:50:Impact.wav
36,192,112377,1,0,0:0:0:0:
256,192,112377,128,0,112543:0:0:0:0:
475,192,112377,128,0,112627:0:0:0:0:
182,192,112460,128,0,112627:0:0:0:0:
109,192,112543,128,0,112710:0:0:0:0:
402,192,112543,128,0,112627:0:0:0:0:
329,192,112627,1,0,0:0:0:0:
256,192,112710,128,0,112960:0:0:0:50:BaSS.wav
36,192,112710,1,0,0:0:0:0:
402,192,112710,128,0,112793:0:0:0:0:
475,192,112710,128,0,112877:0:0:0:0:
182,192,112793,128,0,112960:0:0:0:0:
329,192,112877,128,0,113043:0:0:0:0:
109,192,112877,128,0,112960:0:0:0:0:
402,192,112960,128,0,113127:0:0:0:0:
475,192,113043,128,0,113210:0:0:0:50:Impact.wav
256,192,113043,1,0,0:0:0:0:
182,192,113043,1,0,0:0:0:0:
36,192,113043,128,0,113293:0:0:0:0:
109,192,113127,128,0,113293:0:0:0:0:
329,192,113210,1,0,0:0:0:0:
182,192,113210,128,0,113293:0:0:0:0:
402,192,113293,1,0,0:0:0:0:
475,192,113377,128,0,113627:0:0:0:50:BaSS.wav
109,192,113377,128,0,113460:0:0:0:0:
36,192,113377,1,0,0:0:0:0:
182,192,113377,128,0,113543:0:0:0:0:
402,192,113460,128,0,113627:0:0:0:0:
329,192,113543,128,0,113627:0:0:0:0:
36,192,113543,128,0,113710:0:0:0:0:
109,192,113627,128,0,113793:0:0:0:0:
182,192,113710,128,0,113877:0:0:0:50:Impact.wav
402,192,113710,1,0,0:0:0:0:
475,192,113710,1,0,0:0:0:0:
256,192,113710,128,0,113960:0:0:0:0:
329,192,113793,128,0,113960:0:0:0:0:
402,192,113877,128,0,113960:0:0:0:0:
36,192,113877,128,0,114210:0:0:0:0:
109,192,113960,128,0,114127:0:0:0:0:
329,192,114043,1,0,0:0:0:50:BaSS.wav
475,192,114043,128,0,114293:0:0:0:0:
182,192,114043,1,0,0:0:0:0:
256,192,114043,1,0,0:0:0:0:
402,192,114127,128,0,114293:0:0:0:0:
329,192,114210,128,0,114293:0:0:0:0:
182,192,114210,128,0,114377:0:0:0:0:
109,192,114293,128,0,114460:0:0:0:0:
475,192,114377,1,0,0:0:0:50:Impact.wav
402,192,114377,1,0,0:0:0:0:
36,192,114377,128,0,114543:0:0:0:0:
256,192,114377,128,0,114543:0:0:0:0:
329,192,114460,128,0,114627:0:0:0:0:
402,192,114543,128,0,114627:0:0:0:0:
182,192,114543,1,0,0:0:0:0:
109,192,114627,1,0,0:0:0:0:
36,192,114710,128,0,114960:0:0:0:50:BaSS.wav
402,192,114710,128,0,114793:0:0:0:0:
329,192,114710,128,0,114877:0:0:0:0:
475,192,114710,1,0,0:0:0:0:
109,192,114793,128,0,114960:0:0:0:0:
182,192,114877,128,0,114960:0:0:0:0:
475,192,114877,128,0,115043:0:0:0:0:
402,192,114960,128,0,115127:0:0:0:0:
329,192,115043,128,0,115210:0:0:0:50:Impact.wav
109,192,115043,1,0,0:0:0:0:
36,192,115043,1,0,0:0:0:0:
256,192,115043,128,0,115293:0:0:0:0:
182,192,115127,128,0,115293:0:0:0:0:
109,192,115210,128,0,115293:0:0:0:0:
475,192,115210,128,0,115543:0:0:0:0:
402,192,115293,128,0,115460:0:0:0:0:
182,192,115377,1,0,0:0:0:50:BaSS.wav
36,192,115377,128,0,115627:0:0:0:0:
329,192,115377,1,0,0:0:0:0:
256,192,115377,1,0,0:0:0:0:
109,192,115460,128,0,115627:0:0:0:0:
182,192,115543,128,0,115627:0:0:0:0:
329,192,115543,128,0,115710:0:0:0:0:
402,192,115627,128,0,115793:0:0:0:0:
36,192,115710,1,0,0:0:0:50:Impact.wav
109,192,115710,1,0,0:0:0:0:
475,192,115710,128,0,115877:0:0:0:0:
256,192,115710,128,0,115877:0:0:0:0:
182,192,115793,128,0,115960:0:0:0:0:
402,192,115877,1,0,0:0:0:0:
109,192,115877,128,0,115960:0:0:0:0:
329,192,115960,1,0,0:0:0:0:
402,192,116043,5,0,0:0:0:50:BaSS.wav
182,192,116043,1,0,0:0:0:0:
109,192,116043,1,0,0:0:0:0:
36,192,116043,1,0,0:0:0:0:
256,192,116127,1,0,0:0:0:0:
475,192,116127,1,0,0:0:0:0:
329,192,116210,5,0,0:0:0:50:BaSS.wav
109,192,116210,1,0,0:0:0:0:
36,192,116210,1,0,0:0:0:0:
402,192,116293,1,0,0:0:0:0:
475,192,116293,1,0,0:0:0:0:
182,192,116293,1,0,0:0:0:0:
256,192,116377,1,0,0:0:0:50:BaSS.wav
109,192,116377,1,0,0:0:0:0:
36,192,116377,1,0,0:0:0:0:
329,192,116460,1,0,0:0:0:0:
36,192,116543,1,0,0:0:0:50:BaSS.wav
109,192,116543,1,0,0:0:0:0:
475,192,116543,1,0,0:0:0:0:
402,192,116543,1,0,0:0:0:0:
329,192,116627,1,0,0:0:0:50:BaSS.wav
182,192,116627,1,0,0:0:0:0:
256,192,116627,1,0,0:0:0:0:
109,192,116710,1,0,0:0:0:50:BaSS.wav
36,192,116710,1,0,0:0:0:0:
402,192,116710,1,0,0:0:0:0:
475,192,116710,1,0,0:0:0:0:
182,192,116793,1,0,0:0:0:50:BaSS.wav
329,192,116793,1,0,0:0:0:0:
256,192,116793,1,0,0:0:0:0:
475,192,116877,1,0,0:0:0:50:BaSS.wav
402,192,116877,1,0,0:0:0:0:
109,192,116877,1,0,0:0:0:0:
36,192,116877,1,0,0:0:0:0:
329,192,116960,1,0,0:0:0:50:BaSS.wav
182,192,116960,1,0,0:0:0:0:
256,192,116960,1,0,0:0:0:0:
109,192,117043,1,0,0:0:0:50:BaSS.wav
36,192,117043,1,0,0:0:0:0:
402,192,117043,1,0,0:0:0:0:
475,192,117043,1,0,0:0:0:0:
36,192,117127,1,0,0:0:0:50:BaSS.wav
109,192,117127,1,0,0:0:0:0:
475,192,117127,1,0,0:0:0:0:
402,192,117127,1,0,0:0:0:0:
109,192,117210,1,0,0:0:0:50:BaSS.wav
36,192,117210,1,0,0:0:0:0:
475,192,117210,1,0,0:0:0:0:
402,192,117210,1,0,0:0:0:0:
109,192,117293,1,0,0:0:0:50:BaSS.wav
36,192,117293,1,0,0:0:0:0:
402,192,117293,1,0,0:0:0:0:
475,192,117293,1,0,0:0:0:0:
475,192,117377,1,0,0:0:0:50:CrashR.wav
402,192,117377,1,0,0:0:0:50:BaSS.wav
109,192,117377,1,0,0:0:0:0:
36,192,117377,1,0,0:0:0:0:
329,192,117460,1,0,0:0:0:0:
256,192,117543,1,0,0:0:0:0:
182,192,117627,1,0,0:0:0:0:
329,192,117710,1,0,0:0:0:0:
256,192,117793,1,0,0:0:0:0:
182,192,117877,1,0,0:0:0:0:
109,192,117960,1,0,0:0:0:0:
256,192,118043,1,0,0:0:0:0:
182,192,118127,1,0,0:0:0:0:
109,192,118210,1,0,0:0:0:0:
36,192,118293,1,0,0:0:0:0:
182,192,118377,1,0,0:0:0:0:
329,192,118460,1,0,0:0:0:0:
36,192,118543,128,0,118710:0:0:0:0:
475,192,118543,1,0,0:0:0:0:
109,192,118627,128,0,118793:0:0:0:0:
402,192,118627,1,0,0:0:0:0:
182,192,118710,128,0,118877:0:0:0:0:
329,192,118710,1,0,0:0:0:0:
36,192,118793,1,0,0:0:0:0:
109,192,118877,1,0,0:0:0:0:
182,192,118960,1,0,0:0:0:0:
256,192,119043,1,0,0:0:0:0:
329,192,119127,1,0,0:0:0:0:
182,192,119210,1,0,0:0:0:0:
36,192,119293,1,0,0:0:0:0:
256,192,119377,1,0,0:0:0:0:
329,192,119460,1,0,0:0:0:0:
402,192,119543,1,0,0:0:0:0:
475,192,119627,1,0,0:0:0:0:
256,192,119710,1,0,0:0:0:0:
36,192,119793,1,0,0:0:0:0:
329,192,119877,128,0,120043:0:0:0:0:
109,192,119877,1,0,0:0:0:0:
402,192,119960,128,0,120127:0:0:0:0:
182,192,119960,1,0,0:0:0:0:
475,192,120043,128,0,120210:0:0:0:0:
256,192,120043,1,0,0:0:0:0:
329,192,120127,1,0,0:0:0:0:
402,192,120210,1,0,0:0:0:0:
475,192,120293,1,0,0:0:0:0:
