osu file format v14

[General]
AudioFilename: audio.mp3
AudioLeadIn: 0
PreviewTime: 74711
Countdown: 0
SampleSet: Soft
StackLeniency: 1
Mode: 0
LetterboxInBreaks: 0
WidescreenStoryboard: 0

[Editor]
DistanceSpacing: 0.7
BeatDivisor: 4
GridSize: 32
TimelineZoom: 3.699999

[Metadata]
Title:planetarium
TitleUnicode:planetarium
Artist:SUi
ArtistUnicode:SUi
Creator:DavzN
Version:Solar System
Source:SOUND VOLTEX IV HEAVENLY HAVEN
Tags:Exclusive to Asia! Contest アジア限定!コンテスト Davizinhu
BeatmapID:2174356
BeatmapSetID:1040329

[Difficulty]
HPDrainRate:6
CircleSize:4
OverallDifficulty:9
ApproachRate:9.4
SliderMultiplier:1.7
SliderTickRate:1

[Events]
//Background and Video events
0,0,"bg.png",0,0
//Break Periods
//Storyboard Layer 0 (Background)
//Storyboard Layer 1 (Fail)
//Storyboard Layer 2 (Pass)
//Storyboard Layer 3 (Foreground)
//Storyboard Layer 4 (Overlay)
//Storyboard Sound Samples

[TimingPoints]
1545,333.333333333333,4,2,22,50,1,0
1545,-100,4,2,22,50,0,0
2711,-333.333333333336,4,2,22,50,0,0
4211,-100,4,2,22,50,0,0
5378,-333.333333333333,4,2,22,50,0,0
6878,-100,4,2,22,50,0,0
8044,-333.333333333333,4,2,22,50,0,0
9544,-100,4,2,22,50,0,0
10544,-142.857142857143,4,2,22,50,0,0
13378,333.333333333333,4,2,22,50,1,0
13378,-100,4,2,22,50,0,0
25377,-100,4,2,22,50,0,1
26044,-76.9230769230769,4,2,22,50,0,1
26711,-100,4,2,22,50,0,1
27377,-142.857142857143,4,2,22,50,0,1
28044,-100,4,2,22,50,0,1
28711,-76.9230769230769,4,2,22,50,0,1
30711,-142.857142857143,4,2,22,50,0,0
41377,-100,4,2,22,50,0,0
46711,-100,4,2,22,50,0,1
48377,-111.111111111111,4,2,22,50,0,1
52044,-100,4,2,22,50,0,0
69711,-111.111111111111,4,2,22,50,0,0
70711,-83.3333333333333,4,2,22,50,0,0
72044,-62.5,4,2,22,50,0,0
73377,-50,4,2,22,50,0,0
74711,-166.666666666667,4,2,22,50,0,0
75044,-125,4,2,22,50,0,0
75377,-100,4,2,22,50,0,0
75711,-83.3333333333333,4,2,22,50,0,0
76044,-83.3333333333333,4,2,22,50,0,1
76711,-71.4285714285714,4,2,22,50,0,1
77377,-66.6666666666667,4,2,22,50,0,1
78044,-71.4285714285714,4,2,22,50,0,1
78711,-83.3333333333333,4,2,22,50,0,1
79377,-71.4285714285714,4,2,22,50,0,1
79711,-66.6666666666667,4,2,22,50,0,1
80044,-62.5,4,2,22,50,0,1
80377,-66.6666666666667,4,2,22,50,0,1
80711,-71.4285714285714,4,2,22,50,0,1
81044,-83.3333333333333,4,2,22,50,0,1
81377,-100,4,2,22,50,0,1
82044,-83.3333333333333,4,2,22,50,0,1
82377,-71.4285714285714,4,2,22,50,0,1
82711,-66.6666666666667,4,2,22,50,0,1
83044,-71.4285714285714,4,2,22,50,0,1
83377,-83.3333333333333,4,2,22,50,0,1
83711,-100,4,2,22,50,0,1
84044,-71.4285714285714,4,2,22,50,0,1
84377,-83.3333333333333,4,2,22,50,0,1
84711,-100,4,2,22,50,0,1
85044,-83.3333333333333,4,2,22,50,0,1
85377,-71.4285714285714,4,2,22,50,0,1
85711,-62.5,4,2,22,50,0,1
86044,-71.4285714285714,4,2,22,50,0,1
86377,-83.3333333333333,4,2,22,50,0,1
86711,-100,4,2,22,50,0,1
87377,-83.3333333333333,4,2,22,50,0,1
87711,-71.4285714285714,4,2,22,50,0,1
88044,-66.6666666666667,4,2,22,50,0,1
88377,-71.4285714285714,4,2,22,50,0,1
88711,-83.3333333333333,4,2,22,50,0,1
89044,-100,4,2,22,50,0,1
89377,-125,4,2,22,50,0,1
89711,-100,4,2,22,50,0,1
90044,-83.3333333333333,4,2,22,50,0,1
90377,-71.4285714285714,4,2,22,50,0,1
90711,-62.5,4,2,22,50,0,1
91044,-71.4285714285714,4,2,22,50,0,1
91377,-83.3333333333333,4,2,22,50,0,1
91711,-100,4,2,22,50,0,1
92044,-83.3333333333333,4,2,22,50,0,0
96044,-166.666666666667,4,2,22,50,0,0
97377,-100,4,2,22,50,0,0
98711,-250,4,2,22,50,0,0
108044,-100,4,2,22,50,0,0
112044,-76.9230769230769,4,2,22,50,0,0

[Colours]
Combo1 : 22,133,214
Combo2 : 138,203,255

[HitObjects]
180,248,1545,5,6,0:0:0:0:
264,112,1711,2,0,P|280:64|262:8,1,85,6|0,0:0|0:0,0:0:0:0:
268,300,2044,1,6,0:0:0:0:
180,152,2211,2,0,P|175:106|194:60,1,86,6|0,0:0|0:0,0:0:0:0:
184,356,2544,1,6,0:0:0:0:
268,204,2711,2,0,B|360:168|360:240|452:204,1,178.499994552612,6|0,0:0|0:0,0:0:0:0:
316,276,4211,5,6,0:0:0:0:
220,132,4378,2,0,P|188:164|180:208,1,85,6|0,0:0|0:0,0:0:0:0:
224,284,4711,1,6,0:0:0:0:
264,56,4878,2,0,P|300:88|308:140,1,85,6|0,0:0|0:0,0:0:0:0:
264,204,5211,1,6,0:0:0:0:
84,96,5378,2,0,B|120:132|120:132|80:196|120:260,1,178.499994552612,6|0,0:0|0:0,0:0:0:0:
176,364,6878,5,6,0:0:0:0:
308,256,7044,2,0,P|354:273|391:304,1,85,6|0,0:0|0:0,0:0:0:0:
160,364,7378,1,6,0:0:0:0:
240,208,7544,2,0,P|276:180|332:180,1,85,6|0,0:0|0:0,0:0:0:0:
144,364,7878,1,6,0:0:0:0:
160,212,8044,2,0,B|166:158|200:136|200:136|160:140|120:102,1,178.499994552612,6|0,0:0|0:0,0:0:0:0:
192,52,9544,5,6,0:0:0:0:
240,208,9711,1,6,0:0:0:0:
112,24,10044,1,6,0:0:0:0:
196,280,10211,1,6,0:0:0:0:
28,0,10544,6,0,P|40:80|128:112,1,178.499994552612,6|0,0:0|0:0,0:0:0:0:
287,138,11211,2,0,L|291:170,1,29.7499990921021,0|0,0:0|0:0,0:0:0:0:
215,105,11378,2,0,L|203:137,1,29.7499990921021,0|0,0:0|0:0,0:0:0:0:
354,88,11544,2,0,L|366:116,1,29.7499990921021,0|0,0:0|0:0,0:0:0:0:
219,211,11711,2,0,L|175:227,1,29.7499990921021,0|0,0:0|0:0,0:0:0:0:
310,268,11878,2,0,L|354:284,1,29.7499990921021,0|0,0:0|0:0,0:0:0:0:
199,309,12044,6,0,L|155:317,11,29.7499990921021
88,272,13044,2,0,L|84:300,6,14.874999546051,0|0|0|0|0|0|0,0:0|0:0|0:0|0:0|0:0|0:0|0:0,0:0:0:0:
65,184,13378,5,6,0:0:0:0:
152,212,13544,2,0,P|204:200|236:176,2,85,0|8|0,0:0|0:0|0:0,0:0:0:0:
334,197,14044,1,2,0:0:0:0:
344,288,14210,2,0,P|292:276|260:252,1,85,0|8,0:0|0:0,0:0:0:0:
253,171,14544,1,0,0:0:0:0:
252,88,14711,6,0,P|332:124|328:208,1,170,2|8,0:0|0:0,0:0:0:0:
176,128,15211,2,0,P|168:84|188:36,1,85,0|2,0:0|0:0,0:0:0:0:
156,208,15544,2,0,P|117:185|93:139,1,85,0|8,0:0|0:0,0:0:0:0:
240,184,15877,1,0,0:0:0:0:
176,128,16044,1,2,0:0:0:0:
240,184,16211,6,0,P|236:244|212:276,2,85,0|8|0,0:0|0:0|0:0,0:0:0:0:
336,108,16711,2,0,P|340:48|364:16,2,85,2|0|8,0:0|0:0|0:0,0:0:0:0:
322,275,17211,1,0,0:0:0:0:
404,240,17377,6,0,P|332:192|248:216,1,170,2|8,0:0|0:0,0:0:0:0:
156,320,17877,2,0,P|172:268|156:220,1,85,0|2,0:0|0:0,0:0:0:0:
332,356,18211,2,0,P|316:304|332:256,1,85,0|8,0:0|0:0,0:0:0:0:
476,192,18544,2,0,P|492:240|476:296,1,85,0|2,0:0|0:0,0:0:0:0:
459,98,18877,5,0,0:0:0:0:
388,152,19044,2,0,P|372:104|388:48,1,85,8|0,0:0|0:0,0:0:0:0:
476,192,19377,1,2,0:0:0:0:
384,236,19544,2,0,P|336:217|304:169,1,85,0|8,0:0|0:0,0:0:0:0:
460,291,19877,1,0,0:0:0:0:
376,320,20044,6,0,P|320:304|264:312,1,85,2|0,0:0|0:0,0:0:0:0:
180,320,20377,2,0,L|132:332,3,42.5,8|0|0|0,0:0|0:0|0:0|0:0,0:0:0:0:
64,248,20711,2,0,L|112:236,3,42.5,2|0|0|0,0:0|0:0|0:0|0:0,0:0:0:0:
240,204,21044,2,0,L|300:188,1,42.5,8|0,0:0|0:0,0:0:0:0:
100,144,21211,2,0,L|40:128,1,42.5,0|0,0:0|0:0,0:0:0:0:
280,92,21377,5,2,0:0:0:0:
256,304,21544,1,2,0:0:0:0:
100,144,21711,2,0,L|40:128,2,42.5,2|0|2,0:0|0:0|0:0,0:0:0:0:
280,92,22044,5,2,0:0:0:0:
288,132,22127,1,2,0:0:0:0:
296,172,22211,1,2,0:0:0:0:
304,212,22294,1,2,0:0:0:0:
384,300,22377,5,2,0:0:0:0:
392,260,22460,1,2,0:0:0:0:
400,220,22544,1,2,0:0:0:0:
408,180,22627,1,2,0:0:0:0:
408,180,25377,5,6,0:0:0:0:
396,140,25461,1,0,0:0:0:0:
360,116,25544,1,0,0:0:0:0:
316,116,25627,1,0,0:0:0:0:
280,140,25711,5,8,0:0:0:0:
240,152,25794,1,0,0:0:0:0:
200,144,25877,1,0,0:0:0:0:
168,116,25961,1,0,0:0:0:0:
144,68,26044,5,2,0:0:0:0:
136,124,26127,1,0,0:0:0:0:
132,180,26211,1,0,0:0:0:0:
128,236,26294,1,0,0:0:0:0:
124,292,26377,5,8,0:0:0:0:
112,236,26461,1,0,0:0:0:0:
104,180,26544,1,0,0:0:0:0:
92,128,26627,1,0,0:0:0:0:
84,84,26711,5,2,0:0:0:0:
108,120,26794,1,0,0:0:0:0:
140,144,26877,1,0,0:0:0:0:
184,148,26961,1,0,0:0:0:0:
220,128,27044,5,8,0:0:0:0:
264,128,27127,1,0,0:0:0:0:
300,148,27211,1,0,0:0:0:0:
320,184,27294,1,0,0:0:0:0:
320,212,27377,5,2,0:0:0:0:
308,240,27461,1,0,0:0:0:0:
308,268,27544,1,0,0:0:0:0:
324,292,27627,1,0,0:0:0:0:
348,308,27711,5,0,0:0:0:0:
376,312,27794,1,0,0:0:0:0:
404,304,27877,1,0,0:0:0:0:
420,280,27961,1,0,0:0:0:0:
412,240,28044,5,2,0:0:0:0:
368,240,28127,1,0,0:0:0:0:
324,240,28211,1,0,0:0:0:0:
280,240,28294,1,0,0:0:0:0:
236,240,28377,5,8,0:0:0:0:
192,240,28461,1,0,0:0:0:0:
148,240,28544,1,0,0:0:0:0:
104,240,28627,1,0,0:0:0:0:
48,240,28711,5,2,0:0:0:0:
80,196,28794,1,0,0:0:0:0:
108,148,28877,1,0,0:0:0:0:
136,100,28961,1,0,0:0:0:0:
168,56,29044,5,8,0:0:0:0:
200,100,29127,1,0,0:0:0:0:
228,148,29211,1,0,0:0:0:0:
260,192,29294,1,0,0:0:0:0:
288,240,29377,5,2,0:0:0:0:
332,272,29461,1,0,0:0:0:0:
388,276,29544,1,0,0:0:0:0:
440,252,29627,1,0,0:0:0:0:
472,208,29711,5,8,0:0:0:0:
476,152,29794,1,0,0:0:0:0:
452,104,29877,1,0,0:0:0:0:
404,76,29961,1,0,0:0:0:0:
348,76,30044,5,2,0:0:0:0:
304,108,30127,1,0,0:0:0:0:
252,128,30211,1,2,0:0:0:0:
200,112,30294,1,0,0:0:0:0:
160,72,30377,5,2,0:0:0:0:
168,128,30461,1,0,0:0:0:0:
176,184,30544,1,2,0:0:0:0:
184,240,30627,1,0,0:0:0:0:
192,292,30711,6,0,L|204:364,3,59.4999981842042,2|0|0|0,0:0|0:0|0:0|0:0,0:0:0:0:
92,268,31377,2,0,L|101:209,3,59.4999981842042,0|0|0|0,0:0|0:0|0:0|0:0,0:0:0:0:
212,204,32044,2,0,L|284:215,3,59.4999981842042,0|0|0|0,0:0|0:0|0:0|0:0,0:0:0:0:
189,104,32710,2,0,L|130:113,3,59.4999981842042,0|0|0|0,0:0|0:0|0:0|0:0,0:0:0:0:
300,56,33377,6,0,P|312:84|308:124,1,59.4999981842042,0|0,0:0|0:0,0:0:0:0:
424,176,33711,2,0,P|412:148|416:108,1,59.4999981842042,0|0,0:0|0:0,0:0:0:0:
300,56,34044,2,0,P|312:84|308:124,1,59.4999981842042,0|0,0:0|0:0,0:0:0:0:
424,176,34377,2,0,P|412:148|416:108,1,59.4999981842042,0|0,0:0|0:0,0:0:0:0:
309,205,34711,6,0,P|278:201|241:216,1,59.4999981842042,0|0,0:0|0:0,0:0:0:0:
172,107,35044,2,0,P|202:110|239:95,1,59.4999981842042,0|0,0:0|0:0,0:0:0:0:
309,205,35377,2,0,P|278:201|241:216,1,59.4999981842042,0|0,0:0|0:0,0:0:0:0:
172,107,35711,2,0,P|202:110|239:95,1,59.4999981842042,0|0,0:0|0:0,0:0:0:0:
156,198,36044,6,0,L|148:270,3,59.4999981842042,0|0|0|0,0:0|0:0|0:0|0:0,0:0:0:0:
58,109,36711,2,0,L|66:181,3,59.4999981842042,0|0|0|0,0:0|0:0|0:0|0:0,0:0:0:0:
229,101,37377,2,0,L|157:109,3,59.4999981842042,0|0|0|0,0:0|0:0|0:0|0:0,0:0:0:0:
244,205,38044,2,0,L|316:213,3,59.4999981842042,0|0|0|0,0:0|0:0|0:0|0:0,0:0:0:0:
392,177,38711,6,0,P|404:221|388:257,1,59.4999981842042,0|0,0:0|0:0,0:0:0:0:
396,105,39044,2,0,P|433:112|463:148,1,59.4999981842042,0|0,0:0|0:0,0:0:0:0:
303,211,39377,2,0,P|291:238|293:267,1,59.4999981842042,0|0,0:0|0:0,0:0:0:0:
302,134,39710,2,0,P|272:137|248:154,1,59.4999981842042,0|0,0:0|0:0,0:0:0:0:
208,231,40044,2,0,P|176:207|164:179,3,59.4999981842042,0|0|0|0,0:0|0:0|0:0|0:0,0:0:0:0:
367,252,40711,2,0,P|399:276|411:304,3,59.4999981842042,0|0|0|0,0:0|0:0|0:0|0:0,0:0:0:0:
252,304,41377,5,6,0:0:0:0:
212,320,41461,1,0,0:0:0:0:
172,312,41544,2,0,P|129:295|104:253,1,85,0|8,0:0|0:0,0:0:0:0:
84,104,41877,1,0,0:0:0:0:
84,104,42044,2,0,L|175:88,1,85,2|0,0:0|0:0,0:0:0:0:
268,184,42377,2,0,L|177:168,1,85,8|0,0:0|0:0,0:0:0:0:
320,104,42711,5,2,0:0:0:0:
352,132,42794,1,0,0:0:0:0:
368,172,42877,2,0,P|360:224|332:256,1,85,0|8,0:0|0:0,0:0:0:0:
235,116,43211,1,0,0:0:0:0:
235,116,43377,2,0,P|245:63|281:32,1,85,2|0,0:0|0:0,0:0:0:0:
265,193,43711,1,8,0:0:0:0:
112,56,43877,1,0,0:0:0:0:
112,100,43961,1,0,0:0:0:0:
112,144,44044,6,0,L|112:232,1,85,6|0,0:0|0:0,0:0:0:0:
72,344,44377,1,6,0:0:0:0:
182,199,44544,2,0,P|230:187|286:203,1,85,6|0,0:0|0:0,0:0:0:0:
340,304,44877,2,0,P|292:316|236:300,1,85,6|0,0:0|0:0,0:0:0:0:
336,140,45211,1,2,0:0:0:0:
352,184,45294,1,2,0:0:0:0:
352,222,45377,6,0,P|352:274|328:318,1,85,6|0,0:0|0:0,0:0:0:0:
438,250,45711,1,0,0:0:0:0:
256,192,45877,2,0,P|244:144|256:96,1,85,6|2,0:0|0:0,0:0:0:0:
136,272,46211,2,0,P|148:224|136:176,1,85,2|2,0:0|0:0,0:0:0:0:
64,88,46544,1,2,0:0:0:0:
64,88,46627,1,2,0:0:0:0:
64,88,46711,5,6,0:0:0:0:
284,128,46877,1,0,0:0:0:0:
20,164,47044,1,0,0:0:0:0:
216,68,47211,1,0,0:0:0:0:
4,24,47377,1,0,0:0:0:0:
300,44,47544,1,0,0:0:0:0:
20,164,47711,1,0,0:0:0:0:
348,196,47877,1,0,0:0:0:0:
348,196,47961,1,0,0:0:0:0:
348,196,48044,5,6,0:0:0:0:
132,252,48211,1,0,0:0:0:0:
408,312,48377,5,2,0:0:0:0:
440,292,48461,1,2,0:0:0:0:
460,260,48544,1,2,0:0:0:0:
472,224,48627,1,2,0:0:0:0:
472,184,48711,1,2,0:0:0:0:
456,148,48794,1,2,0:0:0:0:
436,116,48877,1,2,0:0:0:0:
428,80,48961,1,2,0:0:0:0:
440,44,49044,1,2,0:0:0:0:
348,196,49211,1,0,0:0:0:0:
212,52,49377,6,0,L|208:144,2,76.4999976654053,0|0|0,0:0|0:0|0:0,0:0:0:0:
136,180,49877,2,0,P|200:216|280:184,1,152.999995330811,0|0,0:0|0:0,0:0:0:0:
64,124,50377,1,0,0:0:0:0:
212,52,50544,1,0,0:0:0:0:
52,124,50711,5,0,0:0:0:0:
304,104,50877,1,0,0:0:0:0:
44,124,51044,5,0,0:0:0:0:
271,192,51211,1,0,0:0:0:0:
36,124,51377,5,0,0:0:0:0:
316,104,51544,1,0,0:0:0:0:
32,124,51711,5,0,0:0:0:0:
224,52,51877,1,0,0:0:0:0:
132,208,52044,6,0,P|200:248|288:212,1,170,6|0,0:0|0:0,0:0:0:0:
316,104,52544,2,0,B|316:148|316:148|368:176|364:256,1,170,6|0,0:0|0:0,0:0:0:0:
400,104,53044,2,0,P|340:28|264:40,1,170,6|6,0:0|0:0,0:0:0:0:
108,92,53544,5,0,0:0:0:0:
316,104,53711,1,0,0:0:0:0:
132,208,53877,1,0,0:0:0:0:
281,219,54044,1,0,0:0:0:0:
88,80,54211,1,0,0:0:0:0:
336,108,54377,2,0,P|400:104|432:88,1,85,6|0,0:0|0:0,0:0:0:0:
276,44,54711,6,0,P|252:80|304:196,1,170,6|0,0:0|0:0,0:0:0:0:
408,304,55211,2,0,P|344:268|252:308,1,170,6|0,0:0|0:0,0:0:0:0:
144,368,55711,2,0,B|180:340|180:340|178:209,1,170,6|6,0:0|0:0,0:0:0:0:
160,52,56211,5,0,0:0:0:0:
340,208,56377,1,0,0:0:0:0:
104,276,56544,1,0,0:0:0:0:
240,48,56711,1,0,0:0:0:0:
296,280,56877,1,0,0:0:0:0:
52,208,57044,2,0,P|32:160|48:112,1,85,0|0,0:0|0:0,0:0:0:0:
204,120,57377,6,0,P|222:157|218:199,1,85,6|0,0:0|0:0,0:0:0:0:
156,332,57711,1,6,0:0:0:0:
296,280,57877,2,0,P|344:268|392:276,1,85,6|0,0:0|0:0,0:0:0:0:
84,360,58211,1,6,0:0:0:0:
218,199,58377,2,0,P|222:157|204:120,1,85,6|0,0:0|0:0,0:0:0:0:
88,276,58711,5,6,0:0:0:0:
348,348,58877,1,0,0:0:0:0:
72,272,59044,1,0,0:0:0:0:
312,184,59211,1,0,0:0:0:0:
36,108,59377,1,0,0:0:0:0:
220,284,59544,1,0,0:0:0:0:
264,68,59711,2,0,P|312:52|368:80,1,85,6|0,0:0|0:0,0:0:0:0:
456,144,60044,6,0,L|460:200,3,42.5,6|0|0|0,0:0|0:0|0:0|0:0,0:0:0:0:
311,183,60377,2,0,L|315:141,3,42.5,8|0|0|0,0:0|0:0|0:0|0:0,0:0:0:0:
400,284,60711,2,0,L|452:296,1,42.5,2|0,0:0|0:0,0:0:0:0:
228,304,60877,2,0,L|180:328,1,42.5,0|0,0:0|0:0,0:0:0:0:
311,183,61044,2,0,L|315:141,3,42.5,8|0|0|0,0:0|0:0|0:0|0:0,0:0:0:0:
408,128,61377,5,2,0:0:0:0:
392,88,61461,1,0,0:0:0:0:
356,64,61544,1,0,0:0:0:0:
316,56,61627,1,0,0:0:0:0:
272,64,61711,5,8,0:0:0:0:
240,92,61794,1,0,0:0:0:0:
200,108,61877,1,0,0:0:0:0:
156,100,61961,1,0,0:0:0:0:
120,80,62044,5,2,0:0:0:0:
76,80,62127,1,0,0:0:0:0:
36,96,62211,1,0,0:0:0:0:
16,132,62294,1,0,0:0:0:0:
12,176,62377,5,8,0:0:0:0:
24,216,62461,1,0,0:0:0:0:
56,240,62544,1,0,0:0:0:0:
100,244,62627,1,0,0:0:0:0:
140,228,62711,6,0,P|194:212|243:228,1,85,6|0,0:0|0:0,0:0:0:0:
37,343,63044,1,6,0:0:0:0:
96,159,63211,2,0,P|135:130|191:120,1,85,6|0,0:0|0:0,0:0:0:0:
301,55,63544,2,0,P|243:31|192:44,1,85,6|0,0:0|0:0,0:0:0:0:
22,176,63877,2,0,P|25:134|49:99,1,85,6|0,0:0|0:0,0:0:0:0:
222,32,64211,5,6,0:0:0:0:
96,159,64377,1,6,0:0:0:0:
315,140,64544,1,6,0:0:0:0:
49,99,64711,1,6,0:0:0:0:
193,293,64877,1,6,0:0:0:0:
222,32,65044,1,6,0:0:0:0:
144,228,65211,1,0,0:0:0:0:
315,140,65377,6,0,P|373:131|420:149,1,85,6|0,0:0|0:0,0:0:0:0:
96,159,65711,1,6,0:0:0:0:
265,209,65877,2,0,P|312:224|356:211,1,85,6|0,0:0|0:0,0:0:0:0:
181,188,66211,2,0,P|184:239|222:289,1,85,6|0,0:0|0:0,0:0:0:0:
96,159,66544,2,0,L|92:246,2,85,6|0|6,0:0|0:0|0:0,0:0:0:0:
161,36,67044,5,6,0:0:0:0:
199,268,67210,1,6,0:0:0:0:
161,36,67377,1,6,0:0:0:0:
92,243,67544,1,6,0:0:0:0:
240,75,67711,2,0,P|250:43|248:15,2,42.5,6|0|0,0:0|0:0|0:0,0:0:0:0:
181,188,68044,6,0,P|184:239|222:289,2,85,6|0|6,0:0|0:0|0:0,0:0:0:0:
298,137,68544,2,0,P|287:192|240:211,1,85,6|0,0:0|0:0,0:0:0:0:
240,75,68877,2,0,P|286:51|339:64,1,85,6|0,0:0|0:0,0:0:0:0:
420,94,69211,2,0,B|386:118|386:118|389:247,1,170,6|6,0:0|0:0,0:0:0:0:
162,119,69711,5,0,0:0:0:0:
465,156,69877,1,0,0:0:0:0:
205,326,70044,1,0,0:0:0:0:
298,137,70211,1,0,0:0:0:0:
423,308,70377,1,0,0:0:0:0:
149,231,70627,1,0,0:0:0:0:
396,284,70711,5,2,0:0:0:0:
348,265,70794,1,0,0:0:0:0:
297,258,70877,1,2,0:0:0:0:
246,269,70961,1,0,0:0:0:0:
203,296,71044,5,2,0:0:0:0:
160,324,71127,1,0,0:0:0:0:
108,327,71211,1,2,0:0:0:0:
59,313,71294,1,0,0:0:0:0:
20,279,71377,5,2,0:0:0:0:
70,290,71461,1,0,0:0:0:0:
117,271,71544,1,2,0:0:0:0:
149,231,71627,1,0,0:0:0:0:
156,180,71711,5,2,0:0:0:0:
128,137,71794,1,0,0:0:0:0:
119,86,71877,1,2,0:0:0:0:
145,41,71961,1,0,0:0:0:0:
191,29,72044,5,2,0:0:0:0:
248,43,72127,1,2,0:0:0:0:
277,104,72211,1,2,0:0:0:0:
258,169,72294,1,2,0:0:0:0:
284,231,72377,5,2,0:0:0:0:
348,253,72461,1,2,0:0:0:0:
410,226,72544,1,2,0:0:0:0:
429,161,72627,1,2,0:0:0:0:
429,161,73211,5,0,0:0:0:0:
431,162,73377,5,6,0:0:0:0:
389,236,73461,1,6,0:0:0:0:
304,236,73544,1,6,0:0:0:0:
261,162,73627,1,6,0:0:0:0:
296,85,73711,5,6,0:0:0:0:
232,28,73794,1,6,0:0:0:0:
159,70,73877,1,6,0:0:0:0:
177,154,73961,1,6,0:0:0:0:
177,154,74711,5,0,0:0:0:0:
159,135,74794,1,0,0:0:0:0:
152,110,74877,1,0,0:0:0:0:
154,84,74961,1,0,0:0:0:0:
172,55,75044,5,0,0:0:0:0:
200,36,75127,1,0,0:0:0:0:
232,28,75211,1,0,0:0:0:0:
263,39,75294,1,0,0:0:0:0:
289,72,75377,5,0,0:0:0:0:
289,114,75461,1,0,0:0:0:0:
268,151,75544,1,0,0:0:0:0:
269,193,75627,1,0,0:0:0:0:
308,231,75711,2,0,P|386:238|430:182,1,152.999995330811
429,135,76044,5,6,0:0:0:0:
430,185,76127,1,0,0:0:0:0:
430,236,76211,1,0,0:0:0:0:
432,286,76294,1,0,0:0:0:0:
432,336,76377,5,8,0:0:0:0:
417,286,76461,1,0,0:0:0:0:
382,248,76544,1,0,0:0:0:0:
332,235,76627,1,0,0:0:0:0:
273,246,76711,5,2,0:0:0:0:
231,288,76794,1,0,0:0:0:0:
175,309,76877,1,0,0:0:0:0:
118,289,76961,1,0,0:0:0:0:
86,238,77044,5,8,0:0:0:0:
87,178,77127,1,0,0:0:0:0:
113,124,77211,1,0,0:0:0:0:
129,67,77294,1,0,0:0:0:0:
106,7,77377,5,2,0:0:0:0:
129,67,77461,1,0,0:0:0:0:
186,93,77544,1,0,0:0:0:0:
249,90,77627,1,0,0:0:0:0:
307,62,77711,5,8,0:0:0:0:
369,73,77794,1,0,0:0:0:0:
416,115,77877,1,0,0:0:0:0:
439,174,77961,1,0,0:0:0:0:
442,233,78044,6,0,L|437:301,1,59.4999981842042,2|0,0:0|0:0,0:0:0:0:
369,73,78211,2,0,L|376:-4,1,59.4999981842042,0|0,0:0|0:0,0:0:0:0:
322,250,78377,2,0,L|317:318,1,59.4999981842042,8|0,0:0|0:0,0:0:0:0:
249,90,78544,2,0,L|256:13,1,59.4999981842042,0|0,0:0|0:0,0:0:0:0:
192,271,78711,5,2,0:0:0:0:
153,304,78794,1,0,0:0:0:0:
102,309,78877,1,0,0:0:0:0:
58,281,78961,1,0,0:0:0:0:
40,233,79044,5,8,0:0:0:0:
50,183,79127,1,0,0:0:0:0:
86,146,79211,1,0,0:0:0:0:
135,133,79294,1,0,0:0:0:0:
175,89,79377,5,2,0:0:0:0:
200,143,79461,1,0,0:0:0:0:
254,166,79544,1,0,0:0:0:0:
311,153,79627,1,0,0:0:0:0:
346,99,79711,5,8,0:0:0:0:
404,74,79794,1,0,0:0:0:0:
466,86,79877,1,0,0:0:0:0:
508,133,79961,1,0,0:0:0:0:
508,200,80044,5,2,0:0:0:0:
470,256,80127,1,0,0:0:0:0:
401,259,80211,1,0,0:0:0:0:
343,223,80294,1,0,0:0:0:0:
318,164,80377,5,8,0:0:0:0:
265,127,80461,1,0,0:0:0:0:
202,136,80544,1,0,0:0:0:0:
154,178,80627,1,0,0:0:0:0:
94,167,80711,5,2,0:0:0:0:
69,113,80794,1,0,0:0:0:0:
93,59,80877,1,0,0:0:0:0:
151,44,80961,1,0,0:0:0:0:
193,71,81044,5,8,0:0:0:0:
202,136,81127,1,0,0:0:0:0:
186,184,81211,1,0,0:0:0:0:
199,232,81294,1,0,0:0:0:0:
227,263,81377,6,0,L|277:281,3,42.5,2|0|0|0,0:0|0:0|0:0|0:0,0:0:0:0:
94,167,81711,2,0,L|38:181,3,42.5,8|0|0|0,0:0|0:0|0:0|0:0,0:0:0:0:
273,128,82044,5,2,0:0:0:0:
317,102,82127,1,0,0:0:0:0:
336,54,82211,1,0,0:0:0:0:
379,27,82294,1,0,0:0:0:0:
437,37,82377,5,8,0:0:0:0:
473,84,82461,1,0,0:0:0:0:
476,143,82544,1,0,0:0:0:0:
451,197,82627,1,0,0:0:0:0:
396,230,82711,5,2,0:0:0:0:
453,255,82794,1,0,0:0:0:0:
469,316,82877,1,0,0:0:0:0:
426,363,82961,1,0,0:0:0:0:
367,364,83044,5,8,0:0:0:0:
323,324,83127,1,0,0:0:0:0:
266,303,83211,1,0,0:0:0:0:
209,319,83294,1,0,0:0:0:0:
169,350,83377,5,2,0:0:0:0:
170,298,83461,1,0,0:0:0:0:
171,247,83544,1,0,0:0:0:0:
171,196,83627,1,0,0:0:0:0:
147,231,83711,5,8,0:0:0:0:
127,268,83794,1,0,0:0:0:0:
107,305,83877,1,0,0:0:0:0:
87,343,83961,1,0,0:0:0:0:
88,283,84044,5,2,0:0:0:0:
88,223,84127,1,0,0:0:0:0:
91,163,84211,1,0,0:0:0:0:
90,103,84294,1,0,0:0:0:0:
91,52,84377,5,8,0:0:0:0:
123,91,84461,1,0,0:0:0:0:
167,116,84544,1,0,0:0:0:0:
217,113,84627,1,0,0:0:0:0:
254,91,84711,6,0,L|305:57,3,42.5,2|0|0|0,0:0|0:0|0:0|0:0,0:0:0:0:
412,106,85044,2,0,L|361:140,3,42.5,8|0|0|0,0:0|0:0|0:0|0:0,0:0:0:0:
276,184,85377,5,2,0:0:0:0:
232,224,85461,1,0,0:0:0:0:
236,283,85544,1,0,0:0:0:0:
279,323,85627,1,0,0:0:0:0:
346,309,85711,5,8,0:0:0:0:
375,248,85794,1,0,0:0:0:0:
345,187,85877,1,0,0:0:0:0:
349,118,85961,1,0,0:0:0:0:
381,68,86044,5,2,0:0:0:0:
331,100,86127,1,0,0:0:0:0:
271,103,86211,1,0,0:0:0:0:
213,88,86294,1,0,0:0:0:0:
179,50,86377,5,8,0:0:0:0:
127,43,86461,1,0,0:0:0:0:
78,59,86544,1,0,0:0:0:0:
52,103,86627,1,0,0:0:0:0:
47,145,86711,6,0,L|46:221,1,42.5,2|0,0:0|0:0,0:0:0:0:
147,259,86877,2,0,L|146:301,1,42.5,0|0,0:0|0:0,0:0:0:0:
244,138,87044,2,0,L|244:190,3,42.5,8|0|0|0,0:0|0:0|0:0|0:0,0:0:0:0:
138,38,87377,6,0,L|81:29,1,50.9999984436036,2|0,0:0|0:0,0:0:0:0:
243,137,87544,2,0,L|178:151,1,50.9999984436036,0|0,0:0|0:0,0:0:0:0:
381,53,87711,2,0,L|321:43,3,59.4999981842042,8|0|0|0,0:0|0:0|0:0|0:0,0:0:0:0:
243,137,88044,5,2,0:0:0:0:
181,151,88127,1,0,0:0:0:0:
138,199,88211,1,0,0:0:0:0:
134,262,88294,1,0,0:0:0:0:
166,311,88377,5,8,0:0:0:0:
221,333,88461,1,0,0:0:0:0:
279,325,88544,1,0,0:0:0:0:
313,276,88627,1,0,0:0:0:0:
323,225,88711,5,2,0:0:0:0:
360,190,88794,1,0,0:0:0:0:
410,183,88877,1,0,0:0:0:0:
451,212,88961,1,0,0:0:0:0:
468,250,89044,5,8,0:0:0:0:
463,292,89127,1,0,0:0:0:0:
435,325,89211,1,0,0:0:0:0:
393,331,89294,1,0,0:0:0:0:
362,316,89377,5,2,0:0:0:0:
336,293,89461,1,0,0:0:0:0:
305,278,89544,1,0,0:0:0:0:
271,281,89627,1,0,0:0:0:0:
236,305,89711,5,8,0:0:0:0:
199,327,89794,1,0,0:0:0:0:
156,323,89877,1,0,0:0:0:0:
116,306,89961,1,0,0:0:0:0:
68,286,90044,5,2,0:0:0:0:
114,266,90127,1,0,0:0:0:0:
152,232,90211,1,0,0:0:0:0:
170,184,90294,1,0,0:0:0:0:
162,125,90377,5,8,0:0:0:0:
162,65,90461,1,0,0:0:0:0:
207,27,90544,1,0,0:0:0:0:
266,22,90627,1,0,0:0:0:0:
323,60,90711,5,2,0:0:0:0:
328,127,90794,1,0,0:0:0:0:
292,184,90877,1,0,0:0:0:0:
307,250,90961,1,0,0:0:0:0:
356,282,91044,5,8,0:0:0:0:
414,275,91127,1,0,0:0:0:0:
450,227,91211,1,0,0:0:0:0:
444,167,91294,1,0,0:0:0:0:
404,134,91377,5,2,0:0:0:0:
353,124,91461,1,0,0:0:0:0:
309,150,91544,1,0,0:0:0:0:
260,164,91627,1,0,0:0:0:0:
219,148,91711,5,8,0:0:0:0:
191,115,91794,1,0,0:0:0:0:
174,76,91877,1,0,0:0:0:0:
136,54,91961,1,0,0:0:0:0:
85,59,92044,6,0,L|30:71,2,50.9999984436036,2|0|0,0:0|0:0|0:0,0:0:0:0:
67,171,92294,2,0,L|18:183,2,50.9999984436036,0|8|0,0:0|0:0|0:0,0:0:0:0:
143,261,92544,2,0,L|88:273,2,50.9999984436036,0|0|2,0:0|0:0|0:0,0:0:0:0:
217,140,92794,2,0,L|167:151,2,50.9999984436036,0|0|0,0:0|0:0|0:0,0:0:0:0:
239,246,93044,2,0,L|233:301,1,50.9999984436036,8|0,0:0|0:0,0:0:0:0:
301,164,93211,2,0,L|305:114,1,50.9999984436036,0|0,0:0|0:0,0:0:0:0:
353,266,93377,6,0,L|427:279,2,50.9999984436036,2|0|0,0:0|0:0|0:0,0:0:0:0:
301,164,93627,2,0,L|250:172,2,50.9999984436036,0|8|0,0:0|0:0|0:0,0:0:0:0:
389,93,93877,2,0,L|463:106,1,50.9999984436036
282,27,94044,2,0,L|231:35,2,50.9999984436036,2|0|0,0:0|0:0|0:0,0:0:0:0:
171,124,94294,2,0,L|120:131,2,50.9999984436036,0|0|0,0:0|0:0|0:0,0:0:0:0:
32,33,94544,2,0,L|38:93,1,50.9999984436036,0|0,0:0|0:0,0:0:0:0:
55,217,94711,5,2,0:0:0:0:
171,124,94961,1,2,0:0:0:0:
66,306,95211,1,2,0:0:0:0:
37,83,95377,5,2,0:0:0:0:
305,161,95627,1,2,0:0:0:0:
55,217,95877,1,2,0:0:0:0:
259,240,96044,6,0,B|328:264|388:204|388:204|416:324|416:324|332:288|272:360,1,407.999987548829,0|0,0:0|0:0,0:0:0:0:
305,161,97544,5,6,0:0:0:0:
213,309,97711,1,6,0:0:0:0:
225,67,98044,5,6,0:0:0:0:
284,346,98211,1,6,0:0:0:0:
350,47,98544,5,6,0:0:0:0:
140,256,98711,2,0,B|96:308|96:308|120:224|100:168,1,204,6|0,0:0|0:0,0:0:0:0:
55,96,100210,5,6,0:0:0:0:
320,139,100377,1,6,0:0:0:0:
102,174,100710,5,6,0:0:0:0:
348,61,100877,1,6,0:0:0:0:
55,96,101211,5,0,0:0:0:0:
352,248,101377,2,0,P|316:152|353:53,1,204,6|0,0:0|0:0,0:0:0:0:
416,300,102878,5,6,0:0:0:0:
196,184,103044,1,6,0:0:0:0:
428,308,103377,5,6,0:0:0:0:
216,92,103544,1,6,0:0:0:0:
440,316,103877,5,6,0:0:0:0:
312,56,104044,2,0,B|213:91|213:91|193:191,1,204,6|0,0:0|0:0,0:0:0:0:
64,136,105544,5,6,0:0:0:0:
296,152,105711,1,6,0:0:0:0:
216,92,106045,5,0,0:0:0:0:
268,296,106211,1,6,0:0:0:0:
312,56,106544,5,6,0:0:0:0:
168,216,106711,2,0,L|88:292,2,102,6|0|0,0:0|0:0|0:0,0:0:0:0:
312,56,108044,5,2,0:0:0:0:
295,94,108127,1,0,0:0:0:0:
289,136,108211,1,0,0:0:0:0:
300,176,108294,1,0,0:0:0:0:
325,209,108377,5,8,0:0:0:0:
344,247,108461,1,0,0:0:0:0:
342,289,108544,1,0,0:0:0:0:
314,321,108627,1,0,0:0:0:0:
274,336,108711,6,0,L|211:344,1,42.5,2|0,0:0|0:0,0:0:0:0:
168,216,108877,2,0,L|125:210,1,42.5,0|0,0:0|0:0,0:0:0:0:
297,354,109044,2,0,L|234:362,1,42.5,8|0,0:0|0:0,0:0:0:0:
191,234,109210,2,0,L|148:228,1,42.5,0|0,0:0|0:0,0:0:0:0:
383,314,109377,5,2,0:0:0:0:
352,284,109461,1,0,0:0:0:0:
335,245,109544,1,0,0:0:0:0:
333,202,109627,1,0,0:0:0:0:
346,161,109711,5,8,0:0:0:0:
360,121,109794,1,0,0:0:0:0:
354,78,109877,1,0,0:0:0:0:
324,47,109961,1,0,0:0:0:0:
282,40,110044,6,0,L|220:42,3,42.5,2|0|0|0,0:0|0:0|0:0|0:0,0:0:0:0:
360,121,110377,2,0,L|402:119,3,42.5,8|0|0|0,0:0|0:0|0:0|0:0,0:0:0:0:
287,206,110711,5,2,0:0:0:0:
257,175,110794,1,0,0:0:0:0:
216,163,110877,1,0,0:0:0:0:
175,176,110961,1,0,0:0:0:0:
144,205,111044,5,8,0:0:0:0:
103,217,111127,1,0,0:0:0:0:
61,208,111211,1,0,0:0:0:0:
30,178,111294,1,0,0:0:0:0:
20,136,111377,5,2,0:0:0:0:
28,93,111461,1,0,0:0:0:0:
55,60,111544,1,0,0:0:0:0:
95,46,111627,1,0,0:0:0:0:
136,55,111711,5,8,0:0:0:0:
165,85,111794,1,0,0:0:0:0:
180,124,111877,1,0,0:0:0:0:
179,166,111961,1,0,0:0:0:0:
156,216,112044,5,2,0:0:0:0:
148,270,112127,1,0,0:0:0:0:
173,319,112211,1,0,0:0:0:0:
224,339,112294,1,0,0:0:0:0:
278,334,112377,5,8,0:0:0:0:
319,296,112461,1,0,0:0:0:0:
325,241,112544,1,0,0:0:0:0:
305,189,112627,1,0,0:0:0:0:
259,157,112711,5,2,0:0:0:0:
313,148,112794,1,0,0:0:0:0:
345,103,112877,1,0,0:0:0:0:
328,49,112961,1,0,0:0:0:0:
281,20,113044,5,8,0:0:0:0:
227,33,113127,1,0,0:0:0:0:
199,81,113211,1,0,0:0:0:0:
149,104,113294,1,0,0:0:0:0:
97,84,113377,6,0,L|40:80,3,55.2499974708558,2|0|0|0,0:0|0:0|0:0|0:0,0:0:0:0:
203,160,113711,2,0,L|260:156,3,55.2499974708558,8|0|0|0,0:0|0:0|0:0|0:0,0:0:0:0:
102,265,114044,2,0,L|27:274,1,55.2499974708558,2|0,0:0|0:0,0:0:0:0:
218,259,114211,2,0,L|273:262,1,55.2499974708558,0|0,0:0|0:0,0:0:0:0:
95,171,114377,2,0,L|39:174,3,55.2499974708558,8|0|0|0,0:0|0:0|0:0|0:0,0:0:0:0:
218,259,114711,5,2,0:0:0:0:
251,302,114794,1,0,0:0:0:0:
303,318,114877,1,0,0:0:0:0:
355,299,114961,1,0,0:0:0:0:
381,250,115044,5,8,0:0:0:0:
380,194,115127,1,0,0:0:0:0:
345,150,115211,1,0,0:0:0:0:
342,95,115294,1,0,0:0:0:0:
372,49,115377,5,2,0:0:0:0:
323,76,115461,1,0,0:0:0:0:
268,83,115544,1,0,0:0:0:0:
215,67,115627,1,0,0:0:0:0:
167,37,115711,5,8,0:0:0:0:
112,41,115794,1,0,0:0:0:0:
68,74,115877,1,0,0:0:0:0:
59,129,115961,1,0,0:0:0:0:
84,177,116044,6,0,L|96:246,3,55.2499974708558,2|0|2|0,0:0|0:0|0:0|0:0,0:0:0:0:
237,251,116377,2,0,L|225:320,2,55.2499974708558,2|0|2,0:0|0:0|0:0,0:0:0:0:
179,159,116627,1,2,0:0:0:0:
231,144,116710,5,2,0:0:0:0:
285,154,116793,1,2,0:0:0:0:
323,193,116877,1,2,0:0:0:0:
371,220,116961,1,2,0:0:0:0:
425,210,117044,1,2,0:0:0:0:
456,164,117127,1,2,0:0:0:0:
460,108,117211,1,2,0:0:0:0:
427,63,117294,1,2,0:0:0:0:
256,192,117377,12,0,120044,0:0:0:0:
