osu file format v14

[General]
AudioFilename: audio.mp3
AudioLeadIn: 0
PreviewTime: -1
Countdown: 0
SampleSet: Soft
StackLeniency: 0.7
Mode: 0
LetterboxInBreaks: 0
WidescreenStoryboard: 0

[Editor]
DistanceSpacing: 1.3
BeatDivisor: 4
GridSize: 4
TimelineZoom: 1

[Metadata]
Title:hi hi hi
TitleUnicode:hi hi hi
Artist:SUZUKAZEAOBA
ArtistUnicode:涼風青葉
Creator:Love HIBIKI
Version:Hard
Source:NEW GAME
Tags:suzukazeaoba
BeatmapID:1050973
BeatmapSetID:493468

[Difficulty]
HPDrainRate:5
CircleSize:4
OverallDifficulty:6
ApproachRate:6
SliderMultiplier:1.4
SliderTickRate:1

[Events]
//Background and Video events
0,0,"bg.jpg",0,0
//Break Periods
//Storyboard Layer 0 (Background)
//Storyboard Layer 1 (Fail)
//Storyboard Layer 2 (Pass)
//Storyboard Layer 3 (Foreground)
//Storyboard Sound Samples

[TimingPoints]
1718,526.315789473684,4,2,0,78,1,0

[Colours]
Combo1 : 236,248,7
Combo2 : 17,238,166
Combo3 : 69,146,203
Combo4 : 242,23,133

[HitObjects]
120,72,2894,5,0,0:0:0:0:
336,80,3296,1,0,0:0:0:0:
360,244,3954,1,0,0:0:0:0:
176,120,4481,1,0,0:0:0:0:
356,124,5007,1,0,0:0:0:0:
280,36,5533,1,0,0:0:0:0:
236,216,6060,1,0,0:0:0:0:
352,76,6586,1,0,0:0:0:0:
316,300,7112,1,0,0:0:0:0:
136,288,7639,1,0,0:0:0:0:
112,216,8033,6,0,B|152:184|208:160|260:160|264:160,1,140
48,64,8823,1,0,0:0:0:0:
152,316,9349,1,0,0:0:0:0:
332,328,9875,1,0,0:0:0:0:
360,80,10402,1,0,0:0:0:0:
436,308,10928,1,0,0:0:0:0:
280,106,11454,1,0,0:0:0:0:
66,51,11981,1,0,0:0:0:0:
464,353,12507,5,0,0:0:0:0:
61,151,13033,1,0,0:0:0:0:
449,149,13560,1,0,0:0:0:0:
82,341,14086,1,0,0:0:0:0:
237,31,14612,1,0,0:0:0:0:
428,342,15139,1,0,0:0:0:0:
32,181,15665,1,0,0:0:0:0:
476,183,16191,1,0,0:0:0:0:
138,180,16718,1,0,0:0:0:0:
364,180,17244,1,0,0:0:0:0:
184,180,17770,1,0,0:0:0:0:
276,180,18296,1,0,0:0:0:0:
164,92,18691,5,0,0:0:0:0:
208,88,18822,1,0,0:0:0:0:
252,80,18954,1,0,0:0:0:0:
168,112,19217,5,0,0:0:0:0:
168,112,19349,1,0,0:0:0:0:
168,112,19480,1,0,0:0:0:0:
96,280,19875,5,0,0:0:0:0:
112,192,20139,1,0,0:0:0:0:
188,280,20402,1,0,0:0:0:0:
104,348,20665,1,0,0:0:0:0:
152,220,20928,1,0,0:0:0:0:
240,196,21191,5,0,0:0:0:0:
280,172,21323,1,0,0:0:0:0:
316,148,21454,1,0,0:0:0:0:
356,124,21586,1,0,0:0:0:0:
388,92,21717,1,0,0:0:0:0:
196,288,21981,5,0,0:0:0:0:
236,272,22112,1,0,0:0:0:0:
276,248,22244,1,0,0:0:0:0:
316,228,22375,1,0,0:0:0:0:
348,196,22507,1,0,0:0:0:0:
368,156,22639,1,0,0:0:0:0:
360,112,22770,1,0,0:0:0:0:
212,88,23033,5,0,0:0:0:0:
180,120,23164,1,0,0:0:0:0:
144,148,23296,1,0,0:0:0:0:
160,60,23559,5,0,0:0:0:0:
124,88,23691,1,0,0:0:0:0:
96,124,23822,1,0,0:0:0:0:
264,52,24086,5,0,0:0:0:0:
52,172,24349,2,0,B|96:156|148:132|155:115|155:119|147:139,1,105
100,96,25007,1,0,0:0:0:0:
100,96,25139,1,0,0:0:0:0:
100,96,25270,1,0,0:0:0:0:
52,172,25533,5,0,0:0:0:0:
96,180,25665,1,0,0:0:0:0:
140,184,25796,1,0,0:0:0:0:
184,168,25928,1,0,0:0:0:0:
200,124,26060,1,0,0:0:0:0:
96,96,26323,2,0,B|152:144|216:128|200:60|140:28|144:28,1,175
292,216,27244,2,0,P|384:240|360:272,1,175
324,136,28165,1,0,0:0:0:0:
324,184,28296,1,0,0:0:0:0:
324,220,28428,1,0,0:0:0:0:
320,264,28560,1,0,0:0:0:0:
304,296,28691,2,0,B|248:372|208:388|180:380,1,140
208,292,29481,5,0,0:0:0:0:
168,268,29612,1,0,0:0:0:0:
136,228,29744,1,0,0:0:0:0:
112,192,29875,1,0,0:0:0:0:
96,148,30007,1,0,0:0:0:0:
84,108,30139,1,0,0:0:0:0:
96,64,30270,1,0,0:0:0:0:
128,32,30402,1,0,0:0:0:0:
240,172,30797,5,0,0:0:0:0:
332,172,31060,1,0,0:0:0:0:
292,252,31323,1,0,0:0:0:0:
208,292,31586,1,0,0:0:0:0:
152,220,31849,1,0,0:0:0:0:
116,136,32113,1,0,0:0:0:0:
180,72,32376,1,0,0:0:0:0:
268,96,32639,1,0,0:0:0:0:
180,80,32902,1,0,0:0:0:0:
200,124,33165,2,0,B|228:168|284:200|360:176|352:248|260:272|168:244|132:160|128:160,1,350
124,260,34744,1,0,0:0:0:0:
64,192,35007,1,0,0:0:0:0:
100,108,35271,1,0,0:0:0:0:
184,72,35534,1,0,0:0:0:0:
272,92,35797,1,0,0:0:0:0:
352,136,36060,1,0,0:0:0:0:
408,64,36323,1,0,0:0:0:0:
392,152,36586,1,0,0:0:0:0:
236,228,36849,2,0,B|160:196|168:136|236:124|228:56|284:52|336:104|344:104,1,280
368,188,38165,5,0,0:0:0:0:
368,188,38297,1,0,0:0:0:0:
368,188,38428,1,0,0:0:0:0:
368,188,38560,1,0,0:0:0:0:
368,188,38692,1,0,0:0:0:0:
232,104,38955,5,0,0:0:0:0:
64,176,39218,1,0,0:0:0:0:
140,228,39481,1,0,0:0:0:0:
232,236,39744,1,0,0:0:0:0:
288,164,40007,1,0,0:0:0:0:
272,72,40271,1,0,0:0:0:0:
360,44,40534,1,0,0:0:0:0:
412,116,40797,1,0,0:0:0:0:
364,156,41060,6,0,B|288:108|196:128|172:196|168:196,1,210
88,80,42113,1,0,0:0:0:0:
144,152,42376,1,0,0:0:0:0:
196,60,42639,1,0,0:0:0:0:
264,124,42902,1,0,0:0:0:0:
316,48,43165,1,0,0:0:0:0:
368,124,43428,1,0,0:0:0:0:
404,40,43692,1,0,0:0:0:0:
440,124,43955,1,0,0:0:0:0:
412,212,44218,1,0,0:0:0:0:
320,220,44481,1,0,0:0:0:0:
268,144,44744,1,0,0:0:0:0:
40,188,45271,5,0,0:0:0:0:
448,184,45797,1,0,0:0:0:0:
72,348,46323,1,0,0:0:0:0:
240,40,46849,1,0,0:0:0:0:
408,328,47376,1,0,0:0:0:0:
44,192,47902,1,0,0:0:0:0:
324,56,48428,1,0,0:0:0:0:
248,192,48955,1,0,0:0:0:0:
88,40,49481,1,0,0:0:0:0:
120,140,49876,5,0,0:0:0:0:
164,124,50007,1,0,0:0:0:0:
208,108,50140,1,0,0:0:0:0:
412,288,50665,2,0,B|364:336|284:324|268:320,1,140
264,240,51718,1,0,0:0:0:0:
104,96,52244,2,0,P|148:76|240:68,1,140
56,180,53165,5,0,0:0:0:0:
200,288,53692,1,0,0:0:0:0:
360,204,54218,1,0,0:0:0:0:
324,24,54744,1,0,0:0:0:0:
152,88,55271,1,0,0:0:0:0:
244,244,55797,1,0,0:0:0:0:
88,340,56323,1,0,0:0:0:0:
268,332,56849,1,0,0:0:0:0:
172,220,57376,2,0,B|212:184|268:160|308:164,1,140
380,236,58428,1,0,0:0:0:0:
456,284,58955,2,0,B|500:224|484:172|460:156,1,140
368,184,60007,1,0,0:0:0:0:
196,128,60534,1,0,0:0:0:0:
352,36,61060,1,0,0:0:0:0:
364,152,61586,1,0,0:0:0:0:
248,292,62113,1,0,0:0:0:0:
84,212,62507,5,0,0:0:0:0:
128,132,62770,1,0,0:0:0:0:
212,96,63033,1,0,0:0:0:0:
300,76,63296,1,0,0:0:0:0:
384,112,63560,1,0,0:0:0:0:
440,184,63823,1,0,0:0:0:0:
432,276,64086,1,0,0:0:0:0:
356,328,64349,1,0,0:0:0:0:
332,240,64612,6,0,B|316:156|288:104|200:84,1,210
120,104,65665,1,0,0:0:0:0:
148,192,65928,1,0,0:0:0:0:
236,164,66191,1,0,0:0:0:0:
240,256,66454,1,0,0:0:0:0:
188,232,66717,5,0,0:0:0:0:
236,156,66981,1,0,0:0:0:0:
144,164,67244,1,0,0:0:0:0:
104,244,67507,1,0,0:0:0:0:
168,308,67770,1,0,0:0:0:0:
244,260,68033,1,0,0:0:0:0:
292,172,68296,2,0,B|288:72|240:48|192:44,1,175
136,144,69217,1,0,0:0:0:0:
64,196,69480,1,0,0:0:0:0:
132,256,69744,1,0,0:0:0:0:
192,188,70007,1,0,0:0:0:0:
156,128,70270,1,0,0:0:0:0:
156,128,70402,1,0,0:0:0:0:
156,128,70533,1,0,0:0:0:0:
256,192,70796,12,0,73033,0:0:0:0:
