osu file format v14

[General]
AudioFilename: Super Star (Mitsuru) - She is My Wife.mp3
AudioLeadIn: 1000
PreviewTime: 73785
Countdown: 0
SampleSet: Normal
StackLeniency: 0.7
Mode: 0
LetterboxInBreaks: 0
WidescreenStoryboard: 1

[Editor]
Bookmarks: 11664,152839,327722
DistanceSpacing: 1.2
BeatDivisor: 4
GridSize: 4
TimelineZoom: 1

[Metadata]
Title:She is my wife
TitleUnicode:She is my wife
Artist:SUPER STAR -MITSURU-
ArtistUnicode:SUPER STAR -MITSURU-
Creator:Faust
Version:Forever
Source:beatmania IIDX
Tags:ONLY ONE ACT bemani
BeatmapID:114136
BeatmapSetID:35174

[Difficulty]
HPDrainRate:7
CircleSize:3.9
OverallDifficulty:7.3
ApproachRate:9.1
SliderMultiplier:1.7
SliderTickRate:2

[Events]
//Background and Video events
0,0,"MYWAIFU.jpg",0,0
//Break Periods
2,130451,136726
2,148804,152255
//Storyboard Layer 0 (Background)
//Storyboard Layer 1 (Fail)
//Storyboard Layer 2 (Pass)
//Storyboard Layer 3 (Foreground)
//Storyboard Sound Samples

[TimingPoints]
11664,705.882352941176,4,2,0,40,1,0
25869,-100,4,2,0,5,0,0
28252,-100,4,2,0,45,0,0
73075,352.941176470588,4,2,1,35,1,0
73692,-200,4,1,1,35,0,0
96310,-133.333333333333,4,1,1,35,0,0
107707,-133.333333333333,4,1,1,5,0,0
107972,-133.333333333333,4,1,1,35,0,0
108766,-133.333333333333,4,1,1,5,0,0
109030,-133.333333333333,4,1,1,35,0,0
110530,-133.333333333333,4,1,1,5,0,0
110795,-133.333333333333,4,1,1,35,0,0
111236,-133.333333333333,4,1,1,5,0,0
111501,-133.333333333333,4,1,1,35,0,0
111942,-133.333333333333,4,1,1,5,0,0
112207,-133.333333333333,4,1,1,35,0,0
115472,-133.333333333333,4,1,1,5,0,0
115736,-133.333333333333,4,1,1,35,0,0
116177,-133.333333333333,4,1,1,5,0,0
116442,-133.333333333333,4,1,1,35,0,0
116883,-133.333333333333,4,1,1,5,0,0
117148,-133.333333333333,4,1,1,35,0,0
117589,-133.333333333333,4,1,1,5,0,0
117854,-133.333333333333,4,1,1,35,0,0
119354,-133.333333333333,4,1,1,5,0,0
119619,-133.333333333333,4,1,1,35,0,0
121119,-133.333333333333,4,1,1,5,0,0
121383,-133.333333333333,4,1,1,35,0,0
122883,-133.333333333333,4,1,1,5,0,0
123148,-133.333333333333,4,1,1,35,0,0
126766,-133.333333333333,4,2,1,35,0,0
127030,-133.333333333333,4,1,1,35,0,0
127251,-133.333333333333,4,1,1,30,0,0
128883,-133.333333333333,4,2,1,30,0,0
129148,-133.333333333333,4,1,1,30,0,0
137133,-133.333333333333,4,2,1,35,0,0
138369,-133.333333333333,4,1,1,35,0,0
152133,-100,4,1,1,35,0,0
157030,-100,4,2,1,50,0,0
158310,-100,4,2,1,60,0,0
158574,-100,4,1,1,35,0,0
162898,-100,4,2,1,60,0,0
164045,-100,4,2,1,70,0,0
164663,-100,4,2,1,35,0,0
165457,-100,4,1,1,40,0,0
175692,-100,4,2,1,60,0,0
175869,-100,4,1,1,40,0,0
176398,-100,4,2,1,60,0,0
176574,-100,4,1,1,40,0,0
176795,-100,4,2,1,60,0,0
176927,-100,4,1,1,40,0,0
177501,-100,4,2,1,60,0,0
177589,-100,4,1,1,40,0,0
178207,-100,4,2,1,60,0,0
178295,-100,4,1,1,40,0,0
179398,-100,4,2,1,50,0,0
179574,-100,4,2,1,60,0,0
179751,-100,4,1,1,40,0,0
184913,-100,4,2,1,100,0,0
185133,-100,4,1,1,40,0,0
190869,-100,4,2,1,60,0,0
191045,-100,4,2,1,40,0,0
191266,-100,4,1,1,40,0,0
195104,-100,4,2,1,50,0,0
196163,-100,4,1,1,40,0,0
196516,-100,4,2,1,60,0,0
196692,-100,4,1,1,40,0,0
207854,-100,4,2,1,60,0,0
208163,-100,4,1,1,40,0,0
209398,-100,4,1,1,5,0,0
209751,-100,4,1,1,40,0,0
211516,-100,4,1,1,5,0,0
211869,-100,4,1,1,40,0,0
213501,-100,4,2,1,60,0,0
213633,-100,4,1,1,40,0,0
214339,-100,4,1,1,5,0,0
214692,-100,4,1,1,40,0,0
215751,-100,4,1,1,5,0,0
216104,-100,4,1,1,40,0,0
218045,-100,4,2,1,60,0,0
219016,-100,4,2,1,60,0,0
219280,-100,4,1,1,40,0,0
219457,-100,4,2,1,100,0,0
219854,-100,4,2,1,60,0,0
219986,-100,4,2,1,40,0,0
220163,-100,4,2,1,100,0,0
220339,-100,4,1,1,40,0,0
220560,-100,4,2,1,60,0,0
220692,-100,4,1,1,40,0,0
220869,-100,4,2,1,100,0,0
221089,-100,4,1,1,40,0,0
221927,-100,4,2,1,60,0,0
222107,-100,4,2,1,60,0,0
224751,-100,4,2,1,60,0,0
224927,-100,4,1,1,40,0,0
226251,-100,4,2,1,60,0,0
227398,-100,4,1,1,40,0,0
229074,-100,4,2,1,60,0,0
230222,-100,4,1,1,40,0,0
236310,-100,4,1,1,5,0,0
237369,-100,4,1,1,45,0,0
258677,-100,4,2,1,60,0,0
258766,-100,4,1,1,40,0,0
259339,-100,4,2,1,60,0,0
259472,-100,4,1,1,40,0,0
260222,-100,4,2,1,60,0,0
261104,-100,4,1,1,40,0,0
261545,-100,4,2,1,50,0,0
261633,-100,4,1,1,40,0,0
267280,-100,4,1,1,5,0,0
267633,-100,4,1,1,45,0,0
267986,-100,4,1,1,5,0,0
268339,-100,4,1,1,45,0,0
270104,-100,4,1,1,5,0,0
270457,-100,4,1,1,45,0,0
272751,-100,4,2,1,60,0,0
273016,-100,4,1,1,40,0,0
273457,-100,4,2,1,60,0,0
273722,-100,4,1,1,40,0,0
274163,-100,4,2,1,60,0,0
274427,-100,4,1,1,40,0,0
274869,-100,4,2,1,60,0,0
275133,-100,4,1,1,40,0,0
275619,-100,4,2,1,60,0,0
275927,-100,4,1,1,60,0,0
276104,-100,4,2,1,60,0,0
276633,-100,4,1,1,60,0,0
276854,-100,4,2,1,60,0,0
277383,-100,4,1,1,60,0,0
277472,-100,4,2,1,60,0,0
278089,-100,4,1,1,60,0,0
278177,-100,4,2,1,60,0,0
278795,-100,4,1,1,60,0,0
278883,-100,4,2,1,60,0,0
279501,-100,4,1,1,60,0,0
279589,-100,4,2,1,60,0,0
280869,-100,4,2,1,60,0,0
281045,-100,4,1,1,40,0,0
282722,-100,4,2,1,60,0,0
284222,-100,4,1,1,40,0,0
285545,-100,4,2,1,60,0,0
287045,-100,4,1,1,40,0,0
289692,-100,4,2,1,60,0,0
289869,-100,4,1,1,40,0,0
292516,-100,4,2,1,60,0,0
292692,-100,4,1,1,40,0,0
298251,-100,4,2,1,60,0,0
298516,-100,4,1,1,40,0,0
303810,-100,4,1,1,5,0,0
306545,-100,4,2,1,30,0,0
307251,-100,4,2,1,50,0,0
308089,-100,4,1,1,40,0,0
319163,-100,4,2,1,60,0,0
319516,-100,4,2,1,50,0,0
320089,-100,4,2,1,60,0,0
320222,-100,4,1,1,50,0,0
320795,-100,4,2,1,60,0,0
320927,-100,4,1,1,50,0,0
322163,-100,4,2,1,70,0,0
322339,-100,4,2,1,5,0,0
323839,-100,4,1,1,45,0,0
324986,-100,4,2,1,60,0,0
325119,-100,4,1,1,45,0,0
325736,-100,4,2,1,70,0,0
325824,-100,4,1,1,50,0,0
326398,-100,4,2,1,70,0,0
327633,-100,4,2,1,80,0,0
329663,352.941176470588,4,2,1,80,1,0

[Colours]
Combo1 : 189,238,77
Combo2 : 227,15,126
Combo3 : 241,88,80
Combo4 : 46,199,153

[HitObjects]
170,86,11663,5,0,0:0:0:0:
361,106,12369,1,0,0:0:0:0:
341,297,13075,1,0,0:0:0:0:
150,277,13781,1,0,0:0:0:0:
368,132,14487,1,0,0:0:0:0:
196,79,15193,1,0,0:0:0:0:
143,251,15899,1,0,0:0:0:0:
315,304,16605,1,0,0:0:0:0:
424,340,17311,6,0,B|376:324,1,42.5,2|0,0:0|0:0,0:0:0:0:
176,240,18016,1,0,0:0:0:0:
176,240,18369,2,0,B|224:224,1,42.5,2|0,0:0|0:0,0:0:0:0:
296,248,19781,1,0,0:0:0:0:
296,248,20134,6,0,B|344:232,1,42.5,2|0,0:0|0:0,0:0:0:0:
476,48,20840,1,0,0:0:0:0:
476,48,21193,2,0,B|428:64,1,42.5,2|0,0:0|0:0,0:0:0:0:
144,192,22605,1,2,0:0:0:0:
144,192,22958,6,0,B|196:204,1,42.5
448,272,23663,1,2,0:0:0:0:
448,272,24016,2,0,B|400:284,1,42.5
208,340,25428,5,0,0:0:0:0:
200,272,25605,1,0,0:0:0:0:
208,204,25781,1,2,0:0:0:0:
256,192,25869,8,0,27899,0:0:0:0:
64,84,28605,5,2,0:0:0:0:
80,156,28958,1,0,0:0:0:0:
336,156,29311,1,0,0:0:0:0:
316,240,29663,1,0,0:0:0:0:
84,280,30016,1,0,0:0:0:0:
112,368,30369,1,0,0:0:0:0:
112,368,30722,2,0,B|136:336|184:312,1,85
312,264,31428,5,2,0:0:0:0:
408,236,31781,1,0,0:0:0:0:
492,292,32134,1,0,0:0:0:0:
416,360,32487,1,0,0:0:0:0:
420,348,32840,1,2,0:0:0:0:
408,236,33193,1,0,0:0:0:0:
324,164,33546,1,2,0:0:0:0:
260,252,33899,1,0,0:0:0:0:
148,348,34252,5,0,0:0:0:0:
148,348,34605,1,0,0:0:0:0:
96,288,34781,1,0,0:0:0:0:
24,264,34958,1,2,0:0:0:0:
260,244,35311,1,0,0:0:0:0:
476,192,35664,1,2,0:0:0:0:
220,156,36016,1,0,0:0:0:0:
220,156,36369,5,0,0:0:0:0:
308,188,36722,1,0,0:0:0:0:
476,348,37075,1,0,0:0:0:0:
476,348,37428,1,0,0:0:0:0:
400,360,37605,1,0,0:0:0:0:
340,316,37781,1,0,0:0:0:0:
36,228,38134,1,0,0:0:0:0:
308,264,38487,1,0,0:0:0:0:
308,264,38840,1,0,0:0:0:0:
220,228,39193,1,0,0:0:0:0:
476,192,39546,5,2,0:0:0:0:
476,192,39899,2,0,B|476:144|452:104,1,85
352,72,40605,1,0,0:0:0:0:
336,224,40958,5,0,0:0:0:0:
336,224,41311,2,0,B|276:244|208:236,1,127.5,2|0,0:0|0:0,0:0:0:0:
210,236,42016,2,0,P|184:276|152:300,1,85
48,332,42722,5,2,0:0:0:0:
156,316,43075,1,0,0:0:0:0:
264,340,43428,1,0,0:0:0:0:
344,272,43781,1,0,0:0:0:0:
408,204,44134,2,0,B|336:160|280:208|280:208|240:196,1,170
36,228,45193,1,0,0:0:0:0:
36,228,45546,6,0,B|64:256|84:304,1,85
176,352,46252,2,0,B|212:336|256:324,1,85
316,236,46958,2,0,B|360:252|416:252,1,85
508,232,47664,1,0,0:0:0:0:
452,328,48016,1,0,0:0:0:0:
452,328,48369,2,0,B|408:312|360:308,1,85
260,304,49075,1,0,0:0:0:0:
156,344,49428,1,0,0:0:0:0:
40,192,49781,1,2,0:0:0:0:
68,280,50134,1,0,0:0:0:0:
384,208,50487,1,0,0:0:0:0:
396,116,50840,1,0,0:0:0:0:
216,200,51193,5,2,0:0:0:0:
248,288,51546,1,0,0:0:0:0:
164,340,51899,1,0,0:0:0:0:
256,324,52252,1,0,0:0:0:0:
348,304,52605,2,0,B|448:284,1,85
256,252,53311,2,0,B|172:240,1,85
36,188,54016,5,2,0:0:0:0:
132,148,54369,1,0,0:0:0:0:
180,56,54722,1,0,0:0:0:0:
180,56,55075,1,0,0:0:0:0:
292,348,55428,1,0,0:0:0:0:
476,192,55781,1,0,0:0:0:0:
476,192,56134,1,2,0:0:0:0:
400,260,56487,1,0,0:0:0:0:
300,288,56840,6,0,B|264:300|216:300,1,85
148,288,57369,1,0,0:0:0:0:
100,240,57546,1,2,0:0:0:0:
120,44,57899,1,0,0:0:0:0:
384,128,58252,2,0,B|352:104|304:88,1,85
208,76,58958,5,2,0:0:0:0:
108,112,59311,1,0,0:0:0:0:
108,112,59663,2,0,B|124:152|124:196,1,85
112,268,60193,1,0,0:0:0:0:
160,324,60369,1,0,0:0:0:0:
448,272,60722,1,0,0:0:0:0:
448,272,61075,2,0,B|408:268|364:272,1,85
300,312,61781,1,0,0:0:0:0:
36,228,62134,5,2,0:0:0:0:
84,312,62487,1,0,0:0:0:0:
256,344,62840,1,0,0:0:0:0:
344,292,63193,1,0,0:0:0:0:
476,124,63546,5,0,0:0:0:0:
476,124,63899,2,0,B|416:96|352:104,1,127.5,2|0,0:0|0:0,0:0:0:0:
284,120,64605,1,0,0:0:0:0:
344,200,64958,1,0,0:0:0:0:
368,300,65311,5,2,0:0:0:0:
272,268,65664,1,0,0:0:0:0:
344,200,66016,1,0,0:0:0:0:
392,108,66369,1,0,0:0:0:0:
320,36,66722,2,0,B|236:12|152:28,1,170
60,64,67781,1,0,0:0:0:0:
60,64,68134,2,0,B|44:104|60:152,1,85,2|0,0:0|0:0,0:0:0:0:
294,322,68840,2,0,B|308:284|300:232,1,85
40,348,69546,2,0,B|20:312|20:248,1,85
132,284,70252,5,2,0:0:0:0:
192,192,70605,1,0,0:0:0:0:
192,192,70958,1,0,0:0:0:0:
68,136,71311,1,0,0:0:0:0:
36,244,71664,1,0,0:0:0:0:
80,344,72016,1,0,0:0:0:0:
80,344,72369,1,2,0:0:0:0:
476,228,73075,5,0,0:0:0:0:
504,112,73251,1,0,0:0:0:0:
408,44,73427,1,2,0:0:0:0:
296,84,73604,1,0,0:0:0:0:
296,84,73780,2,0,B|328:136|312:212,1,127.5
280,268,74486,1,0,0:0:0:0:
352,360,74839,1,0,0:0:0:0:
232,372,75192,1,0,0:0:0:0:
280,268,75545,5,0,0:0:0:0:
212,288,75722,1,0,0:0:0:0:
140,280,75898,1,2,3:0:0:0:
140,280,76251,1,0,0:0:0:0:
36,116,76604,2,0,B|92:140|168:132,1,127.5
300,116,77310,2,0,B|336:32,1,85
180,40,78016,2,0,B|213:118,1,85
352,232,78722,1,0,0:3:0:0:
352,232,79075,5,0,0:0:0:0:
312,288,79251,1,0,0:0:0:0:
284,352,79427,1,0,0:0:0:0:
284,352,79780,1,0,0:0:0:0:
36,228,80133,1,0,0:0:0:0:
36,228,80486,5,0,0:0:0:0:
96,264,80663,1,0,0:0:0:0:
164,280,80839,1,0,0:0:0:0:
344,100,81192,1,0,0:0:0:0:
280,124,81369,1,0,0:0:0:0:
212,136,81545,2,0,B|168:144|128:136,1,85
28,72,82251,1,0,0:0:0:0:
64,200,82604,1,0,0:0:0:0:
28,72,82957,1,0,0:0:0:0:
64,200,83310,1,0,0:0:0:0:
160,228,83663,1,0,0:0:0:0:
220,308,84016,1,0,0:0:0:0:
476,156,84369,5,0,0:3:0:0:
476,156,84545,1,0,0:0:0:0:
404,168,84722,1,0,0:0:0:0:
336,144,84898,1,0,0:0:0:0:
308,80,85075,1,0,0:0:0:0:
308,80,85427,2,0,B|296:124|272:160,1,85
36,280,86133,5,0,0:0:0:0:
92,320,86310,1,0,0:0:0:0:
160,336,86486,1,0,0:0:0:0:
376,340,86839,1,0,0:0:0:0:
324,296,87016,1,0,0:0:0:0:
292,236,87192,1,0,0:0:0:0:
256,36,87545,1,0,0:0:0:0:
368,120,87898,6,0,B|408:136|452:136,1,85
416,248,88427,2,0,B|352:224|288:232,1,127.5
216,280,89310,1,0,0:0:0:0:
36,228,89663,1,0,0:0:0:0:
72,164,89839,1,0,0:0:0:0:
80,92,90016,1,0,0:3:0:0:
292,36,90369,1,0,0:0:0:0:
292,36,90722,1,0,0:0:0:0:
200,16,91075,1,0,0:0:0:0:
112,52,91427,1,0,0:0:0:0:
36,188,91780,5,0,0:0:0:0:
56,164,91898,1,0,0:0:0:0:
80,144,92016,1,0,0:0:0:0:
108,132,92133,1,0,0:0:0:0:
140,128,92251,1,0,0:0:0:0:
172,132,92369,1,0,0:0:0:0:
200,148,92486,1,0,0:0:0:0:
220,172,92604,1,0,0:0:0:0:
240,196,92722,1,0,0:0:0:0:
264,216,92840,1,0,0:0:0:0:
292,232,92958,1,0,0:0:0:0:
320,240,93075,1,0,0:0:0:0:
352,240,93193,1,0,0:0:0:0:
384,232,93311,1,0,0:0:0:0:
412,216,93428,1,0,0:0:0:0:
432,192,93546,5,0,0:0:0:0:
436,180,94251,1,0,0:0:0:0:
440,168,94957,1,0,0:0:0:0:
296,44,95486,2,0,L|260:40,2,21.25
220,152,95839,1,0,0:0:0:0:
372,244,96016,1,0,0:3:0:0:
372,244,96369,6,0,B|312:264|244:256,1,127.500004863739
36,228,97075,1,0,0:0:0:0:
172,32,97427,5,0,0:0:0:0:
132,120,97604,1,0,0:0:0:0:
172,32,97780,2,0,B|232:52|304:48,1,127.500004863739
492,28,98486,1,0,0:0:0:0:
492,28,98839,5,0,0:0:0:0:
456,92,99016,1,0,0:0:0:0:
456,164,99192,1,0,0:0:0:0:
220,256,99545,1,0,0:0:0:0:
360,124,99898,1,0,0:0:0:0:
176,68,100251,1,0,0:0:0:0:
220,256,100604,5,0,0:0:0:0:
220,256,100957,1,0,0:0:0:0:
160,168,101133,1,0,0:0:0:0:
88,248,101310,1,0,0:3:0:0:
220,256,101663,1,0,0:0:0:0:
476,228,102016,1,0,0:0:0:0:
380,124,102369,1,0,0:0:0:0:
312,248,102722,1,0,0:0:0:0:
380,124,103075,1,0,0:0:0:0:
248,292,103427,1,0,0:0:0:0:
96,144,103780,1,0,0:0:0:0:
172,228,104133,1,0,0:0:0:0:
4,204,104486,1,0,0:0:0:0:
156,72,104839,5,0,0:0:0:0:
292,36,105192,1,0,0:0:0:0:
256,160,105545,1,0,0:0:0:0:
88,192,105898,1,0,0:0:0:0:
116,260,106075,1,0,0:0:0:0:
100,332,106251,1,4,0:0:0:0:
400,348,106780,1,0,0:0:0:0:
400,348,106957,1,0,0:0:0:0:
476,228,107310,1,0,0:0:0:0:
476,228,107663,6,0,B|416:200|352:212,1,127.500004863739
256,328,108369,1,0,0:0:0:0:
92,136,108722,2,0,B|160:120|224:156,1,127.500004863739
296,264,109427,1,0,0:0:0:0:
324,124,109780,1,0,0:0:0:0:
216,36,110133,1,0,0:0:0:0:
356,36,110486,6,0,B|292:52|248:100,1,127.499996200204
36,236,111192,2,0,B|36:300|84:360,1,127.499996200204
292,308,111898,2,0,B|292:244|340:184,1,127.499996200204
444,104,112604,1,0,0:0:0:0:
444,104,112957,5,0,0:0:0:0:
396,156,113133,1,0,0:0:0:0:
336,192,113310,2,0,B|280:144|208:136,1,127.499996200204
80,144,114016,1,0,0:0:0:0:
192,228,114369,1,0,0:0:0:0:
324,276,114722,1,0,0:0:0:0:
216,364,115075,1,0,0:0:0:0:
324,276,115427,2,0,B|380:228|452:220,1,127.499996200204
348,36,116133,6,0,B|340:104|280:156,1,127.499996200204
36,156,116839,2,0,B|72:212|140:236,1,127.499996200204
388,228,117545,2,0,B|325:249|289:305,1,127.499996200204
292,304,118251,1,0,0:0:0:0:
176,228,118604,5,0,0:0:0:0:
232,176,118780,1,0,0:0:0:0:
308,156,118957,1,0,0:0:0:0:
320,28,119310,2,0,B|272:76|204:76,1,127.500004863739
88,156,120016,1,0,0:0:0:0:
156,280,120369,1,0,0:0:0:0:
296,256,120722,1,0,0:0:0:0:
192,352,121074,2,0,B|248:332|320:332,1,127.500004863739
476,236,121780,5,0,0:0:0:0:
444,100,122133,1,0,0:0:0:0:
220,36,122486,1,0,0:0:0:0:
224,176,122839,2,0,B|352:192,1,127.499996200204
488,216,123545,1,0,0:0:0:0:
400,328,123898,1,0,0:0:0:0:
292,240,124251,5,0,0:0:0:0:
224,244,124427,1,0,0:0:0:0:
156,240,124604,1,0,0:0:0:0:
200,108,124957,1,0,0:0:0:0:
224,244,125310,1,0,0:0:0:0:
356,192,125663,1,0,0:0:0:0:
480,124,126016,1,0,0:0:0:0:
356,192,126369,1,0,0:0:0:0:
256,96,126722,2,0,B|188:72|116:80,1,127.499996200204
32,192,127427,5,0,0:0:0:0:
32,192,127780,1,0,0:0:0:0:
120,80,128133,1,0,0:0:0:0:
252,32,128486,1,0,0:0:0:0:
392,36,128839,2,0,B|364:100|316:136,1,127.499996200204
248,156,129369,1,0,0:0:0:0:
180,136,129545,1,0,0:0:0:0:
292,328,129898,1,0,0:0:0:0:
152,352,130251,1,0,0:0:0:0:
456,232,137310,5,0,0:0:0:0:
64,128,138016,1,0,0:0:0:0:
36,192,138722,5,4,0:0:0:0:
112,312,139075,1,0,0:0:0:0:
180,296,139251,1,0,0:0:0:0:
248,288,139427,1,0,0:0:0:0:
476,156,139780,5,0,0:0:0:0:
412,128,139957,1,0,0:0:0:0:
344,116,140133,2,0,B|216:120,1,127.500004863739
296,232,140839,1,0,0:0:0:0:
36,228,141192,5,0,0:0:0:0:
96,260,141369,1,0,0:0:0:0:
164,276,141545,2,0,B|296:284,1,127.500004863739
412,348,142251,1,0,0:0:0:0:
328,236,142604,1,0,0:0:0:0:
256,116,142957,5,0,0:0:0:0:
328,236,143310,1,0,0:0:0:0:
248,268,143486,1,0,0:0:0:0:
180,220,143663,1,0,0:3:0:0:
36,156,144016,1,0,0:0:0:0:
180,220,144369,5,0,0:0:0:0:
292,348,144722,2,0,B|228:324|164:328,1,127.499996200204
36,276,145427,1,0,0:0:0:0:
168,320,145780,1,0,0:0:0:0:
292,256,146133,2,0,B|344:232|416:228,1,127.499996200204
336,124,146839,5,0,0:0:0:0:
244,180,147016,1,0,0:0:0:0:
200,88,147192,1,0,0:0:0:0:
200,88,147545,1,0,0:0:0:0:
232,280,147898,1,0,0:0:0:0:
400,160,148251,1,0,0:0:0:0:
356,228,148604,1,4,0:0:0:0:
80,100,152839,6,0,B|136:84|184:84,1,85,4|0,0:0|0:0,0:0:0:0:
164,84,153104,1,0,0:0:0:0:
220,200,153280,1,0,0:0:0:0:
344,232,153457,1,0,0:0:0:0:
344,232,153633,1,0,0:0:0:0:
344,232,153810,1,0,0:0:0:0:
324,252,153898,1,0,0:0:0:0:
300,268,153986,1,0,0:0:0:0:
272,280,154075,1,0,0:0:0:0:
244,288,154163,1,0,0:0:0:0:
216,292,154251,5,0,0:0:0:0:
92,264,154427,2,0,B|124:212,1,42.5
156,108,154692,1,0,0:0:0:0:
276,152,154869,1,0,0:0:0:0:
404,156,155045,1,0,0:0:0:0:
156,108,155222,1,0,0:0:0:0:
136,132,155310,1,0,0:0:0:0:
124,160,155398,1,0,0:0:0:0:
120,188,155486,1,0,0:0:0:0:
124,216,155575,1,0,0:0:0:0:
136,244,155663,5,0,0:0:0:0:
156,264,155751,1,0,0:0:0:0:
180,280,155839,1,0,0:0:0:0:
208,288,155927,1,0,0:0:0:0:
320,348,156104,1,0,0:0:0:0:
364,228,156280,1,0,0:0:0:0:
384,100,156457,1,0,0:0:0:0:
384,100,156633,1,0,0:0:0:0:
356,108,156722,1,0,0:0:0:0:
328,116,156810,1,0,0:0:0:0:
300,124,156898,1,0,0:0:0:0:
272,132,156986,1,0,0:0:0:0:
244,140,157075,5,4,0:0:0:0:
128,192,157251,1,4,0:0:0:0:
308,276,157427,1,4,0:0:0:0:
36,352,157780,5,0,0:0:0:0:
116,288,157957,1,0,0:0:0:0:
220,264,158133,1,0,0:0:0:0:
476,64,158486,6,0,B|436:40|392:36,1,85,4|0,0:0|0:0,0:0:0:0:
268,36,158839,2,0,B|228:39|188:63,1,85
36,156,159192,2,0,B|76:180|120:184,1,85
244,192,159545,2,0,B|283:188|323:164,1,85
476,256,159898,6,0,B|436:232|392:228,1,85
292,352,160251,2,0,B|316:312|320:268,1,85
180,232,160604,2,0,B|140:256|96:260,1,85
36,76,160957,2,0,B|60:116|64:160,1,85
36,280,161310,5,0,0:3:0:0:
44,252,161398,1,0,0:0:0:0:
60,228,161486,1,0,0:0:0:0:
80,208,161575,1,0,0:0:0:0:
104,192,161663,1,0,0:0:0:0:
132,184,161751,1,0,0:0:0:0:
160,184,161839,1,0,0:0:0:0:
188,192,161927,1,0,0:0:0:0:
216,196,162016,1,0,0:0:0:0:
244,188,162104,1,0,0:0:0:0:
268,168,162192,1,0,0:0:0:0:
280,140,162280,1,0,0:0:0:0:
280,108,162369,1,0,0:0:0:0:
268,80,162457,1,0,0:0:0:0:
244,64,162545,1,0,0:0:0:0:
216,56,162633,1,0,0:0:0:0:
188,56,162722,5,4,0:0:0:0:
36,156,162986,1,4,0:0:0:0:
36,156,163251,1,4,0:0:0:0:
144,300,163427,1,4,0:0:0:0:
332,264,163692,1,4,0:0:0:0:
332,264,163957,1,4,0:0:0:0:
392,156,164133,1,4,0:0:0:0:
28,32,164839,5,0,0:0:0:0:
48,144,165074,2,0,P|80:140|120:128,1,56.6666666666667
176,116,165310,2,0,P|204:116|244:124,1,56.6666666666667
296,164,165545,6,0,B|316:208|304:252,1,85,4|0,0:0|0:0,0:0:0:0:
32,316,165898,2,0,B|52:280|60:232,1,85
204,264,166251,2,0,B|200:304|216:352,1,85
388,276,166604,2,0,B|408:232|400:188,1,85
356,72,166957,1,0,0:0:0:0:
292,252,167222,1,0,0:0:0:0:
128,156,167486,1,0,0:0:0:0:
128,156,167663,2,0,B|168:140|216:136,1,85
340,140,168016,1,0,0:0:0:0:
292,252,168192,5,0,0:0:0:0:
260,248,168280,1,0,0:0:0:0:
228,244,168369,1,0,0:0:0:0:
108,228,168545,2,0,B|128:264|136:312,1,85
256,356,168898,1,0,0:0:0:0:
288,352,168986,1,0,0:0:0:0:
320,348,169075,1,0,0:0:0:0:
436,328,169251,2,0,B|496:360,2,42.5
356,228,169604,1,0,0:0:0:0:
372,104,169780,2,0,B|324:76|276:72,1,85
132,200,170133,2,0,B|176:208|232:192,1,85
348,156,170486,1,0,0:0:0:0:
284,268,170663,1,0,0:0:0:0:
160,248,170839,5,0,0:0:0:0:
136,224,170927,1,0,0:0:0:0:
104,212,171016,1,0,0:0:0:0:
72,208,171104,1,0,0:0:0:0:
40,216,171192,1,0,0:0:0:0:
108,24,171369,2,0,B|104:64|116:112,1,85
236,136,171722,1,0,0:0:0:0:
268,132,171810,1,0,0:0:0:0:
300,128,171898,1,0,0:0:0:0:
420,112,172075,2,0,B|460:148,2,42.5
368,228,172427,1,0,0:0:0:0:
420,112,172604,2,0,B|384:84|332:64,1,85
220,40,172957,1,0,0:0:0:0:
168,156,173133,5,0,0:0:0:0:
136,148,173222,1,0,0:0:0:0:
104,140,173310,1,0,0:0:0:0:
76,264,173486,2,0,B|36:272,2,42.5
200,236,173839,1,0,0:0:0:0:
168,360,174016,2,0,B|208:372|260:368,1,85
380,356,174369,1,0,0:0:0:0:
476,272,174545,5,0,0:0:0:0:
444,280,174633,1,0,0:0:0:0:
408,280,174722,1,0,0:0:0:0:
376,272,174810,1,0,0:0:0:0:
348,252,174898,1,0,0:0:0:0:
328,224,174986,1,0,0:0:0:0:
320,192,175075,1,0,0:0:0:0:
324,160,175163,1,0,0:0:0:0:
340,128,175251,1,0,0:0:0:0:
368,112,175339,1,0,0:0:0:0:
400,108,175427,2,0,B|444:96|488:112,1,85
300,36,175780,2,0,B|263:62|216:63,1,85,4|0,0:0|0:0,0:0:0:0:
36,136,176133,2,0,B|59:174|103:193,1,85,4|0,0:0|0:0,0:0:0:0:
216,352,176486,2,0,B|249:320|295:314,1,85,4|0,0:0|0:0,0:0:0:0:
396,284,176839,6,0,B|492:260,2,85,4|0|0,0:0|0:0|0:0,0:0:0:0:
296,232,177369,1,0,0:0:0:0:
264,228,177457,1,0,0:0:0:0:
232,224,177545,6,0,B|264:316,2,85,4|0|0,0:0|0:0|0:0,0:0:0:0:
156,100,178075,1,0,0:0:0:0:
132,76,178163,1,0,0:0:0:0:
108,52,178251,6,0,B|24:24,2,85,4|0|0,0:0|0:0|0:0,0:0:0:0:
220,132,178780,1,0,0:0:0:0:
252,136,178869,1,0,0:0:0:0:
284,140,178957,1,4,0:0:0:0:
428,36,179222,1,0,0:0:0:0:
320,192,179486,1,4,0:0:0:0:
320,192,179663,6,0,B|356:276,1,85,4|0,0:0|0:0,0:0:0:0:
256,352,180016,2,0,B|176:312,1,85
36,192,180369,2,0,B|116:256,1,85
228,260,180722,1,0,0:0:0:0:
356,252,180898,1,0,0:0:0:0:
380,228,180986,1,0,0:0:0:0:
404,204,181074,6,0,B|444:216|492:208,1,85
488,208,181339,2,0,B|472:164|484:120,2,85
376,332,181869,2,0,B|336:356|288:356,1,85
260,352,182133,1,0,0:0:0:0:
228,340,182222,1,0,0:0:0:0:
200,320,182310,1,0,0:0:0:0:
180,292,182398,1,0,0:0:0:0:
172,260,182486,6,0,B|268:240,1,85
476,140,182839,2,0,B|388:160,1,85
172,156,183192,2,0,B|260:140,1,85
256,192,183545,12,2,184957,0:0:0:0:
292,36,185310,5,0,0:0:0:0:
348,120,185486,1,0,0:0:0:0:
424,192,185663,1,0,0:0:0:0:
348,120,185839,1,0,0:0:0:0:
252,92,186016,2,0,B|208:72|168:68,1,85
36,112,186369,2,0,B|56:156|60:196,1,85
136,312,186722,6,0,B|180:292|220:288,1,85
216,288,186986,2,0,B|272:308,1,42.5
356,324,187251,1,0,0:0:0:0:
456,316,187427,1,0,0:0:0:0:
396,236,187604,1,0,0:0:0:0:
304,192,187780,1,0,0:0:0:0:
388,136,187957,1,0,0:0:0:0:
484,104,188133,5,0,0:0:0:0:
256,36,188398,1,0,0:0:0:0:
28,104,188663,1,0,0:0:0:0:
28,104,188839,2,0,B|64:140|104:152,1,85
192,192,189192,1,0,0:0:0:0:
148,284,189369,1,0,0:0:0:0:
52,316,189545,1,0,0:0:0:0:
256,228,189810,1,0,0:0:0:0:
460,316,190074,1,0,0:0:0:0:
460,316,190251,2,0,B|460:272|480:224,1,85
476,132,190604,1,0,0:0:0:0:
388,180,190780,5,0,0:0:0:0:
388,180,190957,2,0,B|364:112|312:76,1,127.5,4|0,0:0|0:0,0:0:0:0:
292,64,191310,1,0,0:0:0:0:
192,36,191486,1,0,0:0:0:0:
92,52,191663,2,0,B|144:96|176:164,1,127.5
172,152,192016,2,0,B|128:232,1,85
36,192,192369,5,0,0:0:0:0:
104,116,192545,1,0,0:0:0:0:
192,68,192722,1,0,0:0:0:0:
292,64,192898,1,0,0:0:0:0:
376,124,193075,2,0,B|296:156|196:156,1,170
184,256,193604,1,0,0:0:0:0:
184,256,193780,2,0,B|244:275|331:352,1,170
424,316,194310,1,0,0:0:0:0:
424,316,194486,2,0,B|399:237|446:141,1,170
460,124,194927,1,0,0:0:0:0:
480,104,195016,1,0,0:0:0:0:
292,36,195192,5,4,0:0:0:0:
256,132,195369,1,4,0:0:0:0:
220,348,195722,1,4,0:0:0:0:
220,348,196075,1,4,0:0:0:0:
36,156,196251,1,0,0:0:0:0:
68,152,196339,1,0,0:0:0:0:
100,156,196427,1,0,0:0:0:0:
188,192,196604,6,0,B|220:278|297:327,1,170,4|0,0:0|0:0,0:0:0:0:
392,348,197133,1,0,0:0:0:0:
432,256,197310,2,0,B|428:164|480:88,1,170
392,36,197839,1,0,0:0:0:0:
392,36,198016,2,0,B|337:110|248:136,1,170
156,152,198545,1,0,0:0:0:0:
60,192,198722,1,0,0:0:0:0:
64,292,198898,1,0,0:0:0:0:
164,320,199075,1,0,0:0:0:0:
216,232,199251,1,0,0:0:0:0:
156,152,199427,6,0,B|204:160|244:152,1,85
240,152,199692,2,0,B|293:192,1,42.5
364,228,199957,1,0,0:0:0:0:
476,352,200133,2,0,B|440:332|388:332,1,85
216,232,200486,2,0,B|252:252|304:252,1,85
400,248,200839,1,0,0:0:0:0:
256,84,201104,1,0,0:0:0:0:
468,32,201369,1,0,0:0:0:0:
468,32,201545,2,0,B|428:56|380:52,1,85
352,52,201810,1,0,0:0:0:0:
320,44,201898,1,0,0:0:0:0:
292,144,202075,5,0,0:0:0:0:
292,144,202251,2,0,B|220:100|120:100,1,170
48,36,202780,1,0,0:0:0:0:
48,36,202957,2,0,B|68:108|52:168,1,127.5
53,162,203310,1,0,0:0:0:0:
36,316,203486,5,0,0:0:0:0:
88,228,203663,1,0,0:0:0:0:
220,156,203839,1,0,0:0:0:0:
196,256,204016,1,0,0:0:0:0:
292,352,204192,1,0,0:0:0:0:
320,256,204369,1,0,0:0:0:0:
476,228,204545,1,0,0:0:0:0:
464,192,204633,1,0,0:0:0:0:
464,152,204722,1,0,0:0:0:0:
380,44,204898,1,0,0:0:0:0:
256,96,205075,5,0,0:0:0:0:
156,108,205251,1,0,0:0:0:0:
68,56,205427,1,0,0:0:0:0:
36,152,205604,2,0,B|52:196,2,42.5
152,176,205957,1,0,0:0:0:0:
252,176,206133,1,0,0:0:0:0:
328,244,206310,1,0,0:0:0:0:
256,332,206486,1,0,0:0:0:0:
148,344,206663,2,0,B|168:356,4,21.25
60,288,207016,2,0,B|88:304,4,21.25
36,188,207369,1,0,0:0:0:0:
132,220,207545,5,0,0:0:0:0:
160,200,207633,1,0,0:0:0:0:
192,188,207722,1,0,0:0:0:0:
224,184,207810,1,0,0:0:0:0:
256,188,207898,2,0,B|348:216|424:184,1,170,4|0,0:0|0:0,0:0:0:0:
476,96,208427,1,0,0:0:0:0:
476,96,208604,2,0,B|432:96|384:80,1,85
220,36,208957,2,0,B|228:80|264:116,1,85
304,244,209310,2,0,B|384:224|448:244,2,127.5
204,272,210016,2,0,B|160:288|116:280,1,85
32,228,210369,1,0,0:0:0:0:
128,192,210545,5,0,0:0:0:0:
156,188,210633,1,0,0:0:0:0:
184,184,210722,1,0,0:0:0:0:
292,156,210898,2,0,B|308:108|288:68,1,85
188,60,211251,1,0,0:0:0:0:
160,52,211339,1,0,0:0:0:0:
132,44,211427,2,0,B|116:108|60:156,2,127.5
292,48,212133,2,0,B|332:36|388:36,1,85
476,156,212486,2,0,B|432:172|404:208,1,85
352,292,212839,1,0,0:0:0:0:
300,204,213016,1,0,0:0:0:0:
200,192,213192,5,0,0:0:0:0:
168,180,213280,1,0,0:0:0:0:
136,172,213369,1,0,0:0:0:0:
104,164,213457,1,0,0:0:0:0:
72,156,213545,2,0,B|104:244,1,85,4|0,0:0|0:0,0:0:0:0:
136,332,213898,1,0,0:0:0:0:
236,344,214075,1,0,0:0:0:0:
268,328,214163,1,0,0:0:0:0:
300,320,214251,2,0,B|368:300|436:328,2,127.5
192,288,214957,2,0,B|152:264|120:224,1,85
76,144,215310,1,0,0:0:0:0:
172,116,215486,5,0,0:0:0:0:
204,112,215575,1,0,0:0:0:0:
236,112,215663,2,0,B|260:68|332:28,2,127.5,0|0|0,0:0|0:0|0:0,0:0:0:0:
212,212,216369,2,0,B|296:236,1,85
392,264,216722,1,0,0:0:0:0:
464,192,216898,5,0,0:0:0:0:
456,160,216986,1,0,0:0:0:0:
436,132,217075,1,0,0:0:0:0:
408,112,217163,1,0,0:0:0:0:
376,104,217251,1,0,0:0:0:0:
344,108,217339,1,0,0:0:0:0:
316,128,217427,1,0,0:0:0:0:
284,132,217516,1,0,0:0:0:0:
252,128,217604,1,0,0:0:0:0:
224,108,217692,1,0,0:0:0:0:
212,76,217780,1,0,0:0:0:0:
120,36,217957,1,0,0:0:0:0:
128,136,218133,5,4,0:0:0:0:
256,352,218486,1,4,0:0:0:0:
476,192,218839,1,6,0:0:0:0:
292,284,219192,6,0,B|256:260|208:244,1,85,4|0,0:0|0:0,0:0:0:0:
116,228,219545,1,2,0:0:0:0:
36,292,219722,5,0,0:0:0:0:
68,304,219810,1,0,0:0:0:0:
100,312,219898,2,0,B|144:320|192:312,1,85,4|0,0:0|0:0,0:0:0:0:
292,284,220251,1,2,0:0:0:0:
412,228,220427,5,0,0:0:0:0:
388,204,220516,1,0,0:0:0:0:
360,188,220604,2,0,B|316:156|276:152,1,85,4|0,0:0|0:0,0:0:0:0:
36,124,220957,2,2,B|80:156|136:160,1,85,2|0,0:0|0:0,0:0:0:0:
216,156,221310,5,0,0:0:0:0:
476,96,221575,1,0,0:0:0:0:
396,348,221839,1,0,0:0:0:0:
291,314,222016,5,6,0:0:0:0:
196,352,222192,1,0,0:0:0:0:
107,301,222369,1,2,3:0:0:0:
202,264,222545,1,0,0:0:0:0:
297,223,222722,1,0,0:0:0:0:
209,172,222898,1,0,0:0:0:0:
114,210,223075,1,2,0:0:0:0:
202,264,223251,37,0,0:0:0:0:
296,360,223427,21,0,0:0:0:0:
472,352,223604,1,0,0:0:0:0:
380,296,223780,1,2,3:0:0:0:
472,244,223957,5,0,0:0:0:0:
476,212,224045,1,0,0:0:0:0:
480,180,224133,1,0,0:0:0:0:
428,64,224310,2,0,B|384:60,1,42.5
208,36,224663,1,2,0:0:0:0:
256,124,224839,1,6,0:0:0:0:
292,220,225016,1,0,0:0:0:0:
292,220,225192,1,0,0:0:0:0:
292,220,225369,1,0,0:0:0:0:
136,352,225722,1,0,0:0:0:0:
260,308,225898,1,0,0:3:0:0:
388,340,226074,1,0,0:0:0:0:
476,156,226427,5,4,0:0:0:0:
220,228,226604,1,4,0:0:0:0:
220,228,226957,1,4,0:0:0:0:
408,36,227222,1,4,0:0:0:0:
408,36,227486,5,0,0:0:0:0:
376,40,227575,1,0,0:0:0:0:
344,44,227663,1,4,0:0:0:0:
256,76,227839,1,0,0:0:0:0:
168,132,228016,1,0,0:0:0:0:
100,208,228192,1,0,0:0:0:0:
288,284,228545,1,0,0:0:0:0:
200,228,228722,1,0,0:0:0:0:
100,208,228898,1,0,0:0:0:0:
304,196,229251,1,4,0:0:0:0:
36,348,229427,1,4,0:0:0:0:
36,348,229780,1,4,0:0:0:0:
220,156,230045,1,4,0:0:0:0:
220,156,230310,5,0,0:0:0:0:
212,192,230398,1,0,0:0:0:0:
200,228,230486,1,4,0:0:0:0:
320,304,230663,1,0,0:0:0:0:
312,272,230751,1,0,0:0:0:0:
312,232,230839,2,0,B|340:220|396:216,1,85,0|0,3:0|0:0,0:0:0:0:
476,88,231192,2,0,B|424:88|388:76,1,85
292,48,231545,1,0,0:3:0:0:
36,136,231898,5,0,0:0:0:0:
80,228,232075,1,0,0:0:0:0:
112,240,232163,1,0,0:0:0:0:
144,244,232251,1,0,3:0:0:0:
236,240,232427,1,0,0:0:0:0:
336,228,232604,1,0,0:0:0:0:
368,224,232692,1,0,0:0:0:0:
400,212,232780,1,0,0:0:0:0:
476,156,232957,1,0,3:0:0:0:
388,104,233133,1,0,0:0:0:0:
356,92,233222,1,0,0:0:0:0:
324,88,233310,6,0,B|280:80|240:96,1,85,4|0,0:0|0:0,0:0:0:0:
164,160,233663,1,0,0:0:0:0:
256,200,233839,1,0,0:0:0:0:
164,160,234016,2,0,B|116:172|80:168,1,85
36,260,234369,1,0,0:0:0:0:
92,344,234545,1,0,0:0:0:0:
140,252,234722,6,0,B|184:248|224:260,1,85
316,304,235075,1,0,0:0:0:0:
416,328,235251,1,0,0:0:0:0:
416,328,235427,1,0,0:0:0:0:
292,192,235692,1,0,0:0:0:0:
476,156,235957,1,0,0:0:0:0:
220,36,236133,1,4,0:0:0:0:
256,192,236310,12,0,237192,0:0:0:0:
220,36,237545,5,0,0:0:0:0:
196,60,237633,1,0,0:0:0:0:
180,92,237722,1,0,0:0:0:0:
176,124,237810,1,0,0:0:0:0:
184,156,237898,1,0,0:0:0:0:
204,184,237986,1,0,0:0:0:0:
236,200,238075,1,0,0:0:0:0:
268,204,238163,1,0,0:0:0:0:
300,200,238251,1,0,0:0:0:0:
332,184,238339,1,0,0:0:0:0:
356,160,238427,1,0,0:0:0:0:
388,148,238516,1,0,0:0:0:0:
420,148,238604,1,4,0:0:0:0:
452,160,238692,1,0,0:0:0:0:
476,184,238780,1,0,0:0:0:0:
492,216,238869,1,0,0:0:0:0:
492,248,238957,5,4,0:0:0:0:
428,328,239133,1,0,0:0:0:0:
332,292,239310,1,0,0:0:0:0:
232,292,239486,1,0,0:0:0:0:
232,292,239575,1,0,0:0:0:0:
132,316,239751,5,0,0:0:0:0:
132,316,239839,1,0,0:0:0:0:
104,216,240016,1,0,0:0:0:0:
48,132,240192,1,0,0:0:0:0:
48,132,240280,1,0,0:0:0:0:
152,128,240457,5,0,0:0:0:0:
152,128,240545,1,0,0:0:0:0:
248,164,240722,1,0,0:0:0:0:
348,180,240898,1,0,0:0:0:0:
348,180,240986,1,0,0:0:0:0:
448,172,241163,5,0,0:0:0:0:
448,172,241251,1,0,0:0:0:0:
392,88,241427,1,0,0:0:0:0:
368,64,241516,1,0,0:0:0:0:
340,48,241604,1,0,0:0:0:0:
308,36,241692,1,0,0:0:0:0:
276,32,241780,5,0,0:0:0:0:
240,36,241869,1,0,0:0:0:0:
208,44,241957,1,0,0:0:0:0:
180,60,242045,1,0,0:0:0:0:
156,84,242133,1,0,0:0:0:0:
60,116,242310,2,0,B|72:164,1,42.5
100,256,242575,5,0,0:0:0:0:
100,256,242663,1,0,0:0:0:0:
200,276,242839,1,0,0:0:0:0:
292,324,243016,2,0,B|336:352,1,42.5
416,296,243280,5,0,0:0:0:0:
416,296,243369,1,0,0:0:0:0:
344,228,243545,1,0,0:0:0:0:
280,148,243722,1,0,0:0:0:0:
252,224,243898,1,0,0:0:0:0:
220,208,243986,1,0,0:0:0:0:
200,180,244075,1,0,0:0:0:0:
192,148,244163,1,0,0:0:0:0:
196,116,244251,1,0,0:0:0:0:
216,88,244339,1,0,0:0:0:0:
244,72,244427,1,0,0:0:0:0:
276,64,244516,1,0,0:0:0:0:
308,68,244604,5,4,0:0:0:0:
340,84,244692,1,0,0:0:0:0:
360,112,244780,1,0,0:0:0:0:
424,192,244957,1,0,0:0:0:0:
472,284,245133,1,0,0:0:0:0:
472,284,245222,1,0,0:0:0:0:
292,192,245398,5,0,0:0:0:0:
292,192,245486,1,0,0:0:0:0:
380,244,245663,1,0,0:0:0:0:
428,336,245839,1,0,0:0:0:0:
400,320,245927,1,0,0:0:0:0:
368,312,246016,1,0,0:0:0:0:
336,312,246104,1,0,0:0:0:0:
304,320,246192,1,0,0:0:0:0:
216,352,246369,1,0,0:0:0:0:
184,264,246545,5,0,0:0:0:0:
184,264,246633,1,0,0:0:0:0:
140,184,246810,1,0,0:0:0:0:
140,184,246898,1,0,0:0:0:0:
80,112,247075,1,0,0:0:0:0:
112,116,247163,1,0,0:0:0:0:
144,116,247251,1,0,0:0:0:0:
176,112,247339,1,0,0:0:0:0:
208,104,247427,6,0,B|220:152,2,42.5
292,228,247692,2,0,B|300:176,2,42.5
396,120,247957,2,0,B|340:108,2,42.5
388,152,248222,5,0,0:0:0:0:
388,184,248310,1,0,0:0:0:0:
396,216,248398,1,0,0:0:0:0:
412,244,248486,1,0,0:0:0:0:
436,268,248575,1,0,0:0:0:0:
468,284,248663,1,0,0:0:0:0:
388,348,248839,5,0,0:0:0:0:
380,316,248927,1,0,0:0:0:0:
360,288,249016,1,0,0:0:0:0:
336,264,249104,1,0,0:0:0:0:
308,244,249192,1,0,0:0:0:0:
276,232,249280,1,0,0:0:0:0:
240,232,249369,1,0,0:0:0:0:
208,240,249457,1,0,0:0:0:0:
180,260,249545,1,0,0:0:0:0:
156,236,249633,1,0,0:0:0:0:
140,204,249722,1,0,0:0:0:0:
132,172,249810,1,0,0:0:0:0:
132,140,249898,1,0,0:0:0:0:
140,108,249986,1,0,0:0:0:0:
156,80,250075,1,0,0:0:0:0:
180,56,250163,1,0,0:0:0:0:
212,40,250251,6,0,B|264:32,2,42.5,4|0|0,0:0|0:0|0:0,0:0:0:0:
256,132,250604,2,0,B|352:140,1,85
340,140,250869,1,0,0:0:0:0:
440,160,251045,2,0,B|488:184,1,42.5
376,348,251310,2,0,B|292:340,1,85
292,340,251575,1,0,0:0:0:0:
192,316,251751,2,0,B|148:296,1,42.5
36,144,252016,2,0,B|120:160,1,85
120,160,252280,1,0,0:0:0:0:
220,188,252457,2,0,B|260:212,1,42.5
356,228,252722,5,0,0:0:0:0:
364,196,252810,1,0,0:0:0:0:
380,168,252898,1,0,0:0:0:0:
404,144,252986,1,0,0:0:0:0:
432,128,253075,5,0,0:0:0:0:
464,116,253163,1,0,0:0:0:0:
496,112,253251,1,0,0:0:0:0:
428,36,253427,2,0,B|384:28|332:40,1,85
344,36,253692,2,0,B|328:80,1,42.5
256,156,253957,2,0,B|304:176,2,42.5
160,112,254310,2,0,B|148:160,1,42.5
36,204,254575,2,0,B|52:256,1,42.5
128,324,254839,2,0,B|172:340|212:372,1,85
308,352,255192,6,0,B|352:336,3,42.5
380,320,255545,2,0,B|420:292,3,42.5
440,272,255898,2,0,B|472:228,3,42.5,4|0|0|0,0:0|0:0|0:0|0:0,0:0:0:0:
480,208,256251,1,0,0:0:0:0:
448,192,256339,1,0,0:0:0:0:
416,184,256427,1,0,0:0:0:0:
380,180,256516,1,0,0:0:0:0:
348,184,256604,1,0,0:0:0:0:
316,196,256692,1,0,0:0:0:0:
288,216,256780,1,0,0:0:0:0:
256,232,256869,1,0,0:0:0:0:
224,240,256957,1,0,0:0:0:0:
192,240,257045,1,0,0:0:0:0:
160,232,257133,1,0,0:0:0:0:
128,216,257222,1,0,0:0:0:0:
104,192,257310,6,0,B|84:156,3,42.5,4|0|0|0,0:0|0:0|0:0|0:0,0:0:0:0:
84,120,257663,1,0,0:0:0:0:
96,88,257751,1,0,0:0:0:0:
124,68,257839,1,0,0:0:0:0:
156,60,257927,1,0,0:0:0:0:
188,64,258016,2,0,B|232:76,3,42.5
260,92,258369,1,0,0:0:0:0:
292,100,258457,1,0,0:0:0:0:
324,96,258545,1,0,0:0:0:0:
356,88,258633,1,0,0:0:0:0:
384,72,258722,6,0,B|424:40,3,42.5,4|0|0|0,0:0|0:0|0:0|0:0,0:0:0:0:
476,128,259163,2,0,B|468:176,1,42.5
344,172,259427,2,0,B|340:216,1,42.5,4|0,0:0|0:0,0:0:0:0:
220,248,259692,1,0,0:0:0:0:
188,256,259780,1,0,0:0:0:0:
160,272,259869,1,0,0:0:0:0:
128,276,259957,1,0,0:0:0:0:
96,268,260045,1,0,0:0:0:0:
68,248,260133,5,4,0:0:0:0:
36,152,260310,1,4,0:0:0:0:
292,36,260663,1,4,0:0:0:0:
292,36,261016,1,4,0:0:0:0:
476,228,261192,1,0,0:0:0:0:
452,204,261280,1,0,0:0:0:0:
420,188,261369,1,0,0:0:0:0:
388,176,261457,1,0,0:0:0:0:
356,172,261545,1,6,0:0:0:0:
256,156,261722,5,0,0:0:0:0:
248,188,261810,1,0,0:0:0:0:
240,220,261898,1,0,0:0:0:0:
220,312,262074,1,0,0:0:0:0:
220,312,262251,2,0,B|136:324,2,85
320,296,262780,1,0,0:0:0:0:
352,304,262869,5,0,0:0:0:0:
388,312,262957,1,0,0:0:0:0:
464,228,263133,2,0,B|448:192|452:144,1,85
364,108,263486,1,0,0:0:0:0:
364,108,263663,1,0,0:0:0:0:
260,216,263839,1,0,0:0:0:0:
164,96,264016,1,0,0:0:0:0:
52,192,264192,1,0,0:0:0:0:
68,220,264280,1,0,0:0:0:0:
88,248,264369,5,0,0:0:0:0:
344,336,264545,2,0,B|360:288,1,42.5
476,156,264898,1,0,0:0:0:0:
476,156,265074,2,0,B|440:132|384:128,2,85
436,252,265604,1,0,0:0:0:0:
404,248,265692,1,0,0:0:0:0:
372,244,265780,1,0,0:0:0:0:
284,192,265957,1,0,0:0:0:0:
300,292,266133,1,0,0:0:0:0:
84,348,266310,1,0,0:0:0:0:
96,248,266486,1,0,0:0:0:0:
32,100,266663,1,0,0:0:0:0:
76,184,266839,1,0,0:0:0:0:
120,112,267016,5,0,0:0:0:0:
120,112,267192,2,0,B|176:76|259:91,1,127.5
348,228,267721,5,0,0:0:0:0:
348,228,267898,2,0,B|284:208|208:244,1,127.5
88,308,268427,5,0,0:0:0:0:
88,308,268604,1,0,0:0:0:0:
88,308,268780,2,0,B|128:284|156:244,1,85
212,168,269133,5,0,0:0:0:0:
212,168,269310,1,0,0:0:0:0:
256,76,269486,1,0,0:0:0:0:
156,84,269663,1,0,0:0:0:0:
212,168,269839,1,0,0:0:0:0:
292,228,270016,2,0,B|332:272|340:352,2,127.5
212,168,270722,2,0,B|172:180|128:176,1,85
28,160,271074,1,0,0:0:0:0:
36,264,271251,5,0,0:0:0:0:
68,280,271339,1,0,0:0:0:0:
100,296,271427,1,0,0:0:0:0:
212,340,271604,2,0,B|184:356,4,21.25
336,308,271957,2,0,B|308:324,4,21.25
384,204,272310,1,0,0:0:0:0:
384,204,272486,6,0,B|344:188|292:196,1,85
152,228,272839,2,0,B|180:172|176:100,1,127.5,4|0,0:0|0:0,0:0:0:0:
360,32,273369,5,0,0:0:0:0:
360,32,273545,2,0,B|336:88|336:160,1,127.5,4|0,0:0|0:0,0:0:0:0:
416,352,274074,5,0,0:0:0:0:
416,352,274251,2,0,B|360:328|288:328,1,127.5,4|0,0:0|0:0,0:0:0:0:
36,228,274780,5,0,0:0:0:0:
36,228,274957,2,0,B|92:252|164:244,1,127.5,4|0,0:0|0:0,0:0:0:0:
192,240,275310,1,0,0:0:0:0:
312,228,275487,5,0,0:0:0:0:
332,204,275575,1,0,0:0:0:0:
348,176,275664,1,4,0:0:0:0:
368,76,275840,1,0,0:0:0:0:
460,36,276017,1,0,0:0:0:0:
368,76,276193,1,0,0:0:0:0:
288,140,276369,2,0,B|192:112,1,85
132,188,276722,2,0,B|44:208,1,85
36,104,277075,5,2,0:0:0:0:
72,104,277164,1,0,0:0:0:0:
104,108,277252,1,0,0:0:0:0:
136,120,277340,1,0,0:0:0:0:
164,136,277428,1,0,0:0:0:0:
188,160,277517,1,0,0:0:0:0:
204,192,277605,1,0,0:0:0:0:
212,224,277693,1,0,0:0:0:0:
224,256,277781,1,0,0:0:0:0:
244,284,277869,1,0,0:0:0:0:
272,304,277958,1,0,0:0:0:0:
304,316,278046,1,0,0:0:0:0:
336,316,278134,1,0,0:0:0:0:
368,308,278222,1,0,0:0:0:0:
396,288,278311,1,0,0:0:0:0:
360,192,278487,5,2,0:0:0:0:
328,192,278575,1,0,0:0:0:0:
296,200,278664,1,0,0:0:0:0:
268,216,278752,1,0,0:0:0:0:
248,240,278840,1,0,0:0:0:0:
236,272,278928,1,0,0:0:0:0:
220,300,279017,1,0,0:0:0:0:
196,324,279105,1,0,0:0:0:0:
164,336,279193,1,0,0:0:0:0:
128,336,279281,1,0,0:0:0:0:
96,328,279369,1,0,0:0:0:0:
68,308,279458,1,0,0:0:0:0:
48,280,279546,1,0,0:3:0:0:
40,248,279634,1,0,0:0:0:0:
44,216,279722,1,0,0:0:0:0:
60,184,279811,1,0,0:0:0:0:
84,160,279899,6,0,B|120:188,1,42.5,4|0,0:0|0:0,0:0:0:0:
280,124,280164,2,0,B|252:164,1,42.5
292,328,280428,2,0,B|256:300,1,42.5,4|0,0:0|0:0,0:0:0:0:
124,188,280693,2,0,B|168:192,1,42.5
268,192,280958,1,4,0:0:0:0:
364,156,281133,1,0,0:0:0:0:
388,132,281222,1,0,0:0:0:0:
404,104,281311,1,0,0:0:0:0:
332,32,281487,6,0,B|164:56,1,170
196,256,282193,2,0,B|32:308,1,170
36,308,282899,5,4,0:0:0:0:
36,308,283075,1,4,0:0:0:0:
292,228,283428,1,4,0:0:0:0:
220,36,283693,1,4,0:0:0:0:
36,36,283958,1,4,0:0:0:0:
36,36,284134,1,4,0:0:0:0:
36,148,284311,6,0,B|200:100,1,170
292,284,285017,2,0,B|468:268,1,170
460,268,285722,5,4,0:0:0:0:
460,268,285899,1,4,0:0:0:0:
220,60,286252,1,4,0:0:0:0:
368,40,286517,1,4,0:0:0:0:
476,136,286781,1,4,0:0:0:0:
380,192,286958,1,4,0:0:0:0:
292,236,287134,6,0,B|124:264,1,170
36,72,287840,2,0,B|192:144,1,170
376,228,288546,2,0,B|320:64,1,170
108,156,289252,2,0,B|40:316,1,170
136,348,289781,1,4,0:0:0:0:
136,348,289958,6,0,B|200:296|304:296,1,170
428,140,290664,2,0,B|364:192|260:192,1,170
168,184,291193,1,0,0:0:0:0:
160,184,291546,1,0,0:0:0:0:
152,184,291899,1,0,0:0:0:0:
96,100,292075,1,0,0:0:0:0:
124,88,292164,1,0,0:0:0:0:
152,80,292252,1,0,0:0:0:0:
252,64,292428,1,0,0:0:0:0:
328,132,292605,6,0,B|425:143|485:191,1,170,4|0,0:0|0:0,0:0:0:0:
444,284,293134,1,0,0:0:0:0:
320,232,293310,1,0,0:0:0:0:
236,320,293487,1,0,0:0:0:0:
132,244,293664,1,0,0:0:0:0:
168,124,293840,1,0,0:0:0:0:
44,152,294017,6,0,B|32:236,1,85
220,276,294369,2,0,B|208:192,1,85
396,148,294722,2,0,B|384:232,1,85
372,332,295075,1,0,0:3:0:0:
292,268,295252,5,0,0:0:0:0:
276,240,295340,1,0,0:0:0:0:
252,216,295428,2,0,B|192:156|120:152,1,148.75
36,296,295958,2,0,B|124:308|204:256,1,170
292,156,296487,1,0,0:0:0:0:
388,116,296664,1,0,0:0:0:0:
304,60,296839,2,0,B|264:72|220:72,1,85
36,228,297192,2,0,B|80:212|116:168,1,85
292,228,297545,2,0,B|312:272|352:296,1,85
440,332,297899,1,0,0:3:0:0:
476,236,298075,5,0,0:0:0:0:
456,216,298164,1,0,0:0:0:0:
432,200,298252,2,0,B|352:156|260:168,1,170,4|0,0:0|0:0,0:0:0:0:
148,228,298781,2,0,B|96:152|116:56,1,170
256,44,299311,1,0,0:0:0:0:
292,140,299487,1,0,0:0:0:0:
364,64,299664,2,0,B|424:144|400:224,1,170
264,228,300193,2,0,B|164:236|108:300,1,170
48,324,300722,1,0,0:0:0:0:
36,224,300899,1,0,0:0:0:0:
64,216,300987,1,0,0:0:0:0:
92,208,301074,6,0,B|108:256|140:284,1,85
292,352,301427,2,0,B|272:320|224:296,1,85
204,196,301781,1,0,0:0:0:0:
300,156,301958,1,0,0:0:0:0:
372,228,302134,1,0,0:0:0:0:
448,156,302311,1,0,0:0:0:0:
372,92,302486,2,0,B|340:76|288:72,1,85
36,156,302839,2,0,B|68:140|120:136,1,85
220,136,303193,5,0,0:0:0:0:
304,320,303458,1,0,0:0:0:0:
484,228,303722,1,0,0:0:0:0:
256,192,303899,1,0,0:0:0:0:
408,156,306722,5,0,0:0:0:0:
408,156,307428,1,0,0:0:0:0:
372,160,307516,1,0,0:0:0:0:
332,164,307605,1,0,0:0:0:0:
296,168,307693,1,0,0:0:0:0:
256,172,307781,1,0,0:0:0:0:
220,168,307869,1,0,0:0:0:0:
184,164,307957,1,0,0:0:0:0:
144,160,308046,1,0,0:0:0:0:
108,156,308133,6,0,B|88:200|52:224,1,85,4|0,0:0|0:0,0:0:0:0:
56,220,308398,2,0,B|80:252|84:308,2,85
36,144,308927,1,0,0:0:0:0:
84,84,309104,1,0,0:0:0:0:
116,76,309193,1,0,0:0:0:0:
148,68,309281,1,0,0:0:0:0:
180,60,309369,1,0,0:0:0:0:
212,52,309458,1,0,0:0:0:0:
244,44,309546,6,0,B|232:92|248:136,1,85
244,128,309810,2,0,B|296:128|344:148,2,85
144,144,310339,1,0,0:0:0:0:
88,228,310517,1,0,0:0:0:0:
120,236,310605,1,0,0:0:0:0:
152,244,310693,1,0,0:0:0:0:
184,252,310781,1,0,0:0:0:0:
216,260,310869,1,0,0:0:0:0:
248,268,310958,6,0,B|236:316|252:360,1,85
284,356,311222,1,0,0:0:0:0:
388,352,311399,2,0,B|392:300|416:264,1,85
476,192,311752,1,0,0:0:0:0:
376,180,311928,1,0,0:0:0:0:
344,168,312017,1,0,0:0:0:0:
312,156,312105,1,0,0:0:0:0:
280,144,312193,1,0,0:0:0:0:
248,132,312281,1,0,0:0:0:0:
216,120,312369,6,0,P|200:80|200:32,1,85
44,104,312633,1,0,0:0:0:0:
44,104,312722,2,0,P|80:140|100:184,1,85
80,240,312987,1,0,0:0:0:0:
92,272,313075,1,0,0:0:0:0:
112,300,313164,1,0,0:0:0:0:
140,320,313252,1,0,0:0:0:0:
172,332,313340,1,0,0:0:0:0:
204,336,313428,1,0,0:0:0:0:
240,332,313517,1,0,0:0:0:0:
272,320,313605,1,0,0:0:0:0:
300,300,313693,1,0,0:0:0:0:
324,276,313781,5,4,0:0:0:0:
368,120,313957,1,0,0:0:0:0:
368,120,314045,1,0,0:0:0:0:
288,192,314222,1,0,0:0:0:0:
188,156,314399,1,0,0:0:0:0:
252,44,314574,1,0,0:0:0:0:
164,36,314751,1,0,0:0:0:0:
132,52,314840,1,0,0:0:0:0:
108,76,314928,1,0,0:0:0:0:
88,104,315017,1,0,0:0:0:0:
76,136,315105,1,0,0:0:0:0:
76,168,315193,5,0,0:0:0:0:
168,228,315369,1,0,0:0:0:0:
192,204,315458,1,0,0:0:0:0:
224,192,315546,1,0,0:0:0:0:
256,188,315634,1,0,0:0:0:0:
288,192,315722,1,0,0:0:0:0:
384,228,315899,1,0,0:0:0:0:
372,196,315987,1,0,0:0:0:0:
368,164,316075,1,0,0:0:0:0:
408,68,316252,1,0,0:0:0:0:
440,80,316340,1,0,0:0:0:0:
468,100,316428,1,0,0:0:0:0:
488,128,316517,1,0,0:0:0:0:
500,160,316605,5,0,0:0:0:0:
476,260,316781,1,0,0:0:0:0:
428,348,316958,1,0,0:0:0:0:
332,316,317134,5,0,0:0:0:0:
304,300,317222,1,0,0:0:0:0:
272,292,317311,1,0,0:0:0:0:
240,292,317399,1,0,0:0:0:0:
208,300,317487,1,0,0:0:0:0:
176,316,317575,1,0,0:0:0:0:
140,320,317664,1,0,0:0:0:0:
108,312,317752,1,0,0:0:0:0:
80,292,317840,1,0,0:0:0:0:
64,260,317928,1,0,0:0:0:0:
60,224,318017,5,0,0:0:0:0:
136,156,318193,1,0,0:0:0:0:
292,36,318369,1,4,0:0:0:0:
396,192,318545,1,4,0:0:0:0:
136,156,318722,2,0,L|180:180,1,42.5
292,36,318987,2,0,B|248:48,1,42.5,4|0,0:0|0:0,0:0:0:0:
44,116,319252,5,0,0:0:0:0:
44,116,319340,1,0,0:0:0:0:
44,116,319427,2,0,B|132:116,1,85,4|0,0:0|0:0,0:0:0:0:
412,88,319780,1,0,0:0:0:0:
472,244,319957,1,0,0:0:0:0:
472,244,320045,1,0,0:0:0:0:
472,244,320133,6,0,B|384:244,1,85,4|0,0:0|0:0,0:0:0:0:
76,232,320486,1,0,0:0:0:0:
48,368,320663,1,0,0:0:0:0:
48,368,320751,1,0,0:0:0:0:
48,368,320839,6,0,B|136:368,1,85,4|0,0:0|0:0,0:0:0:0:
332,300,321192,1,0,0:0:0:0:
184,272,321369,1,0,0:0:0:0:
184,272,321457,1,0,0:0:0:0:
184,272,321546,5,0,0:0:0:0:
300,56,321811,1,0,0:0:0:0:
168,116,322075,1,0,0:0:0:0:
408,164,322251,1,4,0:0:0:0:
256,192,322295,12,0,323486,0:0:0:0:
296,148,323663,6,0,P|308:192|312:232,1,85
296,344,324017,5,0,0:0:0:0:
156,232,324192,1,0,0:0:0:0:
148,316,324369,1,0,0:0:0:0:
440,280,324545,1,0,0:0:0:0:
440,280,324633,1,0,0:0:0:0:
440,280,324722,1,0,0:0:0:0:
348,128,324898,1,0,0:0:0:0:
440,112,325075,5,4,0:0:0:0:
440,148,325164,1,0,0:0:0:0:
428,180,325252,1,0,0:0:0:0:
404,204,325340,1,0,0:0:0:0:
376,220,325428,1,0,0:0:0:0:
340,224,325517,1,0,0:0:0:0:
308,216,325605,1,0,0:0:0:0:
280,196,325693,1,0,0:0:0:0:
264,164,325781,1,4,0:0:0:0:
240,140,325869,1,0,0:0:0:0:
208,128,325958,1,0,0:0:0:0:
176,136,326046,1,0,0:0:0:0:
148,152,326134,2,0,B|120:176,4,21.25
271,45,326487,5,4,0:0:0:0:
150,310,326752,1,4,0:0:0:0:
406,170,327017,1,4,0:0:0:0:
113,139,327193,1,6,0:0:0:0:
334,330,327458,1,4,0:0:0:0:
255,196,327722,1,6,0:0:0:0:
168,176,329663,5,0,0:0:0:0:
292,236,330074,1,0,0:0:0:0:
400,156,330368,1,0,0:0:0:0:
352,88,330663,1,0,0:0:0:0:
252,64,330898,1,0,0:0:0:0:
184,80,331133,1,0,0:0:0:0:
104,192,331427,1,0,0:0:0:0:
196,292,331663,1,0,0:0:0:0:
332,288,331898,1,0,0:0:0:0:
404,172,332133,1,0,0:0:0:0:
184,80,332663,1,0,0:0:0:0:
472,180,333251,1,0,0:0:0:0:
208,336,333780,1,0,0:0:0:0:
320,52,334310,1,0,0:0:0:0:
396,312,334780,1,0,0:0:0:0:
244,128,335192,1,0,0:0:0:0:
100,168,335663,1,0,0:0:0:0:
288,244,336074,1,0,0:0:0:0:
396,220,336486,1,0,0:0:0:0:
344,88,336957,1,0,0:0:0:0:
84,160,337427,1,0,0:0:0:0:
