osu file format v14

[General]
AudioFilename: audio.mp3
AudioLeadIn: 0
PreviewTime: 60913
Countdown: 0
SampleSet: Normal
StackLeniency: 0.7
Mode: 1
LetterboxInBreaks: 0
WidescreenStoryboard: 0

[Editor]
Bookmarks: 13094,24731,40731,46549,61094,90185,97458
DistanceSpacing: 1.1
BeatDivisor: 4
GridSize: 32
TimelineZoom: 1.8

[Metadata]
Title:NEW GENERATION -mou, omae shika mienai-
TitleUnicode:NEW GENERATION -もう、お前しか見えない-
Artist:SUPER STAR -MITSURU-
ArtistUnicode:SUPER STAR 満-MITSURU-
Creator:Yales
Version:Ron's Oni
Source:beatmania IIDX 15 DJ TROOPERS
Tags:ayyri eiri- [R] Ron Mirash eurobeat bemani konami only one act now, I can't see anybody else but you
BeatmapID:1576253
BeatmapSetID:739888

[Difficulty]
HPDrainRate:5
CircleSize:2
OverallDifficulty:5
ApproachRate:9
SliderMultiplier:1.4
SliderTickRate:1

[Events]
//Background and Video events
0,0,"bg.jpg",0,-25
//Break Periods
//Storyboard Layer 0 (Background)
//Storyboard Layer 1 (Fail)
//Storyboard Layer 2 (Pass)
//Storyboard Layer 3 (Foreground)
//Storyboard Sound Samples

[TimingPoints]
4,363.636363636364,4,1,0,80,1,0
1094,-100,4,1,0,95,0,0
1458,-100,4,1,0,80,0,0
30185,-100,4,1,0,95,0,0
30549,-100,4,1,0,80,0,0
40367,-100,4,1,0,95,0,0
40731,-100,4,1,0,80,0,0
65458,-100,4,1,0,95,0,1
78549,-100,4,1,0,80,0,0
91276,-100,4,1,0,95,0,0
91640,-100,4,1,0,80,0,0
105094,-100,4,1,0,95,0,1
116367,-100,4,1,0,80,0,0
117458,-100,4,1,0,95,0,0

[Colours]
Combo1 : 185,122,199
Combo2 : 128,128,192
Combo3 : 140,218,255
Combo4 : 255,128,128

[HitObjects]
256,192,1094,5,12,0:0:0:0:
224,288,1458,1,4,0:0:0:0:
224,288,1640,1,0,0:0:0:0:
224,288,1822,1,8,0:0:0:0:
224,288,2004,1,0,0:0:0:0:
224,288,2094,1,0,0:0:0:0:
224,288,2185,1,8,0:0:0:0:
224,288,2367,1,0,0:0:0:0:
224,288,2549,1,8,0:0:0:0:
224,288,2731,1,0,0:0:0:0:
224,288,3094,1,0,0:0:0:0:
224,288,3276,1,8,0:0:0:0:
224,288,3458,1,0,0:0:0:0:
224,288,3549,1,0,0:0:0:0:
224,288,3640,1,8,0:0:0:0:
224,288,3822,1,0,0:0:0:0:
224,288,4004,1,8,0:0:0:0:
224,288,4185,1,8,0:0:0:0:
224,288,4367,1,0,0:0:0:0:
224,288,4731,1,8,0:0:0:0:
224,288,4913,1,0,0:0:0:0:
224,288,5094,1,8,0:0:0:0:
224,288,5185,1,8,0:0:0:0:
224,288,5276,1,0,0:0:0:0:
224,288,5458,1,8,0:0:0:0:
224,288,5640,1,0,0:0:0:0:
224,288,6004,1,8,0:0:0:0:
224,288,6185,1,8,0:0:0:0:
224,288,6367,1,0,0:0:0:0:
224,288,6549,1,8,0:0:0:0:
224,288,6731,1,0,0:0:0:0:
224,288,6822,1,0,0:0:0:0:
224,288,6913,1,8,0:0:0:0:
224,288,7094,1,8,0:0:0:0:
224,288,7276,1,4,0:0:0:0:
224,288,7458,1,0,0:0:0:0:
224,288,7640,1,8,0:0:0:0:
224,288,7822,1,0,0:0:0:0:
224,288,8185,1,0,0:0:0:0:
224,288,8367,1,8,0:0:0:0:
224,288,8549,1,0,0:0:0:0:
224,288,8731,1,8,0:0:0:0:
224,288,8913,1,8,0:0:0:0:
224,288,9094,1,0,0:0:0:0:
224,288,9458,1,8,0:0:0:0:
224,288,9640,1,0,0:0:0:0:
224,288,9822,1,8,0:0:0:0:
224,288,10004,1,8,0:0:0:0:
224,288,10185,1,0,0:0:0:0:
224,288,10276,1,0,0:0:0:0:
224,288,10367,1,0,0:0:0:0:
224,288,10458,1,0,0:0:0:0:
224,288,10549,1,8,0:0:0:0:
224,288,10731,1,0,0:0:0:0:
224,288,10913,1,8,0:0:0:0:
224,288,11094,1,0,0:0:0:0:
224,288,11276,1,8,0:0:0:0:
224,288,11367,1,8,0:0:0:0:
224,288,11458,1,8,0:0:0:0:
224,288,11549,1,8,0:0:0:0:
224,288,11640,1,0,0:0:0:0:
224,288,11822,1,8,0:0:0:0:
224,288,12004,1,0,0:0:0:0:
224,288,12367,1,8,0:0:0:0:
224,288,12549,1,0,0:0:0:0:
224,288,12731,1,8,0:0:0:0:
224,288,12913,1,8,0:0:0:0:
224,288,13094,1,4,0:0:0:0:
224,288,13458,1,8,0:0:0:0:
224,288,13640,1,0,0:0:0:0:
224,288,13822,1,0,0:0:0:0:
224,288,14004,1,8,0:0:0:0:
224,288,14094,1,0,0:0:0:0:
224,288,14276,1,0,0:0:0:0:
224,288,14367,1,8,0:0:0:0:
224,288,14731,1,8,0:0:0:0:
224,288,14913,1,0,0:0:0:0:
224,288,15004,1,8,0:0:0:0:
224,288,15185,1,8,0:0:0:0:
224,288,15276,1,0,0:0:0:0:
224,288,15458,1,0,0:0:0:0:
224,288,15640,1,8,0:0:0:0:
224,288,15822,1,8,0:0:0:0:
224,288,16004,1,0,0:0:0:0:
224,288,16367,1,8,0:0:0:0:
224,288,16549,1,0,0:0:0:0:
224,288,16731,1,8,0:0:0:0:
224,288,16914,1,0,0:0:0:0:
224,288,17004,1,0,0:0:0:0:
224,288,17186,1,0,0:0:0:0:
224,288,17276,1,8,0:0:0:0:
224,288,17640,1,0,0:0:0:0:
224,288,17823,1,8,0:0:0:0:
224,288,18004,1,0,0:0:0:0:
224,288,18094,1,0,0:0:0:0:
224,288,18185,1,0,0:0:0:0:
224,288,18367,1,0,0:0:0:0:
224,288,18549,1,8,0:0:0:0:
224,288,18731,1,8,0:0:0:0:
224,288,18913,1,4,0:0:0:0:
224,288,19276,1,8,0:0:0:0:
224,288,19458,1,0,0:0:0:0:
224,288,19641,1,0,0:0:0:0:
224,288,19822,1,8,0:0:0:0:
224,288,19913,1,0,0:0:0:0:
224,288,20094,1,0,0:0:0:0:
224,288,20185,1,8,0:0:0:0:
224,288,20549,1,8,0:0:0:0:
224,288,20732,1,0,0:0:0:0:
224,288,20822,1,8,0:0:0:0:
224,288,21004,1,8,0:0:0:0:
224,288,21095,1,0,0:0:0:0:
224,288,21276,1,0,0:0:0:0:
224,288,21458,1,8,0:0:0:0:
224,288,21641,1,8,0:0:0:0:
224,288,21731,1,8,0:0:0:0:
224,288,21823,1,0,0:0:0:0:
224,288,22005,1,0,0:0:0:0:
224,288,22185,1,8,0:0:0:0:
224,288,22549,1,0,0:0:0:0:
224,288,22731,1,0,0:0:0:0:
224,288,22913,1,8,0:0:0:0:
224,288,23004,1,8,0:0:0:0:
224,288,23094,1,8,0:0:0:0:
224,288,23276,1,0,0:0:0:0:
224,288,23549,1,0,0:0:0:0:
224,288,23822,1,0,0:0:0:0:
224,288,24094,1,8,0:0:0:0:
224,288,24185,1,0,0:0:0:0:
224,288,24368,1,8,0:0:0:0:
224,288,24550,1,8,0:0:0:0:
224,288,24731,1,4,0:0:0:0:
224,288,25094,1,8,0:0:0:0:
224,288,25276,1,0,0:0:0:0:
224,288,25458,1,0,0:0:0:0:
224,288,25640,1,8,0:0:0:0:
224,288,25731,1,0,0:0:0:0:
224,288,25913,1,0,0:0:0:0:
224,288,26004,1,8,0:0:0:0:
224,288,26185,1,0,0:0:0:0:
224,288,26458,1,8,0:0:0:0:
224,288,26731,1,8,0:0:0:0:
224,288,27004,1,8,0:0:0:0:
224,288,27094,1,0,0:0:0:0:
224,288,27276,1,8,0:0:0:0:
224,288,27458,1,8,0:0:0:0:
224,288,27549,1,8,0:0:0:0:
224,288,27640,1,0,0:0:0:0:
224,288,27822,1,0,0:0:0:0:
224,288,28004,1,8,0:0:0:0:
224,288,28367,1,8,0:0:0:0:
224,288,28549,1,0,0:0:0:0:
224,288,28640,1,8,0:0:0:0:
224,288,28822,1,8,0:0:0:0:
224,288,28913,1,0,0:0:0:0:
224,288,29094,1,0,0:0:0:0:
224,288,29185,1,0,0:0:0:0:
224,288,29276,1,8,0:0:0:0:
224,288,29458,1,8,0:0:0:0:
224,288,29640,1,0,0:0:0:0:
224,288,29731,1,0,0:0:0:0:
224,288,29913,1,0,0:0:0:0:
224,288,30004,1,0,0:0:0:0:
224,288,30185,1,12,0:0:0:0:
256,192,30549,1,4,0:0:0:0:
256,192,30731,1,8,0:0:0:0:
224,288,30822,1,8,0:0:0:0:
256,192,30913,1,0,0:0:0:0:
256,192,31094,1,8,0:0:0:0:
256,192,31276,1,0,0:0:0:0:
224,288,31458,1,0,0:0:0:0:
224,288,31549,1,0,0:0:0:0:
256,192,31640,1,8,0:0:0:0:
256,192,31822,1,8,0:0:0:0:
256,192,32004,1,0,0:0:0:0:
224,288,32185,1,0,0:0:0:0:
256,192,32367,1,8,0:0:0:0:
256,192,32549,1,0,0:0:0:0:
256,192,32640,1,0,0:0:0:0:
256,192,32731,1,0,0:0:0:0:
256,192,32913,1,0,0:0:0:0:
256,192,33094,1,8,0:0:0:0:
256,192,33276,1,8,0:0:0:0:
256,192,33367,1,8,0:0:0:0:
256,192,33458,1,0,0:0:0:0:
256,192,33640,1,0,0:0:0:0:
256,192,33822,1,8,0:0:0:0:
256,192,34185,1,0,0:0:0:0:
256,192,34367,1,0,0:0:0:0:
256,192,34549,1,8,0:0:0:0:
256,192,34640,1,8,0:0:0:0:
256,192,34731,1,8,0:0:0:0:
256,192,34913,1,0,0:0:0:0:
256,192,35185,1,0,0:0:0:0:
256,192,35458,1,0,0:0:0:0:
256,192,35731,1,8,0:0:0:0:
256,192,35822,1,0,0:0:0:0:
256,192,36004,1,8,0:0:0:0:
256,192,36185,1,8,0:0:0:0:
256,192,36367,1,0,0:0:0:0:
256,192,36549,1,8,0:0:0:0:
224,288,36640,1,8,0:0:0:0:
256,192,36731,1,0,0:0:0:0:
224,288,36913,1,8,0:0:0:0:
256,192,37094,1,0,0:0:0:0:
224,288,37185,1,0,0:0:0:0:
256,192,37367,1,0,0:0:0:0:
256,192,37458,1,8,0:0:0:0:
256,192,37640,1,8,0:0:0:0:
256,192,37822,8,0,39094,0:0:0:0:
256,192,39276,5,8,0:0:0:0:
256,192,39397,1,0,0:0:0:0:
256,192,39519,1,0,0:0:0:0:
256,192,39640,1,8,0:0:0:0:
256,192,39761,1,0,0:0:0:0:
256,192,39882,1,0,0:0:0:0:
256,192,40004,1,8,0:0:0:0:
256,192,40125,1,8,0:0:0:0:
256,192,40246,1,0,0:0:0:0:
224,288,40367,1,8,0:0:0:0:
256,192,40731,1,12,0:0:0:0:
256,192,43458,1,4,0:0:0:0:
256,192,43640,1,4,0:0:0:0:
256,192,45094,1,4,0:0:0:0:
256,192,45822,1,4,0:0:0:0:
256,192,46004,1,0,0:0:0:0:
256,192,46185,1,8,0:0:0:0:
256,192,46367,1,0,0:0:0:0:
256,192,46458,1,0,0:0:0:0:
256,192,46549,1,0,0:0:0:0:
256,192,46731,1,8,0:0:0:0:
256,192,47094,1,8,0:0:0:0:
256,192,47458,1,8,0:0:0:0:
256,192,47549,1,8,0:0:0:0:
256,192,47640,1,0,0:0:0:0:
256,192,47822,1,8,0:0:0:0:
256,192,48004,1,0,0:0:0:0:
256,192,48185,1,8,0:0:0:0:
256,192,48549,1,8,0:0:0:0:
256,192,48822,1,8,0:0:0:0:
256,192,48913,1,0,0:0:0:0:
256,192,49094,1,8,0:0:0:0:
256,192,49276,1,0,0:0:0:0:
256,192,49367,1,0,0:0:0:0:
256,192,49458,1,0,0:0:0:0:
256,192,49640,1,8,0:0:0:0:
256,192,50004,1,8,0:0:0:0:
256,192,50367,1,8,0:0:0:0:
256,192,50458,1,8,0:0:0:0:
256,192,50549,1,0,0:0:0:0:
256,192,50731,1,8,0:0:0:0:
256,192,50913,1,0,0:0:0:0:
256,192,51094,1,8,0:0:0:0:
256,192,51458,1,8,0:0:0:0:
256,192,51731,1,8,0:0:0:0:
256,192,51822,1,0,0:0:0:0:
256,192,52004,1,8,0:0:0:0:
256,192,52185,1,0,0:0:0:0:
256,192,52276,1,0,0:0:0:0:
256,192,52367,1,0,0:0:0:0:
256,192,52549,1,8,0:0:0:0:
256,192,52731,1,0,0:0:0:0:
256,192,52913,1,8,0:0:0:0:
256,192,53004,1,0,0:0:0:0:
256,192,53094,1,0,0:0:0:0:
256,192,53276,1,8,0:0:0:0:
256,192,53458,1,8,0:0:0:0:
256,192,53640,1,0,0:0:0:0:
256,192,53731,1,0,0:0:0:0:
256,192,53822,1,0,0:0:0:0:
256,192,54004,1,8,0:0:0:0:
256,192,54186,1,0,0:0:0:0:
256,192,54368,1,8,0:0:0:0:
256,192,54459,1,0,0:0:0:0:
256,192,54549,1,0,0:0:0:0:
256,192,54731,1,8,0:0:0:0:
256,192,54913,1,8,0:0:0:0:
224,288,55276,1,0,0:0:0:0:
224,288,55458,1,8,0:0:0:0:
224,288,55640,1,0,0:0:0:0:
224,288,55731,1,0,0:0:0:0:
224,288,55822,1,8,0:0:0:0:
224,288,56004,1,0,0:0:0:0:
224,288,56185,1,8,0:0:0:0:
256,192,56276,1,8,0:0:0:0:
224,288,56367,1,0,0:0:0:0:
256,192,56549,1,8,0:0:0:0:
256,192,56731,1,0,0:0:0:0:
256,192,56913,1,8,0:0:0:0:
256,192,57095,1,0,0:0:0:0:
256,192,57186,1,0,0:0:0:0:
256,192,57277,1,8,0:0:0:0:
256,192,57459,1,0,0:0:0:0:
256,192,57640,1,8,0:0:0:0:
256,192,57731,1,8,0:0:0:0:
256,192,57822,1,0,0:0:0:0:
256,192,58004,1,8,0:0:0:0:
256,192,58185,1,0,0:0:0:0:
256,192,58367,1,0,0:0:0:0:
256,192,58458,1,0,0:0:0:0:
256,192,58549,1,0,0:0:0:0:
256,192,58731,1,0,0:0:0:0:
256,192,58913,1,0,0:0:0:0:
256,192,59004,1,0,0:0:0:0:
256,192,59094,1,0,0:0:0:0:
256,192,59185,1,0,0:0:0:0:
256,192,59276,1,0,0:0:0:0:
256,192,59458,1,0,0:0:0:0:
256,192,59640,8,0,60913,0:0:0:0:
224,288,61094,5,12,0:0:0:0:
224,288,62185,5,8,0:0:0:0:
224,288,62276,1,8,0:0:0:0:
224,288,62367,1,8,0:0:0:0:
224,288,62458,1,8,0:0:0:0:
224,288,62549,1,0,0:0:0:0:
224,288,64004,1,4,0:0:0:0:
224,288,64276,1,4,0:0:0:0:
224,288,64549,1,4,0:0:0:0:
224,288,64822,1,8,0:0:0:0:
224,288,64913,1,0,0:0:0:0:
224,288,65094,1,12,0:0:0:0:
224,288,65458,1,4,0:0:0:0:
224,288,65640,1,0,0:0:0:0:
224,288,65822,1,8,0:0:0:0:
224,288,66004,1,8,0:0:0:0:
224,288,66094,1,8,0:0:0:0:
224,288,66185,1,0,0:0:0:0:
224,288,66458,1,8,0:0:0:0:
224,288,66731,1,0,0:0:0:0:
224,288,66822,1,0,0:0:0:0:
224,288,66913,1,8,0:0:0:0:
224,288,67094,1,0,0:0:0:0:
224,288,67276,1,8,0:0:0:0:
224,288,67458,1,8,0:0:0:0:
224,288,67549,1,0,0:0:0:0:
224,288,67731,1,0,0:0:0:0:
224,288,67822,1,8,0:0:0:0:
224,288,67913,1,8,0:0:0:0:
224,288,68004,1,0,0:0:0:0:
224,288,68185,1,8,0:0:0:0:
224,288,68367,1,0,0:0:0:0:
224,288,68549,1,0,0:0:0:0:
224,288,68731,1,8,0:0:0:0:
224,288,68913,1,8,0:0:0:0:
224,288,69004,1,8,0:0:0:0:
224,288,69094,1,0,0:0:0:0:
224,288,69367,1,8,0:0:0:0:
224,288,69640,1,0,0:0:0:0:
224,288,69731,1,0,0:0:0:0:
224,288,69822,1,8,0:0:0:0:
224,288,70094,1,8,0:0:0:0:
224,288,70367,1,8,0:0:0:0:
224,288,70640,1,8,0:0:0:0:
224,288,70731,1,0,0:0:0:0:
224,288,70913,1,8,0:0:0:0:
224,288,71276,1,4,0:0:0:0:
224,288,71458,1,0,0:0:0:0:
224,288,71640,1,8,0:0:0:0:
224,288,71822,1,8,0:0:0:0:
224,288,71913,1,8,0:0:0:0:
224,288,72004,1,0,0:0:0:0:
224,288,72276,1,8,0:0:0:0:
224,288,72549,1,0,0:0:0:0:
224,288,72640,1,0,0:0:0:0:
224,288,72731,1,8,0:0:0:0:
224,288,72913,1,0,0:0:0:0:
224,288,73094,1,8,0:0:0:0:
224,288,73276,1,8,0:0:0:0:
224,288,73367,1,0,0:0:0:0:
224,288,73549,1,0,0:0:0:0:
224,288,73640,1,0,0:0:0:0:
224,288,73822,1,8,0:0:0:0:
224,288,74004,1,8,0:0:0:0:
224,288,74094,1,8,0:0:0:0:
224,288,74185,1,0,0:0:0:0:
224,288,74367,1,0,0:0:0:0:
224,288,74549,1,8,0:0:0:0:
224,288,74640,1,0,0:0:0:0:
224,288,74731,1,8,0:0:0:0:
224,288,74822,1,8,0:0:0:0:
224,288,74913,1,0,0:0:0:0:
224,288,75094,1,0,0:0:0:0:
224,288,75276,1,8,0:0:0:0:
224,288,75367,1,8,0:0:0:0:
224,288,75458,1,8,0:0:0:0:
224,288,75640,1,0,0:0:0:0:
224,288,75913,1,0,0:0:0:0:
224,288,76185,1,0,0:0:0:0:
224,288,76458,1,8,0:0:0:0:
224,288,76549,1,0,0:0:0:0:
224,288,76731,1,8,0:0:0:0:
224,288,76913,1,0,0:0:0:0:
256,192,77094,8,0,78004,0:0:0:0:
256,192,78185,5,12,0:0:0:0:
224,288,78549,1,4,0:0:0:0:
224,288,78731,1,8,0:0:0:0:
224,288,78822,1,0,0:0:0:0:
224,288,79004,1,0,0:0:0:0:
224,288,79094,1,8,0:0:0:0:
224,288,79276,1,0,0:0:0:0:
224,288,79458,1,8,0:0:0:0:
224,288,79822,1,8,0:0:0:0:
224,288,80004,1,0,0:0:0:0:
224,288,80185,1,8,0:0:0:0:
224,288,80276,1,0,0:0:0:0:
224,288,80458,1,0,0:0:0:0:
224,288,80549,1,8,0:0:0:0:
224,288,80731,1,0,0:0:0:0:
224,288,80913,1,8,0:0:0:0:
224,288,81276,1,8,0:0:0:0:
224,288,81458,1,0,0:0:0:0:
224,288,81640,1,8,0:0:0:0:
224,288,81731,1,8,0:0:0:0:
224,288,81822,1,0,0:0:0:0:
224,288,82004,1,8,0:0:0:0:
224,288,82367,1,8,0:0:0:0:
224,288,82549,1,0,0:0:0:0:
224,288,82731,1,8,0:0:0:0:
224,288,82822,1,8,0:0:0:0:
224,288,82913,1,0,0:0:0:0:
224,288,83094,1,8,0:0:0:0:
224,288,83458,1,8,0:0:0:0:
224,288,83640,1,0,0:0:0:0:
224,288,83822,1,8,0:0:0:0:
224,288,83913,1,8,0:0:0:0:
224,288,84004,1,8,0:0:0:0:
224,288,84185,1,8,0:0:0:0:
224,288,84367,1,4,0:0:0:0:
224,288,84549,1,8,0:0:0:0:
224,288,84913,1,8,0:0:0:0:
224,288,85276,1,8,0:0:0:0:
224,288,85367,1,8,0:0:0:0:
224,288,85458,1,0,0:0:0:0:
224,288,85640,1,8,0:0:0:0:
224,288,85822,1,0,0:0:0:0:
224,288,86004,1,8,0:0:0:0:
224,288,86367,1,8,0:0:0:0:
224,288,86640,1,8,0:0:0:0:
224,288,86731,1,0,0:0:0:0:
224,288,86913,1,8,0:0:0:0:
224,288,87094,1,8,0:0:0:0:
224,288,87185,1,8,0:0:0:0:
224,288,87276,1,0,0:0:0:0:
224,288,87458,1,0,0:0:0:0:
224,288,87640,1,8,0:0:0:0:
224,288,87731,1,8,0:0:0:0:
224,288,87822,1,8,0:0:0:0:
224,288,87913,1,8,0:0:0:0:
224,288,88004,1,0,0:0:0:0:
224,288,88185,1,0,0:0:0:0:
224,288,88367,1,8,0:0:0:0:
224,288,88458,1,8,0:0:0:0:
224,288,88549,1,8,0:0:0:0:
224,288,88640,1,8,0:0:0:0:
224,288,88731,1,0,0:0:0:0:
224,288,88913,1,0,0:0:0:0:
224,288,89094,1,8,0:0:0:0:
224,288,89276,1,0,0:0:0:0:
224,288,89640,1,0,0:0:0:0:
224,288,89822,1,8,0:0:0:0:
224,288,89913,1,8,0:0:0:0:
224,288,90004,1,8,0:0:0:0:
224,288,90185,1,4,0:0:0:0:
224,288,91276,1,12,0:0:0:0:
224,288,91640,1,4,0:0:0:0:
224,288,94367,1,4,0:0:0:0:
224,288,94549,1,4,0:0:0:0:
224,288,96004,1,4,0:0:0:0:
224,288,96731,1,4,0:0:0:0:
224,288,97094,1,8,0:0:0:0:
224,288,97185,1,8,0:0:0:0:
224,288,97276,1,8,0:0:0:0:
224,288,97458,1,4,0:0:0:0:
224,288,97640,1,0,0:0:0:0:
224,288,97822,1,8,0:0:0:0:
224,288,98004,1,8,0:0:0:0:
224,288,98094,1,8,0:0:0:0:
224,288,98185,1,0,0:0:0:0:
224,288,98458,1,8,0:0:0:0:
224,288,98731,1,0,0:0:0:0:
224,288,98822,1,0,0:0:0:0:
224,288,98913,1,8,0:0:0:0:
224,288,99095,1,0,0:0:0:0:
224,288,99276,1,8,0:0:0:0:
224,288,99458,1,8,0:0:0:0:
224,288,99549,1,0,0:0:0:0:
224,288,99731,1,0,0:0:0:0:
224,288,99822,1,8,0:0:0:0:
224,288,99913,1,8,0:0:0:0:
224,288,100004,1,0,0:0:0:0:
224,288,100186,1,8,0:0:0:0:
224,288,100367,1,0,0:0:0:0:
224,288,100549,1,0,0:0:0:0:
224,288,100731,1,8,0:0:0:0:
224,288,100822,1,8,0:0:0:0:
224,288,100913,1,8,0:0:0:0:
224,288,101004,1,8,0:0:0:0:
224,288,101094,1,0,0:0:0:0:
224,288,101276,1,0,0:0:0:0:
224,288,101458,1,8,0:0:0:0:
224,288,101549,1,8,0:0:0:0:
224,288,101640,1,8,0:0:0:0:
224,288,101731,1,8,0:0:0:0:
224,288,101822,1,0,0:0:0:0:
224,288,102094,1,0,0:0:0:0:
224,288,102367,1,0,0:0:0:0:
224,288,102640,1,8,0:0:0:0:
224,288,102731,1,0,0:0:0:0:
224,288,102913,1,8,0:0:0:0:
224,288,103094,1,0,0:0:0:0:
224,288,103276,1,8,0:0:0:0:
224,288,103549,1,8,0:0:0:0:
224,288,103822,1,8,0:0:0:0:
224,288,104094,1,0,0:0:0:0:
224,288,104185,1,8,0:0:0:0:
224,288,104367,1,0,0:0:0:0:
224,288,104549,1,8,0:0:0:0:
224,288,104731,1,0,0:0:0:0:
224,288,105095,1,12,0:0:0:0:
224,288,105277,1,8,0:0:0:0:
224,288,105367,1,8,0:0:0:0:
224,288,105458,1,0,0:0:0:0:
224,288,105731,1,8,0:0:0:0:
224,288,106004,1,0,0:0:0:0:
224,288,106095,1,0,0:0:0:0:
224,288,106186,1,8,0:0:0:0:
224,288,106367,1,0,0:0:0:0:
224,288,106549,1,8,0:0:0:0:
224,288,106731,1,8,0:0:0:0:
224,288,106822,1,0,0:0:0:0:
224,288,107004,1,0,0:0:0:0:
224,288,107095,1,8,0:0:0:0:
224,288,107186,1,8,0:0:0:0:
224,288,107277,1,0,0:0:0:0:
224,288,107458,1,8,0:0:0:0:
224,288,107640,1,0,0:0:0:0:
224,288,107822,1,0,0:0:0:0:
224,288,108004,1,8,0:0:0:0:
224,288,108186,1,8,0:0:0:0:
224,288,108276,1,8,0:0:0:0:
224,288,108367,1,0,0:0:0:0:
224,288,108640,1,8,0:0:0:0:
224,288,108913,1,0,0:0:0:0:
224,288,109004,1,0,0:0:0:0:
224,288,109095,1,8,0:0:0:0:
224,288,109367,1,8,0:0:0:0:
224,288,109640,1,8,0:0:0:0:
224,288,109913,1,8,0:0:0:0:
224,288,110004,1,0,0:0:0:0:
224,288,110186,1,8,0:0:0:0:
224,288,110549,1,4,0:0:0:0:
224,288,110731,1,0,0:0:0:0:
224,288,110913,1,8,0:0:0:0:
224,288,111095,1,8,0:0:0:0:
224,288,111186,1,8,0:0:0:0:
224,288,111277,1,0,0:0:0:0:
224,288,111549,1,8,0:0:0:0:
224,288,111822,1,0,0:0:0:0:
224,288,111913,1,0,0:0:0:0:
224,288,112004,1,8,0:0:0:0:
224,288,112186,1,0,0:0:0:0:
224,288,112367,1,8,0:0:0:0:
224,288,112549,1,8,0:0:0:0:
224,288,112640,1,0,0:0:0:0:
224,288,112822,1,0,0:0:0:0:
224,288,112913,1,0,0:0:0:0:
224,288,113095,1,8,0:0:0:0:
224,288,113277,1,8,0:0:0:0:
224,288,113367,1,8,0:0:0:0:
224,288,113458,1,0,0:0:0:0:
224,288,113640,1,0,0:0:0:0:
224,288,113822,1,8,0:0:0:0:
224,288,113913,1,0,0:0:0:0:
224,288,114004,1,8,0:0:0:0:
224,288,114095,1,8,0:0:0:0:
224,288,114186,1,0,0:0:0:0:
224,288,114367,1,0,0:0:0:0:
224,288,114549,1,8,0:0:0:0:
224,288,114640,1,8,0:0:0:0:
224,288,114731,1,8,0:0:0:0:
224,288,114913,1,4,0:0:0:0:
224,288,115186,1,4,0:0:0:0:
224,288,115458,1,4,0:0:0:0:
224,288,115731,1,8,0:0:0:0:
224,288,115822,1,0,0:0:0:0:
224,288,116004,1,8,0:0:0:0:
224,288,116186,1,0,0:0:0:0:
256,192,116367,8,0,117277,0:0:0:0:
256,192,117458,5,12,0:0:0:0:
