osu file format v14

[General]
AudioFilename: audio.mp3
AudioLeadIn: 0
PreviewTime: 51457
Countdown: 0
SampleSet: None
StackLeniency: 0.7
Mode: 0
LetterboxInBreaks: 0
WidescreenStoryboard: 1

[Editor]
Bookmarks: 37885,49314
DistanceSpacing: 1.2
BeatDivisor: 4
GridSize: 16
TimelineZoom: 1.250002

[Metadata]
Title:Rashisa (TV Size)
TitleUnicode:Rashisa (TV Size)
Artist:SUPER BEAVER
ArtistUnicode:SUPER BEAVER
Creator:Leann
Version:spoes' Hard
Source:ばらかもん
Tags:bakakamon opening tv size
BeatmapID:1862121
BeatmapSetID:885973

[Difficulty]
HPDrainRate:4
CircleSize:3.7
OverallDifficulty:6
ApproachRate:7.5
SliderMultiplier:1.5
SliderTickRate:1

[Events]
//Background and Video events
0,0,"692554.png",0,0
Video,0,"Barakamon OP - Rashisa by Super Beaver [TV Size].mp4"
//Break Periods
//Storyboard Layer 0 (Background)
//Storyboard Layer 1 (Fail)
//Storyboard Layer 2 (Pass)
//Storyboard Layer 3 (Foreground)
//Storyboard Sound Samples

[TimingPoints]
386,357.142857142857,4,2,0,40,1,0
386,-125,4,2,0,40,0,0
743,357.142857142857,4,2,0,40,1,0
743,-100,4,2,0,40,0,0
3600,-111.111111111111,4,2,0,40,0,0
52171,-100,4,2,0,40,0,1
74939,-100,4,2,0,40,0,0
89314,-100,4,2,0,5,0,0

[Colours]
Combo1 : 255,60,60
Combo2 : 255,132,72
Combo3 : 240,120,0

[HitObjects]
49,186,386,6,0,P|93:198|126:189,1,60
182,147,743,6,0,P|196:194|187:248,1,75
166,304,1100,1,0,0:0:0:0:
166,304,1278,1,0,0:0:0:0:
253,283,1457,2,0,P|290:283|325:296,1,75
404,340,1814,1,0,0:0:0:0:
476,287,1992,6,0,B|497:247|497:216|497:216|453:168|465:125,1,150
485,63,2528,2,0,P|436:58|396:83,1,75
362,142,2885,2,0,P|325:148|290:137,1,75
244,59,3242,2,0,P|207:52|172:63,1,75
114,133,3600,5,0,0:0:0:0:
114,133,3957,2,0,P|150:148|202:147,1,67.4999979400635
245,195,4314,2,0,L|231:275,1,67.4999979400635
216,340,4671,1,0,0:0:0:0:
152,289,4850,2,0,P|116:274|64:275,1,67.4999979400635
87,271,6278,1,0,0:0:0:0:
151,319,6457,6,0,L|235:323,1,67.4999979400635
288,281,6814,2,0,P|304:242|295:197,1,67.4999979400635
240,164,7171,2,0,P|275:185|369:149,1,134.999995880127
373,80,7707,1,0,0:0:0:0:
299,47,7885,2,0,P|291:79|298:112,1,67.4999979400635
360,161,8242,1,0,0:0:0:0:
440,155,8421,2,0,L|454:305,1,134.999995880127
389,340,8957,2,0,P|357:332|324:339,1,67.4999979400635
251,375,9314,6,0,L|166:385,1,67.4999979400635
111,346,9671,2,0,P|97:304|110:265,1,67.4999979400635
161,228,10028,2,0,P|172:153|120:99,1,134.999995880127
98,179,10564,2,0,B|65:183|48:174|48:174|23:181|-6:174,2,101.249996910095
138,108,11278,1,0,0:0:0:0:
187,172,11457,2,0,P|219:178|251:167,1,67.4999979400635
314,116,11814,2,0,P|346:109|378:120,1,67.4999979400635
429,184,12171,6,0,L|427:44,1,134.999995880127
265,39,12885,2,0,P|189:59|113:24,1,134.999995880127
58,24,13421,2,0,L|53:122,1,67.4999979400635
97,163,13778,1,0,0:0:0:0:
97,163,13957,2,0,P|156:142|244:187,1,134.999995880127
323,251,14671,2,0,P|360:257|396:250,1,67.4999979400635
426,234,14939,1,0,0:0:0:0:
426,234,15028,6,0,L|426:308,1,67.4999979400635
356,342,15385,2,0,P|319:336|283:343,1,67.4999979400635
214,372,15742,2,0,P|180:376|147:370,1,67.4999979400635
93,309,16100,1,0,0:0:0:0:
93,309,16278,2,0,B|68:258|68:258|70:164,1,134.999995880127
149,164,16814,2,0,L|148:242,1,67.4999979400635
207,286,17171,1,0,0:0:0:0:
281,252,17350,1,0,0:0:0:0:
350,293,17528,2,0,L|433:295,1,67.4999979400635
455,280,17796,1,0,0:0:0:0:
455,280,17885,6,0,P|463:231|446:198,1,67.4999979400635
394,164,18242,2,0,P|387:131|396:99,1,67.4999979400635
462,50,18600,2,0,L|377:47,1,67.4999979400635
324,88,18957,1,0,0:0:0:0:
250,55,19135,1,0,0:0:0:0:
177,92,19314,2,0,B|181:124|172:141|172:141|179:166|172:196,2,101.249996910095
96,97,20028,2,0,P|63:103|31:94,1,67.4999979400635
68,22,20385,2,0,P|100:15|132:24,1,67.4999979400635
177,92,20742,6,0,L|172:174,1,67.4999979400635
105,204,21100,2,0,L|98:287,1,67.4999979400635
126,309,21367,1,0,0:0:0:0:
126,309,21457,2,0,P|180:325|211:308,1,67.4999979400635
256,277,21814,2,0,P|312:278|336:304,1,67.4999979400635
384,332,22171,5,0,0:0:0:0:
480,201,22528,2,0,L|472:109,1,67.4999979400635
439,112,22796,1,0,0:0:0:0:
439,112,22885,2,0,P|383:118|361:107,1,67.4999979400635
320,52,23242,1,0,0:0:0:0:
399,36,23421,1,0,0:0:0:0:
373,114,23600,5,0,0:0:0:0:
293,130,23778,1,0,0:0:0:0:
236,72,23957,2,0,P|196:65|147:83,1,67.4999979400635
117,132,24314,2,0,P|83:137|51:130,1,67.4999979400635
85,56,24671,1,0,0:0:0:0:
170,70,24850,6,0,B|194:115|194:115|185:205,1,134.999995880127
108,221,25385,2,0,L|26:218,1,67.4999979400635
16,251,25653,1,0,0:0:0:0:
16,251,25742,1,0,0:0:0:0:
69,311,25921,1,0,0:0:0:0:
149,305,26100,1,0,0:0:0:0:
149,305,26457,6,0,B|235:282|206:343|303:313,1,134.999995880127
338,264,26992,1,0,0:0:0:0:
397,209,27171,2,0,P|421:278|391:335,1,134.999995880127
257,247,27885,2,0,L|248:166,1,67.4999979400635
173,152,28242,1,0,0:0:0:0:
107,199,28421,1,0,0:0:0:0:
31,168,28600,2,0,L|42:326,1,134.999995880127
192,358,29314,6,0,P|234:364|272:347,1,67.4999979400635
315,300,29671,2,0,P|347:291|380:298,1,67.4999979400635
443,349,30028,2,0,L|438:267,1,67.4999979400635
464,204,30385,1,0,0:0:0:0:
415,139,30564,1,0,0:0:0:0:
344,178,30742,6,0,P|284:199|203:166,1,134.999995880127
166,115,31278,1,0,0:0:0:0:
213,49,31457,2,0,P|273:28|354:61,1,134.999995880127
458,157,32171,6,0,L|461:298,1,134.999995880127
406,352,32707,1,0,0:0:0:0:
336,311,32885,2,0,B|258:300|282:349|181:327,1,134.999995880127
126,352,33421,1,0,0:0:0:0:
56,310,33600,6,0,P|44:270|52:231,1,67.4999979400635
113,198,33957,2,0,P|115:164|104:132,1,67.4999979400635
34,90,34314,2,0,P|112:96|175:68,1,134.999995880127
231,30,34850,1,0,0:0:0:0:
237,110,35028,6,0,P|275:117|314:105,1,67.4999979400635
360,53,35385,2,0,P|392:45|425:52,1,67.4999979400635
479,112,35742,2,0,L|473:179,1,67.4999979400635
408,228,36100,1,0,0:0:0:0:
334,193,36278,1,0,0:0:0:0:
258,223,36457,6,0,L|252:290,2,67.4999979400635
133,119,37171,1,0,0:0:0:0:
115,198,37350,1,0,0:0:0:0:
35,214,37528,2,0,L|16:163,2,44.999998626709
88,275,37885,6,0,B|160:277|142:310|221:311,1,134.999995880127
297,303,38421,2,0,P|266:242|191:232,1,134.999995880127
216,310,38957,1,0,0:0:0:0:
297,303,39135,2,0,B|371:302|353:269|425:267,1,134.999995880127
500,236,39671,1,0,0:0:0:0:
432,190,39850,2,0,B|419:155|390:135|390:135|406:107|397:62,1,134.999995880127
320,90,40385,1,0,0:0:0:0:
320,90,40742,6,0,L|110:102,1,202.499993820191
46,141,41457,2,0,L|256:153,1,202.499993820191
318,193,42171,2,0,L|108:205,1,202.499993820191
47,249,42885,1,0,0:0:0:0:
81,322,43064,1,0,0:0:0:0:
154,289,43242,2,0,L|215:287,3,33.7499989700318
228,284,43600,6,0,L|238:139,1,134.999995880127
182,89,44135,1,0,0:0:0:0:
111,48,44314,2,0,P|70:41|25:56,1,67.4999979400635
45,127,44671,2,0,P|86:134|131:119,1,67.4999979400635
182,89,45028,6,0,L|327:82,1,134.999995880127
398,82,45564,1,0,0:0:0:0:
439,153,45743,2,0,P|446:194|431:239,1,67.4999979400635
360,219,46100,2,0,P|353:178|368:133,1,67.4999979400635
398,82,46457,6,0,B|318:52|340:125|216:77,1,134.999995880127
116,41,47171,2,0,P|93:112|127:168,1,134.999995880127
192,196,47707,1,0,0:0:0:0:
119,242,47885,6,0,P|86:249|53:243,1,67.4999979400635
53,163,48242,2,0,P|85:155|118:161,1,67.4999979400635
192,196,48600,1,0,0:0:0:0:
259,239,48778,1,0,0:0:0:0:
332,273,48957,2,0,P|342:231|319:190,1,67.4999979400635
310,176,49225,1,0,0:0:0:0:
310,176,49314,6,0,L|386:180,1,67.4999979400635
428,116,49671,1,0,0:0:0:0:
374,54,49850,2,0,L|306:57,1,67.4999979400635
255,120,50207,1,0,0:0:0:0:
203,58,50385,2,0,L|135:54,1,67.4999979400635
78,112,50742,1,0,0:0:0:0:
125,177,50921,2,0,L|192:173,1,67.4999979400635
255,120,51278,1,0,0:0:0:0:
310,176,51457,5,0,0:0:0:0:
46,311,52171,6,0,P|38:263|54:211,1,75
124,200,52528,2,0,P|132:152|116:100,1,75
50,78,52885,2,0,L|44:-7,2,75
127,126,53421,2,0,B|214:131|181:83|285:95,1,150
356,67,53957,2,0,P|361:103|350:139,1,75
267,173,54314,1,0,0:0:0:0:
341,223,54492,2,0,B|384:225|412:199|412:199|447:193|498:234,1,150
452,301,55028,6,0,P|404:309|352:293,1,75,0|0,0:0|0:0,0:0:0:0:
341,223,55385,2,0,P|293:215|241:231,1,75,0|0,0:0|0:0,0:0:0:0:
219,297,55742,2,0,L|134:303,2,75,0|0|0,0:0|0:0|0:0,0:0:0:0:
267,219,56278,2,0,B|245:180|250:138|250:138|215:160|176:151,1,150
98,135,56814,1,0,0:0:0:0:
165,75,56992,2,0,P|210:70|250:35,1,75
319,86,57350,1,0,0:0:0:0:
396,131,57528,1,0,0:0:0:0:
315,172,57707,1,0,0:0:0:0:
319,86,57885,6,0,P|379:47|470:76,1,150
490,143,58421,1,0,0:0:0:0:
431,211,58600,2,0,P|424:246|436:291,1,75
490,352,58957,1,0,0:0:0:0:
432,283,59135,1,0,0:0:0:0:
369,348,59314,6,0,P|290:371|220:332,1,150
172,275,59850,1,0,0:0:0:0:
129,195,60028,2,0,P|172:184|216:199,1,75
172,275,60385,2,0,P|136:285|99:279,1,75
36,215,60742,6,0,B|40:189|35:163|35:163|63:124|63:124|57:99|65:68,1,150
142,31,61278,2,0,P|221:8|291:47,1,150
343,98,61814,1,0,0:0:0:0:
278,156,61992,6,0,P|199:179|129:140,1,150
60,110,62528,2,0,B|51:140|51:140|60:195,1,75
75,224,62796,1,0,0:0:0:0:
75,224,62885,2,0,L|75:306,1,75
149,349,63242,2,0,P|201:356|239:336,1,75
290,290,63600,6,0,L|372:292,1,75
433,350,63957,1,0,0:0:0:0:
495,285,64135,2,0,L|500:131,1,150
436,71,64671,1,0,0:0:0:0:
368,130,64850,2,0,B|326:140|285:122|303:112|260:94|192:122,1,150
161,177,65385,2,0,P|113:187|61:164,1,75
21,120,65742,1,0,0:0:0:0:
85,57,65921,2,0,P|133:47|185:70,1,75
222,112,66278,1,0,0:0:0:0:
299,65,66457,6,0,B|336:40|336:40|458:43,1,150
492,116,66992,2,0,P|493:160|461:205,1,75
402,139,67350,1,0,0:0:0:0:
326,186,67528,1,0,0:0:0:0:
244,146,67707,6,0,L|240:319,1,150
165,345,68242,2,0,P|121:350|73:323,1,75
36,269,68600,2,0,B|27:233|27:233|30:172,1,75
90,126,68957,2,0,B|96:86|96:86|84:29,1,75
174,79,69314,6,0,B|224:78|224:78|267:61|267:61|324:62,1,150
399,106,69850,1,0,0:0:0:0:
316,141,70028,2,0,P|316:187|341:239,1,75
406,253,70385,1,0,0:0:0:0:
339,314,70564,6,0,B|261:285|276:344|189:314,1,150
127,254,71100,2,0,P|107:295|113:346,1,75
193,315,71457,1,0,0:0:0:0:
212,227,71635,1,0,0:0:0:0:
143,167,71814,1,0,0:0:0:0:
53,171,71992,6,0,P|63:122|115:80,1,112.5
154,81,72350,2,0,B|181:99|181:99|220:84|267:104,1,112.5
304,98,72707,2,0,P|279:164|336:251,1,150
386,279,73242,1,0,0:0:0:0:
453,218,73421,6,0,P|385:193|309:235,1,150
257,290,73957,1,0,0:0:0:0:
185,344,74135,2,0,P|151:356|111:336,1,75
41,291,74492,2,0,B|44:238|44:238|59:203|59:203|61:140,1,150
121,77,75028,6,0,L|203:75,1,75
266,131,75385,2,0,L|353:128,1,75
418,174,75742,2,0,P|424:232|404:264,1,75
336,285,76100,1,0,0:0:0:0:
252,251,76278,6,0,L|82:255,1,150
27,203,76814,2,0,P|21:145|41:113,1,75
95,72,77171,2,0,L|244:68,1,150
416,13,77885,6,0,P|446:74|406:151,1,150
321,154,78421,2,0,P|324:117|345:86,1,75
414,144,78778,1,0,0:0:0:0:
372,224,78957,6,0,B|333:248|333:248|215:252,1,150
153,202,79492,1,0,0:0:0:0:
77,251,79671,1,0,0:0:0:0:
15,185,79850,2,0,P|6:139|18:101,1,75
75,48,80207,1,0,0:0:0:0:
152,93,80385,1,0,0:0:0:0:
229,46,80564,1,0,0:0:0:0:
304,95,80742,6,0,B|330:86|356:94|356:94|400:75|400:75|422:83|456:76,1,150
497,251,81457,2,0,P|457:260|411:244,1,75
348,203,81814,1,0,0:0:0:0:
280,143,81992,6,0,B|256:182|256:182|252:300,1,150
171,326,82528,2,0,P|131:333|93:315,1,75
67,236,82885,2,0,P|107:229|145:247,1,75
225,261,83242,1,0,0:0:0:0:
344,271,83481,1,0,0:0:0:0:
344,271,83600,6,0,P|416:292|491:264,1,150
509,182,84135,1,0,0:0:0:0:
487,94,84314,2,0,P|415:73|340:101,1,150
304,176,84850,1,0,0:0:0:0:
238,237,85028,2,0,P|167:260|97:239,1,150
34,173,85564,1,0,0:0:0:0:
100,112,85742,2,0,P|107:73|91:24,1,75
20,83,86100,1,0,0:0:0:0:
195,44,86457,6,0,P|268:28|349:53,1,150
419,208,87171,2,0,P|376:218|325:201,1,75
293,139,87528,2,0,P|328:129|365:134,1,75
346,212,87885,5,0,0:0:0:0:
276,269,88064,1,0,0:0:0:0:
202,217,88242,5,0,0:0:0:0:
123,261,88421,1,0,0:0:0:0:
48,210,88600,6,0,P|38:163|57:121,1,75
118,84,88957,2,0,B|211:114|179:56|280:93,1,150
