osu file format v14

[General]
AudioFilename: audio.mp3
AudioLeadIn: 0
PreviewTime: 51539
Countdown: 0
SampleSet: Normal
StackLeniency: 0.7
Mode: 1
LetterboxInBreaks: 0
WidescreenStoryboard: 0

[Editor]
Bookmarks: 6450,15021,26450,51450,52164,57878,60735,63593,69307,72164,75021,83593,86450
DistanceSpacing: 1
BeatDivisor: 4
GridSize: 8
TimelineZoom: 1

[Metadata]
Title:Rashisa
TitleUnicode:らしさ
Artist:SUPER BEAVER
ArtistUnicode:SUPER BEAVER
Creator:404 AccNotFound
Version:Oni Rashisa
Source:ばらかもん
Tags:barakamon naru junon boy opening handa seishuu tv size
BeatmapID:1307899
BeatmapSetID:620508

[Difficulty]
HPDrainRate:5
CircleSize:5
OverallDifficulty:6
ApproachRate:5
SliderMultiplier:1.4
SliderTickRate:1

[Events]
//Background and Video events
0,0,"CZcByYZkPJnTDhEzz82u1R.jpg",0,0
//Break Periods
//Storyboard Layer 0 (Background)
//Storyboard Layer 1 (Fail)
//Storyboard Layer 2 (Pass)
//Storyboard Layer 3 (Foreground)
//Storyboard Sound Samples

[TimingPoints]
736,357.142857142857,4,1,0,100,1,0
52164,-100,4,1,0,100,0,1
75021,-100,4,1,0,100,0,0

[HitObjects]
216,280,378,5,0,0:0:0:0:
216,280,468,1,0,0:0:0:0:
216,280,557,1,0,0:0:0:0:
216,280,646,1,0,0:0:0:0:
216,280,736,1,2,0:0:0:0:
192,216,914,1,2,0:0:0:0:
192,216,1003,1,2,0:0:0:0:
192,216,1093,1,0,0:0:0:0:
192,216,1182,1,2,0:0:0:0:
192,216,1271,1,0,0:0:0:0:
192,216,1360,1,0,0:0:0:0:
192,216,1450,1,2,0:0:0:0:
192,216,1539,1,2,0:0:0:0:
192,216,1628,1,0,0:0:0:0:
192,216,1718,1,2,0:0:0:0:
192,216,1807,1,0,0:0:0:0:
192,216,1896,1,0,0:0:0:0:
216,280,1985,1,2,0:0:0:0:
216,280,2343,1,0,0:0:0:0:
216,280,2432,1,0,0:0:0:0:
216,280,2521,1,2,0:0:0:0:
192,216,2610,1,2,0:0:0:0:
192,216,2700,1,0,0:0:0:0:
192,216,2789,1,0,0:0:0:0:
192,216,2878,1,2,0:0:0:0:
192,216,2968,1,2,0:0:0:0:
192,216,3057,1,0,0:0:0:0:
192,216,3146,1,2,0:0:0:0:
192,216,3235,1,0,0:0:0:0:
192,216,3325,1,0,0:0:0:0:
192,216,3414,1,0,0:0:0:0:
192,216,3503,1,0,0:0:0:0:
216,280,3593,1,2,0:0:0:0:
200,144,3771,1,0,0:0:0:0:
144,176,3860,1,0,0:0:0:0:
200,144,3950,1,2,0:0:0:0:
200,144,4128,1,0,0:0:0:0:
224,168,4307,1,2,0:0:0:0:
112,136,4485,1,0,0:0:0:0:
192,144,4664,1,2,0:0:0:0:
192,144,4843,1,2,0:0:0:0:
192,144,6450,1,6,0:0:0:0:
32,152,6628,1,0,0:0:0:0:
40,152,6807,1,2,0:0:0:0:
48,152,6985,1,0,0:0:0:0:
280,216,7075,1,0,0:0:0:0:
48,152,7164,1,2,0:0:0:0:
48,152,7343,1,0,0:0:0:0:
48,152,7521,1,2,0:0:0:0:
40,152,7700,1,0,0:0:0:0:
232,144,7789,1,0,0:0:0:0:
48,152,7878,1,2,0:0:0:0:
48,152,8057,1,0,0:0:0:0:
48,152,8235,1,2,0:0:0:0:
48,152,8414,1,2,0:0:0:0:
48,152,8593,1,0,0:0:0:0:
152,192,8771,1,0,0:0:0:0:
48,152,8950,1,2,0:0:0:0:
48,152,9128,1,0,0:0:0:0:
200,88,9218,1,0,0:0:0:0:
48,152,9307,1,2,0:0:0:0:
48,152,9485,1,0,0:0:0:0:
40,152,9664,1,2,0:0:0:0:
48,152,9843,1,2,0:0:0:0:
192,112,9932,1,0,0:0:0:0:
48,152,10021,1,2,0:0:0:0:
48,152,10200,1,0,0:0:0:0:
48,152,10378,1,2,0:0:0:0:
40,152,10557,1,2,0:0:0:0:
208,104,10646,1,2,0:0:0:0:
288,248,10735,1,0,0:0:0:0:
48,152,10914,1,0,0:0:0:0:
48,152,11093,1,2,0:0:0:0:
48,152,11271,1,0,0:0:0:0:
160,112,11360,1,2,0:0:0:0:
160,96,11450,1,0,0:0:0:0:
48,152,11628,1,0,0:0:0:0:
48,152,11807,1,2,0:0:0:0:
72,168,11985,1,0,0:0:0:0:
48,152,12164,1,2,0:0:0:0:
208,136,12343,1,2,0:0:0:0:
48,152,12521,1,0,0:0:0:0:
48,152,12700,1,2,0:0:0:0:
184,128,12789,1,2,0:0:0:0:
48,152,12878,1,0,0:0:0:0:
48,152,13057,1,0,0:0:0:0:
40,152,13235,1,2,0:0:0:0:
208,80,13414,1,2,0:0:0:0:
304,112,13503,1,2,0:0:0:0:
48,152,13593,1,0,0:0:0:0:
48,152,13771,1,2,0:0:0:0:
48,152,13950,1,2,0:0:0:0:
40,152,14128,1,0,0:0:0:0:
48,152,14307,1,0,0:0:0:0:
48,152,14485,1,0,0:0:0:0:
48,152,14664,1,2,0:0:0:0:
192,168,14753,1,0,0:0:0:0:
192,168,14843,1,0,0:0:0:0:
40,152,15021,1,6,0:0:0:0:
264,136,15200,1,0,0:0:0:0:
272,216,15378,1,2,0:0:0:0:
264,136,15557,1,0,0:0:0:0:
224,96,15646,1,0,0:0:0:0:
272,216,15735,1,2,0:0:0:0:
272,216,15914,1,0,0:0:0:0:
160,192,16093,1,2,0:0:0:0:
272,216,16271,1,0,0:0:0:0:
272,216,16628,1,0,0:0:0:0:
272,216,16807,1,2,0:0:0:0:
56,192,16985,1,0,0:0:0:0:
80,200,17075,1,2,0:0:0:0:
272,216,17164,1,0,0:0:0:0:
272,216,17343,1,0,0:0:0:0:
272,216,17521,1,2,0:0:0:0:
80,160,17700,1,0,0:0:0:0:
184,160,17789,1,0,0:0:0:0:
272,216,17878,1,2,0:0:0:0:
272,216,18057,1,0,0:0:0:0:
272,216,18235,1,2,0:0:0:0:
80,120,18414,1,2,0:0:0:0:
56,224,18503,1,0,0:0:0:0:
272,216,18593,1,2,0:0:0:0:
272,216,18771,1,0,0:0:0:0:
200,136,18950,1,2,0:0:0:0:
272,216,19128,1,0,0:0:0:0:
88,88,19218,1,0,0:0:0:0:
128,160,19307,1,2,0:0:0:0:
272,216,19485,1,2,0:0:0:0:
272,216,19664,1,2,0:0:0:0:
272,216,20021,1,0,0:0:0:0:
272,216,20200,1,0,0:0:0:0:
272,216,20378,1,2,0:0:0:0:
24,152,20557,1,0,0:0:0:0:
24,144,20646,1,0,0:0:0:0:
200,120,20735,1,2,0:0:0:0:
128,168,20914,1,0,0:0:0:0:
216,144,21093,1,2,0:0:0:0:
128,168,21271,1,0,0:0:0:0:
216,144,21360,1,2,0:0:0:0:
216,144,21450,1,0,0:0:0:0:
216,144,21628,1,0,0:0:0:0:
168,64,21807,1,2,0:0:0:0:
216,144,21985,1,0,0:0:0:0:
176,88,22075,1,0,0:0:0:0:
80,176,22164,1,2,0:0:0:0:
8,136,22343,1,0,0:0:0:0:
216,112,22521,1,2,0:0:0:0:
24,240,22700,1,0,0:0:0:0:
24,240,22789,1,0,0:0:0:0:
216,112,22878,1,0,0:0:0:0:
208,120,23057,1,0,0:0:0:0:
208,120,23235,1,2,0:0:0:0:
88,112,23325,1,2,0:0:0:0:
144,136,23414,1,0,0:0:0:0:
256,160,23593,1,2,0:0:0:0:
80,200,23771,1,2,0:0:0:0:
256,160,23950,1,0,0:0:0:0:
80,200,24128,1,2,0:0:0:0:
256,160,24218,1,2,0:0:0:0:
256,160,24307,1,0,0:0:0:0:
192,64,24485,1,0,0:0:0:0:
192,64,24664,1,2,0:0:0:0:
184,64,24843,1,4,0:0:0:0:
192,64,25200,1,0,0:0:0:0:
192,64,25378,1,2,0:0:0:0:
144,136,25557,1,0,0:0:0:0:
144,136,25646,1,0,0:0:0:0:
144,136,25735,1,2,0:0:0:0:
144,136,25914,1,2,0:0:0:0:
144,136,26093,1,2,0:0:0:0:
144,136,26182,1,0,0:0:0:0:
144,136,26271,1,0,0:0:0:0:
144,136,26450,1,4,0:0:0:0:
208,144,26807,1,0,0:0:0:0:
240,160,26985,1,0,0:0:0:0:
240,160,27164,1,2,0:0:0:0:
64,160,27521,1,2,0:0:0:0:
336,160,27700,1,2,0:0:0:0:
240,160,27878,1,0,0:0:0:0:
184,96,28057,1,2,0:0:0:0:
192,168,28235,1,0,0:0:0:0:
208,88,28414,1,0,0:0:0:0:
240,160,28593,1,2,0:0:0:0:
152,112,29128,1,0,0:0:0:0:
240,160,29307,1,2,0:0:0:0:
152,112,29485,1,0,0:0:0:0:
152,112,29664,1,2,0:0:0:0:
168,208,29843,1,0,0:0:0:0:
240,160,30022,1,2,0:0:0:0:
40,144,30378,1,2,0:0:0:0:
320,160,30557,1,0,0:0:0:0:
240,152,30735,1,0,0:0:0:0:
240,152,30914,1,2,0:0:0:0:
128,112,31003,1,2,0:0:0:0:
240,152,31093,1,0,0:0:0:0:
72,112,31271,1,0,0:0:0:0:
240,152,31450,1,2,0:0:0:0:
192,160,31985,1,0,0:0:0:0:
184,128,32164,1,2,0:0:0:0:
192,160,32343,1,0,0:0:0:0:
192,160,32521,1,2,0:0:0:0:
184,128,32700,1,0,0:0:0:0:
184,128,32878,1,2,0:0:0:0:
120,104,33235,1,2,0:0:0:0:
232,96,33414,1,2,0:0:0:0:
184,128,33593,1,0,0:0:0:0:
184,128,33771,1,2,0:0:0:0:
208,88,33950,1,0,0:0:0:0:
120,128,34128,1,0,0:0:0:0:
184,128,34307,1,2,0:0:0:0:
184,152,34843,1,0,0:0:0:0:
112,128,35021,1,2,0:0:0:0:
192,144,35200,1,0,0:0:0:0:
192,144,35378,1,2,0:0:0:0:
112,128,35557,1,0,0:0:0:0:
112,128,35735,1,2,0:0:0:0:
16,152,35914,1,0,0:0:0:0:
216,96,36093,1,2,0:0:0:0:
168,120,36272,1,0,0:0:0:0:
168,120,36361,1,0,0:0:0:0:
168,120,36450,1,2,0:0:0:0:
168,120,36629,1,0,0:0:0:0:
136,152,36807,1,2,0:0:0:0:
136,152,36985,1,2,0:0:0:0:
152,80,37075,1,2,0:0:0:0:
136,152,37164,1,0,0:0:0:0:
136,152,37343,1,0,0:0:0:0:
136,152,37521,1,0,0:0:0:0:
184,136,37878,1,4,0:0:0:0:
144,96,38235,1,0,0:0:0:0:
232,128,38414,1,0,0:0:0:0:
232,128,38593,1,2,0:0:0:0:
144,96,38950,1,2,0:0:0:0:
96,128,39128,1,2,0:0:0:0:
96,128,39307,1,0,0:0:0:0:
96,128,39486,1,2,0:0:0:0:
96,128,39664,1,0,0:0:0:0:
184,128,39843,1,0,0:0:0:0:
80,184,40021,1,2,0:0:0:0:
200,128,40200,1,0,0:0:0:0:
200,128,40378,1,0,0:0:0:0:
200,128,40735,1,6,0:0:0:0:
208,96,41450,1,4,0:0:0:0:
208,96,42164,1,4,0:0:0:0:
208,96,42878,1,4,0:0:0:0:
208,96,43057,1,2,0:0:0:0:
208,96,43146,1,2,0:0:0:0:
208,96,43235,1,0,0:0:0:0:
208,96,43325,1,0,0:0:0:0:
208,96,43414,1,0,0:0:0:0:
208,96,43503,1,0,0:0:0:0:
208,96,43593,1,0,0:0:0:0:
160,160,43950,1,2,0:0:0:0:
160,112,44128,1,0,0:0:0:0:
144,112,44218,1,2,0:0:0:0:
192,152,44307,1,0,0:0:0:0:
24,168,44485,1,0,0:0:0:0:
24,168,44575,1,0,0:0:0:0:
192,152,44664,1,2,0:0:0:0:
192,152,44843,1,0,0:0:0:0:
192,152,45200,1,0,0:0:0:0:
192,152,45379,1,2,0:0:0:0:
160,112,45557,1,0,0:0:0:0:
120,112,45646,1,0,0:0:0:0:
144,144,45735,1,0,0:0:0:0:
144,144,45914,1,0,0:0:0:0:
144,144,46093,1,2,0:0:0:0:
112,112,46271,1,2,0:0:0:0:
128,144,46450,1,0,0:0:0:0:
128,144,46807,1,2,0:0:0:0:
192,112,46985,1,0,0:0:0:0:
144,160,47075,1,2,0:0:0:0:
128,144,47164,1,0,0:0:0:0:
128,144,47343,1,2,0:0:0:0:
192,112,47432,1,0,0:0:0:0:
128,144,47521,1,0,0:0:0:0:
128,144,47700,1,2,0:0:0:0:
128,144,48057,1,0,0:0:0:0:
128,144,48235,1,2,0:0:0:0:
192,112,48414,1,2,0:0:0:0:
192,112,48503,1,2,0:0:0:0:
176,88,48593,1,0,0:0:0:0:
176,88,48682,1,2,0:0:0:0:
176,88,48771,1,0,0:0:0:0:
176,88,48950,1,2,0:0:0:0:
168,120,49128,1,2,0:0:0:0:
136,168,49218,1,2,0:0:0:0:
168,120,49307,1,0,0:0:0:0:
176,128,49485,1,2,0:0:0:0:
176,128,49575,1,2,0:0:0:0:
176,128,49664,1,2,0:0:0:0:
176,128,49843,1,0,0:0:0:0:
176,128,50021,1,2,0:0:0:0:
176,128,50110,1,2,0:0:0:0:
176,128,50200,1,2,0:0:0:0:
176,128,50378,1,0,0:0:0:0:
176,128,50557,1,2,0:0:0:0:
176,128,50646,1,2,0:0:0:0:
176,128,50735,1,2,0:0:0:0:
176,128,50914,1,0,0:0:0:0:
176,128,51093,1,2,0:0:0:0:
176,128,51182,1,2,0:0:0:0:
176,128,51271,1,0,0:0:0:0:
200,144,51450,1,2,0:0:0:0:
176,112,51628,1,2,0:0:0:0:
232,104,52164,1,4,0:0:0:0:
160,160,52343,1,0,0:0:0:0:
160,160,52521,1,2,0:0:0:0:
160,160,52700,1,0,0:0:0:0:
168,152,52789,1,0,0:0:0:0:
160,160,52878,1,2,0:0:0:0:
168,152,53057,1,0,0:0:0:0:
176,152,53235,1,2,0:0:0:0:
176,152,53414,1,0,0:0:0:0:
184,144,53771,1,0,0:0:0:0:
184,144,53950,1,2,0:0:0:0:
184,144,54128,1,2,0:0:0:0:
184,144,54218,1,2,0:0:0:0:
184,144,54307,1,0,0:0:0:0:
184,144,54485,1,0,0:0:0:0:
184,144,54664,1,2,0:0:0:0:
184,144,54843,1,0,0:0:0:0:
176,128,54932,1,0,0:0:0:0:
184,144,55021,1,2,0:0:0:0:
216,144,55110,1,2,0:0:0:0:
184,144,55200,1,0,0:0:0:0:
184,144,55378,1,2,0:0:0:0:
184,144,55557,1,0,0:0:0:0:
176,128,55646,1,0,0:0:0:0:
184,144,55735,1,2,0:0:0:0:
184,144,55914,1,0,0:0:0:0:
184,144,56093,1,2,0:0:0:0:
184,144,56271,1,6,0:0:0:0:
184,144,56628,1,0,0:0:0:0:
184,144,56807,1,2,0:0:0:0:
184,144,56985,1,2,0:0:0:0:
176,128,57075,1,2,0:0:0:0:
184,144,57164,1,0,0:0:0:0:
184,144,57343,1,2,0:0:0:0:
208,128,57432,1,2,0:0:0:0:
184,144,57521,1,2,0:0:0:0:
208,128,57610,1,2,0:0:0:0:
184,144,57700,1,2,0:0:0:0:
208,128,57789,1,2,0:0:0:0:
208,128,57878,1,0,0:0:0:0:
176,128,58235,1,2,0:0:0:0:
176,120,58414,1,0,0:0:0:0:
176,120,58503,1,2,0:0:0:0:
176,128,58593,1,0,0:0:0:0:
176,128,58771,1,0,0:0:0:0:
176,128,58950,1,2,0:0:0:0:
176,120,59128,1,0,0:0:0:0:
232,96,59218,1,0,0:0:0:0:
176,128,59307,1,0,0:0:0:0:
176,128,59664,1,2,0:0:0:0:
176,120,59843,1,0,0:0:0:0:
176,120,59932,1,0,0:0:0:0:
176,128,60021,1,0,0:0:0:0:
176,128,60200,1,0,0:0:0:0:
176,128,60378,1,2,0:0:0:0:
176,128,60557,1,0,0:0:0:0:
176,128,60735,1,2,0:0:0:0:
176,128,61093,1,2,0:0:0:0:
200,48,61271,1,0,0:0:0:0:
192,40,61360,1,2,0:0:0:0:
176,128,61450,1,0,0:0:0:0:
192,40,61628,1,0,0:0:0:0:
176,128,61807,1,2,0:0:0:0:
72,136,61985,1,0,0:0:0:0:
192,40,62343,1,0,0:0:0:0:
176,128,62521,1,2,0:0:0:0:
192,40,62700,1,2,0:0:0:0:
192,40,62789,1,2,0:0:0:0:
176,128,62878,1,0,0:0:0:0:
232,104,63057,1,2,0:0:0:0:
232,104,63146,1,2,0:0:0:0:
176,128,63235,1,2,0:0:0:0:
232,112,63325,1,2,0:0:0:0:
232,112,63414,1,2,0:0:0:0:
176,128,63593,1,4,0:0:0:0:
256,168,63771,1,0,0:0:0:0:
256,168,63950,1,2,0:0:0:0:
256,168,64128,1,2,0:0:0:0:
184,104,64218,1,2,0:0:0:0:
256,168,64307,1,0,0:0:0:0:
184,104,64396,1,2,0:0:0:0:
256,168,64485,1,0,0:0:0:0:
208,144,64575,1,0,0:0:0:0:
256,168,64664,1,2,0:0:0:0:
200,128,64843,1,4,0:0:0:0:
192,144,65200,1,0,0:0:0:0:
192,144,65378,1,2,0:0:0:0:
192,144,65557,1,0,0:0:0:0:
192,144,65646,1,2,0:0:0:0:
192,144,65735,1,0,0:0:0:0:
192,144,65914,1,2,0:0:0:0:
208,144,66003,1,2,0:0:0:0:
192,144,66093,1,0,0:0:0:0:
208,144,66182,1,0,0:0:0:0:
192,144,66271,1,0,0:0:0:0:
192,144,66450,1,6,0:0:0:0:
208,144,66628,1,0,0:0:0:0:
208,144,66807,1,2,0:0:0:0:
208,144,66985,1,0,0:0:0:0:
48,192,67075,1,2,0:0:0:0:
208,144,67164,1,0,0:0:0:0:
88,160,67253,1,2,0:0:0:0:
208,144,67343,1,0,0:0:0:0:
104,168,67432,1,0,0:0:0:0:
208,144,67521,1,2,0:0:0:0:
208,144,67700,1,4,0:0:0:0:
208,144,68057,1,0,0:0:0:0:
208,144,68235,1,2,0:0:0:0:
208,144,68414,1,2,0:0:0:0:
48,192,68503,1,2,0:0:0:0:
208,144,68593,1,0,0:0:0:0:
208,144,68771,1,0,0:0:0:0:
120,160,68860,1,0,0:0:0:0:
208,144,68950,1,2,0:0:0:0:
208,144,69128,1,2,0:0:0:0:
208,144,69307,1,4,0:0:0:0:
160,144,69664,1,2,0:0:0:0:
160,152,69843,1,2,0:0:0:0:
160,152,69932,1,2,0:0:0:0:
160,152,70021,1,0,0:0:0:0:
48,160,70110,1,0,0:0:0:0:
160,152,70200,1,0,0:0:0:0:
160,152,70378,1,2,0:0:0:0:
160,152,70557,1,0,0:0:0:0:
160,160,70646,1,0,0:0:0:0:
224,88,70735,1,0,0:0:0:0:
216,96,70914,1,0,0:0:0:0:
216,96,71093,1,2,0:0:0:0:
216,96,71271,1,0,0:0:0:0:
216,96,71360,1,2,0:0:0:0:
216,96,71450,1,0,0:0:0:0:
216,96,71628,1,0,0:0:0:0:
216,96,71807,1,2,0:0:0:0:
216,96,71985,1,2,0:0:0:0:
192,48,72075,1,2,0:0:0:0:
216,96,72164,1,0,0:0:0:0:
176,88,72343,1,0,0:0:0:0:
176,88,72521,1,2,0:0:0:0:
176,88,72700,1,0,0:0:0:0:
176,64,72789,1,2,0:0:0:0:
216,120,72878,1,0,0:0:0:0:
176,88,73057,1,0,0:0:0:0:
176,88,73235,1,2,0:0:0:0:
176,88,73414,1,0,0:0:0:0:
216,120,73771,1,0,0:0:0:0:
216,120,73950,1,2,0:0:0:0:
216,120,74128,1,2,0:0:0:0:
216,120,74218,1,2,0:0:0:0:
216,120,74307,1,0,0:0:0:0:
176,104,74396,1,0,0:0:0:0:
216,120,74485,1,2,0:0:0:0:
216,120,74575,1,0,0:0:0:0:
216,120,74664,1,2,0:0:0:0:
216,120,74843,1,2,0:0:0:0:
216,120,75021,1,4,0:0:0:0:
184,112,75200,1,0,0:0:0:0:
272,208,75378,1,2,0:0:0:0:
184,112,75557,1,0,0:0:0:0:
200,136,75646,1,0,0:0:0:0:
272,208,75735,1,0,0:0:0:0:
192,112,75914,1,0,0:0:0:0:
272,208,76093,1,2,0:0:0:0:
272,208,76271,1,4,0:0:0:0:
264,216,76628,1,0,0:0:0:0:
264,216,76807,1,2,0:0:0:0:
152,128,76985,1,2,0:0:0:0:
200,136,77075,1,2,0:0:0:0:
264,216,77164,1,0,0:0:0:0:
152,128,77343,1,0,0:0:0:0:
264,216,77521,1,2,0:0:0:0:
152,128,77700,1,2,0:0:0:0:
264,216,77878,1,4,0:0:0:0:
264,216,78235,1,2,0:0:0:0:
152,128,78414,1,2,0:0:0:0:
200,136,78503,1,0,0:0:0:0:
264,216,78593,1,0,0:0:0:0:
152,128,78771,1,0,0:0:0:0:
264,216,78950,1,2,0:0:0:0:
264,216,79128,1,4,0:0:0:0:
264,216,79485,1,0,0:0:0:0:
264,216,79664,1,2,0:0:0:0:
152,128,79843,1,2,0:0:0:0:
152,128,79932,1,2,0:0:0:0:
264,216,80021,1,0,0:0:0:0:
152,128,80200,1,0,0:0:0:0:
264,216,80378,1,2,0:0:0:0:
152,128,80557,1,2,0:0:0:0:
264,216,80735,1,4,0:0:0:0:
264,216,81093,1,2,0:0:0:0:
152,128,81271,1,0,0:0:0:0:
264,216,81450,1,0,0:0:0:0:
152,128,81628,1,0,0:0:0:0:
264,216,81807,1,2,0:0:0:0:
264,216,81985,1,4,0:0:0:0:
264,216,82343,1,0,0:0:0:0:
264,216,82521,1,2,0:0:0:0:
152,128,82700,1,2,0:0:0:0:
152,128,82789,1,2,0:0:0:0:
264,216,82878,1,0,0:0:0:0:
152,128,83057,1,0,0:0:0:0:
264,216,83235,1,2,0:0:0:0:
152,128,83414,1,2,0:0:0:0:
264,216,83593,1,4,0:0:0:0:
264,216,83950,1,2,0:0:0:0:
152,128,84128,1,0,0:0:0:0:
152,128,84218,1,2,0:0:0:0:
264,216,84307,1,0,0:0:0:0:
184,120,84485,1,0,0:0:0:0:
184,120,84664,1,2,0:0:0:0:
152,128,84843,1,2,0:0:0:0:
152,128,84932,1,2,0:0:0:0:
216,128,85021,1,0,0:0:0:0:
216,128,85200,1,0,0:0:0:0:
216,128,85378,1,2,0:0:0:0:
216,120,85557,1,0,0:0:0:0:
216,120,85646,1,0,0:0:0:0:
216,120,85735,1,0,0:0:0:0:
216,120,85914,1,0,0:0:0:0:
216,120,86093,1,2,0:0:0:0:
176,136,86271,1,0,0:0:0:0:
184,136,86450,1,2,0:0:0:0:
176,120,86539,1,0,0:0:0:0:
176,120,86628,1,0,0:0:0:0:
184,120,86807,1,2,0:0:0:0:
184,120,86896,1,0,0:0:0:0:
184,120,86985,1,0,0:0:0:0:
184,120,87164,1,2,0:0:0:0:
184,120,87253,1,0,0:0:0:0:
184,120,87343,1,0,0:0:0:0:
184,120,87521,1,2,0:0:0:0:
184,120,87700,1,0,0:0:0:0:
184,120,87789,1,0,0:0:0:0:
184,120,87878,1,2,0:0:0:0:
184,120,88057,1,0,0:0:0:0:
184,120,88146,1,0,0:0:0:0:
184,120,88235,1,2,0:0:0:0:
184,120,88414,1,2,0:0:0:0:
