osu file format v14

[General]
AudioFilename: audio.mp3
AudioLeadIn: 0
PreviewTime: 51539
Countdown: 0
SampleSet: Normal
StackLeniency: 0.7
Mode: 1
LetterboxInBreaks: 0
WidescreenStoryboard: 0

[Editor]
Bookmarks: 6450,15021,26450,51450,52164,57878,60735,63593,69307,72164,75021,83593,86450
DistanceSpacing: 1
BeatDivisor: 4
GridSize: 8
TimelineZoom: 1

[Metadata]
Title:Rashisa
TitleUnicode:らしさ
Artist:SUPER BEAVER
ArtistUnicode:SUPER BEAVER
Creator:404 AccNotFound
Version:Muzukashii Rashisa
Source:ばらかもん
Tags:barakamon naru junon boy opening handa seishuu tv size
BeatmapID:1320160
BeatmapSetID:620508

[Difficulty]
HPDrainRate:6
CircleSize:5
OverallDifficulty:5
ApproachRate:5
SliderMultiplier:1.4
SliderTickRate:1

[Events]
//Background and Video events
0,0,"CZcByYZkPJnTDhEzz82u1R.jpg",0,0
//Break Periods
//Storyboard Layer 0 (Background)
//Storyboard Layer 1 (Fail)
//Storyboard Layer 2 (Pass)
//Storyboard Layer 3 (Foreground)
//Storyboard Sound Samples

[TimingPoints]
736,357.142857142857,4,1,0,100,1,0
52164,-100,4,1,0,100,0,1
75021,-100,4,1,0,100,0,0

[HitObjects]
216,280,378,5,0,0:0:0:0:
216,280,736,1,2,0:0:0:0:
192,216,914,1,2,0:0:0:0:
192,216,1003,1,2,0:0:0:0:
192,216,1093,1,2,0:0:0:0:
192,216,1271,1,2,0:0:0:0:
192,216,1450,1,0,0:0:0:0:
192,216,1628,1,0,0:0:0:0:
192,216,1807,1,0,0:0:0:0:
216,280,1985,1,2,0:0:0:0:
216,280,2343,1,2,0:0:0:0:
216,280,2432,1,2,0:0:0:0:
216,280,2521,1,2,0:0:0:0:
192,216,2700,1,2,0:0:0:0:
192,216,2878,1,0,0:0:0:0:
192,216,3057,1,0,0:0:0:0:
192,216,3235,1,0,0:0:0:0:
216,280,3593,1,2,0:0:0:0:
200,144,3771,1,0,0:0:0:0:
200,144,3950,1,2,0:0:0:0:
224,168,4307,1,2,0:0:0:0:
112,136,4485,1,0,0:0:0:0:
192,144,4664,1,2,0:0:0:0:
192,144,4843,1,2,0:0:0:0:
208,80,6450,1,6,0:0:0:0:
184,136,6628,1,0,0:0:0:0:
208,80,6807,1,2,0:0:0:0:
160,120,6985,1,0,0:0:0:0:
208,80,7164,1,2,0:0:0:0:
208,136,7343,1,0,0:0:0:0:
208,80,7521,1,2,0:0:0:0:
216,144,7878,1,2,0:0:0:0:
208,136,8057,1,2,0:0:0:0:
216,144,8235,1,0,0:0:0:0:
208,136,8414,1,2,0:0:0:0:
144,128,8593,1,2,0:0:0:0:
208,136,8771,1,0,0:0:0:0:
208,136,8950,1,2,0:0:0:0:
216,144,9307,1,2,0:0:0:0:
112,168,9485,1,0,0:0:0:0:
216,144,9664,1,2,0:0:0:0:
152,120,9843,1,0,0:0:0:0:
216,144,10021,1,2,0:0:0:0:
304,136,10200,1,0,0:0:0:0:
216,144,10378,1,2,0:0:0:0:
216,144,10735,1,2,0:0:0:0:
208,136,10914,1,0,0:0:0:0:
216,144,11093,1,2,0:0:0:0:
56,144,11271,1,2,0:0:0:0:
216,144,11450,1,0,0:0:0:0:
208,136,11628,1,0,0:0:0:0:
208,136,11807,1,2,0:0:0:0:
208,136,12164,1,0,0:0:0:0:
112,144,12343,1,0,0:0:0:0:
208,224,12521,1,2,0:0:0:0:
152,128,12700,1,2,0:0:0:0:
208,224,12878,1,0,0:0:0:0:
208,224,13057,1,2,0:0:0:0:
208,224,13235,1,0,0:0:0:0:
208,224,13414,1,2,0:0:0:0:
184,160,13503,1,2,0:0:0:0:
128,160,13593,1,2,0:0:0:0:
208,224,13771,1,0,0:0:0:0:
208,224,13950,1,2,0:0:0:0:
208,224,14307,1,0,0:0:0:0:
208,224,14485,1,0,0:0:0:0:
208,224,14664,1,2,0:0:0:0:
184,160,15021,1,0,0:0:0:0:
280,200,15378,1,2,0:0:0:0:
280,200,15557,1,0,0:0:0:0:
328,160,15646,1,0,0:0:0:0:
280,200,15735,1,0,0:0:0:0:
280,200,15914,1,0,0:0:0:0:
280,200,16093,1,2,0:0:0:0:
280,200,16271,1,0,0:0:0:0:
280,200,16628,1,0,0:0:0:0:
296,168,16807,1,2,0:0:0:0:
296,168,17164,1,0,0:0:0:0:
296,168,17343,1,0,0:0:0:0:
296,168,17521,1,2,0:0:0:0:
280,208,17878,1,0,0:0:0:0:
184,152,18057,1,0,0:0:0:0:
280,208,18235,1,2,0:0:0:0:
104,168,18414,1,0,0:0:0:0:
104,160,18503,1,0,0:0:0:0:
280,208,18593,1,0,0:0:0:0:
120,120,18771,1,0,0:0:0:0:
280,208,18950,1,2,0:0:0:0:
160,128,19307,1,2,0:0:0:0:
280,208,19485,1,2,0:0:0:0:
280,208,19664,1,2,0:0:0:0:
304,176,20021,1,0,0:0:0:0:
296,168,20200,1,0,0:0:0:0:
296,168,20378,1,2,0:0:0:0:
280,208,20735,1,2,0:0:0:0:
280,208,21093,1,2,0:0:0:0:
208,88,21271,1,0,0:0:0:0:
280,208,21450,1,2,0:0:0:0:
208,88,21628,1,0,0:0:0:0:
280,208,21807,1,2,0:0:0:0:
280,208,21985,1,0,0:0:0:0:
240,144,22075,1,0,0:0:0:0:
280,208,22164,1,0,0:0:0:0:
280,208,22521,1,2,0:0:0:0:
280,208,23057,1,0,0:0:0:0:
280,208,23235,1,2,0:0:0:0:
280,208,23593,1,2,0:0:0:0:
280,208,23771,1,2,0:0:0:0:
280,208,23950,1,2,0:0:0:0:
280,208,24307,1,0,0:0:0:0:
280,208,24485,1,0,0:0:0:0:
280,208,24664,1,2,0:0:0:0:
304,176,24753,1,2,0:0:0:0:
304,176,24843,1,2,0:0:0:0:
280,208,25200,1,2,0:0:0:0:
304,176,25378,1,0,0:0:0:0:
168,96,25557,1,2,0:0:0:0:
160,104,25646,1,2,0:0:0:0:
168,96,25735,1,2,0:0:0:0:
168,96,25914,1,0,0:0:0:0:
280,208,26093,1,0,0:0:0:0:
280,208,26450,1,4,0:0:0:0:
272,176,26807,1,0,0:0:0:0:
272,176,26985,1,0,0:0:0:0:
128,96,27164,1,2,0:0:0:0:
272,176,27521,1,2,0:0:0:0:
272,176,27700,1,2,0:0:0:0:
136,112,27878,1,0,0:0:0:0:
136,112,28057,1,2,0:0:0:0:
152,264,28235,1,0,0:0:0:0:
136,112,28593,1,2,0:0:0:0:
272,176,29128,1,0,0:0:0:0:
272,176,29307,1,2,0:0:0:0:
272,176,29485,1,0,0:0:0:0:
272,176,29664,1,2,0:0:0:0:
272,176,29843,1,0,0:0:0:0:
272,176,30021,1,2,0:0:0:0:
272,176,30378,1,2,0:0:0:0:
272,176,30557,1,0,0:0:0:0:
296,120,30646,1,0,0:0:0:0:
272,176,30735,1,0,0:0:0:0:
272,176,30914,1,0,0:0:0:0:
272,176,31093,1,2,0:0:0:0:
272,176,31271,1,2,0:0:0:0:
264,176,31450,1,2,0:0:0:0:
264,176,31985,1,0,0:0:0:0:
264,176,32164,1,2,0:0:0:0:
264,176,32343,1,0,0:0:0:0:
264,176,32521,1,2,0:0:0:0:
264,176,32700,1,0,0:0:0:0:
264,176,32878,1,2,0:0:0:0:
264,176,33235,1,2,0:0:0:0:
264,176,33414,1,0,0:0:0:0:
296,120,33503,1,0,0:0:0:0:
264,176,33593,1,0,0:0:0:0:
264,176,33771,1,0,0:0:0:0:
264,176,33950,1,2,0:0:0:0:
264,176,34128,1,2,0:0:0:0:
264,176,34307,1,2,0:0:0:0:
264,176,34843,1,0,0:0:0:0:
264,176,35021,1,2,0:0:0:0:
264,176,35200,1,0,0:0:0:0:
264,176,35378,1,2,0:0:0:0:
264,176,35557,1,0,0:0:0:0:
264,176,35735,1,2,0:0:0:0:
264,176,36093,1,2,0:0:0:0:
264,176,36271,1,2,0:0:0:0:
288,128,36360,1,2,0:0:0:0:
264,176,36450,1,2,0:0:0:0:
264,176,36628,1,0,0:0:0:0:
264,176,36807,1,2,0:0:0:0:
264,176,36985,1,2,0:0:0:0:
264,176,37164,1,0,0:0:0:0:
264,176,37521,1,2,0:0:0:0:
264,176,37700,1,2,0:0:0:0:
136,112,37878,1,0,0:0:0:0:
264,176,38235,1,0,0:0:0:0:
264,176,38414,1,0,0:0:0:0:
136,112,38593,1,2,0:0:0:0:
264,176,38950,1,2,0:0:0:0:
264,176,39128,1,2,0:0:0:0:
136,112,39307,1,0,0:0:0:0:
136,112,39485,1,2,0:0:0:0:
264,176,39664,1,0,0:0:0:0:
136,112,40021,1,2,0:0:0:0:
136,112,40200,1,0,0:0:0:0:
136,112,40378,1,0,0:0:0:0:
264,176,40735,1,6,0:0:0:0:
264,176,41450,1,4,0:0:0:0:
264,176,42164,1,4,0:0:0:0:
192,72,42878,1,4,0:0:0:0:
184,96,43593,1,0,0:0:0:0:
184,96,43950,1,2,0:0:0:0:
264,176,44128,1,0,0:0:0:0:
176,128,44218,1,0,0:0:0:0:
264,176,44307,1,0,0:0:0:0:
264,176,44485,1,0,0:0:0:0:
264,176,44664,1,2,0:0:0:0:
264,176,44843,1,0,0:0:0:0:
160,144,45200,1,0,0:0:0:0:
160,144,45378,1,2,0:0:0:0:
160,144,45735,1,0,0:0:0:0:
160,144,45914,1,0,0:0:0:0:
264,176,46093,1,2,0:0:0:0:
264,176,46271,1,2,0:0:0:0:
160,144,46628,1,0,0:0:0:0:
264,176,46807,1,2,0:0:0:0:
264,176,46985,1,0,0:0:0:0:
176,128,47075,1,0,0:0:0:0:
160,144,47164,1,0,0:0:0:0:
160,144,47343,1,0,0:0:0:0:
264,176,47521,1,2,0:0:0:0:
264,176,47700,1,2,0:0:0:0:
160,144,48057,1,0,0:0:0:0:
264,176,48235,1,2,0:0:0:0:
264,176,48414,1,2,0:0:0:0:
176,128,48503,1,2,0:0:0:0:
160,144,48593,1,2,0:0:0:0:
160,144,48771,1,0,0:0:0:0:
264,176,48950,1,2,0:0:0:0:
184,136,49307,1,0,0:0:0:0:
184,136,49485,1,2,0:0:0:0:
184,136,49664,1,2,0:0:0:0:
184,136,49843,1,0,0:0:0:0:
184,136,50021,1,2,0:0:0:0:
184,136,50200,1,2,0:0:0:0:
184,136,50378,1,0,0:0:0:0:
184,136,50557,1,2,0:0:0:0:
184,136,50735,1,2,0:0:0:0:
184,136,50914,1,0,0:0:0:0:
128,96,51093,1,0,0:0:0:0:
128,96,51450,1,2,0:0:0:0:
240,104,51628,1,2,0:0:0:0:
128,96,52164,1,4,0:0:0:0:
240,176,52521,1,2,0:0:0:0:
240,176,52878,1,0,0:0:0:0:
240,176,53057,1,0,0:0:0:0:
240,176,53235,1,2,0:0:0:0:
240,176,53414,1,0,0:0:0:0:
216,80,53771,1,0,0:0:0:0:
216,80,53950,1,2,0:0:0:0:
200,128,54128,1,0,0:0:0:0:
200,128,54218,1,0,0:0:0:0:
216,88,54307,1,0,0:0:0:0:
232,192,54485,1,0,0:0:0:0:
232,192,54664,1,2,0:0:0:0:
232,192,55021,1,0,0:0:0:0:
232,192,55378,1,2,0:0:0:0:
232,192,55735,1,2,0:0:0:0:
232,192,55914,1,0,0:0:0:0:
232,192,56093,1,2,0:0:0:0:
232,192,56271,1,6,0:0:0:0:
232,192,56628,1,0,0:0:0:0:
64,120,56807,1,2,0:0:0:0:
232,192,56985,1,2,0:0:0:0:
128,80,57075,1,2,0:0:0:0:
232,192,57164,1,2,0:0:0:0:
232,192,57343,1,0,0:0:0:0:
232,192,57521,1,2,0:0:0:0:
232,192,57700,1,2,0:0:0:0:
208,96,57878,1,0,0:0:0:0:
208,96,58235,1,2,0:0:0:0:
232,192,58414,1,0,0:0:0:0:
248,112,58503,1,0,0:0:0:0:
232,192,58593,1,0,0:0:0:0:
232,192,58771,1,0,0:0:0:0:
232,192,58950,1,2,0:0:0:0:
232,192,59307,1,0,0:0:0:0:
208,96,59664,1,2,0:0:0:0:
232,192,59843,1,0,0:0:0:0:
232,192,60021,1,0,0:0:0:0:
232,192,60200,1,0,0:0:0:0:
232,192,60378,1,2,0:0:0:0:
232,192,60557,1,0,0:0:0:0:
176,56,60646,1,0,0:0:0:0:
232,192,60735,1,0,0:0:0:0:
232,192,61093,1,2,0:0:0:0:
232,192,61271,1,0,0:0:0:0:
160,96,61450,1,0,0:0:0:0:
232,192,61628,1,0,0:0:0:0:
232,192,61807,1,2,0:0:0:0:
232,192,61985,1,0,0:0:0:0:
232,192,62343,1,0,0:0:0:0:
208,96,62521,1,2,0:0:0:0:
208,96,62700,1,0,0:0:0:0:
168,112,62789,1,0,0:0:0:0:
208,96,62878,1,0,0:0:0:0:
232,184,63057,1,2,0:0:0:0:
232,184,63235,1,2,0:0:0:0:
232,184,63593,1,4,0:0:0:0:
232,184,63950,1,2,0:0:0:0:
232,184,64128,1,0,0:0:0:0:
168,112,64218,1,0,0:0:0:0:
192,72,64307,1,0,0:0:0:0:
208,96,64485,1,0,0:0:0:0:
232,184,64664,1,2,0:0:0:0:
232,184,64843,1,4,0:0:0:0:
192,72,65200,1,0,0:0:0:0:
192,72,65378,1,2,0:0:0:0:
192,72,65557,1,2,0:0:0:0:
168,112,65646,1,2,0:0:0:0:
192,72,65735,1,2,0:0:0:0:
232,184,65914,1,0,0:0:0:0:
232,184,66093,1,2,0:0:0:0:
232,184,66450,1,4,0:0:0:0:
232,184,66807,1,2,0:0:0:0:
232,184,66985,1,0,0:0:0:0:
168,112,67075,1,0,0:0:0:0:
192,72,67164,1,0,0:0:0:0:
192,72,67343,1,0,0:0:0:0:
232,184,67521,1,2,0:0:0:0:
232,184,67700,1,4,0:0:0:0:
192,72,68057,1,0,0:0:0:0:
192,72,68235,1,2,0:0:0:0:
232,184,68414,1,0,0:0:0:0:
168,112,68503,1,0,0:0:0:0:
232,184,68593,1,0,0:0:0:0:
232,184,68771,1,0,0:0:0:0:
232,184,68950,1,2,0:0:0:0:
192,72,69307,1,4,0:0:0:0:
192,72,69664,1,2,0:0:0:0:
200,144,69843,1,0,0:0:0:0:
168,112,69932,1,0,0:0:0:0:
200,144,70021,1,0,0:0:0:0:
200,144,70200,1,0,0:0:0:0:
200,144,70378,1,2,0:0:0:0:
200,144,70557,1,2,0:0:0:0:
192,72,70735,1,0,0:0:0:0:
192,72,71093,1,2,0:0:0:0:
200,144,71271,1,0,0:0:0:0:
200,144,71450,1,0,0:0:0:0:
200,144,71628,1,2,0:0:0:0:
200,144,71807,1,0,0:0:0:0:
200,144,71985,1,2,0:0:0:0:
168,112,72075,1,2,0:0:0:0:
192,72,72164,1,2,0:0:0:0:
96,112,72343,1,0,0:0:0:0:
200,144,72521,1,2,0:0:0:0:
184,64,72878,1,0,0:0:0:0:
200,144,73057,1,0,0:0:0:0:
200,144,73235,1,2,0:0:0:0:
200,144,73414,1,0,0:0:0:0:
200,144,73771,1,0,0:0:0:0:
200,144,73950,1,2,0:0:0:0:
200,144,74128,1,2,0:0:0:0:
168,112,74218,1,2,0:0:0:0:
168,112,74307,1,2,0:0:0:0:
168,72,74485,1,2,0:0:0:0:
168,72,74664,1,0,0:0:0:0:
168,136,75021,1,4,0:0:0:0:
296,224,75378,1,2,0:0:0:0:
296,224,75735,1,0,0:0:0:0:
296,224,75914,1,0,0:0:0:0:
296,224,76093,1,2,0:0:0:0:
296,224,76271,1,4,0:0:0:0:
296,224,76628,1,0,0:0:0:0:
296,224,76807,1,2,0:0:0:0:
232,144,76985,1,0,0:0:0:0:
232,144,77075,1,0,0:0:0:0:
296,224,77164,1,0,0:0:0:0:
296,224,77343,1,0,0:0:0:0:
296,224,77521,1,2,0:0:0:0:
296,224,77878,1,6,0:0:0:0:
128,136,78235,1,2,0:0:0:0:
144,136,78414,1,0,0:0:0:0:
224,136,78503,1,0,0:0:0:0:
160,136,78593,1,0,0:0:0:0:
160,136,78771,1,0,0:0:0:0:
160,136,78950,1,2,0:0:0:0:
160,136,79128,1,4,0:0:0:0:
192,128,79485,1,0,0:0:0:0:
192,120,79664,1,2,0:0:0:0:
192,128,79843,1,0,0:0:0:0:
216,144,79932,1,0,0:0:0:0:
192,128,80021,1,0,0:0:0:0:
192,128,80200,1,0,0:0:0:0:
192,128,80378,1,2,0:0:0:0:
192,128,80735,1,4,0:0:0:0:
192,128,81093,1,2,0:0:0:0:
192,128,81450,1,0,0:0:0:0:
192,128,81628,1,0,0:0:0:0:
192,128,81807,1,2,0:0:0:0:
192,128,81985,1,4,0:0:0:0:
192,128,82343,1,0,0:0:0:0:
192,128,82521,1,2,0:0:0:0:
192,128,82878,1,0,0:0:0:0:
192,128,83057,1,0,0:0:0:0:
192,128,83235,1,2,0:0:0:0:
192,128,83414,1,2,0:0:0:0:
192,128,83593,1,4,0:0:0:0:
192,128,83950,1,2,0:0:0:0:
192,128,84128,1,0,0:0:0:0:
216,144,84218,1,0,0:0:0:0:
192,128,84307,1,0,0:0:0:0:
192,128,84485,1,0,0:0:0:0:
192,128,84664,1,2,0:0:0:0:
192,128,84843,1,0,0:0:0:0:
192,128,85021,1,0,0:0:0:0:
192,128,85378,1,2,0:0:0:0:
192,128,85557,1,2,0:0:0:0:
192,128,85735,1,0,0:0:0:0:
192,128,85914,1,0,0:0:0:0:
192,128,86093,1,2,0:0:0:0:
192,128,86271,1,0,0:0:0:0:
216,144,86360,1,0,0:0:0:0:
192,128,86450,1,0,0:0:0:0:
24,160,86628,1,0,0:0:0:0:
192,128,86807,1,2,0:0:0:0:
192,128,87164,1,2,0:0:0:0:
216,144,87343,1,0,0:0:0:0:
192,128,87521,1,2,0:0:0:0:
192,128,87878,1,2,0:0:0:0:
216,144,88057,1,2,0:0:0:0:
192,128,88235,1,2,0:0:0:0:
120,160,88414,1,2,0:0:0:0:
