osu file format v14

[General]
AudioFilename: audio.mp3
AudioLeadIn: 0
PreviewTime: 51539
Countdown: 0
SampleSet: Normal
StackLeniency: 0.7
Mode: 1
LetterboxInBreaks: 0
WidescreenStoryboard: 0

[Editor]
Bookmarks: 6450,15021,26450,51450,52164,57878,60735,63593,69307,72164,75021,83593,86450
DistanceSpacing: 1
BeatDivisor: 2
GridSize: 8
TimelineZoom: 1

[Metadata]
Title:Rashisa
TitleUnicode:らしさ
Artist:SUPER BEAVER
ArtistUnicode:SUPER BEAVER
Creator:404 AccNotFound
Version:Futsuu Rashisa
Source:ばらかもん
Tags:barakamon naru junon boy opening handa seishuu tv size
BeatmapID:1320165
BeatmapSetID:620508

[Difficulty]
HPDrainRate:6
CircleSize:5
OverallDifficulty:4
ApproachRate:5
SliderMultiplier:1.4
SliderTickRate:1

[Events]
//Background and Video events
0,0,"CZcByYZkPJnTDhEzz82u1R.jpg",0,0
//Break Periods
//Storyboard Layer 0 (Background)
//Storyboard Layer 1 (Fail)
//Storyboard Layer 2 (Pass)
//Storyboard Layer 3 (Foreground)
//Storyboard Sound Samples

[TimingPoints]
736,357.142857142857,4,1,0,100,1,0
52164,-100,4,1,0,100,0,1
75021,-100,4,1,0,100,0,0

[HitObjects]
256,208,736,5,2,0:0:0:0:
256,208,1093,1,0,0:0:0:0:
256,208,1450,1,0,0:0:0:0:
256,208,1985,1,2,0:0:0:0:
256,208,2521,1,0,0:0:0:0:
256,208,2878,1,0,0:0:0:0:
64,128,3414,1,0,0:0:0:0:
288,168,3593,1,2,0:0:0:0:
144,80,3771,1,0,0:0:0:0:
272,168,3950,1,2,0:0:0:0:
272,168,4307,1,2,0:0:0:0:
272,168,4664,1,2,0:0:0:0:
200,152,4843,1,0,0:0:0:0:
232,152,6450,1,0,0:0:0:0:
232,152,6807,1,2,0:0:0:0:
232,152,7164,1,0,0:0:0:0:
200,144,7343,1,0,0:0:0:0:
200,144,7521,1,0,0:0:0:0:
232,152,7878,1,2,0:0:0:0:
232,152,8235,1,2,0:0:0:0:
232,152,8593,1,2,0:0:0:0:
232,152,9307,1,2,0:0:0:0:
232,152,9664,1,0,0:0:0:0:
232,152,10021,1,2,0:0:0:0:
200,152,10200,1,2,0:0:0:0:
232,152,10378,1,2,0:0:0:0:
232,152,10735,1,0,0:0:0:0:
232,152,11093,1,2,0:0:0:0:
232,152,11450,1,0,0:0:0:0:
232,152,12164,1,0,0:0:0:0:
232,152,12521,1,2,0:0:0:0:
232,152,12878,1,0,0:0:0:0:
192,152,13057,1,0,0:0:0:0:
232,152,13235,1,0,0:0:0:0:
232,152,13593,1,2,0:0:0:0:
232,152,13950,1,0,0:0:0:0:
232,152,14307,1,0,0:0:0:0:
232,152,15021,1,0,0:0:0:0:
232,152,15378,1,2,0:0:0:0:
232,152,15735,1,0,0:0:0:0:
200,152,16093,1,2,0:0:0:0:
232,152,16271,1,0,0:0:0:0:
232,160,16628,1,0,0:0:0:0:
200,152,17164,1,0,0:0:0:0:
200,152,17343,1,0,0:0:0:0:
200,152,17521,1,2,0:0:0:0:
232,160,17878,1,0,0:0:0:0:
232,160,18235,1,2,0:0:0:0:
208,96,18593,1,0,0:0:0:0:
72,144,18950,1,2,0:0:0:0:
224,88,19128,1,2,0:0:0:0:
64,144,19307,1,2,0:0:0:0:
184,96,19664,1,2,0:0:0:0:
208,136,20735,1,0,0:0:0:0:
208,136,21093,1,2,0:0:0:0:
208,136,21450,1,0,0:0:0:0:
200,120,21807,1,2,0:0:0:0:
144,120,21985,1,0,0:0:0:0:
200,120,22164,1,2,0:0:0:0:
144,120,22521,1,2,0:0:0:0:
200,160,22878,1,0,0:0:0:0:
200,160,23057,1,0,0:0:0:0:
200,160,23235,1,2,0:0:0:0:
192,112,23593,1,0,0:0:0:0:
192,112,23950,1,2,0:0:0:0:
192,112,24307,1,0,0:0:0:0:
192,160,24664,1,2,0:0:0:0:
192,112,24843,1,2,0:0:0:0:
192,112,25200,1,2,0:0:0:0:
144,112,26450,1,4,0:0:0:0:
144,112,27164,1,2,0:0:0:0:
144,112,27878,1,0,0:0:0:0:
144,112,28235,1,0,0:0:0:0:
144,112,28593,1,2,0:0:0:0:
144,112,29307,1,0,0:0:0:0:
192,160,29664,1,2,0:0:0:0:
192,160,29843,1,2,0:0:0:0:
144,112,30021,1,2,0:0:0:0:
192,160,30378,1,0,0:0:0:0:
192,160,30557,1,0,0:0:0:0:
144,112,30735,1,0,0:0:0:0:
144,112,31093,1,0,0:0:0:0:
144,112,31450,1,2,0:0:0:0:
144,112,32164,1,0,0:0:0:0:
192,160,32521,1,0,0:0:0:0:
144,112,32878,1,2,0:0:0:0:
184,112,33235,1,0,0:0:0:0:
184,112,33414,1,0,0:0:0:0:
144,112,33593,1,2,0:0:0:0:
144,112,33950,1,2,0:0:0:0:
192,160,34128,1,2,0:0:0:0:
144,112,34307,1,2,0:0:0:0:
144,112,35021,1,0,0:0:0:0:
192,160,35378,1,0,0:0:0:0:
144,112,35735,1,2,0:0:0:0:
144,128,36093,1,0,0:0:0:0:
144,128,36271,1,0,0:0:0:0:
144,112,36450,1,0,0:0:0:0:
144,112,36807,1,2,0:0:0:0:
192,160,36985,1,2,0:0:0:0:
144,112,37164,1,0,0:0:0:0:
144,112,37878,1,4,0:0:0:0:
144,112,38593,1,2,0:0:0:0:
144,112,39307,1,0,0:0:0:0:
144,112,39664,1,0,0:0:0:0:
144,112,40021,1,2,0:0:0:0:
192,160,40200,1,0,0:0:0:0:
192,160,40378,1,0,0:0:0:0:
144,112,40735,1,6,0:0:0:0:
144,112,41450,1,4,0:0:0:0:
144,112,42164,1,4,0:0:0:0:
144,112,42878,1,4,0:0:0:0:
144,112,43593,1,0,0:0:0:0:
144,112,43950,1,2,0:0:0:0:
144,112,44307,1,0,0:0:0:0:
192,176,44485,1,0,0:0:0:0:
192,176,44664,1,2,0:0:0:0:
144,112,45021,1,0,0:0:0:0:
144,112,45378,1,2,0:0:0:0:
144,112,45735,1,0,0:0:0:0:
144,112,46450,1,0,0:0:0:0:
144,112,46807,1,2,0:0:0:0:
144,112,47164,1,0,0:0:0:0:
192,176,47343,1,0,0:0:0:0:
144,112,47521,1,2,0:0:0:0:
144,112,47878,1,0,0:0:0:0:
144,112,48235,1,0,0:0:0:0:
144,112,48593,1,2,0:0:0:0:
144,112,49307,1,4,0:0:0:0:
144,112,49843,1,4,0:0:0:0:
144,112,50378,1,4,0:0:0:0:
144,112,50914,1,4,0:0:0:0:
144,112,51450,1,6,0:0:0:0:
144,112,52164,1,4,0:0:0:0:
304,88,52521,1,2,0:0:0:0:
304,88,52878,1,0,0:0:0:0:
256,160,53235,1,2,0:0:0:0:
256,160,53414,1,2,0:0:0:0:
184,152,53950,1,2,0:0:0:0:
256,160,54307,1,0,0:0:0:0:
256,112,54485,1,0,0:0:0:0:
256,112,54664,1,2,0:0:0:0:
256,160,55021,1,0,0:0:0:0:
256,160,55378,1,2,0:0:0:0:
256,160,55735,1,0,0:0:0:0:
256,160,56093,1,2,0:0:0:0:
256,160,56271,1,6,0:0:0:0:
88,128,56628,1,2,0:0:0:0:
256,160,57164,1,2,0:0:0:0:
256,160,57878,1,0,0:0:0:0:
256,160,58235,1,2,0:0:0:0:
256,160,58593,1,0,0:0:0:0:
240,128,58771,1,0,0:0:0:0:
256,160,58950,1,2,0:0:0:0:
256,160,59307,1,0,0:0:0:0:
200,96,59664,1,2,0:0:0:0:
256,160,60021,1,0,0:0:0:0:
184,152,60200,1,0,0:0:0:0:
184,152,60378,1,0,0:0:0:0:
256,160,60735,1,2,0:0:0:0:
256,160,61093,1,2,0:0:0:0:
256,160,61450,1,0,0:0:0:0:
256,160,61807,1,2,0:0:0:0:
256,160,61985,1,2,0:0:0:0:
256,160,62343,1,0,0:0:0:0:
200,120,62878,1,2,0:0:0:0:
200,128,63057,1,2,0:0:0:0:
216,112,63235,1,2,0:0:0:0:
256,160,63593,1,4,0:0:0:0:
256,160,63950,1,2,0:0:0:0:
256,160,64307,1,0,0:0:0:0:
184,152,64664,1,0,0:0:0:0:
256,160,64843,1,6,0:0:0:0:
208,128,65378,1,2,0:0:0:0:
208,128,65735,1,0,0:0:0:0:
184,152,65914,1,0,0:0:0:0:
184,152,66093,1,0,0:0:0:0:
256,160,66450,1,4,0:0:0:0:
256,160,66807,1,2,0:0:0:0:
256,160,67164,1,0,0:0:0:0:
184,152,67521,1,0,0:0:0:0:
256,160,67700,1,6,0:0:0:0:
208,128,68235,1,2,0:0:0:0:
208,128,68593,1,0,0:0:0:0:
184,152,68771,1,0,0:0:0:0:
184,152,68950,1,2,0:0:0:0:
256,160,69307,1,4,0:0:0:0:
152,144,69664,1,2,0:0:0:0:
256,160,70021,1,0,0:0:0:0:
160,104,70200,1,0,0:0:0:0:
184,152,70378,1,2,0:0:0:0:
256,160,70735,1,0,0:0:0:0:
256,160,71093,1,2,0:0:0:0:
256,160,71450,1,0,0:0:0:0:
256,160,72164,1,0,0:0:0:0:
256,160,72521,1,2,0:0:0:0:
256,160,72878,1,0,0:0:0:0:
184,152,73235,1,2,0:0:0:0:
256,160,73414,1,2,0:0:0:0:
256,160,73771,1,2,0:0:0:0:
256,160,74307,1,2,0:0:0:0:
184,152,74485,1,2,0:0:0:0:
184,152,74664,1,2,0:0:0:0:
256,160,75021,1,4,0:0:0:0:
200,152,75378,1,2,0:0:0:0:
200,152,75735,1,0,0:0:0:0:
200,152,76093,1,2,0:0:0:0:
200,152,76271,1,2,0:0:0:0:
200,152,76807,1,2,0:0:0:0:
200,152,77164,1,0,0:0:0:0:
184,152,77343,1,0,0:0:0:0:
184,152,77521,1,0,0:0:0:0:
200,152,77878,1,4,0:0:0:0:
200,152,78235,1,2,0:0:0:0:
200,152,78593,1,0,0:0:0:0:
200,152,78950,1,0,0:0:0:0:
200,152,79128,1,0,0:0:0:0:
200,152,79664,1,2,0:0:0:0:
200,152,80021,1,2,0:0:0:0:
200,152,80735,1,4,0:0:0:0:
200,152,81093,1,2,0:0:0:0:
200,152,81450,1,0,0:0:0:0:
200,152,81807,1,2,0:0:0:0:
200,152,81985,1,2,0:0:0:0:
200,152,82521,1,2,0:0:0:0:
200,152,82878,1,0,0:0:0:0:
184,152,83057,1,0,0:0:0:0:
184,160,83235,1,2,0:0:0:0:
200,152,83593,1,4,0:0:0:0:
200,152,83950,1,2,0:0:0:0:
200,152,84307,1,0,0:0:0:0:
152,80,84485,1,0,0:0:0:0:
176,160,84664,1,2,0:0:0:0:
200,152,85021,1,0,0:0:0:0:
200,152,85378,1,2,0:0:0:0:
200,152,85735,1,0,0:0:0:0:
200,152,86450,1,0,0:0:0:0:
200,152,86807,1,0,0:0:0:0:
200,152,87164,1,0,0:0:0:0:
200,152,87521,1,0,0:0:0:0:
176,160,87700,1,0,0:0:0:0:
200,152,87878,1,2,0:0:0:0:
200,152,88057,1,2,0:0:0:0:
200,152,88235,1,2,0:0:0:0:
176,160,88414,1,2,0:0:0:0:
