osu file format v14

[General]
AudioFilename: audio.mp3
AudioLeadIn: 0
PreviewTime: 187002
Countdown: 0
SampleSet: Soft
StackLeniency: 0.7
Mode: 0
LetterboxInBreaks: 0
WidescreenStoryboard: 1

[Editor]
Bookmarks: 40667,62485,73394,84303,117030,138849,149758,171576,187940,188025,188110,188195,188280,188366,188451,188536,188621,188707,188792,188877,188962,189047,189133,189218,189303,189388,189474,189559,189644,189729,189815,189900,189985,190070,190155,190241,190326,190411,190496,190582,190667,190752,190837,190922,191008,191093,191178,191263,191349,191434,191519,191604,191690,191775,191860,191945,192030,192116,192201,192286,192371,192457,192542,192627,192712,192797,192883,192968,193053,193138,193224,193309,193394,193479,193565,193650,193735,193820,193905,193991,194076,194161,194246,194332,194417,194502,194587,194672,194758,194843,194928,195013,195099,195184,195269,195354,195440,195525,195610,195695,195780,195866,195951,196036,196121
DistanceSpacing: 0.6
BeatDivisor: 4
GridSize: 32
TimelineZoom: 1.7

[Metadata]
Title:Namae o Yobu yo
TitleUnicode:名前を呼ぶよ
Artist:SUPER BEAVER
ArtistUnicode:SUPER BEAVER
Creator:HowRengar
Version:Insane
Source:東京リベンジャーズ
Tags:Japanese Rock J-rock Jrock Male vocals movie film tokyo revengers live action theme song japan manji 卍 gang 東京卍會 manji-kai manji kai toman 東京 tokyo album Ryota Yanagisawa 柳沢亮太
BeatmapID:4225244
BeatmapSetID:1934875

[Difficulty]
HPDrainRate:5.8
CircleSize:4
OverallDifficulty:7.8
ApproachRate:9
SliderMultiplier:1.3
SliderTickRate:1

[Events]
//Background and Video events
0,0,"BG_.png",0,0
//Break Periods
2,187911,196093
//Storyboard Layer 0 (Background)
//Storyboard Layer 1 (Fail)
//Storyboard Layer 2 (Pass)
//Storyboard Layer 3 (Foreground)
//Storyboard Layer 4 (Overlay)
//Storyboard Sound Samples

[TimingPoints]
1159,348.837209302326,4,2,1,40,1,0
1159,-250,4,2,1,40,0,0
3956,344.827586206897,4,2,1,40,1,0
3956,-250,4,2,1,40,0,0
6548,344.827586206897,4,2,1,40,1,0
6548,-100,4,2,1,40,0,0
7582,-100,4,2,1,5,0,0
7920,342.857142857143,4,2,1,60,1,0
7920,-100,4,2,1,60,0,0
9291,340.909090909091,4,2,1,60,1,0
9291,-100,4,2,1,60,0,0
14063,345.622119815668,4,2,1,60,1,0
14754,336.511497476164,4,2,1,60,1,0
15427,340.909090909091,4,2,1,60,1,0
16108,340.909090909091,4,2,1,60,1,0
17472,338.983050847458,4,2,1,60,1,0
17472,-100,4,2,1,60,0,0
18149,327.868852459016,4,2,1,60,1,0
18149,-100,4,2,1,60,0,0
18476,342.857142857143,4,2,1,60,1,0
18476,-333.333333333333,4,2,1,60,0,0
18733,-333.333333333333,4,2,1,5,0,0
18818,340.909090909091,4,2,1,60,1,0
18818,-250,4,2,1,60,0,0
21545,342.857142857143,4,2,1,60,1,0
21545,-100,4,2,1,60,0,0
22573,346.820809248555,4,2,1,60,1,0
22573,-100,4,2,1,60,0,0
22919,342.857142857143,4,2,1,60,1,0
22919,-100,4,2,1,60,0,0
23433,-133.333333333333,4,2,1,60,0,0
23690,-133.333333333333,4,2,1,5,0,0
23776,-133.333333333333,4,2,1,60,0,0
23947,329.67032967033,4,2,1,60,1,0
23947,-333.333333333333,4,2,1,60,0,0
24194,-333.333333333333,4,2,1,5,0,0
24276,346.820809248555,4,2,1,60,1,0
24276,-246.039105014857,4,2,1,60,0,0
26344,337.078651685393,4,2,1,60,1,0
26344,-100,4,2,1,60,0,0
26681,309.278350515464,4,2,1,60,1,0
26681,-100,4,2,1,60,0,0
26990,342.857142857143,4,2,1,60,1,0
26990,-100,4,2,1,60,0,0
29732,-247.79190684249,4,2,1,60,0,0
31104,340.909090909091,4,2,1,60,1,0
31104,-100,4,2,1,60,0,0
32467,342.857142857143,4,2,1,60,1,0
32467,-100,4,2,1,60,0,0
33838,340.909090909091,4,2,1,60,1,0
33838,-100,4,2,1,60,0,0
34349,-133.333333333333,4,2,1,60,0,0
34605,-133.333333333333,4,2,1,5,0,0
34690,-133.333333333333,4,2,1,60,0,0
34860,319.148936170213,4,2,1,60,1,0
34860,-333.333333333333,4,2,1,60,0,0
35099,-333.333333333333,4,2,1,5,0,0
35178,344.827586206897,4,2,1,60,1,0
35178,-248.215250119518,4,2,1,60,0,0
36557,340.909090909091,4,2,1,60,1,0
36557,-100,4,2,1,60,0,0
39284,339.943342776204,4,2,1,60,1,0
39284,-100,4,2,1,60,0,0
40303,-285.714285714286,4,2,1,60,0,0
40558,-250,4,2,1,5,0,0
40643,340.909090909091,4,2,1,60,1,0
40643,-142.857142857143,4,2,1,60,0,0
42262,-142.857142857143,4,2,1,5,0,0
42347,-142.857142857143,4,2,1,60,0,0
43029,-333.333333333333,4,2,1,60,0,0
43285,-333.333333333333,4,2,1,5,0,0
43370,333.333333333333,4,2,1,60,1,0
43370,-142.857142857143,4,2,1,60,0,0
43703,350.877192982456,4,2,1,60,1,0
43703,-142.857142857143,4,2,1,60,0,0
44404,342.857142857143,4,2,1,60,1,0
44404,-100,4,2,1,60,0,0
44575,-142.857142857143,4,2,1,60,0,0
44746,339.943342776204,4,2,1,60,1,0
44746,-100,4,2,1,60,0,0
45255,-142.857142857143,4,2,1,60,0,0
46105,340.909090909091,4,2,1,60,1,0
46105,-142.857142857143,4,2,1,60,0,0
48491,-333.333333333334,4,2,1,60,0,0
48747,-333.333333333334,4,2,1,5,0,0
48832,-142.857142857143,4,2,1,60,0,0
50195,344.827586206897,4,2,1,60,1,0
50195,-100,4,2,1,60,0,0
50712,-142.857142857143,4,2,1,60,0,0
50884,338.983050847458,4,2,1,60,1,0
50884,-100,4,2,1,60,0,0
51222,-142.857142857143,4,2,1,60,0,0
51561,340.909090909091,4,2,1,60,1,0
51561,-142.857142857143,4,2,1,60,0,0
53947,-333.333333333333,4,2,1,60,0,0
54203,-333.333333333333,4,2,1,5,0,0
54288,-142.857142857143,4,2,1,60,0,0
55651,344.827586206897,4,2,1,60,1,0
55651,-100,4,2,1,60,0,0
56168,-142.857142857143,4,2,1,60,0,0
56340,338.983050847458,4,2,1,60,1,0
56340,-100,4,2,1,60,0,0
57017,340.909090909091,4,2,1,60,1,0
57017,-100,4,2,1,60,0,0
57187,-142.857142857143,4,2,1,60,0,0
59744,327.868852459016,4,2,1,60,1,0
59744,-100,4,2,1,60,0,0
60071,-142.857142857143,4,2,1,60,0,0
60399,348.837209302326,4,2,1,60,1,0
60399,-100,4,2,1,60,0,0
60747,-142.857142857143,4,2,1,60,0,0
61096,338.983050847458,4,2,1,60,1,0
61096,-142.857142857143,4,2,1,60,0,0
62451,326.086956521739,4,2,1,60,1,0
62451,-100,4,2,1,60,0,0
62777,357.142857142857,4,2,2,60,1,0
62777,-142.857142857143,4,2,2,60,0,0
63134,342.857142857143,4,2,2,60,1,0
63134,-142.857142857143,4,2,2,60,0,0
63819,342.857142857143,4,2,2,60,1,0
63819,-100,4,2,2,60,0,0
64169,340.909090909091,4,2,2,60,1,0
64169,-142.857142857143,4,2,2,60,0,0
65192,340.909090909091,4,2,2,60,1,0
65192,-142.857142857143,4,2,2,60,0,0
65538,338.983050847458,4,2,2,60,1,0
65538,-142.857142857143,4,2,2,60,0,0
66555,359.281437125748,4,2,2,60,1,0
66555,-142.857142857143,4,2,2,60,0,0
66914,332.409972299169,4,2,2,60,1,0
66914,-142.857142857143,4,2,2,60,0,0
67910,341.880341880342,4,2,2,60,1,0
67910,-142.857142857143,4,2,2,60,0,0
69277,340.909090909091,4,2,2,60,1,0
69277,-100,4,2,2,60,0,0
69617,-142.857142857143,4,2,2,60,0,0
72686,335.195530726257,4,2,2,60,1,0
72686,-142.857142857143,4,2,2,60,0,0
73021,-217.391304347826,4,2,2,60,0,0
73272,-142.857142857143,4,2,2,5,0,0
73356,340.909090909091,4,2,1,60,1,0
73356,-83.3333333333334,4,2,1,60,0,0
75742,-166.666666666667,4,2,1,60,0,0
75998,-166.666666666667,4,2,1,5,0,0
76083,342.857142857143,4,2,1,60,1,0
76083,-83.3333333333333,4,2,1,60,0,0
78825,337.078651685393,4,2,1,60,1,0
78825,-76.9230769230769,4,2,1,60,0,0
79077,-76.9230769230769,4,2,1,5,0,0
79162,-76.9230769230769,4,2,1,60,0,0
80173,344.827586206897,4,2,1,60,1,0
80173,-76.9230769230769,4,2,1,60,0,0
80431,-76.9230769230769,4,2,1,5,0,0
80517,-76.9230769230769,4,2,1,60,0,0
80862,359.281437125748,4,2,1,60,1,0
80862,-100,4,2,1,60,0,0
81221,338.983050847458,4,2,1,60,1,0
81221,-100,4,2,1,60,0,0
81559,340.909090909091,4,2,1,60,1,0
81559,-76.9230769230769,4,2,1,60,0,0
81814,-76.9230769230769,4,2,1,5,0,0
81899,-76.9230769230769,4,2,1,50,0,0
82070,-76.9230769230769,4,2,1,55,0,0
82240,-76.9230769230769,4,2,1,60,0,0
82411,-76.9230769230769,4,2,1,65,0,0
82581,-76.9230769230769,4,2,1,70,0,0
82752,-76.9230769230769,4,2,1,75,0,0
82922,-76.9230769230769,4,2,1,80,0,0
83093,-76.9230769230769,4,2,1,85,0,0
83263,-76.9230769230769,4,2,1,90,0,0
83434,-142.857142857143,4,2,1,90,0,0
83604,333.333333333333,4,2,1,60,1,0
83604,-100,4,2,1,60,0,0
84270,340.909090909091,4,2,1,80,1,1
84270,-71.4285714285714,4,2,1,80,0,1
85548,-71.4285714285714,4,2,1,5,0,1
85633,-71.4285714285714,4,2,1,80,0,1
88275,-71.4285714285714,4,2,1,5,0,1
88360,-71.4285714285714,4,2,1,80,0,1
89980,-71.4285714285714,4,2,1,5,0,1
90065,-71.4285714285714,4,2,1,80,0,1
91088,341.880341880342,4,2,1,80,1,1
91088,-71.4285714285714,4,2,1,80,0,1
91344,-71.4285714285714,4,2,1,5,0,1
91429,-71.4285714285714,4,2,1,80,0,1
92455,342.857142857143,4,2,1,80,1,1
92455,-71.4285714285714,4,2,1,80,0,1
92712,-71.4285714285714,4,2,1,5,0,1
92797,-71.4285714285714,4,2,1,80,0,1
93826,340.909090909091,4,2,1,80,1,1
93826,-71.4285714285714,4,2,1,80,0,1
95189,339.943342776204,4,2,1,80,1,1
95189,-71.4285714285714,4,2,1,80,0,1
96463,-71.4285714285714,4,2,1,5,0,1
96548,340.909090909091,4,2,1,80,1,1
96548,-71.4285714285714,4,2,1,80,0,1
96803,-71.4285714285714,4,2,1,5,0,1
96888,-71.4285714285714,4,2,1,80,0,1
98167,-71.4285714285714,4,2,1,5,0,1
98252,-71.4285714285714,4,2,1,80,0,1
99530,-71.4285714285714,4,2,1,5,0,1
99616,-71.4285714285714,4,2,1,80,0,1
100894,-71.4285714285714,4,2,1,5,0,1
100979,-71.4285714285714,4,2,1,80,0,1
102258,-71.4285714285714,4,2,1,5,0,1
102343,-71.4285714285714,4,2,1,80,0,1
103366,-66.6666666666667,4,2,1,80,0,1
103621,-66.6666666666667,4,2,1,5,0,1
103707,322.58064516129,4,2,1,80,1,1
103707,-66.6666666666667,4,2,1,80,0,1
104029,352.941176470588,4,2,1,80,1,1
104029,-100,4,2,1,80,0,1
104381,342.857142857143,4,2,1,80,1,1
104381,-66.6666666666667,4,2,1,80,0,1
104723,342.857142857143,4,2,1,80,1,1
104723,-66.6666666666667,4,2,1,80,0,1
104980,-66.6666666666667,4,2,1,5,0,1
105065,-66.6666666666667,4,2,1,80,0,1
106094,340.909090909091,4,2,1,60,1,0
106094,-90.9090909090909,4,2,1,60,0,0
112230,344.827586206897,4,2,1,60,1,0
112230,-100,4,2,1,60,0,0
112919,337.078651685393,4,2,1,60,1,0
112919,-100,4,2,1,60,0,0
113593,333.333333333333,4,2,1,60,1,0
113593,-100,4,2,1,60,0,0
114259,357.142857142857,4,2,1,60,1,0
114259,-100,4,2,1,60,0,0
114526,-90.9090909090909,4,2,1,5,0,0
114616,337.078651685393,4,2,1,60,1,0
114616,-90.9090909090909,4,2,1,60,0,0
115627,350.877192982456,4,2,1,60,1,0
115627,-90.9090909090909,4,2,1,60,0,0
115890,-90.9090909090909,4,2,1,5,0,0
115977,-90.9090909090909,4,2,1,60,0,0
116328,335.195530726257,4,2,1,60,1,0
116328,-100,4,2,1,60,0,0
116998,359.281437125748,4,2,1,60,1,0
116998,-100,4,2,1,60,0,0
117357,338.983050847458,4,2,1,60,1,0
117357,-100,4,2,1,60,0,0
117695,322.58064516129,4,2,1,60,1,0
117695,-100,4,2,1,60,0,0
118178,368.098159509202,4,2,1,60,1,0
118178,-100,4,2,1,60,0,0
118546,329.67032967033,4,2,1,60,1,0
118546,-100,4,2,1,60,0,0
119040,344.827586206897,4,2,1,60,1,0
119040,-100,4,2,1,60,0,0
119729,340.909090909091,4,2,1,60,1,0
119729,-100,4,2,1,60,0,0
120410,333.333333333333,4,2,1,60,1,0
120410,-100,4,2,1,60,0,0
120743,352.941176470588,4,2,1,60,1,0
120743,-100,4,2,1,60,0,0
121272,348.837209302326,4,2,1,60,1,0
121272,-100,4,2,1,60,0,0
121620,315.789473684211,4,2,1,60,1,0
121620,-100,4,2,1,60,0,0
121777,340.909090909091,4,2,1,60,1,0
121777,-100,4,2,1,60,0,0
122458,340.909090909091,4,2,1,60,1,0
122458,-100,4,2,1,60,0,0
123139,326.086956521739,4,2,1,60,1,0
123139,-100,4,2,1,60,0,0
123628,363.636363636364,4,2,1,60,1,0
123628,-100,4,2,1,60,0,0
124173,327.868852459016,4,2,1,60,1,0
124173,-100,4,2,1,60,0,0
124500,338.983050847458,4,2,1,60,1,0
124500,-100,4,2,1,60,0,0
125177,348.837209302326,4,2,1,60,1,0
125177,-100,4,2,1,60,0,0
125874,327.868852459016,4,2,1,60,1,0
125874,-100,4,2,1,60,0,0
126201,352.941176470588,4,2,1,60,1,0
126201,-100,4,2,1,60,0,0
126906,319.148936170213,4,2,1,60,1,0
126906,-100,4,2,1,60,0,0
127225,346.820809248555,4,2,1,60,1,0
127225,-100,4,2,1,60,0,0
127918,342.857142857143,4,2,1,60,1,0
127918,-100,4,2,1,60,0,0
128603,331.491712707182,4,2,1,60,1,0
128603,-100,4,2,1,60,0,0
129265,340.909090909091,4,2,1,60,1,0
129265,-100,4,2,1,60,0,0
129946,342.857142857143,4,2,1,60,1,0
129946,-100,4,2,1,60,0,0
130631,348.837209302326,4,2,1,60,1,0
130631,-100,4,2,1,60,0,0
131328,331.491712707182,4,2,1,60,1,0
131328,-100,4,2,1,60,0,0
131825,365.853658536585,4,2,1,60,1,0
131825,-100,4,2,1,60,0,0
132373,304.568527918782,4,2,1,60,1,0
132373,-100,4,2,1,60,0,0
132677,365.853658536585,4,2,1,60,1,0
132677,-100,4,2,1,60,0,0
133042,335.195530726257,4,2,1,60,1,0
133042,-100,4,2,1,60,0,0
133712,327.868852459016,4,2,1,60,1,0
133712,-100,4,2,1,60,0,0
134531,363.636363636364,4,2,1,60,1,0
134531,-100,4,2,1,60,0,0
134894,375,4,2,1,60,1,0
135081,324.324324324324,4,2,1,60,1,0
135081,-100,4,2,1,60,0,0
135403,357.142857142857,4,2,1,60,1,0
135403,-100,4,2,1,60,0,0
135760,338.983050847458,4,2,1,60,1,0
135760,-100,4,2,1,60,0,0
137115,335.195530726257,4,2,1,60,1,0
137115,-100,4,2,1,60,0,0
137282,-83.3333333333333,4,2,1,60,0,0
137785,350.877192982456,4,2,1,60,1,0
137785,-100,4,2,1,60,0,0
138486,348.837209302326,4,2,1,60,1,0
138486,-100,4,2,1,60,0,0
139183,337.078651685393,4,2,1,60,1,0
139183,-100,4,2,1,60,0,0
139857,307.692307692308,4,2,1,60,1,0
139857,-100,4,2,1,60,0,0
140164,355.029585798817,4,2,1,60,1,0
140164,-100,4,2,1,60,0,0
140519,317.460317460317,4,2,1,60,1,0
140519,-100,4,2,1,60,0,0
140836,370.37037037037,4,2,1,60,1,0
140836,-100,4,2,1,60,0,0
141206,320.855614973262,4,2,1,60,1,0
141206,-100,4,2,1,60,0,0
141526,372.670807453416,4,2,1,60,1,0
141526,-100,4,2,1,60,0,0
141898,340.909090909091,4,2,1,60,1,0
141898,-100,4,2,1,60,0,0
142579,322.58064516129,4,2,1,60,1,0
142579,-100,4,2,1,60,0,0
142901,361.44578313253,4,2,1,60,1,0
142901,-100,4,2,1,60,0,0
143262,329.67032967033,4,2,1,60,1,0
143262,-250,4,2,1,60,0,0
143509,-250,4,2,1,5,0,0
143591,337.078651685393,4,2,1,60,1,0
143591,-250,4,2,1,60,0,0
144265,340.909090909091,4,2,1,60,1,0
144265,-100,4,2,1,60,0,0
144605,-83.3333333333333,4,2,1,60,0,0
146310,363.636363636364,4,2,1,60,1,0
146310,-100,4,2,1,60,0,0
146673,340.909090909091,4,2,1,60,1,0
146673,-100,4,2,1,60,0,0
147013,340.909090909091,4,2,1,60,1,0
147013,-100,4,2,1,60,0,0
149058,-125,4,2,1,60,0,0
149228,-125,4,2,1,60,0,0
149740,338.983050847458,4,2,1,60,1,0
149740,-76.9230769230769,4,2,1,60,0,0
149994,-76.9230769230769,4,2,1,5,0,0
150078,-76.9230769230769,4,2,1,60,0,0
151773,340.909090909091,4,2,1,60,1,0
151773,-76.9230769230769,4,2,1,60,0,0
152454,342.857142857143,4,2,1,60,1,0
152454,-76.9230769230769,4,2,1,60,0,0
153825,338.983050847458,4,2,1,60,1,0
153825,-76.9230769230769,4,2,1,60,0,0
155180,-66.6666666666667,4,2,1,60,0,0
155858,340.909090909091,4,2,1,60,1,0
155858,-66.6666666666667,4,2,1,60,0,0
156454,-66.6666666666667,4,2,1,5,0,0
156539,359.281437125748,4,2,1,60,1,0
156539,-66.6666666666667,4,2,1,60,0,0
156897,324.324324324324,4,2,1,60,1,0
156897,-66.6666666666667,4,2,1,60,0,0
157221,348.837209302326,4,2,1,60,1,0
157221,-66.6666666666667,4,2,1,60,0,0
157831,-66.6666666666667,4,2,1,5,0,0
157918,335.195530726257,4,2,1,60,1,0
157918,-66.6666666666667,4,2,1,60,0,0
159258,344.827586206897,4,2,1,60,1,0
159258,-66.6666666666667,4,2,1,60,0,0
160637,342.857142857143,4,2,1,60,1,0
160637,-66.6666666666667,4,2,1,60,0,0
160894,-66.6666666666667,4,2,1,5,0,0
160979,-66.6666666666667,4,2,1,60,0,0
162008,340.909090909091,4,2,1,60,1,0
162008,-76.9230769230769,4,2,1,60,0,0
163371,337.078651685393,4,2,1,60,1,0
163371,-76.9230769230769,4,2,1,60,0,0
164719,341.880341880342,4,2,1,60,1,0
164719,-76.9230769230769,4,2,1,60,0,0
166086,340.909090909091,4,2,1,60,1,0
166086,-66.6666666666667,4,2,1,60,0,0
166767,346.820809248555,4,2,1,60,1,0
166767,-66.6666666666667,4,2,1,60,0,0
167373,-66.6666666666667,4,2,1,5,0,0
167460,340.909090909091,4,2,1,60,1,0
167460,-66.6666666666667,4,2,1,60,0,0
168823,337.078651685393,4,2,1,60,1,0
168823,-66.6666666666667,4,2,1,60,0,0
170171,357.142857142857,4,2,1,60,1,0
170171,-66.6666666666667,4,2,1,60,0,0
170528,337.078651685393,4,2,1,60,1,0
170528,-66.6666666666667,4,2,1,60,0,0
171202,322.58064516129,4,2,1,60,1,0
171202,-100,4,2,1,60,0,0
171309,-66.6666666666667,4,2,1,60,0,0
171524,342.857142857143,4,2,1,60,1,0
171524,-83.3333333333333,4,2,1,60,0,0
172895,352.941176470588,4,2,1,60,1,0
172895,-83.3333333333333,4,2,1,60,0,0
173600,346.820809248555,4,2,1,60,1,0
173600,-83.3333333333333,4,2,1,60,0,0
173860,-83.3333333333333,4,2,1,5,0,0
173946,-83.3333333333333,4,2,1,60,0,0
174206,-83.3333333333333,4,2,1,5,0,0
174293,338.983050847458,4,2,1,60,1,0
174293,-83.3333333333333,4,2,1,60,0,0
175648,344.827586206897,4,2,1,60,1,0
175648,-83.3333333333333,4,2,1,60,0,0
176337,333.333333333333,4,2,1,60,1,0
176337,-100,4,2,1,60,0,0
177003,340.909090909091,4,2,1,60,1,0
177003,-100,4,2,1,60,0,0
179730,-100,4,2,1,60,0,0
182116,-500,4,2,1,20,0,0
182201,-500,4,2,1,30,0,0
182286,-500,4,2,1,40,0,0
182372,-500,4,2,1,50,0,0
182457,-500,4,2,1,60,0,0
197635,315.789473684211,4,2,1,40,1,0
197635,-100,4,2,1,40,0,0
197792,-133.333333333333,4,2,1,60,0,0
197950,352.941176470588,4,2,1,60,1,0
197950,-100,4,2,1,60,0,0
198479,333.333333333333,4,2,1,60,1,0
198479,-100,4,2,1,60,0,0
198812,340.909090909091,4,2,1,60,1,0
198812,-133.333333333333,4,2,1,60,0,0
200175,338.983050847458,4,2,1,60,1,0
200175,-133.333333333333,4,2,1,60,0,0
201530,342.857142857143,4,2,1,60,1,0
201530,-133.333333333333,4,2,1,60,0,0
202901,338.983050847458,4,2,1,60,1,0
202901,-133.333333333333,4,2,1,60,0,0
204256,342.857142857143,4,2,1,60,1,0
204256,-100,4,2,1,60,0,0
204513,-100,4,2,1,5,0,0
204598,-90.9090909090909,4,2,1,60,0,0
204856,-90.9090909090909,4,2,1,5,0,0
204941,-83.3333333333333,4,2,1,60,0,0
205198,-83.3333333333333,4,2,1,5,0,0
205284,-76.9230769230769,4,2,1,60,0,0
205541,-76.9230769230769,4,2,1,5,0,0
205627,344.827586206897,4,2,1,60,1,0
205627,-71.4285714285714,4,2,1,60,0,0
205885,-71.4285714285714,4,2,1,5,0,0
205971,-66.6666666666667,4,2,1,60,0,0
206230,-66.6666666666667,4,2,1,5,0,0
206316,-62.5,4,2,1,60,0,0
207006,-58.8235294117647,4,2,1,60,0,0
208385,337.078651685393,4,2,1,60,1,0
208385,-100,4,2,1,60,0,0
208890,-166.666666666667,4,2,1,60,0,0
209733,338.983050847458,4,2,1,80,1,1
209733,-62.5,4,2,1,80,0,1
211004,-62.5,4,2,1,5,0,1
211088,342.857142857143,4,2,1,80,1,1
211088,-62.5,4,2,1,80,0,1
212459,340.909090909091,4,2,1,80,1,1
212459,-62.5,4,2,1,80,0,1
213737,-62.5,4,2,1,5,0,1
213822,-62.5,4,2,1,80,0,1
216464,-62.5,4,2,1,5,0,1
216549,-62.5,4,2,1,80,0,1
217913,344.827586206897,4,2,1,80,1,1
217913,-62.5,4,2,1,80,0,1
219292,339.943342776204,4,2,1,80,1,1
219292,-62.5,4,2,1,80,0,1
220651,338.983050847458,4,2,1,80,1,1
220651,-62.5,4,2,1,80,0,1
221922,-62.5,4,2,1,5,0,1
222006,-62.5,4,2,1,80,0,1
223362,340.909090909091,4,2,1,80,1,1
223362,-62.5,4,2,1,80,0,1
223617,-62.5,4,2,1,5,0,1
223702,-62.5,4,2,1,80,0,1
227367,-62.5,4,2,1,5,0,1
227452,-62.5,4,2,1,80,0,1
228816,342.857142857143,4,2,1,80,1,1
228816,-100,4,2,1,80,0,1
230187,341.880341880342,4,2,1,80,1,1
230187,-62.5,4,2,1,80,0,1
231383,-62.5,4,2,1,80,0,1
231554,340.909090909091,4,2,1,80,1,1
231554,-62.5,4,2,1,80,0,1
231809,-62.5,4,2,1,5,0,1
231894,-62.5,4,2,1,80,0,1
232917,342.857142857143,4,2,1,80,1,1
232917,-62.5,4,2,1,80,0,1
234288,340.909090909091,4,2,1,80,1,1
234288,-62.5,4,2,1,80,0,1
234969,338.983050847458,4,2,1,80,1,1
234969,-100,4,2,1,80,0,1
235646,340.909090909091,4,2,1,80,1,1
235646,-62.5,4,2,1,80,0,1
237265,-62.5,4,2,1,5,0,1
237350,-62.5,4,2,1,80,0,1
238373,338.983050847458,4,2,1,80,1,1
238373,-62.5,4,2,1,80,0,1
239728,339.943342776204,4,2,1,80,1,1
239728,-62.5,4,2,1,80,0,1
239982,-62.5,4,2,1,5,0,1
240067,-62.5,4,2,1,80,0,1
241087,344.827586206897,4,2,1,80,1,1
241087,-62.5,4,2,1,80,0,1
242466,342.857142857143,4,2,1,80,1,1
242466,-62.5,4,2,1,80,0,1
242723,-62.5,4,2,1,5,0,1
242808,-62.5,4,2,1,80,0,1
243837,338.983050847458,4,2,1,80,1,1
243837,-62.5,4,2,1,80,0,1
245447,-62.5,4,2,1,5,0,1
245531,-62.5,4,2,1,80,0,1
246548,340.909090909091,4,2,1,80,1,1
246548,-62.5,4,2,1,80,0,1
246803,-62.5,4,2,1,5,0,1
246888,-62.5,4,2,1,80,0,1
247911,342.857142857143,4,2,1,80,1,1
247911,-62.5,4,2,1,80,0,1
248168,-62.5,4,2,1,5,0,1
248253,-62.5,4,2,1,80,0,1
249539,-62.5,4,2,1,5,0,1
249625,-62.5,4,2,1,80,0,1
249968,338.983050847458,4,2,1,80,1,1
249968,-100,4,2,1,80,0,1
250645,340.909090909091,4,2,1,80,1,1
250645,-62.5,4,2,1,80,0,1
252008,342.857142857143,4,2,1,80,1,1
252008,-62.5,4,2,1,80,0,1
252350,335.195530726257,4,2,1,80,1,1
252350,-62.5,4,2,1,80,0,1
253355,352.941176470588,4,2,1,60,1,0
253355,-100,4,2,1,60,0,0
253707,342.857142857143,4,2,1,60,1,0
254735,340.909090909091,4,2,1,60,1,0
254735,-100,4,2,1,60,0,0
256098,331.491712707182,4,2,1,60,1,0
256098,-100,4,2,1,60,0,0
256429,342.857142857143,4,2,1,60,1,0
257460,338.983050847458,4,2,1,60,1,0
257460,-100,4,2,1,60,0,0
258815,342.857142857143,4,2,1,60,1,0
258815,-100,4,2,1,60,0,0
261215,335.195530726257,4,2,1,60,1,0
261215,-100,4,2,1,60,0,0
261550,340.909090909091,4,2,1,60,1,0
261550,-83.3333333333333,4,2,1,60,0,0
261805,-83.3333333333333,4,2,1,5,0,0
261890,-83.3333333333333,4,2,1,60,0,0
262828,-83.3333333333333,4,2,1,5,0,0
262913,-83.3333333333333,4,2,1,60,0,0
264106,-1000,4,2,1,60,0,0
269561,-1000,4,2,1,5,0,0

[Colours]
Combo1 : 126,179,231
Combo2 : 226,186,237
Combo3 : 134,129,224
Combo4 : 79,120,217

[HitObjects]
64,46,1159,6,0,L|69:79,1,26,2|0,0:0|0:0,0:0:0:0:
157,114,1507,2,0,L|152:147,1,26,2|0,0:0|0:0,0:0:0:0:
89,228,1856,2,0,L|84:200,2,26,2|0|0,0:0|0:0|0:0,0:0:0:0:
160,287,2379,1,2,0:0:0:0:
160,287,3956,6,0,L|193:282,1,26,2|0,0:0|0:0,0:0:0:0:
228,194,4300,2,0,L|261:199,1,26,2|0,0:0|0:0,0:0:0:0:
342,262,4645,2,0,L|314:266,2,26,2|0|0,0:0|0:0|0:0,0:0:0:0:
401,191,5162,1,2,0:0:0:0:
256,192,6548,12,0,7582,0:0:0:0:
374,44,7920,6,0,L|385:114,1,65,4|0,1:0|0:0,0:0:0:0:
468,164,8262,2,0,L|457:234,1,65,2|0,0:0|0:0,0:0:0:0:
431,336,8605,1,0,0:0:0:0:
434,323,8777,1,0,0:0:0:0:
354,257,8948,1,2,0:0:0:0:
351,270,9120,1,0,0:0:0:0:
235,364,9291,6,0,P|255:339|255:307,1,65
149,269,9631,2,0,P|128:293|128:325,1,65,2|0,0:0|0:0,0:0:0:0:
235,215,9972,1,0,0:0:0:0:
200,132,10143,1,0,0:0:0:0:
266,68,10313,1,2,0:0:0:0:
269,59,10654,6,0,L|202:44,1,65
112,11,10995,2,0,L|48:25,1,65,2|0,0:0|0:0,0:0:0:0:
0,144,11336,1,0,0:0:0:0:
10,135,11506,1,0,0:0:0:0:
124,140,11677,1,2,0:0:0:0:
117,128,11847,1,0,0:0:0:0:
64,229,12018,6,0,P|57:260|71:289,1,65
192,284,12359,2,0,P|199:252|185:223,1,65,2|0,0:0|0:0,0:0:0:0:
202,384,12700,1,0,0:0:0:0:
281,335,12870,1,0,0:0:0:0:
372,380,13041,1,2,0:0:0:0:
379,373,13381,6,0,L|365:300,1,65
293,246,13722,2,0,L|307:173,1,65,2|0,0:0|0:0,0:0:0:0:
390,98,14063,1,0,0:0:0:0:
397,111,14235,1,0,0:0:0:0:
294,74,14408,1,2,0:0:0:0:
301,61,14581,1,0,0:0:0:0:
408,6,14754,6,0,P|439:1|469:12,1,65
458,117,15090,2,0,P|426:122|397:111,1,65,2|0,0:0|0:0,0:0:0:0:
301,61,15427,1,0,0:0:0:0:
213,93,15597,1,0,0:0:0:0:
145,28,15767,1,2,0:0:0:0:
138,21,16108,6,0,L|122:93,1,65
39,136,16448,2,0,L|55:208,1,65,2|0,0:0|0:0,0:0:0:0:
138,278,16789,1,0,0:0:0:0:
132,262,16961,1,0,0:0:0:0:
29,299,17131,1,2,0:0:0:0:
35,315,17302,1,0,0:0:0:0:
182,367,17472,6,0,P|212:377|244:375,1,65
307,251,17810,2,0,P|339:249|369:259,1,65,2|0,0:0|0:0,0:0:0:0:
406,384,18149,1,2,0:0:0:0:
447,300,18312,1,2,0:0:0:0:
488,216,18476,6,0,L|482:180,1,29.25,4|0,0:2|0:0,0:0:0:0:
483,187,18818,6,0,B|408:211|347:149|393:123|331:50|244:98|244:98|291:80|322:104,1,364,6|0,1:0|0:0,0:0:0:0:
318,101,21545,1,2,1:2:0:0:
186,23,21716,1,2,1:2:0:0:
186,23,23433,6,0,L|195:96,1,73.1250000000002,2|0,0:0|0:0,0:0:0:0:
197,106,23776,1,2,0:0:0:0:
120,215,23947,6,0,L|124:178,1,29.25,2|0,0:0|0:0,0:0:0:0:
123,185,24276,6,0,B|184:234|253:219|231:190|296:158|352:197|325:227|402:259|470:227,1,366.394669909172,2|0,1:0|0:0,0:0:0:0:
470,227,26990,1,2,1:2:0:0:
435,382,27161,1,2,1:2:0:0:
96,305,29732,6,0,B|120:335|69:400|-39:322|53:235|53:235|96:212|132:227|128:238|165:253|194:226,1,366.325523527691,6|0,1:0|0:0,0:0:0:0:
194,226,32467,1,2,1:2:0:0:
24,145,32638,1,2,1:2:0:0:
24,145,34349,6,0,P|56:128|92:125,1,73.1250000000002,2|0,0:0|0:0,0:0:0:0:
102,132,34690,1,2,0:0:0:0:
186,258,34860,6,0,P|171:257|154:249,1,29.25,2|0,0:0|0:0,0:0:0:0:
156,243,35178,6,0,B|222:272|286:231|253:202|318:148|369:156|401:194|399:231|377:257|377:257|375:231|357:213,1,364.674209003736,2|0,1:0|0:0,0:0:0:0:
357,213,37920,1,2,1:2:0:0:
512,155,38091,1,2,1:2:0:0:
512,155,40133,5,2,0:0:0:0:
509,158,40218,1,2,0:0:0:0:
506,161,40303,2,0,P|496:138|498:122,1,34.125,4|0,2:0|0:0,0:0:0:0:
500,115,40643,6,0,P|479:123|457:125,1,45.5,6|2,1:0|0:0,0:0:0:0:
386,198,40983,2,0,P|367:185|345:178,1,45.5,2|2,1:0|0:0,0:0:0:0:
307,96,41324,2,0,P|285:104|263:106,1,45.5,2|2,1:0|0:0,0:0:0:0:
88,97,41665,1,2,1:0:0:0:
175,68,41836,1,2,0:0:0:0:
208,179,42006,6,0,P|213:212|216:246,1,68.2499999999999,2|0,1:0|0:0,0:0:0:0:
224,251,42347,2,0,P|222:273|221:296,1,45.5,2|0,1:0|0:0,0:0:0:0:
207,384,42688,1,2,1:0:0:0:
128,311,42858,1,2,0:0:0:0:
24,383,43029,6,0,P|39:381|53:378,1,29.25,6|0,1:2|0:0,0:0:0:0:
63,377,43370,1,8,1:1:0:0:
18,200,43536,1,8,0:1:0:0:
79,126,43703,2,0,P|96:140|117:149,1,45.5,0|0,1:0|0:0,0:0:0:0:
179,227,44053,2,0,P|196:212|217:203,1,45.5,0|0,1:0|0:0,0:0:0:0:
321,174,44404,1,0,1:0:0:0:
303,320,44575,2,0,P|281:314|261:302,1,45.4999986114502,10|0,0:1|1:0,0:0:0:0:
257,292,45085,5,0,1:0:0:0:
403,369,45255,2,0,P|409:347|409:324,1,45.5,2|0,0:0|1:0,0:0:0:0:
321,174,45595,1,10,0:1:0:0:
444,234,45765,5,2,0:0:0:0:
446,232,45850,1,2,0:0:0:0:
448,230,45935,1,2,0:0:0:0:
450,228,46020,1,2,0:0:0:0:
452,226,46105,2,0,P|446:204|446:181,1,45.5,4|2,1:2|0:0,0:0:0:0:
396,65,46445,2,0,P|395:87|389:109,1,45.5,2|2,1:0|0:0,0:0:0:0:
321,174,46786,1,2,1:0:0:0:
210,56,46957,5,2,0:0:0:0:
292,75,47127,1,2,1:0:0:0:
197,59,47298,1,2,0:0:0:0:
165,154,47468,5,2,1:0:0:0:
86,181,47639,1,2,0:0:0:0:
178,157,47809,1,2,1:0:0:0:
80,190,47980,2,0,P|69:169|66:147,1,45.5,2|0,0:0|1:0,0:0:0:0:
211,256,48320,1,2,0:0:0:0:
112,288,48491,6,0,L|83:297,1,29.2499999999999,6|0,1:2|0:0,0:0:0:0:
74,292,48832,1,8,1:1:0:0:
264,374,49002,1,8,0:1:0:0:
323,293,49173,2,0,L|316:240,1,45.5,0|0,1:0|0:0,0:0:0:0:
262,154,49514,2,0,L|269:101,1,45.5,0|0,1:0|0:0,0:0:0:0:
284,16,49855,1,0,1:0:0:0:
369,165,50025,2,0,L|414:159,1,45.4999986114502,10|0,0:1|1:0,0:0:0:0:
422,153,50539,5,0,1:0:0:0:
465,264,50712,2,0,L|419:258,1,45.4999986114502,2|0,0:0|1:0,0:0:0:0:
191,226,51053,1,10,0:1:0:0:
232,330,51222,2,0,L|278:324,1,45.5,0|2,1:0|0:0,0:0:0:0:
284,331,51477,1,2,0:0:0:0:
291,338,51561,6,0,P|299:316|302:294,1,45.5,4|2,1:0|0:0,0:0:0:0:
286,194,51901,2,0,P|277:172|274:150,1,45.5,2|0,1:0|0:0,0:0:0:0:
412,196,52242,2,0,P|398:213|380:227,1,45.5,2|0,1:0|0:0,0:0:0:0:
363,113,52583,1,2,1:0:0:0:
454,82,52754,1,2,0:0:0:0:
405,0,52924,6,0,L|361:15,1,45.5,2|2,1:0|0:0,0:0:0:0:
187,67,53265,1,2,1:0:0:0:
280,67,53436,1,2,0:0:0:0:
180,74,53606,2,0,P|169:53|168:31,1,45.5,2|0,1:0|0:0,0:0:0:0:
293,167,53947,6,0,L|286:199,1,29.25,6|0,1:2|0:0,0:0:0:0:
293,202,54288,1,8,1:1:0:0:
102,139,54458,1,10,0:1:0:0:
30,205,54629,2,0,P|29:227|37:248,1,45.5,0|0,1:0|0:0,0:0:0:0:
135,266,54970,2,0,P|142:287|138:317,1,45.5,0|0,1:0|0:0,0:0:0:0:
59,370,55311,1,2,1:0:0:0:
235,277,55481,2,0,L|281:294,1,45.4999986114502,10|0,0:1|1:0,0:0:0:0:
284,299,55995,5,0,1:0:0:0:
376,189,56168,2,0,L|330:206,1,45.4999986114502,0|0,0:0|1:0,0:0:0:0:
470,358,56509,1,8,0:1:0:0:
448,261,56678,5,2,1:0:0:0:
450,256,56763,1,2,0:0:0:0:
452,251,56848,1,2,0:0:0:0:
454,246,56933,1,2,0:0:0:0:
456,241,57017,1,4,1:2:0:0:
500,153,57187,2,0,L|485:109,1,45.5,2|2,0:0|1:0,0:0:0:0:
441,20,57528,1,0,0:0:0:0:
382,95,57698,1,2,1:0:0:0:
201,84,57869,5,2,0:0:0:0:
249,11,58039,1,2,1:0:0:0:
339,13,58210,1,2,0:0:0:0:
208,91,58380,5,2,1:0:0:0:
118,93,58551,1,2,0:0:0:0:
70,20,58721,1,2,1:0:0:0:
111,100,58892,2,0,P|116:145|119:190,1,90.9999999999999,2|0,0:0|0:0,0:0:0:0:
291,296,59403,2,0,P|292:273|294:250,1,45.5,8|10,0:1|0:0,0:0:0:0:
301,243,59659,1,8,0:0:0:0:
308,236,59744,5,2,1:0:0:0:
383,298,59907,1,2,0:0:0:0:
227,373,60071,2,0,P|205:366|182:363,1,45.5,10|0,0:1|0:0,0:0:0:0:
6,344,60399,1,2,1:0:0:0:
92,384,60573,1,0,1:0:0:0:
173,275,60747,2,0,P|181:253|187:231,1,45.5,10|10,0:1|0:0,0:0:0:0:
179,224,61009,1,8,0:0:0:0:
172,217,61096,5,2,1:0:0:0:
353,169,61265,1,8,0:3:0:0:
258,147,61434,2,0,P|250:125|244:103,1,45.5,4|8,0:3|0:3,0:0:0:0:
251,96,61689,1,4,0:3:0:0:
258,89,61773,1,4,0:3:0:0:
140,128,61943,1,4,0:3:0:0:
65,9,62112,1,2,1:0:0:0:
376,37,62451,5,4,1:0:0:0:
350,199,62777,2,0,L|400:183,1,45.5,8|2,0:0|0:0,0:0:0:0:
360,154,63134,2,0,L|350:199,1,45.5,10|0,0:0|0:0,0:0:0:0:
393,184,63476,2,0,L|360:154,1,45.5,10|0,0:0|0:0,0:0:0:0:
321,300,63819,5,0,1:0:0:0:
367,146,64169,2,0,L|402:177,1,45.2414772727272,8|2,0:0|0:0,0:0:0:0:
219,182,64509,1,2,1:2:0:0:
219,182,64680,1,2,1:2:0:0:
247,85,64850,2,0,L|292:73,1,45.2414772727272,10|0,0:0|0:0,0:0:0:0:
191,284,65192,5,8,1:2:0:0:
66,192,65538,2,0,L|116:208,1,45.2429378531073,8|0,0:0|0:0,0:0:0:0:
76,237,65876,2,0,L|66:192,1,45.2429378531073,10|0,0:0|0:0,0:0:0:0:
109,207,66215,2,0,L|76:237,1,45.2429378531073,10|0,0:0|0:0,0:0:0:0:
33,78,66555,5,10,1:2:0:0:
84,247,66914,2,0,L|117:217,1,45.4999986114502,8|0,0:0|0:0,0:0:0:0:
0,343,67246,1,2,1:2:0:0:
0,343,67412,1,2,1:2:0:0:
160,384,67578,2,0,L|150:340,1,45.4999986114502,10|0,0:0|0:0,0:0:0:0:
309,230,67910,6,0,L|208:258,1,90.9999999999999,0|8,1:0|0:0,0:0:0:0:
317,221,68422,1,2,0:0:0:0:
389,300,68593,2,0,L|362:340,1,45.5,10|2,0:0|0:0,0:0:0:0:
493,326,68935,2,0,L|487:371,1,45.5,10|2,0:0|0:0,0:0:0:0:
422,204,69277,1,10,1:2:0:0:
413,106,69447,1,2,0:0:0:0:
469,30,69617,2,0,P|490:22|512:17,1,45.5,10|0,0:0|0:0,0:0:0:0:
325,61,69958,5,2,1:2:0:0:
325,61,70129,1,2,1:2:0:0:
229,44,70299,2,0,P|224:23|221:0,1,45.5,10|2,0:0|0:0,0:0:0:0:
331,153,70640,2,0,P|328:198|322:243,1,90.9999999999999,2|10,1:2|0:0,0:0:0:0:
322,243,71152,1,0,0:0:0:0:
230,300,71322,5,10,0:0:0:0:
180,221,71492,1,2,0:0:0:0:
58,281,71663,1,10,0:0:0:0:
108,360,71833,1,2,0:0:0:0:
86,197,72004,6,0,P|64:190|42:185,1,45.5,10|0,0:0|0:0,0:0:0:0:
139,126,72345,2,0,P|160:119|182:114,1,45.5,10|0,0:0|0:0,0:0:0:0:
41,196,72686,2,0,P|63:201|84:207,1,45.5,8|0,0:0|0:0,0:0:0:0:
179,104,73021,6,0,P|157:109|136:117,1,44.85,4|0,0:2|0:0,0:0:0:0:
173,94,73356,6,0,B|232:146|232:146|307:124,1,156,4|0,1:0|1:0,0:0:0:0:
432,80,73867,1,2,0:0:0:0:
512,228,74037,2,0,L|437:206,1,77.9999999999999,2|2,1:0|0:0,0:0:0:0:
307,136,74378,1,2,1:0:0:0:
322,264,74549,1,2,0:0:0:0:
512,383,74719,6,0,P|480:317|406:317,1,156,6|2,1:0|1:0,0:0:0:0:
241,384,75231,2,0,P|234:345|228:306,1,77.9999999999999,10|0,0:1|0:0,0:0:0:0:
208,189,75571,1,8,0:3:0:0:
415,229,75742,6,0,P|443:224|471:216,1,58.4999999999999,4|0,0:3|0:0,0:0:0:0:
480,222,76083,6,0,P|491:144|496:66,2,156,6|0|0,1:0|1:0|1:0,0:0:0:0:
322,264,76940,2,0,P|314:226|309:187,1,78,2|2,0:0|1:0,0:0:0:0:
306,58,77283,1,2,0:0:0:0:
203,119,77454,2,0,B|168:139|124:121|138:96|95:84|56:96,2,156,4|0|0,1:0|1:0|1:0,0:0:0:0:
31,7,78311,1,8,0:1:0:0:
79,187,78483,5,10,0:0:0:0:
74,209,78568,1,8,0:0:0:0:
69,231,78654,1,10,0:0:0:0:
64,253,78740,1,8,0:0:0:0:
58,278,78825,2,0,P|112:248|172:263,1,126.75,4|0,1:0|0:0,0:0:0:0:
227,319,79162,2,0,P|260:344|304:333,1,84.5,8|0,0:1|0:0,0:0:0:0:
296,195,79499,1,0,1:0:0:0:
291,202,79583,1,8,0:0:0:0:
289,210,79667,1,2,1:0:0:0:
411,267,79836,2,0,L|421:177,1,84.5,8|2,0:1|0:0,0:0:0:0:
512,18,80173,6,0,P|450:31|387:40,1,126.75,0|0,1:0|0:0,0:0:0:0:
311,59,80517,2,0,P|271:47|230:39,1,84.5,8|0,0:1|0:0,0:0:0:0:
162,162,80862,1,0,1:0:0:0:
168,156,80951,1,8,0:0:0:0:
172,148,81041,1,0,1:0:0:0:
118,65,81221,2,0,P|76:75|34:81,1,65,8|2,0:1|1:0,0:0:0:0:
56,293,81559,6,0,P|117:279|180:269,1,126.75,14|0,0:1|0:0,0:0:0:0:
261,263,81899,5,8,0:1:0:0:
261,263,82070,1,8,0:1:0:0:
347,316,82240,5,8,0:1:0:0:
347,316,82411,1,8,0:1:0:0:
459,251,82581,5,8,0:1:0:0:
459,251,82752,1,8,0:1:0:0:
362,135,82922,5,8,0:1:0:0:
232,170,83093,1,8,0:1:0:0:
294,21,83263,1,10,0:1:0:0:
480,93,83434,2,0,L|470:148,1,45.4999986114502,10|0,0:1|0:0,0:0:0:0:
472,138,84270,6,0,L|283:105,1,182,4|0,1:0|1:0,0:0:0:0:
171,78,84781,1,2,0:0:0:0:
220,231,84951,2,0,L|325:219,1,91,2|2,1:0|0:0,0:0:0:0:
81,152,85292,2,0,P|74:219|68:287,1,136.5,2|0,1:0|0:0,0:0:0:0:
59,363,85633,2,0,B|98:387|98:387|161:370,1,91,0|0,1:0|0:0,0:0:0:0:
286,321,85974,2,0,B|329:309|329:309|368:333,1,91,0|0,1:0|0:0,0:0:0:0:
488,384,86315,1,2,1:0:0:0:
404,234,86485,1,2,0:0:0:0:
504,189,86656,2,0,P|509:147|512:98,1,91,2|8,1:0|0:1,0:0:0:0:
512,8,86912,5,8,0:1:0:0:
505,15,86997,2,0,P|414:23|323:26,1,182,0|0,1:0|1:0,0:0:0:0:
188,26,87508,1,2,0:0:0:0:
340,142,87679,2,0,P|295:134|249:130,1,91,2|2,1:0|0:0,0:0:0:0:
42,305,88020,2,0,P|105:322|152:277,1,136.5,2|0,1:0|0:0,0:0:0:0:
124,193,88360,6,0,P|118:147|115:102,1,91,0|0,1:0|0:0,0:0:0:0:
255,270,88701,2,0,P|251:315|246:360,1,91,0|0,1:0|0:0,0:0:0:0:
249,130,89042,1,2,1:0:0:0:
117,203,89213,1,2,0:0:0:0:
26,10,89383,2,0,P|71:16|116:19,1,91,2|8,1:0|0:1,0:0:0:0:
194,5,89639,5,8,0:1:0:0:
202,14,89724,2,0,P|208:81|211:150,1,136.5,0|0,1:0|0:0,0:0:0:0:
211,225,90065,2,0,P|252:242|297:240,1,91,0|0,1:0|0:0,0:0:0:0:
399,188,90406,1,2,1:0:0:0:
399,188,90576,1,2,0:0:0:0:
328,74,90747,1,2,1:0:0:0:
459,12,90917,1,2,0:0:0:0:
512,134,91088,6,0,L|496:296,1,136.5,6|0,1:0|0:0,0:0:0:0:
478,346,91429,2,0,B|434:354|434:354|390:328,1,91,0|0,1:0|0:0,0:0:0:0:
289,268,91771,1,2,1:0:0:0:
389,223,91942,1,2,0:0:0:0:
295,373,92113,1,2,1:0:0:0:
190,284,92284,5,8,0:1:0:0:
184,276,92370,1,8,0:1:0:0:
179,268,92455,2,0,P|187:200|196:132,1,136.5,0|0,1:0|0:0,0:0:0:0:
210,55,92797,2,0,P|167:39|124:50,1,91,0|0,1:0|0:0,0:0:0:0:
60,143,93140,1,2,1:0:0:0:
60,143,93312,1,2,0:0:0:0:
156,197,93483,1,2,1:0:0:0:
40,288,93655,1,2,0:0:0:0:
207,322,93826,6,0,P|241:292|266:254,1,91,14|0,0:1|0:0,0:0:0:0:
318,137,94166,1,0,1:0:0:0:
375,331,94337,2,0,P|378:285|369:241,1,91,12|0,0:2|0:0,0:0:0:0:
309,129,94678,1,2,1:0:0:0:
449,146,94848,5,10,0:1:0:0:
462,142,94933,1,8,0:1:0:0:
475,138,95019,1,8,0:1:0:0:
488,134,95104,1,8,0:1:0:0:
501,131,95189,6,0,P|443:151|446:46,1,182,4|0,1:0|1:0,0:0:0:0:
507,3,95698,1,2,0:0:0:0:
324,40,95868,2,0,P|278:35|233:28,1,91,2|2,1:0|0:0,0:0:0:0:
142,135,96208,2,0,P|209:141|277:150,1,136.5,2|0,1:0|0:0,0:0:0:0:
357,165,96548,2,0,B|378:231|378:231|335:301,1,136.5,0|0,1:0|0:0,0:0:0:0:
335,297,96888,1,0,1:0:0:0:
235,346,97059,2,0,P|234:300|233:255,1,91,2|0,0:0|1:0,0:0:0:0:
145,376,97400,1,2,0:0:0:0:
0,284,97570,2,0,P|44:293|89:299,1,91,2|8,1:0|0:1,0:0:0:0:
143,224,97826,5,8,0:1:0:0:
150,218,97911,2,0,P|156:150|158:81,1,136.5,0|0,1:0|0:0,0:0:0:0:
160,8,98252,2,0,B|118:-10|118:-10|72:5,1,91,0|0,1:0|0:0,0:0:0:0:
0,150,98593,1,2,1:2:0:0:
150,218,98763,2,0,P|194:210|239:204,1,90.9999972229005,2|0,0:2|1:0,0:0:0:0:
311,52,99104,1,2,0:2:0:0:
413,134,99275,6,0,B|373:143|328:150|328:150|355:152|373:168,1,136.499995834351,2|0,1:0|0:0,0:0:0:0:
402,239,99616,2,0,B|447:249|447:249|492:215,1,91,0|0,1:0|0:0,0:0:0:0:
374,333,99957,1,2,1:0:0:0:
320,231,100127,1,2,0:0:0:0:
217,262,100298,1,2,1:0:0:0:
72,216,100468,5,8,0:1:0:0:
63,205,100553,1,8,0:1:0:0:
64,191,100638,2,0,P|124:157|177:196,1,136.5,0|0,1:0|0:0,0:0:0:0:
217,262,100979,2,0,L|203:381,1,91,0|0,1:0|0:0,0:0:0:0:
361,384,101320,1,2,1:0:0:0:
361,384,101491,1,2,0:0:0:0:
451,303,101661,1,2,1:0:0:0:
354,200,101832,1,2,0:0:0:0:
491,58,102002,6,0,P|500:122|442:153,1,136.5,6|0,1:0|0:0,0:0:0:0:
374,117,102343,2,0,P|330:105|284:102,1,91,0|0,1:0|0:0,0:0:0:0:
118,145,102684,1,2,1:0:0:0:
49,80,102854,1,2,0:0:0:0:
127,5,103025,1,2,1:0:0:0:
200,127,103195,5,8,0:1:0:0:
206,138,103280,1,8,0:1:0:0:
214,149,103366,2,0,L|204:311,1,146.25,4|0,1:0|0:0,0:0:0:0:
195,373,103707,2,0,P|146:382|101:366,1,97.4999999999999,8|0,0:1|0:0,0:0:0:0:
94,359,103948,1,8,0:0:0:0:
87,352,104029,1,0,1:0:0:0:
0,283,104205,1,0,1:0:0:0:
97,159,104381,2,0,P|101:109|103:44,1,97.5,8|0,0:1|0:0,0:0:0:0:
324,16,104723,6,0,B|318:82|318:82|320:87|320:87|315:170,1,146.25,4|0,1:0|0:0,0:0:0:0:
315,239,105065,2,0,B|358:262|358:262|428:234,1,97.5,8|0,0:1|0:0,0:0:0:0:
430,133,105408,1,0,1:0:0:0:
234,198,105580,1,10,0:2:0:0:
227,205,105665,1,8,0:0:0:0:
220,212,105751,2,0,L|227:283,1,48.75,8|8,0:1|0:1,0:0:0:0:
320,357,105923,5,8,0:1:0:0:
313,364,106008,1,8,0:1:0:0:
306,371,106094,2,0,P|238:366|148:356,1,143,4|2,1:0|1:0,0:0:0:0:
47,342,106605,1,0,0:0:0:0:
116,275,106775,2,0,B|133:244|133:244|125:208,1,71.5,2|0,1:0|0:0,0:0:0:0:
9,194,107116,2,0,B|-8:225|-8:225|0:260,1,71.5,2|0,1:0|0:0,0:0:0:0:
80,126,107457,5,2,1:0:0:0:
37,24,107628,1,0,0:0:0:0:
87,119,107798,1,2,1:0:0:0:
30,17,107969,1,0,0:0:0:0:
162,71,108139,1,2,1:0:0:0:
234,23,108309,1,2,0:0:0:0:
300,81,108480,1,2,1:0:0:0:
394,18,108650,5,8,0:1:0:0:
394,18,108736,1,8,0:1:0:0:
394,18,108821,2,0,P|392:83|387:168,1,143,0|2,1:0|1:0,0:0:0:0:
330,247,109332,1,0,0:0:0:0:
485,260,109503,2,0,B|466:254|454:243|454:243|442:254|421:258,1,71.5,2|0,1:0|0:0,0:0:0:0:
419,348,109844,2,0,B|438:354|450:365|450:365|462:354|483:350,1,71.5,2|0,1:0|0:0,0:0:0:0:
319,339,110184,5,2,1:0:0:0:
330,247,110355,1,0,0:0:0:0:
310,351,110525,1,2,1:0:0:0:
324,232,110696,1,0,0:0:0:0:
229,280,110866,1,2,1:0:0:0:
119,245,111037,1,2,0:0:0:0:
89,338,111207,1,2,0:0:0:0:
193,352,111378,5,8,0:1:0:0:
193,352,111463,1,8,0:1:0:0:
193,352,111548,2,0,L|203:183,1,143,0|2,1:0|1:0,0:0:0:0:
141,134,112059,1,0,0:0:0:0:
187,39,112230,2,0,L|273:28,1,65,2|0,1:0|0:0,0:0:0:0:
315,110,112574,2,0,L|244:119,1,65,2|0,1:0|0:0,0:0:0:0:
89,52,112919,5,2,1:0:0:0:
4,114,113087,1,0,0:0:0:0:
97,44,113256,1,2,1:0:0:0:
0,125,113424,1,0,0:0:0:0:
70,201,113593,1,2,1:0:0:0:
11,279,113759,1,2,0:0:0:0:
83,353,113926,2,0,L|163:344,1,65,10|0,0:1|1:0,0:0:0:0:
161,352,114176,1,8,0:0:0:0:
168,358,114259,6,0,P|183:308|242:294,1,97.5,4|0,1:0|0:0,0:0:0:0:
237,297,114616,2,0,P|274:302|311:284,1,71.5,10|0,0:1|0:0,0:0:0:0:
368,204,114953,1,2,1:0:0:0:
368,204,115121,1,0,1:0:0:0:
255,137,115290,2,0,L|263:227,1,71.5,10|0,0:1|0:0,0:0:0:0:
469,233,115627,6,0,L|478:126,1,107.25,2|0,1:0|0:0,0:0:0:0:
485,119,115977,2,0,B|453:101|453:101|417:108,1,71.5,10|0,0:1|0:0,0:0:0:0:
255,137,116328,1,2,1:0:0:0:
324,60,116495,1,10,0:1:0:0:
325,49,116579,1,8,0:1:0:0:
326,38,116663,1,10,0:1:0:0:
164,57,116830,5,10,0:0:0:0:
166,67,116914,1,8,0:0:0:0:
168,76,116998,1,6,1:0:0:0:
89,144,117177,1,2,0:0:0:0:
6,90,117357,2,0,P|1:57|0:25,1,65,10|2,0:1|0:0,0:0:0:0:
97,152,117695,1,2,1:0:0:0:
23,239,117856,1,10,0:0:0:0:
21,229,117936,1,8,0:0:0:0:
20,219,118017,1,2,1:0:0:0:
172,231,118178,1,8,0:1:0:0:
183,222,118546,5,0,1:0:0:0:
101,307,118710,2,0,P|102:339|105:371,1,65,10|2,0:1|0:0,0:0:0:0:
224,384,119040,1,0,1:0:0:0:
224,384,119212,1,2,1:0:0:0:
322,293,119384,2,0,L|249:305,1,65,10|0,0:1|0:0,0:0:0:0:
250,296,119643,1,0,0:0:0:0:
244,290,119729,5,0,1:0:0:0:
301,206,119899,1,0,1:0:0:0:
416,312,120069,2,0,P|417:280|408:249,1,65,8|0,0:1|0:0,0:0:0:0:
401,242,120325,1,8,0:0:0:0:
394,235,120410,2,0,L|387:203,3,32.5,8|8|8|8,1:0|0:0|0:0|0:0,0:0:0:0:
367,125,120743,1,0,1:0:0:0:
512,219,120919,1,8,0:1:0:0:
505,228,121272,5,2,1:3:0:0:
473,133,121446,2,0,P|471:100|475:68,1,65,8|0,0:1|0:0,0:0:0:0:
482,61,121698,1,8,0:0:0:0:
489,54,121777,1,4,1:2:0:0:
419,0,121947,1,0,1:0:0:0:
275,76,122117,1,8,0:1:0:0:
375,88,122288,5,0,0:0:0:0:
375,88,122373,1,0,0:0:0:0:
374,87,122458,2,0,P|381:119|381:152,1,65,2|2,1:0|1:0,0:0:0:0:
271,238,122798,2,0,L|205:224,1,65,10|0,0:1|0:0,0:0:0:0:
112,207,123139,1,10,1:0:0:0:
70,106,123302,1,10,0:0:0:0:
77,113,123383,1,8,0:0:0:0:
84,120,123465,2,0,L|120:117,1,32.5,0|0,1:0|0:0,0:0:0:0:
213,101,123628,1,10,0:1:0:0:
223,100,123991,5,2,1:3:0:0:
208,225,124173,2,0,L|216:289,1,65,10|2,0:1|0:0,0:0:0:0:
233,384,124500,1,2,1:0:0:0:
233,384,124669,1,0,1:0:0:0:
59,337,124838,2,0,P|89:327|122:327,1,65,10|2,0:1|0:0,0:0:0:0:
129,334,125093,1,0,0:0:0:0:
136,341,125177,5,0,1:0:0:0:
217,289,125351,1,0,1:0:0:0:
108,223,125525,2,0,P|75:222|44:232,1,65,8|0,0:1|0:0,0:0:0:0:
37,239,125787,1,8,0:0:0:0:
30,246,125874,2,0,L|23:214,3,32.5,8|8|8|8,1:0|0:0|0:0|0:0,0:0:0:0:
2,139,126201,1,0,1:0:0:0:
182,161,126377,1,8,0:1:0:0:
193,156,126730,5,2,1:3:0:0:
104,86,126906,2,0,P|99:53|97:21,1,65,8|0,0:1|0:0,0:0:0:0:
90,14,127145,1,8,0:0:0:0:
83,7,127225,1,4,1:2:0:0:
196,56,127398,1,0,1:0:0:0:
291,4,127571,2,0,P|323:1|357:-1,1,65,8|2,0:1|0:0,0:0:0:0:
441,73,127918,5,2,1:0:0:0:
345,102,128089,1,2,1:0:0:0:
426,171,128260,2,0,L|500:156,1,65,10|2,0:1|0:0,0:0:0:0:
496,151,128518,1,0,0:0:0:0:
503,144,128603,2,0,P|519:171|520:203,1,65,2|8,1:0|0:0,0:0:0:0:
486,290,128934,1,2,1:0:0:0:
327,210,129100,1,10,0:1:0:0:
314,203,129435,5,2,1:3:0:0:
315,314,129605,2,0,P|347:312|379:306,1,65,10|0,0:1|0:0,0:0:0:0:
223,257,129946,1,2,1:0:0:0:
223,257,130117,1,0,1:0:0:0:
154,346,130288,2,0,P|186:347|218:353,1,65,10|0,0:1|0:0,0:0:0:0:
225,360,130546,1,0,0:0:0:0:
232,367,130631,5,0,1:0:0:0:
315,314,130805,1,0,1:0:0:0:
112,251,130979,2,0,P|108:218|106:186,1,65,8|0,0:1|0:0,0:0:0:0:
113,179,131241,1,8,0:0:0:0:
120,172,131328,2,0,L|128:137,3,32.5,8|8|8|8,1:0|0:0|0:0|0:0,0:0:0:0:
161,68,131659,1,0,1:0:0:0:
7,143,131825,1,8,0:1:0:0:
0,152,132190,5,2,1:3:0:0:
0,45,132373,2,0,P|28:51|64:55,1,65,8|0,0:1|0:0,0:0:0:0:
71,48,132601,1,8,0:0:0:0:
78,41,132677,1,4,1:2:0:0:
161,68,132859,1,0,1:0:0:0:
320,1,133042,2,0,P|287:5|255:11,1,65,8|2,0:1|0:0,0:0:0:0:
248,18,133293,1,0,0:0:0:0:
241,25,133377,6,0,P|251:56|251:89,1,65,2|2,1:0|1:0,0:0:0:0:
183,155,133712,2,0,P|172:185|172:217,1,65,10|0,0:1|0:0,0:0:0:0:
286,286,134039,1,10,1:0:0:0:
388,204,134203,1,8,0:0:0:0:
381,211,134285,1,8,0:0:0:0:
374,218,134367,2,0,L|341:214,1,32.5,2|0,1:0|0:0,0:0:0:0:
258,202,134531,1,10,0:1:0:0:
264,187,134894,5,2,1:3:0:0:
394,309,135081,2,0,L|458:299,1,65,10|2,0:1|0:0,0:0:0:0:
512,214,135403,1,2,1:0:0:0:
464,126,135581,1,2,1:0:0:0:
286,104,135760,2,0,P|318:107|350:110,1,65,10|0,0:1|0:0,0:0:0:0:
357,103,136014,1,0,0:0:0:0:
364,96,136098,6,0,B|380:66|380:66|361:21,1,65,0|0,1:0|1:0,0:0:0:0:
190,0,136437,1,8,0:1:0:0:
158,96,136607,1,0,0:0:0:0:
165,103,136692,1,8,0:0:0:0:
172,110,136776,2,0,L|163:157,3,32.5,8|8|8|8,1:0|0:0|0:0|0:0,0:0:0:0:
143,218,137115,1,0,1:0:0:0:
328,267,137282,6,0,P|297:200|207:217,1,156,12|8,0:1|0:1,0:0:0:0:
199,314,137785,1,8,0:1:0:0:
199,314,137960,1,8,0:1:0:0:
300,361,138135,1,8,0:1:0:0:
328,267,138311,1,8,0:1:0:0:
442,228,138486,1,8,0:1:0:0:
416,384,138660,1,8,0:1:0:0:
257,177,138834,5,4,1:2:0:0:
257,177,139009,1,0,1:0:0:0:
458,122,139183,1,12,0:1:0:0:
458,122,139857,1,10,0:1:0:0:
432,36,140164,5,0,1:0:0:0:
432,36,140341,1,0,1:0:0:0:
231,12,140519,1,8,0:1:0:0:
168,77,140836,5,2,1:0:0:0:
168,77,141021,1,2,1:0:0:0:
210,265,141206,1,10,0:1:0:0:
137,329,141526,5,0,1:0:0:0:
137,329,141712,1,0,1:0:0:0:
5,205,141898,1,8,0:1:0:0:
66,151,142153,5,8,0:1:0:0:
75,157,142238,2,0,P|88:120|73:85,1,65,2|0,1:0|1:0,0:0:0:0:
97,241,142579,1,10,0:1:0:0:
33,310,142901,5,2,1:0:0:0:
33,310,143081,1,0,1:0:0:0:
242,382,143262,2,0,L|282:369,1,39,8|0,0:1|0:0,0:0:0:0:
350,346,143591,5,2,1:0:0:0:
350,346,143759,1,2,1:0:0:0:
273,156,143928,1,10,0:1:0:0:
336,93,144265,5,0,1:0:0:0:
336,93,144435,1,0,1:0:0:0:
511,196,144605,1,8,0:1:0:0:
426,246,144861,5,8,0:1:0:0:
417,255,144946,2,0,P|388:229|384:191,1,78,2|2,1:0|1:0,0:0:0:0:
474,47,145287,2,0,P|470:84|441:110,1,78,10|2,0:1|0:0,0:0:0:0:
336,93,145628,5,2,1:0:0:0:
336,93,145799,1,2,1:0:0:0:
263,28,145969,1,10,0:1:0:0:
198,101,146140,1,0,0:0:0:0:
275,170,146310,5,2,1:0:0:0:
275,170,146491,1,2,1:0:0:0:
198,101,146673,1,10,0:1:0:0:
263,28,146843,1,2,0:0:0:0:
133,174,147013,5,10,1:1:0:0:
279,304,147183,1,8,1:1:0:0:
279,304,149058,5,2,0:0:0:0:
392,343,149314,5,2,0:2:0:0:
390,331,149399,1,2,0:2:0:0:
388,319,149740,6,0,B|421:289|421:289|407:191,1,126.75,4|0,1:0|0:0,0:0:0:0:
406,191,150078,2,8,P|412:168|427:149,3,42.25,8|8|8|8,0:1|0:0|0:0|0:0,0:0:0:0:
323,234,150417,2,8,P|310:213|308:189,3,42.25,8|8|8|8,0:1|0:0|0:0|0:0,0:0:0:0:
294,323,150756,2,8,P|271:317|252:302,3,42.25,8|8|10|8,0:1|0:0|0:0|0:0,0:0:0:0:
209,214,151095,5,10,0:1:0:0:
194,209,151180,1,8,0:0:0:0:
179,210,151265,1,8,0:0:0:0:
165,216,151350,1,8,0:0:0:0:
155,227,151434,2,8,P|140:251|136:279,3,42.25,10|8|8|8,0:1|0:0|0:0|0:0,0:0:0:0:
94,367,151773,2,0,P|80:342|58:324,3,42.25,10|8|10|8,0:1|0:0|0:0|0:0,0:0:0:0:
3,244,152113,2,0,P|31:244|57:234,3,42.25,8|8|10|8,0:1|0:0|0:0|0:0,0:0:0:0:
96,141,152454,5,8,0:1:0:0:
101,117,152539,1,8,0:0:0:0:
106,93,152625,1,8,0:0:0:0:
111,69,152711,1,8,0:0:0:0:
116,45,152796,2,8,P|122:68|132:90,3,42.25,8|8|8|8,0:1|0:0|0:0|0:0,0:0:0:0:
225,7,153139,2,8,P|218:30|216:54,3,42.25,8|8|10|8,0:1|0:0|0:0|0:0,0:0:0:0:
338,28,153482,2,0,P|320:45|306:64,3,42.25,8|8|10|8,0:1|0:0|0:0|0:0,0:0:0:0:
276,206,153825,5,10,0:1:0:0:
290,208,153909,1,8,0:0:0:0:
304,205,153994,2,8,P|322:187|346:171,1,42.25,8|8,0:0|0:0,0:0:0:0:
441,106,154163,5,10,0:1:0:0:
432,117,154248,1,8,0:0:0:0:
427,130,154333,2,8,P|433:154|435:183,1,42.25,10|8,0:0|0:0,0:0:0:0:
445,298,154502,5,10,0:1:0:0:
440,285,154587,1,10,0:0:0:0:
431,274,154672,2,8,P|406:267|380:254,1,42.25,10|8,0:0|0:0,0:0:0:0:
210,297,154841,5,10,0:1:0:0:
197,318,154926,1,8,0:0:0:0:
192,341,155011,1,10,0:1:0:0:
197,364,155096,1,8,0:1:0:0:
209,384,155180,6,0,B|240:337|217:280|191:301|164:252|188:202,1,195,6|8,1:0|0:1,0:0:0:0:
218,80,155689,1,8,0:0:0:0:
222,88,155774,1,8,0:0:0:0:
224,97,155858,2,0,P|182:122|135:135,1,97.5,0|0,1:0|1:0,0:0:0:0:
230,0,156198,2,0,P|297:27|368:44,1,146.25,8|0,0:1|0:0,0:0:0:0:
444,27,156539,5,2,1:0:0:0:
367,136,156718,1,2,0:0:0:0:
495,226,156897,2,0,P|502:177|512:130,1,97.4999999999999,8|0,0:1|0:0,0:0:0:0:
388,237,157221,1,2,1:0:0:0:
391,245,157308,1,8,0:0:0:0:
394,253,157395,1,0,1:0:0:0:
512,384,157569,2,0,P|466:334|379:349,1,146.25,10|0,0:1|0:0,0:0:0:0:
321,367,157918,6,0,B|272:384|272:384|139:330,1,195,0|8,1:0|0:1,0:0:0:0:
24,269,158420,1,8,0:0:0:0:
27,278,158504,1,8,0:0:0:0:
30,287,158588,1,0,1:0:0:0:
115,241,158755,1,0,1:0:0:0:
13,178,158923,2,0,P|3:130|0:81,1,97.4999999999999,10|0,0:1|0:0,0:0:0:0:
183,15,159258,6,0,P|137:31|89:40,1,97.5,2|2,1:0|0:0,0:0:0:0:
201,121,159602,2,0,P|246:104|294:95,1,97.5,10|0,0:1|0:0,0:0:0:0:
404,142,159947,1,2,1:0:0:0:
404,142,160120,1,2,1:0:0:0:
389,27,160292,1,10,0:1:0:0:
496,72,160464,1,0,1:0:0:0:
430,157,160637,6,0,B|418:191|418:191|444:262|444:262|435:295,1,146.25,14|0,0:1|0:0,0:0:0:0:
430,318,160979,2,8,B|442:339|442:339|482:349,3,48.75,8|8|8|8,1:0|0:0|0:0|0:0,0:0:0:0:
343,303,161322,2,8,B|336:326|336:326|357:361,3,48.75,8|8|8|8,1:0|0:0|0:0|0:0,0:0:0:0:
292,230,161665,2,8,B|271:242|271:242|261:282,1,48.75,8|8,1:0|0:0,0:0:0:0:
235,344,161837,5,10,0:0:0:0:
228,351,161922,1,8,0:0:0:0:
221,358,162008,2,8,B|202:349|202:349|195:328,1,42.25,10|8,0:1|0:0,0:0:0:0:
120,290,162178,5,10,0:0:0:0:
114,282,162263,1,8,0:0:0:0:
108,274,162348,2,8,B|116:254|116:254|136:248,1,42.25,10|8,0:1|0:0,0:0:0:0:
176,173,162519,5,10,0:0:0:0:
184,167,162604,1,8,0:0:0:0:
192,161,162689,2,8,B|212:170|212:170|217:189,1,42.25,10|8,0:1|0:0,0:0:0:0:
328,197,162860,2,8,B|310:189|310:189|302:168,1,42.25,10|8,0:0|0:0,0:0:0:0:
251,101,163030,2,8,B|262:85|262:85|284:82,1,42.25,10|8,0:1|0:0,0:0:0:0:
377,99,163201,5,8,0:0:0:0:
379,108,163286,1,8,0:0:0:0:
381,117,163371,5,8,0:1:0:0:
402,136,163455,1,8,0:1:0:0:
430,141,163539,1,8,0:3:0:0:
458,135,163623,1,8,0:3:0:0:
480,118,163708,2,0,L|490:71,1,42.2499980659486,4|4,0:3|0:3,0:1:0:0:
394,18,163876,2,0,L|384:65,3,42.25,8|8|8|8,0:1|0:1|0:1|0:1,0:0:0:0:
297,104,164213,5,8,0:3:0:0:
290,111,164297,1,8,0:3:0:0:
283,118,164382,2,0,L|292:165,1,42.25,8|8,0:1|0:1,0:0:0:0:
401,199,164550,2,0,L|392:149,1,42.2499980659486,10|8,0:1|0:1,0:0:0:0:
316,256,164719,5,10,0:1:0:0:
293,264,164804,1,8,0:1:0:0:
268,263,164889,1,10,0:1:0:0:
246,254,164975,1,8,0:1:0:0:
228,238,165060,1,10,0:1:0:0:
208,223,165146,1,8,0:1:0:0:
185,217,165231,1,10,0:1:0:0:
161,220,165317,1,8,0:1:0:0:
140,231,165402,2,0,L|124:291,3,42.25,10|8|8|8,0:1|0:1|0:3|0:3,0:0:0:0:
60,353,165744,5,4,0:3:0:0:
55,354,165830,1,4,0:3:0:0:
50,355,165915,1,0,1:0:0:0:
45,356,166001,1,0,1:0:0:0:
40,357,166086,2,0,P|30:260|17:163,1,195,4|8,1:0|0:1,0:0:0:0:
1,27,166597,5,0,0:0:0:0:
6,34,166682,1,8,0:1:0:0:
12,41,166767,2,0,P|59:28|104:10,1,97.5,0|0,1:0|1:0,0:0:0:0:
229,67,167113,2,0,P|159:72|127:134,1,146.25,10|0,0:1|0:0,0:0:0:0:
135,214,167460,6,0,P|183:220|230:233,1,97.5,2|0,1:0|0:0,0:0:0:0:
307,302,167800,1,10,0:1:0:0:
381,171,167971,1,2,0:0:0:0:
411,264,168141,1,2,1:0:0:0:
419,267,168227,1,8,0:0:0:0:
428,268,168312,1,0,1:0:0:0:
503,191,168482,2,0,P|497:143|487:95,1,97.5,10|0,0:1|0:0,0:0:0:0:
301,17,168823,6,0,B|225:30|225:30|190:14|190:14|112:27,1,195,0|8,1:0|0:1,0:0:0:0:
20,48,169328,1,2,0:0:0:0:
106,128,169497,1,2,1:0:0:0:
106,128,169665,1,2,1:0:0:0:
30,221,169834,1,10,0:1:0:0:
30,221,170002,1,2,0:0:0:0:
146,270,170171,6,0,P|193:255|241:244,1,97.5,2|2,1:0|0:0,0:0:0:0:
302,114,170528,2,0,P|255:128|208:139,1,97.5,10|0,0:1|0:0,0:0:0:0:
397,160,170865,6,0,P|403:128|405:95,2,65,8|8|8,0:3|0:1|0:1,0:0:0:0:
330,227,171202,5,8,0:3:0:0:
325,237,171309,6,0,P|327:269|333:301,1,65,8|8,0:1|0:1,0:0:0:0:
438,374,171524,6,0,P|402:309|328:311,1,156,4|0,1:0|0:0,0:0:0:0:
249,384,172038,1,0,1:0:0:0:
149,285,172209,2,0,P|158:207|162:129,1,156,8|0,0:1|0:0,0:0:0:0:
156,122,172895,5,4,1:2:0:0:
21,189,173071,2,0,P|3:115|51:58,1,156,0|0,1:0|1:0,0:0:0:0:
214,23,173600,2,0,P|268:44|324:59,1,117,8|0,0:1|0:0,0:0:0:0:
385,109,173946,2,0,P|430:75|485:90,1,117
510,161,174293,6,0,B|518:221|470:248|470:248|446:226|422:224,1,156,4|0,1:0|0:0,0:0:0:0:
423,224,174801,1,0,1:0:0:0:
312,134,174970,1,8,0:1:0:0:
318,246,175140,1,0,0:0:0:0:
169,140,175309,1,8,0:1:0:0:
172,155,175648,5,12,0:1:0:0:
177,168,175762,2,0,L|236:195,1,52,8|8,0:1|0:1,0:0:0:0:
318,246,175992,5,8,0:1:0:0:
310,259,176107,2,0,L|246:275,1,52,8|8,0:1|0:1,0:0:0:0:
171,309,176337,5,4,1:2:0:0:
186,322,176448,5,8,0:3:0:0:
200,335,176559,5,8,0:3:0:0:
229,350,176670,5,4,0:3:0:0:
219,360,176781,5,4,0:3:0:0:
208,366,176892,5,4,0:3:0:0:
201,384,177003,5,4,1:1:0:0:
256,192,177088,12,0,179730,0:0:0:0:
163,176,182116,6,0,L|173:172,3,6.5,2|2|2|2,0:3|0:3|0:3|0:3,0:0:0:0:
203,159,182457,1,6,0:2:0:0:
256,192,182542,12,2,185184,0:0:0:0:
170,115,197635,5,8,0:1:0:0:
203,200,197792,2,0,L|190:252,1,49.058751859665,0|8,1:0|0:0,0:0:0:0:
195,253,198038,1,8,0:0:0:0:
198,259,198126,1,10,0:1:0:0:
122,321,198302,1,8,0:3:0:0:
252,379,198479,1,4,0:3:0:0:
264,380,198812,6,0,P|272:333|283:285,1,97.5000000000002,4|0,1:1|0:0,0:0:0:0:
461,157,199493,2,0,P|422:184|374:186,1,97.5000000000002,14|0,0:1|0:0,0:0:0:0:
278,147,200005,1,8,0:0:0:0:
278,147,200090,1,8,0:0:0:0:
278,147,200175,2,0,P|267:99|256:51,2,97.5000000000002,2|0|10,0:0|1:0|0:1,0:0:0:0:
134,217,201191,1,0,0:0:0:0:
0,73,201530,6,0,B|29:58|29:58|111:78,1,97.5000000000002,2|0,1:0|0:0,0:0:0:0:
220,230,202215,2,0,B|173:244|173:244|133:216,1,97.5000000000002,10|0,0:1|0:0,0:0:0:0:
188,146,202730,1,2,0:0:0:0:
188,146,202901,2,0,B|194:104|194:104|202:93|202:93|206:51,2,97.5000000000002,2|0|10,0:0|1:0|0:1,0:0:0:0:
0,278,203917,1,2,0:0:0:0:
151,364,204256,6,0,L|249:348,1,97.5,6|0,1:2|0:0,0:0:0:0:
268,277,204598,2,0,L|374:299,1,107.25,0|0,1:0|0:0,0:0:0:0:
421,361,204941,2,0,P|476:348|503:298,1,117,2|0,1:0|0:0,0:0:0:0:
474,230,205284,2,0,P|458:168|449:105,1,126.75,2|0,1:0|0:0,0:0:0:0:
408,40,205627,2,0,B|344:33|344:89|255:72,1,136.5,0|0,1:0|0:0,0:0:0:0:
204,51,205971,2,0,P|250:103|233:171,1,146.25,0|0,1:0|0:0,0:0:0:0:
174,223,206316,5,2,1:0:0:0:
100,175,206489,1,0,0:0:0:0:
35,233,206661,1,2,1:0:0:0:
23,229,207006,5,6,1:2:0:0:
28,254,207178,1,0,0:0:0:0:
109,290,207351,5,8,0:0:0:0:
124,216,207523,1,8,0:0:0:0:
291,227,207695,1,8,0:0:0:0:
231,177,207868,1,8,0:0:0:0:
181,360,208040,1,8,0:0:0:0:
267,334,208213,1,8,0:0:0:0:
124,216,208385,5,8,0:1:0:0:
245,144,208553,1,8,0:1:0:0:
106,54,208722,1,8,0:1:0:0:
225,1,208890,2,0,P|244:7|263:13,1,38.9999999999999,12|2,1:2|0:0,0:0:0:0:
263,13,209733,6,0,P|234:113|211:214,1,208,6|12,1:0|0:2,0:0:0:0:
139,326,210241,1,8,0:0:0:0:
130,332,210326,1,8,0:0:0:0:
120,336,210410,2,0,P|68:327|18:315,1,104,2|2,1:0|1:0,0:0:0:0:
239,384,210749,2,0,P|310:352|385:332,1,156,10|0,0:1|0:0,0:0:0:0:
473,334,211088,6,0,B|524:314|542:237|507:208|507:208|479:222|429:217,1,208,0|8,1:0|0:1,0:0:0:0:
316,173,211602,1,10,0:0:0:0:
311,162,211688,1,8,0:0:0:0:
307,152,211773,1,2,1:0:0:0:
408,109,211945,1,2,1:0:0:0:
355,266,212116,2,0,P|306:281|255:291,1,104,10|0,0:1|0:0,0:0:0:0:
121,155,212459,6,0,B|136:82|276:130|164:271,1,208,0|8,1:0|0:1,0:0:0:0:
24,203,212970,1,8,0:0:0:0:
15,197,213055,1,8,0:0:0:0:
6,191,213140,2,0,P|19:140|32:90,1,104,2|2,1:0|1:0,0:0:0:0:
192,0,213481,2,0,P|204:77|216:154,1,156,10|0,0:1|0:0,0:0:0:0:
264,218,213822,6,0,B|313:239|369:206|335:172|392:138|448:159,1,208,0|8,1:0|0:1,0:0:0:0:
512,247,214334,1,0,0:0:0:0:
386,325,214504,1,2,1:0:0:0:
460,384,214674,1,2,1:0:0:0:
424,244,214845,1,10,0:1:0:0:
284,357,215015,5,10,0:1:0:0:
274,359,215101,1,8,0:1:0:0:
264,362,215186,2,0,P|245:259|235:156,1,208,4|8,1:1|0:1,0:0:0:0:
223,3,215697,1,8,0:0:0:0:
216,10,215782,1,8,0:0:0:0:
208,17,215868,2,0,P|160:36|110:50,1,104,2|2,1:0|1:0,0:0:0:0:
0,213,216209,2,0,P|28:146|102:149,1,156,10|8,0:1|0:0,0:0:0:0:
163,205,216549,6,0,B|207:250|207:250|349:220,1,208,0|8,1:0|0:1,0:0:0:0:
466,148,217061,1,8,0:0:0:0:
462,157,217146,1,8,0:0:0:0:
458,166,217231,1,2,1:0:0:0:
328,103,217402,1,2,1:0:0:0:
422,58,217572,1,10,0:1:0:0:
349,220,217743,1,2,0:0:0:0:
477,325,217913,6,0,B|529:311|535:236|484:208|484:208|451:214|441:250,1,208,4|8,1:0|0:1,0:0:0:0:
394,378,218430,1,8,0:0:0:0:
383,381,218516,1,8,0:0:0:0:
373,384,218602,2,0,P|361:360|356:336,1,52,2|8,1:0|0:0,0:0:0:0:
349,220,218775,1,2,1:0:0:0:
217,297,218947,2,0,P|167:280|117:268,1,104,10|0,0:1|1:0,0:0:0:0:
157,24,219292,6,0,P|175:72|189:122,1,104,12|0,0:1|0:0,0:0:0:0:
212,209,219631,1,0,1:0:0:0:
320,45,219801,6,0,P|298:92|273:137,1,104,14|2,0:2|0:0,0:0:0:0:
228,214,220141,1,2,1:0:0:0:
419,176,220311,5,10,0:1:0:0:
443,196,220396,1,8,0:1:0:0:
459,224,220481,1,8,0:1:0:0:
464,256,220566,1,8,0:1:0:0:
458,288,220651,2,0,B|350:291|391:368|265:369,1,208,4|12,1:0|0:2,0:0:0:0:
150,304,221159,2,0,P|121:262|119:210,1,104,2|0,0:0|1:0,0:0:0:0:
125,202,221413,1,8,0:0:0:0:
130,193,221498,1,2,1:0:0:0:
262,226,221667,2,0,P|334:207|352:135,1,156,10|0,0:1|0:0,0:0:0:0:
323,62,222006,6,0,P|222:87|119:100,1,208,0|8,1:0|0:1,0:0:0:0:
25,13,222515,1,8,0:0:0:0:
34,9,222600,1,8,0:0:0:0:
44,7,222684,1,2,1:0:0:0:
124,91,222854,1,2,1:0:0:0:
93,233,223023,2,0,P|47:207|0:189,1,104,10|0,0:1|0:0,0:0:0:0:
92,341,223362,6,0,B|148:325|148:325|180:299|180:299|234:284,1,156,0|0,1:0|0:0,0:0:0:0:
314,292,223702,2,0,P|346:250|349:198,1,104,8|8,0:1|0:0,0:0:0:0:
320,32,224043,1,2,1:0:0:0:
406,101,224214,1,2,1:0:0:0:
251,176,224384,2,0,P|199:168|147:163,1,104,10|0,0:1|0:0,0:0:0:0:
0,61,224725,6,0,B|33:17|33:17|59:176,1,208,0|8,1:0|0:1,0:0:0:0:
173,264,225237,1,8,0:0:0:0:
163,267,225322,1,8,0:0:0:0:
152,271,225407,2,0,P|130:317|117:368,1,104,2|2,1:0|1:0,0:0:0:0:
333,265,225748,1,10,0:1:0:0:
407,344,225918,1,2,0:0:0:0:
277,384,226089,6,0,P|255:282|242:179,1,208,4|8,1:0|0:1,0:0:0:0:
364,16,226600,1,8,0:0:0:0:
357,24,226685,1,8,0:0:0:0:
349,31,226771,2,0,P|298:19|249:2,1,104,2|2,1:0|1:0,0:0:0:0:
349,189,227112,2,0,B|337:141|384:109|427:114|427:114|458:151,1,156,10|0,0:1|0:0,0:0:0:0:
500,208,227452,6,0,P|406:253|315:303,1,208,0|8,1:0|0:1,0:0:0:0:
146,271,227964,1,8,0:0:0:0:
137,264,228049,1,8,0:0:0:0:
129,257,228134,2,0,P|121:222|121:185,1,52,2|8,1:0|0:0,0:0:0:0:
167,111,228305,1,2,1:0:0:0:
62,76,228475,1,10,0:1:0:0:
140,6,228646,1,2,1:0:0:0:
304,111,228816,5,12,0:1:0:0:
278,0,228987,1,0,1:0:0:0:
232,192,229158,5,8,0:1:0:0:
304,111,229330,1,0,1:0:0:0:
274,289,229501,5,10,0:1:0:0:
232,192,229673,1,2,1:0:0:0:
211,383,229844,5,10,0:1:0:0:
274,289,230016,1,0,1:0:0:0:
382,370,230187,2,0,P|410:359|437:345,3,52,8|8|8|8,0:1|0:0|0:0|0:0,0:0:0:0:
509,270,230528,2,8,P|481:259|454:245,3,52,8|8|10|8,0:1|0:0|0:0|0:0,0:0:0:0:
361,205,230870,5,10,0:1:0:0:
347,197,230956,1,8,0:0:0:0:
333,188,231041,2,8,P|327:155|324:127,1,52,8|8,0:0|0:0,0:0:0:0:
432,12,231212,5,10,0:1:0:0:
418,20,231298,1,8,0:0:0:0:
404,29,231383,2,0,P|398:61|395:90,1,52,8|8,0:0|0:0,0:0:0:0:
452,165,231554,6,0,P|396:115|325:137,1,156,4|0,1:0|0:0,0:0:0:0:
268,187,231894,2,0,P|282:236|292:287,1,104,12|0,0:2|0:0,0:0:0:0:
184,379,232235,1,10,0:1:0:0:
91,321,232406,1,2,1:0:0:0:
201,244,232576,1,10,0:1:0:0:
292,288,232747,1,0,1:0:0:0:
101,315,232917,6,0,P|90:264|77:213,1,104,8|0,0:1|0:0,0:0:0:0:
151,51,233259,2,0,P|161:101|174:152,1,104,8|0,0:1|0:0,0:0:0:0:
292,288,233602,1,10,0:1:0:0:
346,173,233774,1,0,1:0:0:0:
438,356,233945,1,10,0:1:0:0:
391,260,234117,1,0,1:0:0:0:
235,366,234288,6,0,P|184:356|133:347,1,104,8|0,0:1|0:0,0:0:0:0:
0,184,234628,2,0,P|51:193|102:202,1,104,8|0,0:1|0:0,0:0:0:0:
249,227,234969,1,10,0:1:0:0:
300,143,235138,1,2,1:0:0:0:
151,41,235307,1,10,0:1:0:0:
175,131,235477,1,0,1:0:0:0:
311,152,235646,6,0,B|364:160|364:160|411:130,1,104,8|0,0:1|0:0,0:0:0:0:
386,16,235986,1,8,0:1:0:0:
245,74,236157,2,0,P|265:121|281:171,1,104,2|8,0:0|0:1,0:0:0:0:
324,304,236498,1,2,1:0:0:0:
506,225,236668,2,0,B|453:217|453:217|406:247,1,104,10|0,0:1|1:0,0:0:0:0:
248,355,237009,6,0,B|204:384|204:384|101:368,1,156,12|0,0:1|0:0,0:0:0:0:
28,349,237350,2,0,P|21:298|19:246,1,104,8|0,0:1|0:0,0:0:0:0:
178,132,237691,1,8,0:1:0:0:
142,238,237861,1,0,1:0:0:0:
0,137,238032,1,8,0:1:0:0:
85,64,238202,1,0,1:0:0:0:
190,138,238373,6,0,P|240:124|289:107,1,104,8|0,0:1|0:0,0:0:0:0:
381,42,238711,1,8,0:1:0:0:
338,194,238881,2,0,P|312:148|298:98,1,104,2|8,0:0|0:1,0:0:0:0:
334,204,239220,1,2,1:0:0:0:
452,270,239389,2,0,P|401:283|352:300,1,104,10|0,0:1|1:0,0:0:0:0:
151,377,239728,6,0,P|96:326|115:255,1,156,12|0,0:1|0:0,0:0:0:0:
157,194,240067,2,0,P|206:209|257:219,1,104,8|0,0:1|0:0,0:0:0:0:
440,173,240407,1,8,0:1:0:0:
424,266,240577,1,0,1:0:0:0:
366,113,240747,1,8,0:1:0:0:
354,199,240917,1,0,1:0:0:0:
454,41,241087,6,8,P|403:34|352:23,1,104,12|8,0:1|0:0,0:0:0:0:
342,19,241345,1,8,0:0:0:0:
332,15,241431,1,8,0:0:0:0:
163,119,241604,6,8,P|214:112|265:101,1,104,12|8,0:1|0:0,0:0:0:0:
275,97,241862,1,8,0:0:0:0:
285,93,241949,1,8,0:0:0:0:
411,214,242121,5,8,0:1:0:0:
385,210,242207,1,8,0:1:0:0:
359,206,242293,1,8,0:1:0:0:
333,201,242380,1,8,0:1:0:0:
308,195,242466,6,0,P|332:248|282:327,1,156,4|0,1:0|0:0,0:0:0:0:
217,369,242808,2,0,P|170:349|120:334,1,104,12|2,0:2|0:0,0:0:0:0:
17,205,243151,1,8,0:1:0:0:
26,291,243323,1,2,1:0:0:0:
169,192,243494,1,10,0:1:0:0:
145,108,243666,1,0,1:0:0:0:
96,240,243837,6,0,P|146:228|197:217,1,104,8|0,0:1|0:0,0:0:0:0:
331,56,244175,2,0,P|280:67|229:78,1,104,8|0,0:1|0:0,0:0:0:0:
370,160,244514,1,10,0:1:0:0:
337,65,244684,1,2,1:0:0:0:
343,263,244853,1,10,0:1:0:0:
376,168,245023,1,0,1:0:0:0:
441,344,245192,6,0,B|475:385|532:334|509:283|465:257,1,156,12|0,0:1|0:0,0:0:0:0:
396,270,245531,2,0,P|349:293|300:311,1,104,8|0,0:1|0:0,0:0:0:0:
134,302,245870,1,10,0:1:0:0:
211,369,246040,1,2,1:0:0:0:
264,211,246209,1,10,0:1:0:0:
167,213,246379,1,0,1:0:0:0:
290,296,246548,6,0,B|296:224|296:224|303:217|303:217|308:143,1,156,12|0,0:1|0:0,0:0:0:0:
315,64,246888,2,0,B|364:46|364:46|407:73,1,104,8|0,0:1|0:0,0:0:0:0:
238,96,247229,1,10,0:1:0:0:
169,23,247400,1,0,1:0:0:0:
104,159,247570,1,10,0:1:0:0:
35,86,247741,1,2,1:0:0:0:
155,99,247911,6,0,P|138:175|129:252,1,156,12|0,0:1|0:0,0:0:0:0:
133,327,248253,2,0,P|84:346|33:358,1,104,8|0,0:1|0:0,0:0:0:0:
214,384,248596,1,8,0:1:0:0:
260,297,248768,1,0,1:0:0:0:
415,330,248939,1,8,0:1:0:0:
323,363,249111,1,0,1:0:0:0:
218,226,249282,6,0,B|183:160|218:114|218:114|250:148,1,156,14|0,0:1|0:0,0:0:0:0:
310,186,249625,2,0,P|360:198|411:207,1,104,8|0,0:1|0:0,0:0:0:0:
491,128,249968,1,10,0:1:0:0:
429,34,250137,1,0,1:0:0:0:
318,162,250306,1,10,0:1:0:0:
323,61,250476,1,2,1:0:0:0:
411,207,250645,6,0,P|393:256|381:306,1,104,8|0,0:1|0:0,0:0:0:0:
211,384,250985,2,0,P|228:334|240:284,1,104,8|0,0:1|0:0,0:0:0:0:
189,116,251326,1,8,0:1:0:0:
250,175,251497,1,0,1:0:0:0:
228,32,251667,1,8,0:1:0:0:
178,117,251838,1,0,1:0:0:0:
64,79,252008,5,0,1:0:0:0:
64,55,252122,2,0,P|94:37|129:33,1,69.3333333333333,8|8,0:1|0:1,0:0:0:0:
276,114,252350,5,8,0:1:0:0:
296,126,252461,2,0,P|296:160|282:193,1,69.3333333333333,8|8,0:1|0:1,0:0:0:0:
166,303,252685,5,8,0:3:0:0:
199,328,252796,5,8,0:3:0:0:
243,326,252908,5,8,0:3:0:0:
266,311,253020,5,4,0:3:0:0:
286,311,253132,5,4,0:3:0:0:
303,321,253243,5,4,0:3:0:0:
313,345,253355,6,0,L|325:200,1,130,4|2,1:0|1:0,0:0:0:0:
364,129,253878,1,0,0:0:0:0:
510,136,254049,2,0,B|485:158|485:158|431:152,1,65,2|0,1:0|0:0,0:0:0:0:
426,76,254392,2,0,B|451:54|451:54|505:60,1,65,2|0,1:0|0:0,0:0:0:0:
364,129,254735,5,2,1:0:0:0:
328,44,254905,1,0,0:0:0:0:
360,137,255075,1,2,1:0:0:0:
336,37,255246,1,0,0:0:0:0:
270,155,255416,1,2,1:0:0:0:
206,95,255587,1,2,0:0:0:0:
128,119,255757,1,2,1:0:0:0:
235,235,255928,5,8,0:1:0:0:
241,242,256013,1,8,0:1:0:0:
247,249,256098,2,0,P|309:231|373:219,1,130,2|2,1:0|1:0,0:0:0:0:
298,339,256600,1,0,0:0:0:0:
208,381,256771,2,0,P|179:369|147:360,1,65,2|0,1:0|0:0,0:0:0:0:
170,252,257114,2,0,P|200:265|232:274,1,65,2|0,1:0|0:0,0:0:0:0:
88,292,257460,5,2,1:0:0:0:
13,231,257629,1,0,0:0:0:0:
101,290,257798,1,2,1:0:0:0:
5,238,257968,1,0,0:0:0:0:
102,187,258137,1,2,1:0:0:0:
63,113,258307,1,2,0:0:0:0:
135,67,258476,1,2,1:0:0:0:
27,14,258646,5,8,0:1:0:0:
21,21,258731,1,8,0:1:0:0:
15,28,258815,2,0,P|65:65|128:54,1,130,2|2,1:0|1:0,0:0:0:0:
207,5,259329,1,0,0:0:0:0:
286,66,259500,2,0,B|297:82|309:89|309:89|304:103|305:120,1,65,2|0,1:0|0:0,0:0:0:0:
224,148,259843,2,0,B|212:131|200:124|200:124|205:110|204:93,1,65,2|0,1:0|0:0,0:0:0:0:
300,205,260186,5,2,1:0:0:0:
389,159,260357,1,0,0:0:0:0:
300,218,260529,1,2,1:0:0:0:
394,151,260700,1,0,0:0:0:0:
487,218,260872,1,2,1:0:0:0:
453,324,261043,1,2,0:0:0:0:
330,329,261215,2,0,P|299:321|267:316,1,65,10|0,0:1|1:0,0:0:0:0:
233,344,261466,5,8,0:0:0:0:
221,351,261550,2,0,P|185:306|190:248,1,117,2|0,1:0|0:0,0:0:0:0:
195,244,261890,2,0,P|233:238|271:229,1,78,10|0,0:1|0:0,0:0:0:0:
277,224,262146,1,8,0:0:0:0:
282,218,262231,1,2,1:0:0:0:
318,133,262402,1,0,1:0:0:0:
423,143,262572,2,0,P|458:98|454:41,1,117,10|0,0:1|0:0,0:0:0:0:
449,35,262913,6,0,P|412:48|374:58,1,78,2|0,1:0|0:0,0:0:0:0:
235,100,263254,2,0,P|179:81|122:66,1,117,10|0,0:1|0:0,0:0:0:0:
115,69,263595,1,2,1:0:0:0:
174,174,263765,1,10,0:1:0:0:
180,177,263851,1,8,0:1:0:0:
186,181,263936,1,10,0:1:0:0:
280,27,264106,5,2,1:0:0:0:
256,192,264192,12,0,269561,0:0:0:0:
