osu file format v14

[General]
AudioFilename: audio.mp3
AudioLeadIn: 0
PreviewTime: 76449
Countdown: 0
SampleSet: Soft
StackLeniency: 0.7
Mode: 0
LetterboxInBreaks: 0
WidescreenStoryboard: 0

[Editor]
DistanceSpacing: 1.5
BeatDivisor: 4
GridSize: 4
TimelineZoom: 1.6

[Metadata]
Title:Let's Go! Let's Go! Peace! Peace!
TitleUnicode:Let's Go! Let's Go! ピース!ピース!
Artist:SUNNY PEACE
ArtistUnicode:サニーピース
Creator:Kawasaki Sakura
Version:S.U.N.N.Y! SUNNY!
Source:IDOLY PRIDE
Tags:-karUpA- 星見プロダクション所属 hoshimi production shozoku girl アイドリープライド アイプラ japanese pop j-pop jpop female vocals anime mei hayasaka 早坂 芽衣 shizuku hyoudou 兵藤 雫 nagisa ibuki 伊吹 渚 rei ichinose 一ノ瀬 怜 sakura kawasaki 川咲さくら kotono nagase 長瀬 琴乃 suzu narumiya 成宮 すず haruko saeki 佐伯 遙子 chisa saki shiraishi 白石 千紗 沙季 hinata moka もか 日向 yukina shutou 志奈 首藤 natsume kokona ここな 夏目 yuuki moeko 萌子 結城 kanno mai 真衣 菅野 tachibana mirai 橘 美來 kanata aikawa 奏多 相川 sasaki nao 奈緒 佐々木 takao kanon 奏音 高尾 miyazawa koharu 小春 宮沢
BeatmapID:4463060
BeatmapSetID:2123652

[Difficulty]
HPDrainRate:7
CircleSize:4
OverallDifficulty:8
ApproachRate:9
SliderMultiplier:1.8
SliderTickRate:1

[Events]
//Background and Video events
0,0,"j.jpg",0,0
//Break Periods
2,178465,186135
2,195205,197430
2,206499,208724
2,217793,220018
2,229087,231312
2,240381,242606
2,330935,341430
//Storyboard Layer 0 (Background)
//Storyboard Layer 1 (Fail)
//Storyboard Layer 2 (Pass)
//Storyboard Layer 3 (Foreground)
//Storyboard Layer 4 (Overlay)
//Storyboard Sound Samples

[TimingPoints]
382,352.941176470588,4,2,1,70,1,0
382,-117.647058823529,4,2,1,70,0,0
11323,-100,4,2,1,70,0,0
11676,-100,4,2,1,85,0,1
21558,-100,4,2,1,85,0,0
22970,-100,4,2,1,80,0,0
42734,-100,4,2,1,70,0,0
65323,-111.111111111111,4,2,1,70,0,0
70970,-100,4,2,1,70,0,0
78029,-200,4,2,1,70,0,0
78823,-100,4,2,1,70,0,0
79440,-100,4,2,1,85,0,1
87911,-111.111111111111,4,2,1,80,0,1
93558,-111.111111111111,4,2,1,75,0,0
99205,-100,4,2,1,80,0,1
109087,-100,4,2,1,80,0,0
121793,-100,4,2,1,70,0,0
125852,-125,4,2,1,70,0,0
127440,-100,4,2,1,70,0,0
144381,-111.111111111111,4,2,1,70,0,0
150029,-100,4,2,1,70,0,0
157087,-200,4,2,1,70,0,0
157881,-100,4,2,1,70,0,0
158499,-100,4,2,1,85,0,1
166970,-111.111111111111,4,2,1,80,0,1
172617,-111.111111111111,4,2,1,75,0,0
178264,-133.333333333333,4,2,1,75,0,0
186734,-133.333333333333,4,2,1,70,0,0
246029,-100,4,2,1,80,0,0
313793,-133.333333333333,4,2,1,75,0,0
318734,-100,4,2,1,75,0,0
319440,-100,4,2,1,80,0,1
330734,-100,4,2,1,80,0,0
342029,-133.333333333333,4,2,1,60,0,0
347676,-125,4,2,1,65,0,0
350499,-111.111111111111,4,2,1,70,0,0
353323,-100,4,2,1,75,0,0
359146,-100,4,2,1,75,0,0
359411,-83.3333333333333,4,2,1,75,0,0
359676,-71.4285714285714,4,2,1,75,0,0
359940,-62.5,4,2,1,75,0,0
360381,-100,4,2,1,85,0,1
368852,-111.111111111111,4,2,1,80,0,1
374499,-111.111111111111,4,2,1,75,0,0
379793,-100,4,2,1,75,0,0
380146,-100,4,2,1,85,0,1
390029,-100,4,2,1,85,0,0
391440,-100,4,2,1,80,0,0

[Colours]
Combo1 : 255,128,192
Combo2 : 255,128,64
Combo3 : 128,128,255
Combo4 : 0,255,128
Combo5 : 128,255,255

[HitObjects]
154,222,382,6,0,P|151:154|134:56,1,153.000002918243,4|8,1:2|0:0,0:0:0:0:
245,131,911,2,0,P|282:137|318:150,1,76.5000014591217,0|0,1:2|0:0,0:0:0:0:
408,112,1264,1,0,1:2:0:0:
477,273,1440,1,8,0:0:0:0:
379,227,1617,1,0,1:2:0:0:
379,227,1705,1,8,0:0:0:0:
379,227,1793,6,0,P|364:265|364:310,2,76.5000014591217,0|0|8,1:2|0:0|0:0,0:0:0:0:
415,370,2323,2,0,P|355:343|283:369,1,114.750002188683,0|0,1:2|0:0,0:0:0:0:
278,373,2676,1,2,1:2:0:0:
160,183,2852,2,0,P|154:226|158:268,1,76.5000014591217,10|8,0:0|0:0,0:0:0:0:
205,327,3117,5,8,0:0:0:0:
205,327,3205,2,0,P|254:320|291:309,1,76.5000014591217,0|0,1:2|0:0,0:0:0:0:
112,381,3558,1,8,0:0:0:0:
112,381,3734,2,0,P|74:371|37:366,1,76.5000014591217,0|0,1:2|0:0,0:0:0:0:
83,260,4087,1,0,1:2:0:0:
1,188,4264,1,8,0:0:0:0:
83,260,4440,1,0,1:2:0:0:
83,260,4529,1,8,0:0:0:0:
83,260,4617,6,0,P|150:237|226:261,1,153.000002918243,0|8,1:2|0:0,0:0:0:0:
335,224,5146,2,0,B|349:183|349:183|341:143,1,76.5000014591217,0|0,1:2|0:0,0:0:0:0:
195,65,5499,2,0,P|200:99|209:120,1,38.2500007295609,2|0,1:2|1:2,0:0:0:0:
255,174,5676,1,10,0:0:0:0:
385,73,5852,1,8,0:0:0:0:
385,73,5940,1,8,0:0:0:0:
385,73,6029,1,0,1:2:0:0:
479,293,6381,5,8,0:0:0:0:
451,207,6558,2,0,P|438:259|458:361,1,153.000002918243,0|0,1:2|1:2,0:0:0:0:
342,363,7087,2,0,P|304:351|250:349,1,76.5000014591217,8|0,0:0|1:2,0:0:0:0:
188,374,7352,5,8,0:0:0:0:
188,374,7440,2,0,P|164:304|200:233,1,153.000002918243,0|8,1:2|0:0,0:0:0:0:
284,163,7970,2,0,P|246:129|161:139,1,114.750002188683,0|0,1:2|0:0,0:0:0:0:
157,149,8323,1,0,1:2:0:0:
59,35,8499,1,8,0:0:0:0:
34,234,8676,1,8,0:0:0:0:
34,234,8764,1,8,0:0:0:0:
34,234,8852,6,0,P|43:176|41:139,1,76.5000014591217,0|0,1:2|0:0,0:0:0:0:
135,265,9205,1,8,0:0:0:0:
52,332,9381,2,0,P|111:295|202:319,1,153.000002918243,0|0,1:2|1:2,0:0:0:0:
289,249,9911,1,8,0:0:0:0:
376,367,10087,1,0,1:2:0:0:
376,367,10176,1,8,0:0:0:0:
376,367,10264,6,0,P|321:351|285:348,2,76.5000014591217,0|0|8,1:2|0:0|0:0,0:0:0:0:
428,232,10793,1,0,1:2:0:0:
291,148,10970,1,8,0:0:0:0:
413,68,11146,2,0,L|404:111,1,38.2500007295609,2|0,1:2|1:2,0:0:0:0:
276,238,11323,2,0,P|224:224|206:131,1,135,10|0,0:0|0:0,0:0:0:0:
224,78,11676,5,6,1:2:0:0:
378,187,11852,1,0,0:0:0:0:
263,326,12029,2,0,P|274:270|274:217,1,90,10|0,0:0|1:2,0:0:0:0:
393,318,12381,2,0,P|448:306|489:303,1,90,2|0,0:0|1:2,0:0:0:0:
275,237,12734,2,0,P|231:247|186:251,1,90,10|0,0:0|1:2,0:0:0:0:
108,284,13000,5,0,1:2:0:0:
108,284,13088,2,0,P|90:221|126:108,1,180,2|10,1:2|0:0,0:0:0:0:
281,20,13618,2,0,P|273:85|251:143,1,90,2|0,1:2|0:0,0:0:0:0:
459,176,13971,1,0,1:2:0:0:
370,86,14147,1,8,0:0:0:0:
290,290,14324,1,8,0:0:0:0:
290,290,14412,1,8,0:0:0:0:
290,290,14500,6,0,B|360:326|422:310|422:310|390:327|374:347,2,180,2|10|2,1:2|0:0|0:0,0:0:0:0:
168,360,15382,1,0,1:2:0:0:
146,169,15559,2,0,P|137:224|138:266,1,90,10|0,0:0|0:0,0:0:0:0:
251,78,15912,6,0,P|192:71|158:60,1,90,2|0,1:2|0:0,0:0:0:0:
228,186,16265,1,8,0:0:0:0:
360,72,16441,2,0,P|436:61|502:148,1,180,0|0,1:2|1:2,0:0:0:0:
328,268,16971,1,8,0:0:0:0:
403,159,17147,1,8,0:0:0:0:
403,159,17235,1,8,0:0:0:0:
403,159,17324,6,0,P|408:215|416:253,1,90,2|0,1:2|0:0,0:0:0:0:
492,384,17677,2,0,P|500:339|503:294,1,90,10|0,0:0|1:2,0:0:0:0:
511,96,18030,6,0,P|507:140|499:185,1,90,2|0,0:0|1:2,0:0:0:0:
322,296,18382,2,0,P|313:251|310:206,1,90,10|0,0:0|0:0,0:0:0:0:
206,86,18735,6,0,P|276:45|351:57,1,135,2|0,1:2|0:0,0:0:0:0:
389,98,19088,1,10,0:0:0:0:
163,211,19265,2,0,B|91:219|49:176|49:176|71:226|104:233,1,180,2|0,1:2|1:2,0:0:0:0:
130,112,19794,1,8,0:0:0:0:
321,252,19971,1,8,0:0:0:0:
321,252,20059,1,8,0:0:0:0:
321,252,20147,5,2,1:2:0:0:
280,152,20324,1,0,0:0:0:0:
394,205,20500,1,10,0:0:0:0:
321,353,20677,1,0,1:2:0:0:
206,202,20853,5,2,0:0:0:0:
334,262,21030,1,0,1:2:0:0:
173,332,21206,1,10,0:0:0:0:
136,124,21382,1,0,1:2:0:0:
136,124,21471,1,0,1:2:0:0:
136,124,21559,1,2,1:2:0:0:
136,124,21912,6,0,L|181:111,1,45,10|8,0:0|0:0,0:0:0:0:
271,63,22088,2,0,L|314:75,1,45,8|8,0:0|0:0,0:0:0:0:
413,224,22265,1,8,3:0:0:0:
381,256,22353,1,8,3:0:0:0:
337,265,22441,1,8,3:0:0:0:
296,243,22530,1,8,3:0:0:0:
271,205,22618,5,4,3:0:0:0:
246,193,22706,1,4,3:0:0:0:
219,191,22794,1,4,3:0:0:0:
194,201,22882,1,4,3:0:0:0:
172,217,22971,6,0,P|181:266|178:310,1,90,6|2,1:2|0:0,0:0:0:0:
81,368,23324,2,0,P|82:327|93:276,1,90,10|0,0:0|1:2,0:0:0:0:
23,194,23677,6,0,P|36:147|33:100,1,90,2|2,0:0|1:2,0:0:0:0:
137,34,24030,2,0,P|124:81|127:126,1,90,10|0,0:0|0:0,0:0:0:0:
246,177,24382,5,2,1:2:0:0:
342,127,24559,1,2,0:0:0:0:
435,180,24735,2,0,P|430:232|420:269,1,90,10|0,0:0|1:2,0:0:0:0:
247,266,25088,5,2,0:0:0:0:
151,214,25265,1,2,1:2:0:0:
46,241,25441,2,0,P|51:293|63:330,1,90,10|0,0:0|0:0,0:0:0:0:
280,367,25794,6,0,P|324:363|366:347,2,90,2|2|10,1:2|0:0|0:0,0:0:0:0:
305,273,26324,1,0,1:2:0:0:
330,176,26500,2,0,P|286:180|244:199,2,90,2|2|10,0:0|1:2|0:0,0:0:0:0:
402,242,27030,1,0,0:0:0:0:
421,81,27206,5,2,1:2:0:0:
421,81,27382,1,2,0:0:0:0:
402,242,27559,2,0,P|419:190|425:149,1,90,10|0,0:0|1:2,0:0:0:0:
249,200,27912,5,2,0:0:0:0:
249,200,28088,1,2,1:2:0:0:
225,35,28265,2,0,P|242:87|250:125,1,90,10|0,0:0|0:0,0:0:0:0:
124,295,28618,5,2,1:2:0:0:
67,208,28794,1,2,0:0:0:0:
167,143,28971,1,10,0:0:0:0:
103,320,29147,1,0,0:0:0:0:
129,72,29324,5,2,1:2:0:0:
254,170,29500,1,2,0:0:0:0:
306,34,29677,1,10,0:0:0:0:
383,210,29853,1,0,0:0:0:0:
178,269,30030,1,0,1:2:0:0:
178,269,30735,6,0,P|230:277|285:293,1,90,10|8,0:0|0:0,0:0:0:0:
321,347,31000,1,8,0:0:0:0:
321,347,31088,2,0,L|373:320,1,45,8|8,0:0|0:0,0:0:0:0:
425,207,31265,2,0,L|477:228,1,45,8|8,0:0|0:0,0:0:0:0:
381,57,31441,6,0,P|314:30|247:100,1,180,6|10,1:2|0:0,0:0:0:0:
133,39,31971,1,0,1:2:0:0:
71,213,32147,2,0,P|124:200|166:201,2,90,2|2|10,1:2|0:0|0:0,0:0:0:0:
245,266,32677,6,0,P|237:309|225:354,1,90,2|0,1:2|0:0,0:0:0:0:
275,134,33030,1,2,1:2:0:0:
159,200,33206,1,8,0:0:0:0:
350,223,33382,1,2,0:0:0:0:
400,97,33559,5,2,1:2:0:0:
444,301,33735,1,2,1:2:0:0:
410,93,33912,1,10,0:0:0:0:
437,309,34088,1,2,0:0:0:0:
508,214,34265,6,0,P|451:207|413:197,1,90,2|0,1:2|0:0,0:0:0:0:
259,339,34618,2,0,P|316:346|354:356,1,90,10|0,0:0|1:2,0:0:0:0:
245,235,34971,5,2,1:2:0:0:
116,291,35147,1,2,0:0:0:0:
247,132,35324,1,10,0:0:0:0:
63,89,35500,2,0,P|119:103|170:110,1,90,2|0,1:2|0:0,0:0:0:0:
285,31,35853,5,2,1:2:0:0:
373,193,36030,1,8,0:0:0:0:
240,111,36206,2,0,P|217:167|231:255,1,135,2|0,0:0|0:0,0:0:0:0:
241,266,36559,2,0,L|294:257,1,45,2|0,1:2|1:2,0:0:0:0:
433,138,36735,5,10,0:0:0:0:
469,164,36824,1,0,1:2:0:0:
487,204,36912,1,0,1:2:0:0:
489,248,37000,1,0,1:2:0:0:
461,283,37088,2,0,P|401:271|367:261,1,90,2|0,1:2|0:0,0:0:0:0:
216,135,37441,2,0,P|276:147|310:157,1,90,10|0,0:0|1:2,0:0:0:0:
79,132,37794,5,2,1:2:0:0:
175,37,37971,1,2,0:0:0:0:
243,227,38147,1,10,0:0:0:0:
0,200,38324,2,0,P|60:167|176:175,1,180,2|2,1:2|1:2,0:0:0:0:
185,332,38853,1,8,0:0:0:0:
87,261,39030,1,2,0:0:0:0:
257,248,39206,5,2,1:2:0:0:
63,343,39382,1,2,1:2:0:0:
263,231,39559,1,10,0:0:0:0:
49,332,39735,1,2,0:0:0:0:
144,189,39912,6,0,P|147:255|154:292,1,90,2|0,1:2|0:0,0:0:0:0:
337,366,40265,2,0,P|343:321|343:276,1,90,10|0,0:0|1:2,0:0:0:0:
278,146,40618,1,2,1:2:0:0:
343,276,40794,1,2,0:0:0:0:
144,189,40971,1,10,0:0:0:0:
278,27,41147,1,2,1:2:0:0:
278,27,41500,5,2,0:0:0:0:
343,88,41677,1,2,0:0:0:0:
432,83,41853,1,2,0:0:0:0:
189,263,42735,6,0,P|138:249|90:245,1,90,2|2,1:2|0:0,0:0:0:0:
174,149,43088,2,0,P|179:104|191:61,1,90,10|0,0:0|1:2,0:0:0:0:
353,204,43441,1,2,1:2:0:0:
299,102,43618,1,2,0:0:0:0:
443,169,43794,1,10,0:0:0:0:
376,306,43971,1,0,1:2:0:0:
254,222,44147,6,0,P|303:230|360:230,2,90,2|2|10,0:0|1:2|0:0,0:0:0:0:
184,339,44677,2,0,P|115:287|27:307,1,180,2|2,0:0|1:2,0:0:0:0:
118,185,45206,1,10,0:0:0:0:
14,80,45382,1,2,0:0:0:0:
118,185,45559,6,0,P|187:167|224:163,1,90,2|0,1:2|0:0,0:0:0:0:
207,54,45912,2,0,P|250:66|294:74,1,90,10|0,0:0|1:2,0:0:0:0:
305,249,46265,2,0,P|348:236|392:228,1,90,2|0,1:2|0:0,0:0:0:0:
425,50,46618,2,0,P|468:62|512:70,1,90,10|0,0:0|1:2,0:0:0:0:
447,323,46971,6,0,P|425:250|447:125,1,180,2|8,0:0|0:0,0:0:0:0:
305,249,47500,2,0,P|241:235|207:230,1,90,2|0,0:0|1:2,0:0:0:0:
250,332,47853,1,2,1:2:0:0:
102,288,48030,2,0,P|91:245|100:193,1,90,10|0,0:0|0:0,0:0:0:0:
176,103,48382,6,0,B|132:90|132:90|85:84,1,90,2|2,1:2|0:0,0:0:0:0:
284,71,48735,2,0,P|286:118|263:168,1,90,10|0,0:0|1:2,0:0:0:0:
216,231,49088,1,2,1:2:0:0:
216,231,49265,1,2,0:0:0:0:
366,213,49441,2,0,P|371:270|379:306,1,90,10|0,0:0|1:2,0:0:0:0:
459,236,49794,5,2,0:0:0:0:
377,301,49971,1,2,1:2:0:0:
512,348,50147,1,10,0:0:0:0:
494,156,50324,2,0,P|493:208|486:249,1,90,2|0,0:0|1:2,0:0:0:0:
317,162,50677,5,2,1:2:0:0:
299,73,50853,1,10,0:0:0:0:
371,19,51030,1,2,0:0:0:0:
394,205,51206,6,0,P|325:187|288:183,1,90,2|0,1:2|0:0,0:0:0:0:
299,73,51559,2,0,P|255:85|211:93,1,90,10|0,0:0|1:2,0:0:0:0:
207,269,51912,2,0,P|163:256|119:248,1,90,2|0,1:2|0:0,0:0:0:0:
87,70,52265,2,0,P|43:82|0:90,1,90,10|0,0:0|1:2,0:0:0:0:
58,333,52618,6,0,P|81:252|67:137,1,180,2|8,0:0|0:0,0:0:0:0:
230,72,53147,2,0,P|277:84|318:93,1,90,0|0,1:2|0:0,0:0:0:0:
406,38,53500,5,8,0:0:0:0:
440,224,53677,1,8,0:0:0:0:
258,166,53853,1,8,0:0:0:0:
258,166,53941,1,8,0:0:0:0:
258,166,54030,1,6,1:2:0:0:
373,140,54206,1,2,0:0:0:0:
341,335,54382,1,10,0:0:0:0:
292,250,54559,2,0,P|286:307|292:357,1,90,2|0,1:2|0:0,0:0:0:0:
414,281,54912,2,0,P|467:279|517:273,1,90,2|8,1:2|0:0,0:0:0:0:
503,274,55265,1,2,0:0:0:0:
339,169,55441,6,0,P|268:161|210:254,1,180,2|10,1:2|0:0,0:0:0:0:
283,340,55971,2,0,P|293:293|295:247,1,90,2|0,1:2|0:0,0:0:0:0:
126,190,56324,2,0,P|116:233|113:278,1,90,2|8,1:2|0:0,0:0:0:0:
209,241,56677,1,0,0:0:0:0:
119,72,56853,5,2,1:2:0:0:
41,118,57030,1,2,0:0:0:0:
119,161,57206,1,10,0:0:0:0:
128,59,57382,1,2,1:2:0:0:
37,205,57559,2,0,P|94:191|142:190,1,90,2|0,0:0|1:2,0:0:0:0:
222,88,57912,2,0,P|279:102|327:103,1,90,10|0,0:0|0:0,0:0:0:0:
409,202,58265,6,0,P|453:138|429:31,1,180,2|10,1:2|0:0,0:0:0:0:
310,103,58794,1,0,1:2:0:0:
409,202,58971,1,2,0:0:0:0:
211,242,59147,1,2,1:2:0:0:
313,191,59324,2,0,B|319:241|319:241|307:286,1,90,10|0,0:0|0:0,0:0:0:0:
142,308,59677,5,2,1:2:0:0:
124,220,59853,1,2,0:0:0:0:
211,242,60030,1,10,0:0:0:0:
128,338,60206,2,0,P|79:336|34:317,1,90,2|0,1:2|0:0,0:0:0:0:
97,146,60559,2,0,P|97:200|95:245,1,90,2|8,1:2|0:0,0:0:0:0:
4,172,60912,1,2,0:0:0:0:
78,38,61088,6,0,P|157:48|204:133,1,180,2|10,1:2|0:0,0:0:0:0:
353,179,61618,2,0,P|345:230|334:273,1,90,2|0,1:2|0:0,0:0:0:0:
184,272,61971,2,0,P|192:323|203:366,1,90,2|8,1:2|0:0,0:0:0:0:
335,267,62324,1,2,0:0:0:0:
262,174,62500,6,0,P|290:218|413:216,1,180,2|8,1:2|0:0,0:0:0:0:
352,132,63030,1,2,1:2:0:0:
481,81,63206,1,2,0:0:0:0:
469,276,63382,1,0,1:2:0:0:
411,192,63559,2,0,P|462:184|511:180,1,90,8|2,0:0|0:0,0:0:0:0:
356,361,63912,6,0,P|299:349|254:347,1,90,2|0,1:2|0:0,0:0:0:0:
162,366,64265,1,8,0:0:0:0:
239,199,64441,1,2,1:2:0:0:
74,271,64618,2,0,P|131:259|176:257,1,90,2|0,0:0|1:2,0:0:0:0:
276,106,64971,1,8,0:0:0:0:
276,106,65324,5,0,1:2:0:0:
397,150,65500,1,0,1:2:0:0:
222,194,65677,2,0,P|243:102|237:-1,1,161.999995056153,10|2,0:0|0:0,0:0:0:0:
155,91,66206,1,2,1:2:0:0:
337,21,66382,1,10,0:0:0:0:
343,270,66735,5,0,1:2:0:0:
198,312,66912,1,0,1:2:0:0:
361,236,67088,2,0,B|371:193|368:147,1,80.9999975280763,10|2,0:0|1:2,0:0:0:0:
215,106,67441,2,0,B|213:153|225:193,1,80.9999975280763,2|2,0:0|1:2,0:0:0:0:
363,36,67794,1,10,0:0:0:0:
224,187,68147,5,0,1:2:0:0:
168,30,68324,1,0,1:2:0:0:
102,135,68500,1,10,0:0:0:0:
248,83,68677,1,2,1:2:0:0:
295,248,68853,1,2,0:0:0:0:
223,172,69030,1,2,1:2:0:0:
312,323,69206,2,0,P|326:263|325:227,1,80.9999975280763,10|0,0:0|0:0,0:0:0:0:
428,165,69559,5,0,1:2:0:0:
343,47,69735,1,0,1:2:0:0:
326,243,69912,2,0,P|390:200|495:227,1,161.999995056153,10|2,0:0|0:0,0:0:0:0:
484,102,70441,1,2,1:2:0:0:
411,286,70618,2,0,P|420:342|428:381,1,80.9999975280763,10|0,0:0|0:0,0:0:0:0:
266,339,70971,6,0,P|182:289|95:310,1,180,6|8,1:2|0:0,0:0:0:0:
161,147,71500,1,2,1:2:0:0:
41,223,71677,2,0,P|26:167|33:123,1,90,2|0,0:0|1:2,0:0:0:0:
153,177,72030,1,8,0:0:0:0:
206,44,72206,6,0,P|144:52|108:58,1,90,0|0,0:0|1:2,0:0:0:0:
286,143,72559,2,0,P|348:135|384:129,1,90,0|8,0:0|0:0,0:0:0:0:
327,243,72912,1,0,1:2:0:0:
470,182,73088,2,0,P|483:123|483:88,1,90,0|0,0:0|1:2,0:0:0:0:
410,282,73441,2,0,P|412:326|423:370,1,90,8|0,0:0|0:0,0:0:0:0:
312,257,73794,5,2,1:2:0:0:
229,219,73971,1,0,0:0:0:0:
142,243,74147,1,10,0:0:0:0:
103,324,74324,1,0,1:2:0:0:
116,111,74500,5,2,0:0:0:0:
197,150,74677,1,0,1:2:0:0:
221,237,74853,1,10,0:0:0:0:
183,320,75030,1,0,0:0:0:0:
399,333,75206,6,0,P|345:315|244:384,1,180,2|10,1:2|0:0,0:0:0:0:
404,231,75735,2,0,P|410:175|407:130,1,90,2|0,1:2|0:0,0:0:0:0:
276,52,76088,2,0,P|274:96|280:141,1,90,2|8,1:2|0:0,0:0:0:0:
148,238,76441,2,0,L|100:219,1,45,8|8,0:0|0:0,0:0:0:0:
51,144,76618,5,6,1:2:0:0:
132,61,76794,1,0,0:0:0:0:
194,168,76971,1,10,0:0:0:0:
25,241,77147,1,0,0:0:0:0:
223,282,77324,5,2,1:2:0:0:
106,221,77500,1,0,0:0:0:0:
281,102,77677,1,10,0:0:0:0:
261,360,77853,1,0,1:2:0:0:
261,360,77941,1,0,1:2:0:0:
261,360,78030,2,0,P|250:271|265:173,1,180,6|8,1:2|0:0,0:0:0:0:
297,90,78824,5,8,0:0:0:0:
297,90,78912,2,0,L|234:104,1,45,8|8,0:0|0:0,0:0:0:0:
137,223,79088,2,0,L|93:213,1,45,8|8,0:0|0:0,0:0:0:0:
78,79,79265,5,8,0:0:0:0:
78,79,79353,1,8,0:0:0:0:
78,79,79441,2,0,P|135:90|181:91,1,90,6|0,1:2|0:0,0:0:0:0:
309,217,79794,2,0,P|252:206|206:205,1,90,10|0,0:0|0:0,0:0:0:0:
323,110,80147,1,2,1:2:0:0:
412,283,80324,1,0,0:0:0:0:
213,326,80500,2,0,P|196:244|226:140,1,180,10|2,0:0|1:2,0:0:0:0:
289,250,81030,5,0,0:0:0:0:
101,313,81206,1,10,0:0:0:0:
336,354,81382,1,2,0:0:0:0:
143,151,81559,2,0,P|134:208|137:247,1,90,2|0,1:2|0:0,0:0:0:0:
387,112,81912,2,0,P|388:68|379:23,1,90,10|2,0:0|0:0,0:0:0:0:
298,181,82265,5,2,1:2:0:0:
271,60,82441,1,2,0:0:0:0:
457,136,82618,1,10,0:0:0:0:
351,289,82794,1,0,1:2:0:0:
351,289,82882,1,0,1:2:0:0:
351,289,82971,2,0,P|346:228|349:188,1,90,2|2,1:2|0:0,0:0:0:0:
145,259,83324,2,0,P|201:216|274:222,1,135,10|0,0:0|0:0,0:0:0:0:
231,309,83677,6,0,P|199:225|200:135,1,180,2|10,1:2|0:0,0:0:0:0:
296,99,84206,1,2,0:0:0:0:
140,19,84382,1,2,1:2:0:0:
74,232,84559,1,0,0:0:0:0:
200,135,84735,2,0,L|250:150,1,45,10|0,0:0|1:2,0:0:0:0:
345,215,84912,2,0,L|388:202,1,45,0|0,1:2|1:2,0:0:0:0:
496,93,85088,6,0,P|440:78|401:74,1,90,6|0,1:2|0:0,0:0:0:0:
406,285,85441,2,0,P|418:241|424:197,1,90,10|0,0:0|0:0,0:0:0:0:
258,86,85794,1,2,1:2:0:0:
345,215,85971,1,0,0:0:0:0:
165,252,86147,2,0,P|108:226|62:227,1,90,10|0,0:0|0:0,0:0:0:0:
235,357,86500,6,0,P|264:293|240:159,1,180,2|10,1:2|0:0,0:0:0:0:
81,224,87030,1,2,0:0:0:0:
61,91,87206,1,2,1:2:0:0:
171,178,87382,1,0,0:0:0:0:
21,315,87559,1,10,0:0:0:0:
237,254,87735,1,2,0:0:0:0:
132,327,87912,6,0,P|201:367|306:344,1,161.999995056153,6|0,1:2|0:0,0:0:0:0:
219,236,88441,1,2,1:2:0:0:
378,333,88618,2,0,P|372:278|381:157,1,161.999995056153,10|2,0:0|0:0,0:0:0:0:
477,231,89147,1,2,1:2:0:0:
442,99,89324,6,0,P|390:79|352:78,1,80.9999975280763,2|2,0:0|1:2,0:0:0:0:
284,5,89677,2,0,P|233:27|205:53,1,80.9999975280763,2|2,0:0|1:2,0:0:0:0:
129,118,90029,2,0,P|183:169|268:139,1,161.999995056153,10|2,0:0|1:2,0:0:0:0:
260,147,90559,1,2,0:0:0:0:
235,309,90735,5,2,1:2:0:0:
297,258,90912,1,2,0:0:0:0:
331,352,91088,1,2,0:0:0:0:
156,305,91265,1,2,1:2:0:0:
256,195,91441,2,0,P|261:235|270:274,1,80.9999975280763,10|0,0:0|0:0,0:0:0:0:
366,172,91794,1,2,1:2:0:0:
231,89,91971,1,0,1:2:0:0:
231,89,92324,5,10,0:0:0:0:
119,171,92500,1,2,1:2:0:0:
150,6,92677,1,2,0:0:0:0:
262,204,92853,5,2,0:0:0:0:
16,261,93030,1,10,0:0:0:0:
147,171,93206,1,10,0:0:0:0:
333,294,93382,5,10,0:0:0:0:
333,294,93471,1,8,0:0:0:0:
333,294,93559,2,0,P|361:228|330:116,1,161.999995056153,4|8,1:2|0:0,0:0:0:0:
179,185,94088,1,2,1:2:0:0:
134,73,94265,2,0,P|190:90|236:94,1,80.9999975280763,2|0,0:0|1:2,0:0:0:0:
124,254,94618,2,0,P|141:198|145:152,1,80.9999975280763,8|0,0:0|0:0,0:0:0:0:
203,305,94971,6,0,P|151:354|57:316,1,161.999995056153,0|8,1:2|0:0,0:0:0:0:
235,218,95500,2,0,P|320:237|420:232,1,161.999995056153,0|0,1:2|1:2,0:0:0:0:
342,60,96030,2,0,P|331:111|328:151,1,80.9999975280763,8|0,0:0|0:0,0:0:0:0:
208,76,96382,6,0,P|151:63|121:49,1,80.9999975280763,2|0,1:2|0:0,0:0:0:0:
54,123,96735,2,0,P|22:73|11:42,1,80.9999975280763,10|0,0:0|1:2,0:0:0:0:
148,160,97088,2,0,P|135:217|121:247,1,80.9999975280763,2|0,0:0|1:2,0:0:0:0:
195,314,97441,2,0,P|145:345|114:356,1,80.9999975280763,10|0,0:0|0:0,0:0:0:0:
0,243,97794,5,8,0:0:0:0:
391,140,98500,2,0,L|380:196,1,40.4999987640381,10|8,0:0|0:0,0:0:0:0:
317,289,98677,2,0,L|310:250,1,40.4999987640381,8|8,0:0|0:0,0:0:0:0:
182,197,98853,2,0,L|191:157,1,40.4999987640381,8|8,0:0|0:0,0:0:0:0:
283,87,99030,2,0,L|273:47,1,40.4999987640381,8|8,0:0|0:0,0:0:0:0:
86,191,99206,6,0,P|58:273|88:369,2,180,6|10|2,1:2|0:0|0:0,0:0:0:0:
170,278,100088,1,0,1:2:0:0:
23,115,100265,2,0,P|85:89|148:93,1,90,10|0,0:0|1:2,0:0:0:0:
185,135,100530,5,0,1:2:0:0:
185,135,100618,2,0,P|250:167|323:88,1,180,2|10,1:2|0:0,0:0:0:0:
452,36,101147,2,0,P|436:115|434:155,1,90,2|0,1:2|0:0,0:0:0:0:
512,189,101500,1,0,1:2:0:0:
298,197,101677,2,0,P|350:187|393:189,1,90,8|8,0:0|0:0,0:0:0:0:
386,188,101941,5,8,0:0:0:0:
386,188,102030,1,2,1:2:0:0:
312,81,102206,1,0,0:0:0:0:
176,138,102382,1,10,0:0:0:0:
254,0,102559,1,0,1:2:0:0:
298,197,102735,2,0,P|296:260|279:318,1,90,2|0,0:0|1:2,0:0:0:0:
91,215,103088,2,0,P|83:170|83:125,1,90,10|0,0:0|1:2,0:0:0:0:
139,62,103353,5,0,1:2:0:0:
139,62,103441,2,0,P|191:97|306:95,1,180,2|10,1:2|0:0,0:0:0:0:
393,183,103971,2,0,P|365:293|375:367,1,180,0|0,1:2|1:2,0:0:0:0:
471,273,104500,1,8,0:0:0:0:
260,327,104677,1,8,0:0:0:0:
260,327,104765,1,8,0:0:0:0:
260,327,104853,6,0,P|206:314|163:314,1,90,2|0,1:2|0:0,0:0:0:0:
236,208,105206,2,0,B|247:161|247:161|249:119,1,90,10|0,0:0|1:2,0:0:0:0:
63,113,105559,2,0,P|118:131|161:135,1,90,2|0,0:0|1:2,0:0:0:0:
343,44,105912,2,0,P|288:26|245:22,1,90,10|0,0:0|0:0,0:0:0:0:
371,183,106265,6,0,P|428:196|487:94,1,180,2|10,1:2|0:0,0:0:0:0:
285,146,106794,2,0,P|275:199|295:245,1,90,2|0,1:2|0:0,0:0:0:0:
410,108,107147,1,0,1:2:0:0:
286,232,107324,1,8,0:0:0:0:
450,301,107500,2,0,L|438:350,1,45,8|8,0:0|0:0,0:0:0:0:
490,179,107677,5,2,1:2:0:0:
377,229,107853,1,0,0:0:0:0:
322,55,108030,1,10,0:0:0:0:
410,108,108206,1,0,1:2:0:0:
195,149,108382,5,2,0:0:0:0:
242,34,108559,1,0,1:2:0:0:
356,209,108735,1,10,0:0:0:0:
123,268,108912,1,0,1:2:0:0:
123,268,109000,1,0,1:2:0:0:
123,268,109088,1,2,1:2:0:0:
398,283,109441,6,0,L|353:296,1,45,10|8,0:0|0:0,0:0:0:0:
263,344,109617,2,0,L|220:332,1,45,8|8,0:0|0:0,0:0:0:0:
121,183,109794,1,8,3:0:0:0:
153,151,109882,1,8,3:0:0:0:
197,142,109970,1,8,3:0:0:0:
238,164,110059,1,8,3:0:0:0:
263,202,110147,5,4,3:0:0:0:
288,214,110235,1,4,3:0:0:0:
315,216,110323,1,4,3:0:0:0:
340,206,110411,1,4,3:0:0:0:
361,189,110500,6,0,P|372:133|375:96,1,90,6|0,1:2|0:0,0:0:0:0:
285,296,110853,2,0,P|289:340|298:384,1,90,10|0,0:0|1:2,0:0:0:0:
106,249,111206,5,2,1:2:0:0:
207,186,111382,1,2,0:0:0:0:
78,93,111559,1,10,0:0:0:0:
52,318,111735,2,0,P|63:254|63:192,1,90,2|0,1:2|0:0,0:0:0:0:
183,307,112088,2,0,P|229:321|271:324,1,90,2|8,1:2|0:0,0:0:0:0:
375,370,112441,1,2,0:0:0:0:
430,165,112618,5,2,1:2:0:0:
254,232,112794,1,2,1:2:0:0:
442,177,112971,1,10,0:0:0:0:
246,219,113147,1,2,0:0:0:0:
328,93,113324,6,0,B|341:139|341:139|340:198,1,90,2|0,1:2|0:0,0:0:0:0:
112,108,113677,1,10,0:0:0:0:
221,35,113853,1,0,1:2:0:0:
246,219,114030,1,2,1:2:0:0:
190,134,114206,1,2,0:0:0:0:
154,322,114382,1,10,0:0:0:0:
362,279,114559,2,0,P|319:246|188:255,1,180,2|2,1:2|1:2,0:0:0:0:
271,347,115088,5,8,0:0:0:0:
110,205,115265,2,0,P|101:253|101:299,1,90,2|0,0:0|1:2,0:0:0:0:
199,119,115618,1,2,1:2:0:0:
199,119,115706,1,0,1:2:0:0:
199,119,115794,2,0,P|143:104|101:85,1,90,10|0,0:0|0:0,0:0:0:0:
334,67,116147,6,0,P|346:134|310:206,1,135,2|0,1:2|0:0,0:0:0:0:
300,225,116500,2,0,P|369:211|402:210,1,90,10|0,0:0|1:2,0:0:0:0:
238,154,116853,5,2,1:2:0:0:
316,332,117030,1,2,0:0:0:0:
171,262,117206,1,10,0:0:0:0:
334,127,117382,2,0,P|277:61|191:70,1,180,2|2,1:2|1:2,0:0:0:0:
32,156,117912,2,0,P|39:101|41:60,1,90,8|2,0:0|0:0,0:0:0:0:
200,176,118265,5,2,1:2:0:0:
6,247,118441,1,2,1:2:0:0:
192,165,118618,1,10,0:0:0:0:
0,259,118794,1,2,0:0:0:0:
128,340,118971,6,0,P|116:291|118:243,1,90,2|0,1:2|0:0,0:0:0:0:
203,76,119324,2,0,P|203:120|191:164,1,90,10|0,0:0|1:2,0:0:0:0:
111,94,119677,1,2,1:2:0:0:
271,14,119853,1,2,0:0:0:0:
247,230,120030,1,10,0:0:0:0:
39,158,120206,1,2,1:2:0:0:
39,158,120559,5,2,0:0:0:0:
87,233,120735,1,2,0:0:0:0:
46,313,120912,1,2,0:0:0:0:
261,332,121794,6,0,P|269:279|276:237,1,90,2|2,1:2|0:0,0:0:0:0:
349,139,122147,2,0,P|341:86|334:44,1,90,10|0,0:0|1:2,0:0:0:0:
154,138,122500,1,2,1:2:0:0:
255,67,122677,1,2,0:0:0:0:
274,243,122853,2,0,P|219:229|179:227,1,90,10|0,0:0|1:2,0:0:0:0:
9,179,123206,5,2,0:0:0:0:
118,123,123382,1,2,1:2:0:0:
163,295,123559,1,10,0:0:0:0:
88,211,123735,2,0,P|71:254|81:387,1,180,2|2,0:0|1:2,0:0:0:0:
277,371,124265,1,10,0:0:0:0:
163,295,124441,1,2,0:0:0:0:
317,175,124618,6,0,P|307:234|292:270,1,90,2|0,1:2|0:0,0:0:0:0:
116,108,124971,2,0,P|126:167|141:203,1,90,10|0,0:0|1:2,0:0:0:0:
329,136,125324,5,2,1:2:0:0:
213,217,125500,1,8,0:0:0:0:
215,27,125677,1,10,0:0:0:0:
439,74,125852,2,0,P|464:158|441:363,1,288,12|2,0:0|0:0,0:0:0:0:
444,354,126912,5,2,1:2:0:0:
255,285,127088,1,10,0:0:0:0:
255,285,127441,6,0,P|270:228|269:97,1,180,6|10,1:2|0:0,0:0:0:0:
120,149,127971,1,0,1:2:0:0:
67,43,128147,2,0,P|133:53|166:59,1,90,2|0,1:2|0:0,0:0:0:0:
187,199,128500,2,0,P|121:189|88:183,1,90,10|0,0:0|1:2,0:0:0:0:
211,335,128853,5,2,0:0:0:0:
269,266,129030,1,2,1:2:0:0:
358,262,129206,1,10,0:0:0:0:
423,323,129382,2,0,P|447:268|440:148,1,180,2|2,0:0|1:2,0:0:0:0:
319,181,129912,1,10,0:0:0:0:
319,181,130088,1,2,0:0:0:0:
219,53,130265,6,0,P|227:112|236:150,1,90,2|0,1:2|0:0,0:0:0:0:
347,172,130618,2,0,P|339:231|330:269,1,90,10|0,0:0|1:2,0:0:0:0:
183,228,130971,2,0,P|191:287|200:325,1,90,2|0,1:2|0:0,0:0:0:0:
406,285,131324,2,0,P|398:344|389:382,1,90,10|0,0:0|1:2,0:0:0:0:
197,316,131677,6,0,P|141:271|28:299,1,180,2|8,0:0|0:0,0:0:0:0:
151,152,132206,2,0,B|164:109|164:109|162:53,1,90,0|0,1:2|0:0,0:0:0:0:
30,126,132559,1,8,0:0:0:0:
82,8,132735,1,8,0:0:0:0:
251,94,132912,1,8,0:0:0:0:
251,94,133000,1,8,0:0:0:0:
251,94,133088,6,0,P|309:81|344:76,1,90,6|0,1:2|0:0,0:0:0:0:
304,181,133441,1,10,0:0:0:0:
443,91,133618,2,0,P|450:151|441:191,1,90,2|0,1:2|0:0,0:0:0:0:
275,261,133971,2,0,P|269:216|276:172,1,90,2|8,1:2|0:0,0:0:0:0:
392,241,134324,1,2,0:0:0:0:
312,353,134500,6,0,P|253:301|142:319,1,180,2|10,1:2|0:0,0:0:0:0:
29,220,135030,2,0,P|82:234|137:239,1,90,2|0,1:2|0:0,0:0:0:0:
231,133,135382,2,0,P|178:119|123:114,1,90,2|8,1:2|0:0,0:0:0:0:
143,114,135735,1,0,0:0:0:0:
310,76,135912,5,2,1:2:0:0:
364,147,136088,1,2,0:0:0:0:
453,132,136265,1,10,0:0:0:0:
395,63,136441,1,2,1:2:0:0:
289,196,136618,6,0,P|287:250|296:290,1,90,2|0,0:0|1:2,0:0:0:0:
398,269,136971,1,10,0:0:0:0:
243,374,137147,1,2,0:0:0:0:
398,269,137324,2,0,P|454:278|511:298,1,90,2|2,1:2|0:0,0:0:0:0:
473,103,137677,2,0,P|472:149|460:198,1,90,10|0,0:0|1:2,0:0:0:0:
411,365,138030,1,2,0:0:0:0:
261,246,138206,1,2,1:2:0:0:
374,285,138382,2,0,P|364:241|363:196,1,90,10|0,0:0|0:0,0:0:0:0:
211,118,138735,6,0,P|148:129|117:136,2,90,2|2|10,1:2|0:0|0:0,0:0:0:0:
50,50,139265,2,0,P|10:117|39:218,1,180,2|2,1:2|1:2,0:0:0:0:
127,260,139794,1,8,0:0:0:0:
15,382,139971,1,2,0:0:0:0:
188,339,140147,6,0,P|140:298|16:308,1,180,2|10,1:2|0:0,0:0:0:0:
176,193,140677,2,0,P|187:142|191:97,1,90,2|0,1:2|0:0,0:0:0:0:
367,142,141030,2,0,P|315:156|265:163,1,90,2|8,1:2|0:0,0:0:0:0:
307,46,141382,1,2,0:0:0:0:
470,68,141559,6,0,P|497:145|448:258,1,180,2|8,1:2|0:0,0:0:0:0:
326,363,142088,1,2,1:2:0:0:
446,315,142265,2,0,P|391:300|331:295,1,90,2|0,0:0|1:2,0:0:0:0:
220,209,142618,1,8,0:0:0:0:
154,363,142794,1,2,0:0:0:0:
264,299,142971,6,0,P|243:238|272:111,1,180,2|8,1:2|0:0,0:0:0:0:
365,188,143500,1,2,1:2:0:0:
392,52,143677,1,2,0:0:0:0:
262,126,143853,1,0,1:2:0:0:
443,261,144030,2,0,P|459:212|457:163,1,90,8|0,0:0|0:0,0:0:0:0:
233,269,144382,5,4,1:2:0:0:
365,188,144559,1,0,1:2:0:0:
285,362,144735,2,0,P|271:308|281:177,1,161.999995056153,10|2,0:0|0:0,0:0:0:0:
147,208,145265,1,2,1:2:0:0:
118,91,145441,2,0,P|165:103|213:108,1,80.9999975280763,10|0,0:0|0:0,0:0:0:0:
296,33,145794,5,0,1:2:0:0:
403,152,145971,1,0,1:2:0:0:
307,127,146147,1,10,0:0:0:0:
447,222,146324,1,2,1:2:0:0:
296,303,146500,1,2,0:0:0:0:
354,217,146677,1,2,1:2:0:0:
222,107,146853,2,0,P|224:147|233:186,1,80.9999975280763,10|0,0:0|0:0,0:0:0:0:
46,106,147206,5,0,1:2:0:0:
108,246,147382,1,0,1:2:0:0:
233,186,147559,2,0,P|152:160|52:154,1,161.999995056153,10|2,0:0|0:0,0:0:0:0:
143,54,148088,1,2,1:2:0:0:
266,104,148265,2,0,P|279:54|278:7,1,80.9999975280763,10|0,0:0|0:0,0:0:0:0:
345,216,148618,5,0,1:2:0:0:
496,152,148794,1,0,1:2:0:0:
446,306,148971,2,0,P|435:246|436:200,1,80.9999975280763,10|2,0:0|1:2,0:0:0:0:
383,106,149324,1,2,0:0:0:0:
383,106,149500,1,2,1:2:0:0:
252,216,149677,2,0,P|213:222|164:235,1,80.9999975280763,10|0,0:0|0:0,0:0:0:0:
326,346,150030,6,0,P|420:318|422:218,1,180,6|8,1:2|0:0,0:0:0:0:
323,174,150559,1,2,1:2:0:0:
174,233,150735,2,0,P|154:152|179:44,1,180,2|8,0:0|0:0,0:0:0:0:
323,174,151265,6,0,P|380:159|441:158,1,90,0|0,0:0|1:2,0:0:0:0:
474,278,151618,2,0,P|429:273|386:260,1,90,0|8,0:0|0:0,0:0:0:0:
480,183,151971,1,0,1:2:0:0:
311,73,152147,2,0,P|315:129|324:164,1,90,0|0,0:0|1:2,0:0:0:0:
265,316,152500,2,0,P|262:271|252:227,1,90,8|0,0:0|0:0,0:0:0:0:
89,118,152853,5,2,1:2:0:0:
74,207,153030,1,0,0:0:0:0:
162,224,153206,1,10,0:0:0:0:
177,135,153381,1,0,1:2:0:0:
312,55,153559,5,2,0:0:0:0:
327,144,153734,1,0,1:2:0:0:
415,127,153911,1,10,0:0:0:0:
400,38,154087,1,0,0:0:0:0:
257,228,154265,6,0,P|294:285|406:261,1,180,2|10,1:2|0:0,0:0:0:0:
327,144,154794,2,0,P|278:137|230:119,1,90,2|0,1:2|0:0,0:0:0:0:
80,206,155146,2,0,P|122:191|167:186,1,90,2|8,1:2|0:0,0:0:0:0:
264,263,155500,2,0,L|273:219,1,45,8|8,0:0|0:0,0:0:0:0:
345,21,155677,5,6,1:2:0:0:
239,123,155853,1,0,0:0:0:0:
375,183,156030,1,10,0:0:0:0:
219,138,156206,1,0,0:0:0:0:
343,270,156382,5,2,1:2:0:0:
168,262,156559,1,0,0:0:0:0:
385,338,156735,1,10,0:0:0:0:
118,369,156912,1,0,1:2:0:0:
118,369,157000,1,0,1:2:0:0:
118,369,157088,2,0,P|125:306|123:176,1,180,6|8,1:2|0:0,0:0:0:0:
157,114,157882,5,8,0:0:0:0:
157,114,157971,2,0,L|209:132,1,45,8|8,0:0|0:0,0:0:0:0:
292,235,158147,2,0,L|334:220,1,45,8|8,0:0|0:0,0:0:0:0:
455,144,158324,5,8,0:0:0:0:
455,144,158412,1,8,0:0:0:0:
455,144,158500,2,0,P|461:205|470:243,1,90,6|0,1:2|0:0,0:0:0:0:
304,323,158853,2,0,P|298:262|289:224,1,90,10|0,0:0|0:0,0:0:0:0:
135,295,159206,1,2,1:2:0:0:
191,131,159382,1,0,0:0:0:0:
28,171,159559,2,0,P|72:178|115:190,1,90,10|0,0:0|0:0,0:0:0:0:
310,0,159912,6,0,B|286:59|291:121|291:121|280:85|234:50,1,180,2|10,1:2|0:0,0:0:0:0:
398,76,160441,1,2,0:0:0:0:
274,249,160618,2,0,P|326:263|373:281,1,90,2|0,1:2|0:0,0:0:0:0:
155,136,160971,2,0,P|143:179|128:221,1,90,10|2,0:0|0:0,0:0:0:0:
268,114,161324,5,2,1:2:0:0:
144,54,161500,1,2,0:0:0:0:
129,222,161677,1,10,0:0:0:0:
354,161,161853,1,2,0:0:0:0:
210,293,162030,6,0,P|294:289|369:366,1,180,2|10,1:2|0:0,0:0:0:0:
121,353,162559,1,0,1:2:0:0:
121,353,162647,1,0,1:2:0:0:
121,353,162735,2,0,P|108:294|112:249,1,90,2|0,1:2|0:0,0:0:0:0:
188,89,163088,5,10,0:0:0:0:
219,187,163265,1,2,0:0:0:0:
0,121,163441,1,2,1:2:0:0:
90,0,163618,1,0,0:0:0:0:
25,219,163794,1,10,0:0:0:0:
244,166,163971,1,0,1:2:0:0:
244,166,164059,1,0,1:2:0:0:
244,166,164147,6,0,P|297:202|381:201,1,135,6|0,1:2|0:0,0:0:0:0:
390,185,164500,2,0,P|401:129|401:82,1,90,10|0,0:0|0:0,0:0:0:0:
268,285,164853,2,0,P|215:321|131:320,1,135,2|0,1:2|0:0,0:0:0:0:
124,303,165206,2,0,P|113:247|113:200,1,90,10|0,0:0|0:0,0:0:0:0:
226,17,165559,6,0,P|221:101|195:214,1,180,2|10,1:2|0:0,0:0:0:0:
319,98,166088,1,2,1:2:0:0:
319,98,166177,1,0,1:2:0:0:
319,98,166265,1,2,1:2:0:0:
367,284,166441,1,0,0:0:0:0:
119,227,166618,1,10,0:0:0:0:
301,179,166794,5,2,0:0:0:0:
226,358,166971,2,0,P|220:311|211:269,1,80.9999975280763,6|2,1:2|0:0,0:0:0:0:
171,136,167324,2,0,P|166:176|158:215,1,80.9999975280763,2|2,0:0|1:2,0:0:0:0:
388,159,167677,2,0,P|330:97|255:109,1,161.999995056153,10|2,0:0|0:0,0:0:0:0:
259,106,168206,1,2,1:2:0:0:
298,283,168382,5,2,0:0:0:0:
318,204,168559,1,2,1:2:0:0:
240,225,168735,1,2,0:0:0:0:
297,311,168912,1,2,1:2:0:0:
413,198,169088,6,0,P|391:144|296:115,1,161.999995056153,10|2,0:0|1:2,0:0:0:0:
157,65,169618,1,2,0:0:0:0:
157,65,169794,2,0,P|165:117|179:154,1,80.9999975280763,2|0,1:2|0:0,0:0:0:0:
303,212,170147,2,0,P|297:252|285:290,1,80.9999975280763,2|2,0:0|1:2,0:0:0:0:
159,356,170500,2,0,B|116:341|78:339,1,80.9999975280763,10|0,0:0|0:0,0:0:0:0:
169,245,170853,1,2,1:2:0:0:
31,155,171030,1,0,1:2:0:0:
31,155,171382,5,10,0:0:0:0:
198,88,171559,1,2,1:2:0:0:
290,223,171735,1,2,0:0:0:0:
356,74,171912,5,2,0:0:0:0:
175,184,172088,1,10,0:0:0:0:
80,14,172265,1,10,0:0:0:0:
117,255,172441,5,10,0:0:0:0:
117,255,172530,1,8,0:0:0:0:
117,255,172618,2,0,P|167:211|276:230,1,161.999995056153,4|8,1:2|0:0,0:0:0:0:
205,323,173147,1,2,1:2:0:0:
373,314,173324,2,0,P|326:301|279:294,1,80.9999975280763,2|0,0:0|1:2,0:0:0:0:
469,280,173677,2,0,P|470:323|465:360,1,80.9999975280763,8|0,0:0|0:0,0:0:0:0:
350,216,174030,6,0,P|326:138|372:59,1,161.999995056153,0|8,1:2|0:0,0:0:0:0:
231,127,174559,2,0,P|138:129|58:79,1,161.999995056153,0|0,1:2|1:2,0:0:0:0:
173,29,175088,1,8,0:0:0:0:
422,119,175441,6,0,P|422:169|407:205,1,80.9999975280763,2|0,1:2|0:0,0:0:0:0:
309,180,175794,2,0,P|307:139|319:101,1,80.9999975280763,10|0,0:0|1:2,0:0:0:0:
195,191,176147,2,0,P|207:229|205:269,1,80.9999975280763,2|0,0:0|1:2,0:0:0:0:
103,287,176500,2,0,P|90:248|92:208,1,80.9999975280763,10|0,0:0|0:0,0:0:0:0:
309,180,176853,5,8,0:0:0:0:
309,180,177559,2,0,L|323:114,1,40.4999987640381,10|8,0:0|0:0,0:0:0:0:
183,82,177735,2,0,L|191:121,1,40.4999987640381,8|8,0:0|0:0,0:0:0:0:
241,306,177912,1,8,0:0:0:0:
275,284,178000,1,8,0:0:0:0:
315,280,178088,1,8,0:0:0:0:
355,287,178177,1,8,0:0:0:0:
388,310,178265,5,4,1:2:0:0:
62,65,186735,6,0,P|75:114|77:135,1,67.5000025749208,2|0,1:2|0:0,0:0:0:0:
71,55,187088,2,0,P|80:87|85:120,1,67.5000025749208,2|0,0:0|1:2,0:0:0:0:
174,162,187441,2,0,P|178:128|188:96,1,67.5000025749208,10|0,0:0|0:0,0:0:0:0:
183,172,187794,2,0,P|187:138|197:106,1,67.5000025749208,2|0,0:0|1:2,0:0:0:0:
278,34,188147,2,0,P|287:66|292:99,1,67.5000025749208,2|0,0:0|1:2,0:0:0:0:
287,24,188500,2,0,P|296:56|301:89,1,67.5000025749208,2|0,0:0|1:2,0:0:0:0:
353,191,188853,5,10,0:0:0:0:
457,99,189030,1,0,1:2:0:0:
510,271,189206,2,0,L|466:263,1,33.7500012874604,10|8,0:0|0:0,0:0:0:0:
262,232,189382,1,0,1:2:0:0:
366,162,189559,6,0,P|386:225|367:318,1,135.000005149842,6|2,1:2|0:0,0:0:0:0:
220,357,190088,1,2,1:2:0:0:
309,350,190265,2,0,P|251:316|172:317,1,135.000005149842,10|0,0:0|0:0,0:0:0:0:
3,311,190794,1,0,1:2:0:0:
79,228,190971,2,0,P|88:284|91:321,2,67.5000025749208,2|2|2,0:0|1:2|0:0,0:0:0:0:
1,173,191500,1,2,1:2:0:0:
99,49,191677,2,0,P|167:47|223:105,1,135.000005149842,8|0,0:0|1:2,0:0:0:0:
297,33,192206,5,0,0:0:0:0:
370,80,192382,1,2,1:2:0:0:
210,180,192559,2,0,P|257:167|351:168,1,135.000005149842,2|2,0:0|1:2,0:0:0:0:
444,231,193088,1,10,0:0:0:0:
444,231,193265,2,0,P|463:195|426:100,1,135.000005149842,2|2,0:0|1:2,0:0:0:0:
246,30,193794,6,0,P|257:88|264:112,1,67.5000025749208,2|0,0:0|1:2,0:0:0:0:
342,166,194147,2,0,P|349:133|355:99,1,67.5000025749208,2|0,0:0|1:2,0:0:0:0:
207,190,194500,2,0,P|141:162|63:173,1,135.000005149842,10|0,0:0|1:2,0:0:0:0:
47,75,198030,38,0,P|107:91|135:100,1,67.5000025749208,2|2,1:2|0:0,0:0:0:0:
108,119,198382,2,0,P|140:110|173:101,1,67.5000025749208,2|0,0:0|1:2,0:0:0:0:
281,96,198735,2,0,P|265:156|256:184,1,67.5000025749208,10|2,0:0|0:0,0:0:0:0:
237,157,199087,2,0,P|245:189|254:222,1,67.5000025749208,2|0,0:0|1:2,0:0:0:0:
239,318,199441,2,0,P|179:302|151:293,1,67.5000025749208,2|2,0:0|1:2,0:0:0:0:
178,274,199793,2,0,P|145:282|112:291,1,67.5000025749208,2|0,0:0|1:2,0:0:0:0:
254,222,200147,5,10,0:0:0:0:
180,100,200324,1,2,1:2:0:0:
334,130,200500,2,0,L|323:191,1,33.7500012874604,10|8,0:0|0:0,0:0:0:0:
239,318,200677,1,0,1:2:0:0:
399,245,200853,6,0,P|417:296|397:390,1,135.000005149842,6|2,1:2|0:0,0:0:0:0:
321,310,201382,1,2,1:2:0:0:
330,179,201559,2,0,P|386:151|475:187,1,135.000005149842,10|0,0:0|0:0,0:0:0:0:
321,310,202088,5,0,1:2:0:0:
234,246,202265,2,0,P|209:176|239:97,1,135.000005149842,2|2,0:0|0:0,0:0:0:0:
330,179,202794,1,2,1:2:0:0:
365,84,202971,2,0,P|359:142|355:165,1,67.5000025749208,8|0,0:0|0:0,0:0:0:0:
431,288,203324,2,0,P|426:254|423:220,1,67.5000025749208,0|0,1:2|0:0,0:0:0:0:
488,152,203677,5,2,1:2:0:0:
339,259,203853,2,0,P|241:251|211:215,1,135.000005149842,2|2,0:0|1:2,0:0:0:0:
152,168,204382,1,10,0:0:0:0:
55,202,204559,2,0,P|60:164|58:127,1,67.5000025749208,2|0,0:0|0:0,0:0:0:0:
58,134,204912,1,2,1:2:0:0:
143,26,205088,6,0,P|181:45|215:52,1,67.5000025749208,2|0,0:0|1:2,0:0:0:0:
347,59,205441,2,0,P|309:78|275:85,1,67.5000025749208,2|0,0:0|1:2,0:0:0:0:
206,267,205794,2,0,P|213:194|217:110,1,135.000005149842,10|0,0:0|1:2,0:0:0:0:
59,277,209324,38,0,L|134:304,1,67.5000025749208,2|2,1:2|0:0,0:0:0:0:
186,362,209677,2,0,L|249:339,1,67.5000025749208,2|0,0:0|1:2,0:0:0:0:
340,384,210030,2,0,L|367:309,1,67.5000025749208,10|2,0:0|0:0,0:0:0:0:
425,257,210381,2,0,L|402:193,1,67.5000025749208,2|0,0:0|1:2,0:0:0:0:
448,108,210735,2,0,L|373:81,1,67.5000025749208,2|2,0:0|1:2,0:0:0:0:
321,23,211088,2,0,L|257:45,1,67.5000025749208,2|0,0:0|1:2,0:0:0:0:
180,231,211441,5,10,0:0:0:0:
72,56,211618,1,2,1:2:0:0:
201,119,211794,1,10,0:0:0:0:
201,119,211882,1,8,0:0:0:0:
201,119,211971,1,0,1:2:0:0:
100,286,212147,6,0,P|142:327|233:312,1,135.000005149842,6|2,1:2|0:0,0:0:0:0:
214,324,212677,1,2,1:2:0:0:
327,243,212853,2,0,P|336:321|314:389,1,135.000005149842,10|0,0:0|0:0,0:0:0:0:
490,294,213382,1,0,1:2:0:0:
490,294,213559,2,0,P|437:305|403:309,2,67.5000025749208,2|2|2,0:0|1:2|0:0,0:0:0:0:
445,203,214088,1,2,1:2:0:0:
327,243,214265,2,0,P|311:183|333:103,1,135.000005149842,8|0,0:0|1:2,0:0:0:0:
163,220,214971,5,2,1:2:0:0:
186,143,215147,2,0,P|202:196|179:296,1,135.000005149842,2|2,0:0|1:2,0:0:0:0:
72,335,215677,1,10,0:0:0:0:
72,335,215853,2,0,P|110:336|151:344,1,67.5000025749208,2|0,0:0|0:0,0:0:0:0:
190,273,216206,1,2,1:2:0:0:
73,173,216382,6,0,P|86:215|87:247,1,67.5000025749208,2|0,0:0|1:2,0:0:0:0:
204,207,216735,2,0,P|200:240|189:272,1,67.5000025749208,2|0,0:0|1:2,0:0:0:0:
311,174,217088,2,0,P|276:118|186:100,1,135.000005149842,10|0,0:0|1:2,0:0:0:0:
300,284,220618,70,0,P|339:290|366:304,1,67.5000025749208,2|0,1:2|0:0,0:0:0:0:
318,220,220971,2,0,P|303:250|299:283,1,67.5000025749208,2|0,0:0|1:2,0:0:0:0:
196,277,221324,2,0,P|202:316|216:343,1,67.5000025749208,10|0,0:0|0:0,0:0:0:0:
132,295,221677,2,0,P|162:280|195:276,1,67.5000025749208,2|0,0:0|1:2,0:0:0:0:
81,223,222030,2,0,P|42:229|15:243,1,67.5000025749208,2|0,0:0|1:2,0:0:0:0:
63,159,222381,2,0,P|77:189|81:222,1,67.5000025749208,2|0,0:0|1:2,0:0:0:0:
163,71,222735,5,10,0:0:0:0:
227,196,222912,1,0,1:2:0:0:
361,137,223088,2,0,L|347:199,1,33.7500012874604,10|8,0:0|0:0,0:0:0:0:
311,329,223265,1,0,1:2:0:0:
147,253,223441,6,0,P|212:235|301:245,1,135.000005149842,6|2,1:2|0:0,0:0:0:0:
229,144,223971,1,2,1:2:0:0:
363,186,224147,2,0,P|381:249|356:310,1,135.000005149842,10|0,0:0|0:0,0:0:0:0:
356,310,224677,1,0,1:2:0:0:
462,277,224853,6,0,P|468:236|469:201,2,67.5000025749208,2|2|2,0:0|1:2|0:0,0:0:0:0:
512,346,225382,1,2,1:2:0:0:
364,339,225559,2,0,P|319:309|221:313,1,135.000005149842,8|0,0:0|1:2,0:0:0:0:
170,349,226088,1,0,0:0:0:0:
70,272,226265,5,2,1:2:0:0:
70,272,226441,2,0,L|89:124,1,135.000005149842,2|2,0:0|1:2,0:0:0:0:
130,34,226971,1,10,0:0:0:0:
0,24,227147,2,0,P|41:58|133:45,1,135.000005149842,2|2,0:0|1:2,0:0:0:0:
228,39,227677,6,0,P|226:81|235:113,1,67.5000025749208,2|0,0:0|1:2,0:0:0:0:
348,150,228030,2,0,P|376:131|397:105,1,67.5000025749208,2|0,0:0|1:2,0:0:0:0:
260,204,228382,2,0,P|256:275|241:366,1,135.000005149842,10|0,0:0|1:2,0:0:0:0:
44,284,231912,22,0,P|36:245|32:212,1,67.5000025749208,2|2,1:2|0:0,0:0:0:0:
95,163,232265,2,0,P|103:124|107:91,1,67.5000025749208,2|0,0:0|1:2,0:0:0:0:
183,40,232618,2,0,P|222:32|255:28,1,67.5000025749208,10|2,0:0|0:0,0:0:0:0:
304,91,232971,2,0,P|343:99|376:103,1,67.5000025749208,2|0,0:0|1:2,0:0:0:0:
442,161,233324,2,0,P|450:200|454:233,1,67.5000025749208,2|2,0:0|1:2,0:0:0:0:
391,282,233677,2,0,P|383:321|379:354,1,67.5000025749208,2|0,0:0|1:2,0:0:0:0:
279,257,234030,5,10,0:0:0:0:
379,348,234206,1,2,1:2:0:0:
170,291,234382,2,0,L|180:243,1,33.7500012874604,10|8,0:0|0:0,0:0:0:0:
276,122,234559,1,0,1:2:0:0:
133,174,234735,6,0,P|67:185|12:124,1,135.000005149842,6|2,1:2|0:0,0:0:0:0:
18,143,235265,1,2,1:2:0:0:
106,36,235441,2,0,P|96:83|88:112,1,67.5000025749208,10|0,0:0|0:0,0:0:0:0:
211,65,235794,2,0,P|202:32|195:0,1,67.5000025749208,0|0,0:0|1:2,0:0:0:0:
310,102,236147,5,2,0:0:0:0:
401,58,236324,1,2,1:2:0:0:
298,117,236500,1,2,0:0:0:0:
444,177,236677,1,2,1:2:0:0:
348,195,236853,2,0,P|333:237|345:341,1,135.000005149842,8|0,0:0|1:2,0:0:0:0:
85,189,237559,5,2,1:2:0:0:
167,169,237735,2,0,P|126:114|46:116,1,135.000005149842,2|2,0:0|1:2,0:0:0:0:
138,258,238265,1,10,0:0:0:0:
85,189,238441,2,0,P|87:230|103:330,1,135.000005149842,2|2,0:0|1:2,0:0:0:0:
195,360,238971,6,0,P|236:349|274:343,1,67.5000025749208,2|0,0:0|1:2,0:0:0:0:
312,244,239324,2,0,P|344:253|377:259,1,67.5000025749208,2|0,0:0|1:2,0:0:0:0:
483,326,239677,2,0,P|498:261|482:194,1,135.000005149842,10|0,0:0|1:2,0:0:0:0:
116,118,243206,54,0,P|159:133|176:164,1,67.5000025749208,2|0,1:2|0:0,0:0:0:0:
240,76,243559,2,0,P|259:117|249:150,1,67.5000025749208,2|0,1:2|0:0,0:0:0:0:
355,140,243912,2,0,P|339:183|309:200,1,67.5000025749208,10|0,0:0|1:2,0:0:0:0:
396,263,244265,2,0,P|354:282|321:272,1,67.5000025749208,2|0,0:0|1:2,0:0:0:0:
256,137,244618,5,2,0:0:0:0:
232,247,244794,1,8,0:0:0:0:
153,164,244971,1,10,0:0:0:0:
182,315,245147,1,8,0:0:0:0:
80,134,245324,1,10,0:0:0:0:
35,353,245500,1,8,0:0:0:0:
16,78,245677,1,10,0:0:0:0:
16,78,245765,1,8,0:0:0:0:
16,78,245853,1,8,0:0:0:0:
16,78,245941,1,8,0:0:0:0:
16,78,246030,6,0,P|77:90|114:101,1,90,6|2,1:2|0:0,0:0:0:0:
210,31,246382,1,10,0:0:0:0:
253,225,246559,1,0,1:2:0:0:
390,126,246735,2,0,P|329:138|292:149,1,90,2|0,0:0|1:2,0:0:0:0:
174,257,247088,2,0,P|130:245|86:237,1,90,10|0,0:0|0:0,0:0:0:0:
151,152,247441,5,2,1:2:0:0:
151,152,247618,1,2,0:0:0:0:
277,335,247794,2,0,P|289:287|296:242,1,90,10|0,0:0|1:2,0:0:0:0:
381,166,248147,1,2,0:0:0:0:
253,62,248324,1,0,1:2:0:0:
432,108,248500,2,0,B|432:154|432:154|403:217,1,90,10|0,0:0|0:0,0:0:0:0:
277,335,248853,6,0,P|364:320|439:366,1,180,2|10,1:2|0:0,0:0:0:0:
313,232,249382,1,0,1:2:0:0:
160,278,249559,1,2,0:0:0:0:
326,154,249735,1,2,1:2:0:0:
206,74,249912,2,0,P|212:118|223:163,1,90,10|0,0:0|0:0,0:0:0:0:
417,83,250265,6,0,P|342:68|318:58,1,90,2|0,1:2|0:0,0:0:0:0:
347,177,250618,1,8,0:0:0:0:
145,196,250794,2,0,P|189:202|232:215,1,90,2|2,1:2|0:0,0:0:0:0:
111,273,251147,5,2,1:2:0:0:
232,215,251324,1,8,0:0:0:0:
63,119,251500,1,10,0:0:0:0:
30,340,251677,2,0,P|87:294|208:342,1,180,0|8,1:2|0:0,0:0:0:0:
325,200,252206,2,0,P|273:189|229:183,1,90,0|0,1:2|0:0,0:0:0:0:
444,165,252559,21,0,1:2:0:0:
444,165,252735,2,0,P|433:217|427:261,1,90,8|0,0:0|0:0,0:0:0:0:
319,382,253088,2,0,P|312:337|302:293,2,90,0|0|8,1:2|0:0|0:0,0:0:0:0:
190,235,253618,2,0,P|237:184|350:179,1,180,0|0,1:2|1:2,0:0:0:0:
160,56,254147,1,8,0:0:0:0:
249,143,254324,1,0,0:0:0:0:
81,217,254500,54,0,P|65:261|62:305,1,90,2|2,1:2|0:0,0:0:0:0:
177,379,254853,2,0,P|193:335|196:291,1,90,10|8,0:0|0:0,0:0:0:0:
316,210,255206,2,0,P|319:254|335:296,1,90,2|2,0:0|1:2,0:0:0:0:
450,221,255559,2,0,P|446:176|430:134,1,90,10|0,0:0|0:0,0:0:0:0:
316,210,255912,5,2,1:2:0:0:
251,49,256088,1,10,0:0:0:0:
347,111,256265,1,10,0:0:0:0:
141,208,256441,1,0,1:2:0:0:
241,128,256618,1,10,0:0:0:0:
248,346,256794,1,2,1:2:0:0:
225,227,256971,1,10,0:0:0:0:
225,227,257059,1,8,0:0:0:0:
225,227,257147,1,8,0:0:0:0:
397,259,257324,6,0,P|333:265|288:274,1,90,6|2,1:2|0:0,0:0:0:0:
139,189,257677,2,0,P|142:144|149:99,1,90,10|0,0:0|1:2,0:0:0:0:
212,13,258030,1,2,0:0:0:0:
290,148,258206,1,0,1:2:0:0:
392,87,258382,2,0,P|331:76|295:66,1,90,10|0,0:0|0:0,0:0:0:0:
396,250,258735,5,2,1:2:0:0:
491,159,258912,1,2,0:0:0:0:
320,213,259088,1,10,0:0:0:0:
408,358,259265,1,0,1:2:0:0:
492,263,259441,2,0,P|424:273|393:281,1,90,2|0,0:0|1:2,0:0:0:0:
254,167,259794,2,0,P|297:176|342:182,1,90,10|0,0:0|0:0,0:0:0:0:
157,78,260147,6,0,P|151:134|138:176,2,90,2|0|10,1:2|0:0|0:0,0:0:0:0:
231,205,260677,1,0,1:2:0:0:
53,254,260853,2,0,P|41:210|37:165,2,90,2|2|10,0:0|1:2|0:0,0:0:0:0:
175,288,261382,5,0,0:0:0:0:
141,166,261559,1,2,1:2:0:0:
271,273,261735,1,0,0:0:0:0:
79,368,261912,1,8,0:0:0:0:
155,271,262088,2,0,P|209:284|266:290,1,90,2|2,1:2|0:0,0:0:0:0:
354,200,262441,1,2,1:2:0:0:
319,384,262618,2,0,P|338:313|319:197,1,180,8|0,0:0|1:2,0:0:0:0:
221,128,263147,5,0,0:0:0:0:
112,184,263324,1,8,0:0:0:0:
101,39,263500,1,0,1:2:0:0:
211,153,263677,5,0,0:0:0:0:
31,214,263853,1,0,1:2:0:0:
252,288,264030,1,8,0:0:0:0:
128,204,264206,2,0,B|119:155|119:155|124:103,1,90,0|0,0:0|1:2,0:0:0:0:
231,15,264559,2,0,P|278:34|320:42,1,90,0|8,0:0|0:0,0:0:0:0:
374,192,264912,2,0,P|285:198|244:127,1,180,0|0,1:2|1:2,0:0:0:0:
400,3,265441,1,8,0:0:0:0:
400,3,265794,54,0,P|411:60|427:104,1,90,2|2,1:2|0:0,0:0:0:0:
474,230,266147,2,0,P|487:187|495:142,1,90,10|8,0:0|0:0,0:0:0:0:
285,254,266500,2,0,P|342:265|386:281,1,90,2|2,0:0|1:2,0:0:0:0:
512,328,266853,2,0,P|469:341|424:349,1,90,10|0,0:0|0:0,0:0:0:0:
285,254,267206,5,2,1:2:0:0:
331,162,267382,1,10,0:0:0:0:
256,84,267559,1,10,0:0:0:0:
172,178,267735,1,0,1:2:0:0:
405,232,267912,1,10,0:0:0:0:
341,21,268088,1,2,1:2:0:0:
256,174,268265,1,10,0:0:0:0:
256,174,268353,1,8,0:0:0:0:
256,174,268441,1,8,0:0:0:0:
433,125,268618,6,0,P|374:117|337:104,1,90,6|2,1:2|0:0,0:0:0:0:
253,23,268971,1,10,0:0:0:0:
345,107,269147,1,0,1:2:0:0:
177,235,269324,2,0,P|160:172|172:120,1,90,2|0,0:0|1:2,0:0:0:0:
330,20,269677,2,0,P|347:83|335:135,1,90,10|0,0:0|0:0,0:0:0:0:
290,202,270030,5,2,1:2:0:0:
470,287,270206,1,2,0:0:0:0:
402,174,270381,1,10,0:0:0:0:
285,312,270559,1,0,1:2:0:0:
496,318,270735,2,0,P|425:305|402:299,1,90,2|0,0:0|1:2,0:0:0:0:
221,274,271088,2,0,P|292:261|315:255,1,90,10|0,0:0|0:0,0:0:0:0:
243,81,271441,6,0,P|247:154|245:182,1,90,2|0,1:2|0:0,0:0:0:0:
72,53,271794,1,10,0:0:0:0:
152,127,271971,1,0,1:2:0:0:
26,245,272147,1,2,0:0:0:0:
26,245,272324,1,2,1:2:0:0:
189,229,272500,2,0,P|194:290|181:324,1,90,10|0,0:0|0:0,0:0:0:0:
396,218,272853,5,2,1:2:0:0:
338,121,273030,1,0,0:0:0:0:
273,278,273206,1,8,0:0:0:0:
473,290,273382,2,0,P|491:243|486:188,1,90,2|2,1:2|0:0,0:0:0:0:
377,237,273735,1,2,1:2:0:0:
307,98,273912,2,0,P|371:113|410:122,1,90,8|10,0:0|0:0,0:0:0:0:
218,169,274265,6,0,P|184:108|228:10,1,180,0|8,1:2|0:0,0:0:0:0:
300,226,274794,2,0,P|219:201|102:225,1,180,0|0,1:2|1:2,0:0:0:0:
197,294,275324,1,8,0:0:0:0:
38,223,275500,1,0,0:0:0:0:
197,294,275677,6,0,P|210:243|212:201,1,90,0|0,1:2|0:0,0:0:0:0:
137,108,276030,1,8,0:0:0:0:
267,17,276206,2,0,P|331:10|417:97,1,180,0|0,1:2|1:2,0:0:0:0:
482,212,276735,2,0,P|427:202|387:198,1,90,8|0,0:0|0:0,0:0:0:0:
256,104,277088,54,0,P|262:162|276:205,1,90,2|8,1:2|0:0,0:0:0:0:
393,198,277441,2,0,P|387:256|373:299,1,90,10|0,0:0|1:2,0:0:0:0:
248,366,277794,2,0,P|244:321|233:277,1,90,2|0,0:0|1:2,0:0:0:0:
128,209,278147,2,0,P|116:252|113:297,1,90,10|0,0:0|0:0,0:0:0:0:
26,150,278500,5,2,1:2:0:0:
101,80,278677,1,8,0:0:0:0:
227,168,278853,1,10,0:0:0:0:
157,15,279030,1,0,1:2:0:0:
274,85,279206,1,10,0:0:0:0:
131,222,279382,1,8,0:0:0:0:
341,137,279559,1,10,0:0:0:0:
341,137,279647,1,8,0:0:0:0:
341,137,279735,1,8,0:0:0:0:
229,257,279912,6,0,P|234:300|243:348,1,90,6|2,1:2|0:0,0:0:0:0:
312,162,280265,2,0,P|319:117|325:73,1,90,10|0,0:0|1:2,0:0:0:0:
186,155,280618,2,0,P|142:160|95:169,1,90,2|0,0:0|1:2,0:0:0:0:
347,239,280971,2,0,P|391:246|435:252,1,90,10|0,0:0|0:0,0:0:0:0:
149,255,281324,5,2,1:2:0:0:
280,193,281500,1,2,0:0:0:0:
169,67,281677,2,0,P|171:111|185:154,1,90,10|0,0:0|1:2,0:0:0:0:
400,354,282030,5,2,0:0:0:0:
269,292,282206,1,0,1:2:0:0:
380,166,282381,2,0,P|377:210|363:253,1,90,10|0,0:0|0:0,0:0:0:0:
463,96,282735,6,0,P|403:90|365:77,1,90,2|0,1:2|0:0,0:0:0:0:
256,15,283088,1,10,0:0:0:0:
168,161,283265,1,0,1:2:0:0:
273,107,283441,1,2,0:0:0:0:
292,276,283618,1,2,1:2:0:0:
94,211,283794,2,0,P|158:209|194:215,1,90,10|0,0:0|0:0,0:0:0:0:
312,255,284147,5,2,1:2:0:0:
276,133,284324,1,8,0:0:0:0:
187,293,284500,1,8,0:0:0:0:
392,347,284677,2,0,P|401:295|414:256,1,90,2|2,1:2|0:0,0:0:0:0:
464,172,285030,1,2,1:2:0:0:
304,78,285206,2,0,P|317:120|324:165,1,90,8|10,0:0|0:0,0:0:0:0:
168,264,285559,6,0,P|75:262|47:181,1,180,0|8,1:2|0:0,0:0:0:0:
149,8,286088,2,0,P|135:92|125:196,1,180,0|0,1:2|1:2,0:0:0:0:
260,317,286618,2,0,P|259:261|255:222,1,90,8|0,0:0|0:0,0:0:0:0:
341,120,286971,5,0,1:2:0:0:
440,195,287147,1,0,0:0:0:0:
405,51,287324,1,8,0:0:0:0:
253,85,287500,2,0,P|322:74|423:112,1,180,0|0,1:2|1:2,0:0:0:0:
181,150,288030,2,0,P|157:95|161:53,1,90,8|0,0:0|0:0,0:0:0:0:
294,278,288382,54,0,P|282:326|277:379,1,90,2|10,1:2|0:0,0:0:0:0:
318,165,288735,2,0,P|330:117|335:64,1,90,10|8,0:0|0:0,0:0:0:0:
216,221,289088,2,0,P|172:232|127:237,1,90,2|2,0:0|1:2,0:0:0:0:
402,213,289441,2,0,P|445:201|490:196,1,90,10|0,0:0|0:0,0:0:0:0:
326,132,289794,5,2,1:2:0:0:
423,67,289971,1,10,0:0:0:0:
396,244,290147,2,0,L|344:231,1,45,10|8,0:0|0:0,0:0:0:0:
190,138,290324,1,0,1:2:0:0:
287,47,290500,1,10,0:0:0:0:
254,262,290677,1,10,0:0:0:0:
60,204,290853,1,10,0:0:0:0:
60,204,290941,1,8,0:0:0:0:
60,204,291030,1,8,0:0:0:0:
116,73,291206,6,0,P|130:138|141:168,1,90,6|2,1:2|0:0,0:0:0:0:
193,328,291559,2,0,P|206:285|214:240,1,90,10|0,0:0|1:2,0:0:0:0:
315,148,291912,1,2,0:0:0:0:
214,240,292088,1,0,1:2:0:0:
394,290,292265,2,0,P|419:243|413:181,1,90,10|0,0:0|0:0,0:0:0:0:
264,64,292618,5,2,1:2:0:0:
318,219,292794,1,2,0:0:0:0:
484,142,292971,1,10,0:0:0:0:
394,25,293147,1,0,1:2:0:0:
228,151,293324,6,0,P|166:142|121:138,1,90,2|0,0:0|1:2,0:0:0:0:
156,339,293677,2,0,P|162:294|167:249,1,90,10|0,0:0|0:0,0:0:0:0:
46,76,294030,6,0,P|31:136|46:184,1,90,2|0,1:2|0:0,0:0:0:0:
167,249,294382,1,10,0:0:0:0:
11,343,294559,1,0,1:2:0:0:
167,249,294735,2,0,P|224:257|266:270,1,90,2|2,0:0|1:2,0:0:0:0:
386,153,295088,2,0,P|342:164|297:169,1,90,10|0,0:0|0:0,0:0:0:0:
323,72,295441,5,2,1:2:0:0:
436,10,295618,1,8,0:0:0:0:
470,173,295794,1,8,0:0:0:0:
234,106,295971,2,0,P|182:76|47:78,1,180,2|2,1:2|1:2,0:0:0:0:
114,265,296500,2,0,P|118:210|125:167,1,90,8|10,0:0|0:0,0:0:0:0:
310,220,296853,5,0,1:2:0:0:
333,60,297030,1,0,0:0:0:0:
194,124,297206,1,8,0:0:0:0:
328,191,297382,5,0,1:2:0:0:
249,49,297559,1,0,0:0:0:0:
146,193,297735,1,0,1:2:0:0:
383,254,297912,2,0,P|322:238|279:237,1,90,8|0,0:0|0:0,0:0:0:0:
351,41,298265,6,0,P|350:99|343:140,1,90,0|0,1:2|0:0,0:0:0:0:
225,73,298618,1,8,0:0:0:0:
177,259,298794,2,0,P|176:214|182:169,1,90,0|0,1:2|0:0,0:0:0:0:
295,236,299147,1,0,1:2:0:0:
96,299,299324,1,8,0:0:0:0:
79,102,299500,5,8,0:0:0:0:
79,102,299588,1,8,0:0:0:0:
79,102,299677,1,4,1:2:0:0:
152,154,299853,1,0,1:2:0:0:
240,134,300030,1,8,0:0:0:0:
280,53,300206,1,0,1:2:0:0:
338,148,300382,5,0,1:2:0:0:
194,72,300559,1,0,1:2:0:0:
272,227,300735,1,8,0:0:0:0:
140,290,300912,2,0,L|150:341,1,45,8|8,0:0|0:0,0:0:0:0:
351,289,301088,5,0,1:2:0:0:
186,229,301265,1,8,0:0:0:0:
340,133,301441,1,8,0:0:0:0:
142,162,301618,1,8,0:0:0:0:
394,69,301794,1,8,0:0:0:0:
109,9,301971,1,8,0:0:0:0:
109,9,302059,1,8,0:0:0:0:
109,9,302147,2,0,L|159:30,1,45,8|8,0:0|0:0,0:0:0:0:
236,114,302324,2,0,L|277:96,1,45,8|8,0:0|0:0,0:0:0:0:
418,36,302500,6,0,L|405:99,1,45,6|2,1:2|0:0,0:0:0:0:
341,172,302676,1,2,0:0:0:0:
482,253,302853,1,10,0:0:0:0:
482,253,302941,1,2,0:0:0:0:
482,253,303030,1,2,0:0:0:0:
275,224,303206,2,0,L|289:158,1,45,2|2,1:2|0:0,0:0:0:0:
310,91,303382,1,2,0:0:0:0:
305,323,303559,2,0,P|256:324|217:306,1,90,8|0,0:0|0:0,0:0:0:0:
29,266,303911,6,0,L|46:321,2,45,2|2|2,1:2|0:0|0:0,0:0:0:0:
179,169,304264,2,0,L|166:212,2,45,10|2|2,0:0|0:0|0:0,0:0:0:0:
46,78,304617,2,0,L|63:133,2,45,2|2|2,1:2|0:0|0:0,0:0:0:0:
266,147,304971,2,0,P|197:167|142:166,1,90,8|0,0:0|0:0,0:0:0:0:
292,30,305324,5,2,1:2:0:0:
292,30,305412,1,2,0:0:0:0:
292,30,305500,1,2,0:0:0:0:
406,119,305677,1,10,0:0:0:0:
406,119,305765,1,2,0:0:0:0:
406,119,305853,1,2,0:0:0:0:
265,244,306030,1,2,1:2:0:0:
265,244,306118,1,2,0:0:0:0:
265,244,306206,1,2,0:0:0:0:
470,178,306382,2,0,P|479:221|469:265,1,90,8|0,0:0|0:0,0:0:0:0:
265,146,306734,6,0,L|206:127,1,45,2|2,1:2|0:0,0:0:0:0:
142,150,306911,1,2,0:0:0:0:
77,28,307087,6,0,L|92:78,1,45,10|2,0:0|0:0,0:0:0:0:
142,150,307265,1,2,0:0:0:0:
95,268,307441,6,0,L|107:224,1,45,2|2,1:2|0:0,0:0:0:0:
142,150,307618,1,2,0:0:0:0:
278,252,307794,2,0,P|233:253|166:263,1,90,8|0,0:0|0:0,0:0:0:0:
230,56,308147,6,0,L|276:76,1,45,6|2,1:2|0:0,0:0:0:0:
366,108,308324,1,2,0:0:0:0:
490,68,308500,6,0,L|443:86,1,45,10|2,0:0|0:0,0:0:0:0:
358,127,308676,1,2,0:0:0:0:
217,204,308853,6,0,L|258:186,1,45,2|2,1:2|0:0,0:0:0:0:
352,151,309030,1,2,0:0:0:0:
484,245,309206,2,0,B|479:292|462:337,1,90,8|0,0:0|0:0,0:0:0:0:
228,311,309559,6,0,L|242:359,2,45,2|2|2,1:2|0:0|0:0,0:0:0:0:
382,238,309911,2,0,L|368:286,2,45,10|2|2,0:0|0:0|0:0,0:0:0:0:
242,121,310265,2,0,L|255:165,2,45,2|2|2,1:2|0:0|0:0,0:0:0:0:
126,269,310618,2,0,P|139:219|146:180,1,90,8|0,0:0|0:0,0:0:0:0:
64,95,310971,5,2,1:2:0:0:
64,95,311059,1,2,0:0:0:0:
64,95,311147,1,2,0:0:0:0:
190,15,311324,1,10,0:0:0:0:
190,15,311412,1,2,0:0:0:0:
190,15,311500,1,2,0:0:0:0:
315,92,311677,1,2,1:2:0:0:
315,92,311765,1,2,0:0:0:0:
315,92,311853,1,2,0:0:0:0:
456,25,312030,2,0,P|458:96|447:134,1,90,8|0,0:0|0:0,0:0:0:0:
360,253,312382,6,0,L|347:195,1,45,2|2,1:2|0:0,0:0:0:0:
315,92,312559,1,2,0:0:0:0:
207,232,312734,6,0,L|225:180,1,45,10|2,0:0|0:0,0:0:0:0:
266,17,312912,1,2,0:0:0:0:
78,115,313088,6,0,L|91:166,1,45,2|2,1:2|1:2,0:0:0:0:
207,232,313264,2,0,L|195:275,1,45,2|0,1:2|1:2,0:0:0:0:
45,384,313441,1,8,0:0:0:0:
9,355,313530,1,0,1:2:0:0:
1,310,313618,1,0,1:2:0:0:
24,271,313706,1,0,1:2:0:0:
66,256,313794,5,6,1:2:0:0:
171,351,313971,2,0,P|236:351|271:276,1,135.000005149842,2|2,0:0|1:2,0:0:0:0:
207,232,314500,1,10,0:0:0:0:
294,137,314677,2,0,P|358:141|422:202,1,135.000005149842,2|2,0:0|1:2,0:0:0:0:
464,261,315206,5,2,0:0:0:0:
325,220,315382,2,0,P|337:264|340:289,1,67.5000025749208,2|0,1:2|0:0,0:0:0:0:
445,287,315735,1,2,1:2:0:0:
308,361,315912,1,10,0:0:0:0:
445,287,316088,2,0,P|435:319|430:352,1,67.5000025749208,2|0,0:0|0:0,0:0:0:0:
430,352,316441,1,2,1:2:0:0:
512,213,316618,5,2,1:2:0:0:
512,213,316794,2,0,P|502:156|504:66,1,135.000005149842,2|2,0:0|1:2,0:0:0:0:
337,117,317324,1,10,0:0:0:0:
303,29,317500,2,0,P|355:28|424:99,1,135.000005149842,2|2,0:0|1:2,0:0:0:0:
234,187,318030,1,4,1:2:0:0:
234,187,318735,5,10,0:0:0:0:
234,187,318824,1,8,0:0:0:0:
234,187,318912,2,0,P|245:157|253:129,1,45,8|8,0:0|0:0,0:0:0:0:
96,277,319088,2,0,P|74:284|53:291,1,45,8|8,0:0|0:0,0:0:0:0:
252,370,319265,2,0,P|273:377|294:384,1,45,8|8,0:0|0:0,0:0:0:0:
195,271,319441,5,6,1:2:0:0:
153,110,319618,1,2,0:0:0:0:
349,132,319794,1,10,0:0:0:0:
184,286,319971,5,2,0:0:0:0:
168,92,320147,1,2,1:2:0:0:
355,153,320324,1,2,0:0:0:0:
162,279,320500,5,10,0:0:0:0:
194,94,320677,1,2,0:0:0:0:
347,174,320853,1,2,1:2:0:0:
219,199,321030,5,2,0:0:0:0:
375,78,321206,1,10,0:0:0:0:
230,177,321382,1,2,0:0:0:0:
456,225,321559,5,2,1:2:0:0:
283,98,321735,1,2,0:0:0:0:
469,209,321912,2,0,L|463:259,1,45,10|8,0:0|0:0,0:0:0:0:
262,105,322088,2,0,L|256:60,1,45,10|8,0:0|0:0,0:0:0:0:
364,158,322265,5,4,1:2:0:0:
211,228,322441,1,2,0:0:0:0:
296,332,322618,2,0,P|308:282|310:233,1,90,10|0,0:0|0:0,0:0:0:0:
112,156,322971,1,2,1:2:0:0:
112,156,323147,2,0,P|100:199|97:244,1,90,2|8,0:0|0:0,0:0:0:0:
284,111,323500,5,2,1:2:0:0:
284,111,323588,1,0,1:2:0:0:
284,111,323677,1,2,1:2:0:0:
221,23,323853,1,2,0:0:0:0:
187,194,324030,1,10,0:0:0:0:
409,150,324206,1,2,0:0:0:0:
271,128,324382,6,0,L|283:188,1,45,0|0,1:2|1:2,0:0:0:0:
351,292,324559,2,0,L|360:248,1,45,2|0,1:2|1:2,0:0:0:0:
426,134,324735,1,10,0:0:0:0:
238,278,324912,5,10,0:0:0:0:
238,278,325000,1,8,0:0:0:0:
238,278,325088,1,4,1:2:0:0:
179,183,325265,1,2,0:0:0:0:
63,213,325441,1,10,0:0:0:0:
201,102,325618,1,2,0:0:0:0:
45,30,325794,1,2,1:2:0:0:
0,263,325971,1,2,0:0:0:0:
89,148,326147,6,0,L|100:206,1,45,10|10,0:0|0:0,0:0:0:0:
196,260,326324,2,0,L|187:304,1,45,10|8,0:0|0:0,0:0:0:0:
356,197,326500,1,2,1:2:0:0:
243,101,326677,2,0,P|255:163|266:206,1,90,2|8,0:0|0:0,0:0:0:0:
328,18,327030,2,0,P|284:7|239:0,1,90,2|0,0:0|1:2,0:0:0:0:
57,88,327382,2,0,P|100:98|145:106,1,90,2|8,0:0|0:0,0:0:0:0:
245,267,327735,5,2,1:2:0:0:
245,267,327824,1,0,1:2:0:0:
245,267,327912,1,6,1:2:0:0:
163,222,328088,1,2,0:0:0:0:
296,191,328265,1,10,0:0:0:0:
144,246,328441,1,2,0:0:0:0:
360,269,328618,1,2,1:2:0:0:
137,145,328794,1,2,0:0:0:0:
363,62,328971,1,10,0:0:0:0:
290,320,329147,6,0,P|275:273|310:146,1,180,2|0,0:0|0:0,0:0:0:0:
468,256,329677,2,0,P|404:244|359:243,1,90,8|0,0:0|0:0,0:0:0:0:
450,139,330030,5,0,1:2:0:0:
380,336,330206,1,8,0:0:0:0:
380,336,330294,1,8,0:0:0:0:
380,336,330382,1,8,0:0:0:0:
434,114,330559,1,0,1:2:0:0:
398,364,330735,1,6,1:2:0:0:
264,201,342030,6,0,P|198:175|123:172,1,135.000005149842,4|8,1:2|0:0,0:0:0:0:
70,48,342559,2,0,P|136:74|211:77,1,135.000005149842,0|0,1:2|1:2,0:0:0:0:
273,22,343088,1,10,0:0:0:0:
416,83,343441,2,0,P|404:132|403:226,1,135.000005149842,2|8,1:2|0:0,0:0:0:0:
459,336,343971,2,0,P|471:289|473:258,1,67.5000025749208,2|0,1:2|0:0,0:0:0:0:
355,319,344324,1,0,1:2:0:0:
355,319,344500,2,0,P|359:352|368:384,1,67.5000025749208,10|0,0:0|0:0,0:0:0:0:
251,332,344853,6,0,P|195:301|106:311,1,135.000005149842,2|8,1:2|0:0,0:0:0:0:
41,350,345382,2,0,P|16:289|51:209,1,135.000005149842,2|0,1:2|1:2,0:0:0:0:
129,186,345912,2,0,P|153:137|147:87,1,101.250003862381,10|0,0:0|0:0,0:0:0:0:
127,70,346265,2,0,P|84:61|50:54,1,67.5000025749208,0|0,1:2|0:0,0:0:0:0:
210,13,346618,2,0,P|253:4|287:-3,1,67.5000025749208,8|0,0:0|1:2,0:0:0:0:
398,62,346971,2,0,P|409:121|375:216,1,135.000005149842,0|8,0:0|0:0,0:0:0:0:
234,224,347500,2,0,L|227:179,1,33.7500012874604,0|0,1:2|1:2,0:0:0:0:
207,101,347677,6,0,P|250:108|289:124,1,72,6|0,1:2|0:0,0:0:0:0:
133,154,348030,2,0,P|90:147|51:131,1,72,10|0,0:0|0:0,0:0:0:0:
195,94,348382,2,0,P|237:85|279:87,1,72,2|0,1:2|0:0,0:0:0:0:
143,169,348735,2,0,P|100:177|58:175,1,72,10|0,0:0|0:0,0:0:0:0:
124,308,349088,6,0,P|201:317|257:363,1,144,2|8,1:2|0:0,0:0:0:0:
372,321,349618,2,0,P|389:283|382:238,1,72,2|0,0:0|1:2,0:0:0:0:
247,242,349971,1,0,0:0:0:0:
302,96,350147,1,8,0:0:0:0:
399,165,350324,2,0,L|333:173,1,36,0|0,1:2|1:2,0:0:0:0:
220,253,350500,6,0,P|204:303|199:339,1,80.9999975280763,6|0,1:2|0:0,0:0:0:0:
191,129,350853,2,0,P|204:90|211:50,1,80.9999975280763,10|0,0:0|0:0,0:0:0:0:
196,258,351206,2,0,P|163:299|146:331,1,80.9999975280763,2|0,1:2|0:0,0:0:0:0:
211,131,351559,2,0,P|236:99|256:64,1,80.9999975280763,10|0,0:0|0:0,0:0:0:0:
375,188,351912,6,0,P|417:240|506:219,1,161.999995056153,2|8,1:2|0:0,0:0:0:0:
466,70,352441,2,0,P|461:122|451:160,1,80.9999975280763,2|0,0:0|1:2,0:0:0:0:
338,91,352794,1,0,0:0:0:0:
265,252,352971,1,8,0:0:0:0:
182,196,353147,5,0,1:2:0:0:
182,196,353235,1,0,1:2:0:0:
182,196,353324,2,0,P|131:213|77:216,1,90,6|0,1:2|0:0,0:0:0:0:
332,110,353677,2,0,P|374:94|418:89,1,90,10|0,0:0|0:0,0:0:0:0:
169,173,354030,2,0,P|115:171|63:155,1,90,2|0,1:2|0:0,0:0:0:0:
339,143,354381,2,0,P|383:143|427:153,1,90,10|0,0:0|0:0,0:0:0:0:
233,9,354735,6,0,P|235:100|257:194,1,180,2|8,1:2|0:0,0:0:0:0:
362,323,355265,2,0,P|378:280|381:224,1,90,2|0,0:0|1:2,0:0:0:0:
410,127,355618,1,0,0:0:0:0:
283,267,355794,1,8,0:0:0:0:
490,239,355971,2,0,L|478:177,1,45,8|8,0:0|0:0,0:0:0:0:
392,38,356147,5,6,1:2:0:0:
392,38,356500,1,2,0:0:0:0:
392,38,356853,1,2,0:0:0:0:
392,38,357206,1,10,0:0:0:0:
126,90,357559,6,0,B|175:73|216:15|216:15|146:147|175:274,1,360,6|0,1:2|1:2,0:0:0:0:
4,168,358441,1,0,1:2:0:0:
84,26,358618,1,0,1:2:0:0:
84,26,358706,1,0,1:2:0:0:
84,26,358794,1,0,1:2:0:0:
389,194,359147,6,0,P|319:217|290:217,1,90,6|0,1:2|0:0,0:0:0:0:
232,282,359412,6,0,P|166:252|141:207,1,107.999996704102,6|0,1:2|0:0,0:0:0:0:
43,203,359677,6,0,P|61:131|108:90,1,125.999996154785,6|0,1:2|0:0,0:0:0:0:
176,14,359941,6,0,P|273:50|293:113,1,144,6|0,1:2|0:0,0:0:0:0:
213,171,360206,6,0,P|198:155|196:92,1,72,6|0,1:2|0:0,0:0:0:0:
397,19,360382,6,0,P|390:78|370:136,1,90,6|0,1:2|0:0,0:0:0:0:
414,308,360734,2,0,P|418:263|429:219,1,90,10|0,0:0|0:0,0:0:0:0:
201,259,361087,5,2,1:2:0:0:
340,200,361264,1,0,0:0:0:0:
175,105,361440,1,10,0:0:0:0:
288,312,361617,1,0,0:0:0:0:
108,362,361793,2,0,P|81:274|116:181,1,180,2|10,1:2|0:0,0:0:0:0:
187,89,362324,1,2,0:0:0:0:
273,291,362499,2,0,P|206:271|154:267,1,90,2|0,1:2|0:0,0:0:0:0:
338,116,362852,2,0,P|382:108|424:93,1,90,10|2,0:0|0:0,0:0:0:0:
274,45,363205,5,2,1:2:0:0:
392,205,363382,1,2,0:0:0:0:
186,268,363558,2,0,P|177:210|183:176,1,90,10|0,0:0|0:0,0:0:0:0:
338,116,363911,5,2,1:2:0:0:
271,215,364087,1,2,0:0:0:0:
91,123,364264,1,10,0:0:0:0:
186,268,364440,1,0,0:0:0:0:
37,348,364617,2,0,P|21:283|30:242,1,90,2|0,1:2|0:0,0:0:0:0:
187,93,364970,5,10,0:0:0:0:
77,161,365146,1,2,0:0:0:0:
41,22,365323,1,2,1:2:0:0:
232,163,365499,1,0,0:0:0:0:
64,251,365677,1,10,0:0:0:0:
70,206,365764,1,0,1:2:0:0:
77,161,365852,1,0,1:2:0:0:
86,117,365940,1,0,1:2:0:0:
95,72,366029,6,0,P|147:115|231:110,1,135,6|0,1:2|0:0,0:0:0:0:
240,103,366382,2,0,P|238:45|242:5,1,90,10|0,0:0|0:0,0:0:0:0:
361,115,366734,1,2,1:2:0:0:
249,242,366911,1,0,0:0:0:0:
447,255,367087,2,0,P|451:210|448:166,1,90,10|0,0:0|0:0,0:0:0:0:
195,167,367440,6,0,P|247:224|345:208,1,180,2|10,1:2|0:0,0:0:0:0:
182,49,367970,1,2,0:0:0:0:
279,142,368146,1,2,1:2:0:0:
106,247,368323,1,0,0:0:0:0:
341,211,368499,1,10,0:0:0:0:
195,167,368676,1,2,0:0:0:0:
162,359,368852,5,6,1:2:0:0:
281,306,369029,1,2,0:0:0:0:
198,242,369205,1,2,0:0:0:0:
237,380,369382,1,2,1:2:0:0:
237,380,369558,2,0,P|252:315|240:195,1,161.999995056153,10|2,0:0|0:0,0:0:0:0:
199,125,370087,1,2,1:2:0:0:
82,216,370264,6,0,P|136:225|174:237,1,80.9999975280763,2|2,0:0|1:2,0:0:0:0:
283,117,370617,2,0,P|242:111|203:100,1,80.9999975280763,2|2,0:0|1:2,0:0:0:0:
370,42,370970,2,0,P|401:105|373:199,1,161.999995056153,10|2,0:0|1:2,0:0:0:0:
297,240,371499,1,0,0:0:0:0:
417,318,371676,6,0,P|466:304|505:304,1,80.9999975280763,2|2,1:2|0:0,0:0:0:0:
316,260,372029,2,0,P|277:272|237:274,1,80.9999975280763,2|2,0:0|1:2,0:0:0:0:
134,203,372382,2,0,P|113:255|140:360,1,161.999995056153,10|2,0:0|1:2,0:0:0:0:
262,186,372911,1,0,1:2:0:0:
262,186,373264,5,10,0:0:0:0:
236,55,373440,1,2,1:2:0:0:
403,147,373617,1,2,0:0:0:0:
153,220,373793,5,2,0:0:0:0:
282,161,373970,1,10,0:0:0:0:
316,351,374146,1,10,0:0:0:0:
76,286,374323,1,10,0:0:0:0:
76,286,374411,1,8,0:0:0:0:
76,286,374499,6,0,P|151:256|252:275,1,161.999995056153,4|8,1:2|0:0,0:0:0:0:
162,359,375029,1,2,1:2:0:0:
316,317,375205,2,0,P|332:265|335:229,1,80.9999975280763,2|0,0:0|1:2,0:0:0:0:
266,71,375558,2,0,P|271:111|284:149,1,80.9999975280763,8|0,0:0|0:0,0:0:0:0:
140,57,375911,6,0,P|221:30|310:52,1,161.999995056153,0|8,1:2|0:0,0:0:0:0:
162,180,376440,1,0,1:2:0:0:
162,180,376793,1,0,1:2:0:0:
49,120,376970,2,0,P|37:164|39:209,1,80.9999975280763,8|0,0:0|0:0,0:0:0:0:
153,322,377323,6,0,P|195:328|239:353,1,80.9999975280763,2|0,1:2|0:0,0:0:0:0:
365,338,377676,2,0,P|339:304|326:255,1,80.9999975280763,10|0,0:0|1:2,0:0:0:0:
233,146,378029,2,0,P|220:184|195:216,1,80.9999975280763,2|0,0:0|1:2,0:0:0:0:
141,330,378382,2,0,P|183:336|227:361,1,80.9999975280763,10|0,0:0|0:0,0:0:0:0:
251,276,378734,5,8,0:0:0:0:
251,276,379440,2,0,L|266:228,1,40.4999987640381,10|8,0:0|0:0,0:0:0:0:
185,149,379617,2,0,L|172:110,1,40.4999987640381,8|8,0:0|0:0,0:0:0:0:
314,17,379793,1,8,0:0:0:0:
358,7,379882,1,8,0:0:0:0:
399,23,379970,1,8,0:0:0:0:
428,56,380058,1,8,0:0:0:0:
441,98,380146,6,0,P|433:148|433:204,1,90,6|0,1:2|0:0,0:0:0:0:
479,310,380499,2,0,P|420:292|379:287,1,90,10|0,0:0|1:2,0:0:0:0:
276,150,380852,2,0,P|217:168|176:173,1,90,2|0,0:0|1:2,0:0:0:0:
74,272,381205,1,10,0:0:0:0:
111,90,381382,1,0,1:2:0:0:
111,90,381470,1,0,1:2:0:0:
111,90,381558,6,0,P|92:198|146:277,1,180,2|10,1:2|0:0,0:0:0:0:
218,165,382087,1,2,1:2:0:0:
382,234,382264,1,0,0:0:0:0:
340,91,382440,1,0,1:2:0:0:
236,252,382617,1,8,0:0:0:0:
459,300,382793,1,8,0:0:0:0:
459,300,382882,1,8,0:0:0:0:
459,300,382970,6,0,P|403:261|310:269,1,135,2|0,1:2|0:0,0:0:0:0:
324,288,383323,2,0,P|333:336|340:381,1,90,10|0,0:0|1:2,0:0:0:0:
136,274,383676,2,0,P|143:229|151:185,1,90,2|0,0:0|1:2,0:0:0:0:
38,143,384029,1,10,0:0:0:0:
61,349,384205,1,0,1:2:0:0:
61,349,384294,1,0,1:2:0:0:
61,349,384382,2,0,P|121:306|241:332,1,180,2|10,1:2|0:0,0:0:0:0:
362,232,384911,2,0,P|350:291|345:339,1,90,0|0,1:2|0:0,0:0:0:0:
236,202,385264,5,0,1:2:0:0:
346,320,385440,1,8,0:0:0:0:
153,380,385617,1,8,0:0:0:0:
153,380,385705,1,8,0:0:0:0:
153,380,385793,2,0,P|139:331|138:268,1,90,2|0,1:2|0:0,0:0:0:0:
317,166,386146,2,0,P|312:210|300:254,1,90,10|0,0:0|1:2,0:0:0:0:
128,123,386499,6,0,P|190:140|225:160,1,90,2|0,0:0|1:2,0:0:0:0:
422,90,386852,2,0,P|378:80|337:61,1,90,10|0,0:0|0:0,0:0:0:0:
187,230,387205,5,2,1:2:0:0:
259,61,387382,1,0,0:0:0:0:
128,123,387558,1,10,0:0:0:0:
245,292,387734,2,0,P|160:309|101:246,1,180,2|0,1:2|1:2,0:0:0:0:
26,314,388264,1,8,0:0:0:0:
187,230,388440,1,8,0:0:0:0:
187,230,388529,1,8,0:0:0:0:
187,230,388617,6,0,P|202:179|206:129,1,90,2|0,1:2|0:0,0:0:0:0:
329,182,388970,2,0,P|373:195|416:200,1,90,10|0,0:0|1:2,0:0:0:0:
235,333,389323,2,0,P|191:320|148:315,1,90,2|0,0:0|1:2,0:0:0:0:
378,296,389676,2,0,P|372:340|359:383,1,90,10|0,0:0|0:0,0:0:0:0:
185,147,390029,1,2,1:2:0:0:
185,147,390382,6,0,L|198:192,1,45,10|8,0:0|0:0,0:0:0:0:
275,285,390558,2,0,L|263:328,1,45,8|8,0:0|0:0,0:0:0:0:
81,384,390735,1,8,3:0:0:0:
49,352,390823,1,8,3:0:0:0:
40,308,390911,1,8,3:0:0:0:
62,267,391000,1,8,3:0:0:0:
100,242,391088,5,4,3:0:0:0:
112,217,391176,1,4,3:0:0:0:
114,190,391264,1,4,3:0:0:0:
104,165,391352,1,4,3:0:0:0:
88,143,391440,6,0,P|85:77|95:46,1,90,6|2,1:2|0:0,0:0:0:0:
277,114,391793,2,0,P|227:108|169:91,1,90,10|0,0:0|1:2,0:0:0:0:
263,275,392146,2,0,P|306:264|351:259,1,90,2|2,0:0|1:2,0:0:0:0:
440,137,392499,1,10,0:0:0:0:
440,137,392852,5,2,1:2:0:0:
356,71,393029,1,2,0:0:0:0:
512,35,393205,1,10,0:0:0:0:
483,228,393382,1,0,1:2:0:0:
328,157,393558,2,0,P|385:145|433:145,1,90,2|2,0:0|1:2,0:0:0:0:
319,288,393911,2,0,P|274:285|230:274,1,90,10|0,0:0|0:0,0:0:0:0:
58,210,394264,6,0,P|61:267|74:302,1,90,2|2,1:2|0:0,0:0:0:0:
208,189,394617,2,0,P|221:146|221:101,1,90,10|0,0:0|1:2,0:0:0:0:
114,124,394970,1,2,0:0:0:0:
263,17,395146,1,2,1:2:0:0:
114,124,395323,2,0,P|57:113|22:107,1,90,10|0,0:0|0:0,0:0:0:0:
171,262,395676,5,2,1:2:0:0:
244,183,395852,1,2,0:0:0:0:
346,216,396029,2,0,P|356:270|349:314,1,90,10|0,0:0|1:2,0:0:0:0:
149,180,396382,5,2,0:0:0:0:
261,268,396558,1,2,1:2:0:0:
90,348,396734,2,0,P|73:299|78:257,1,90,10|0,0:0|0:0,0:0:0:0:
147,94,397087,5,2,1:2:0:0:
42,158,397264,1,2,0:0:0:0:
218,120,397440,1,10,0:0:0:0:
136,0,397617,1,0,0:0:0:0:
272,47,397793,5,2,1:2:0:0:
195,204,397970,1,2,0:0:0:0:
336,122,398146,1,10,0:0:0:0:
358,289,398323,1,0,0:0:0:0:
115,226,398499,1,0,1:2:0:0:
115,226,399205,6,0,P|99:167|104:134,1,90,10|8,0:0|0:0,0:0:0:0:
152,78,399470,1,8,0:0:0:0:
152,78,399558,2,0,L|200:92,1,45,8|8,0:0|0:0,0:0:0:0:
300,188,399734,2,0,L|343:175,1,45,8|8,0:0|0:0,0:0:0:0:
449,163,399911,6,0,B|446:91|482:51|482:51|442:59|409:108,1,180,6|10,1:2|0:0,0:0:0:0:
343,175,400440,1,0,1:2:0:0:
478,258,400617,1,2,1:2:0:0:
274,211,400793,1,2,0:0:0:0:
325,72,400970,1,10,0:0:0:0:
353,294,401146,6,0,P|279:246|174:269,1,180,2|2,1:2|1:2,0:0:0:0:
70,310,401676,2,0,P|80:253|80:220,1,90,8|2,0:0|0:0,0:0:0:0:
208,34,402029,5,2,1:2:0:0:
45,98,402205,1,2,1:2:0:0:
224,22,402382,1,10,0:0:0:0:
25,90,402558,1,2,0:0:0:0:
168,203,402734,6,0,P|155:154|156:109,1,90,2|0,1:2|0:0,0:0:0:0:
324,0,403087,2,0,P|323:44|311:88,1,90,10|0,0:0|1:2,0:0:0:0:
434,200,403440,5,2,1:2:0:0:
404,97,403617,1,2,0:0:0:0:
280,175,403793,1,10,0:0:0:0:
433,289,403970,2,0,P|500:262|487:135,1,180,2|2,1:2|1:2,0:0:0:0:
326,265,404499,1,8,0:0:0:0:
434,200,404676,1,2,0:0:0:0:
476,371,404852,1,0,1:2:0:0:
234,322,405030,2,0,L|241:273,1,45,2|0,1:2|1:2,0:0:0:0:
332,147,405205,6,0,L|272:171,1,45,10|0,0:0|1:2,0:0:0:0:
168,220,405382,2,0,L|126:203,1,45,0|0,1:2|1:2,0:0:0:0:
41,88,405558,2,0,P|94:46|211:63,1,180,2|10,1:2|0:0,0:0:0:0:
290,163,406087,5,0,1:2:0:0:
286,33,406264,1,2,1:2:0:0:
133,126,406440,1,2,0:0:0:0:
307,245,406617,1,10,0:0:0:0:
357,111,406793,2,0,P|289:128|257:132,1,90,2|0,1:2|0:0,0:0:0:0:
97,207,407146,2,0,P|165:224|197:228,1,90,2|8,1:2|0:0,0:0:0:0:
120,321,407499,1,2,0:0:0:0:
276,249,407676,5,2,1:2:0:0:
213,77,407852,1,2,1:2:0:0:
259,264,408029,1,10,0:0:0:0:
224,65,408205,1,2,0:0:0:0:
410,181,408382,6,0,P|351:168|316:165,1,90,2|0,1:2|0:0,0:0:0:0:
128,199,408734,2,0,P|172:193|216:183,1,90,10|0,0:0|1:2,0:0:0:0:
139,98,409087,5,2,1:2:0:0:
32,194,409264,1,2,0:0:0:0:
276,252,409440,1,10,0:0:0:0:
213,33,409617,1,2,1:2:0:0:
213,33,409970,5,10,0:0:0:0:
188,165,410146,1,10,0:0:0:0:
163,298,410323,1,10,0:0:0:0:
