osu file format v14

[General]
AudioFilename: audio.mp3
AudioLeadIn: 0
PreviewTime: 49506
Countdown: 0
SampleSet: Soft
StackLeniency: 0.7
Mode: 0
LetterboxInBreaks: 0
WidescreenStoryboard: 1

[Editor]
Bookmarks: 10570,20783,30996,41209,51421,61634,71847,82060,92272,102485,112698,122911,133123,143336,150996,156102,166315,175251
DistanceSpacing: 1.1
BeatDivisor: 8
GridSize: 8
TimelineZoom: 4.799998

[Metadata]
Title:Gashina
TitleUnicode:가시나
Artist:SUNMI
ArtistUnicode:선미
Creator:Euny
Version:@}-;--`---
Source:
Tags:Peter HabiHolic Marianna -M4x Max PeterEU Kpop K-pop 이선미 메이크어스엔터테인먼트 MAKEUS ENT. 원더걸스 WONDERGIRLS
BeatmapID:1533384
BeatmapSetID:726236

[Difficulty]
HPDrainRate:6
CircleSize:4.2
OverallDifficulty:9
ApproachRate:9.2
SliderMultiplier:3
SliderTickRate:1

[Events]
//Background and Video events
Video,-460,"Gashina.avi"
0,0,"dfdfsfdf.jpg",0,0
//Break Periods
2,88643,91672
2,133323,142736
2,151196,152311
//Storyboard Layer 0 (Background)
//Storyboard Layer 1 (Fail)
//Storyboard Layer 2 (Pass)
//Storyboard Layer 3 (Foreground)
//Storyboard Sound Samples

[TimingPoints]
358,638.297872340426,4,2,23,40,1,0
358,-250,4,2,23,40,0,0
677,-250,4,2,12,40,0,0
1155,-250,4,2,11,40,0,0
1634,-250,4,2,23,40,0,0
1953,-250,4,2,12,40,0,0
2432,-250,4,2,11,40,0,0
2911,-250,4,2,23,40,0,0
3230,-250,4,2,12,40,0,0
3709,-250,4,2,11,40,0,0
4187,-250,4,2,23,40,0,0
4506,-250,4,2,12,40,0,0
4985,-250,4,2,11,40,0,0
5464,-250,4,2,23,40,0,0
5783,-250,4,2,12,40,0,0
6262,-250,4,2,11,40,0,0
6740,-250,4,2,23,40,0,0
7060,-250,4,2,12,40,0,0
7538,-250,4,2,11,40,0,0
8017,-250,4,2,23,40,0,0
8336,-250,4,2,12,40,0,0
8815,-250,4,2,11,40,0,0
9134,-250,4,2,69,40,0,0
10570,-166.666666666667,4,2,69,40,0,0
13123,-166.666666666667,4,2,23,40,0,0
13443,-166.666666666667,4,2,12,40,0,0
13921,-166.666666666667,4,2,11,40,0,0
14400,-166.666666666667,4,2,23,40,0,0
14719,-166.666666666667,4,2,12,40,0,0
15198,-166.666666666667,4,2,11,40,0,0
15677,-166.666666666667,4,2,69,40,0,0
16475,-166.666666666667,4,2,69,5,0,0
16634,-166.666666666667,4,2,69,40,0,0
16794,-166.666666666667,4,2,69,5,0,0
16953,-166.666666666667,4,2,69,40,0,0
17432,-166.666666666667,4,2,69,5,0,0
17592,-166.666666666667,4,2,69,40,0,0
17751,-166.666666666667,4,2,69,5,0,0
17911,-166.666666666667,4,2,69,40,0,0
18230,-166.666666666667,4,2,23,40,0,0
18549,-166.666666666667,4,2,12,40,0,0
19028,-166.666666666667,4,2,11,40,0,0
19506,-166.666666666667,4,2,23,40,0,0
19826,-166.666666666667,4,2,12,40,0,0
20304,-166.666666666667,4,2,11,40,0,0
20783,-166.666666666667,4,2,69,55,0,0
21581,-166.666666666667,4,2,69,5,0,0
21740,-166.666666666667,4,2,69,55,0,0
23655,-166.666666666667,4,2,12,55,0,0
24134,-166.666666666667,4,2,11,55,0,0
24613,-166.666666666667,4,2,69,55,0,0
26049,-166.666666666667,4,2,69,5,0,0
26209,-166.666666666667,4,2,69,55,0,0
26368,-166.666666666667,4,2,69,5,0,0
26528,-166.666666666667,4,2,69,55,0,0
26687,-166.666666666667,4,2,69,5,0,0
26847,-166.666666666667,4,2,69,55,0,0
27405,-166.666666666667,4,2,69,5,0,0
27485,-166.666666666667,4,2,69,55,0,0
27725,-166.666666666667,4,2,69,5,0,0
27804,-166.666666666667,4,2,69,55,0,0
28762,-166.666666666667,4,2,12,40,0,0
29240,-166.666666666667,4,2,11,40,0,0
29719,-166.666666666667,4,2,69,40,0,0
30038,-166.666666666667,4,2,12,40,0,0
30517,-166.666666666667,4,2,11,55,0,0
30996,-200,4,2,69,55,0,0
33549,-250,4,2,69,40,0,0
36102,-200,4,2,69,55,0,0
41209,-142.857142857143,4,2,69,45,0,0
43762,-125,4,2,69,45,0,0
46475,-125,4,2,69,5,0,0
46634,-125,4,2,69,45,0,0
46794,-125,4,2,69,5,0,0
46953,-125,4,2,69,50,0,0
51102,-58.8235294117647,4,2,69,65,0,0
51342,-58.8235294117647,4,2,69,5,0,0
51421,-90.9090909090909,4,2,88,50,0,1
51581,-90.9090909090909,4,2,88,5,0,1
51740,-83.3333333333333,4,2,88,65,0,1
51900,-83.3333333333333,4,2,88,65,0,1
52219,-200,4,2,88,65,0,1
52538,-200,4,2,88,5,0,1
52698,-200,4,2,88,65,0,0
53017,-200,4,2,88,5,0,0
53177,-200,4,2,88,65,0,0
53496,-200,4,2,88,5,0,0
53655,-200,4,2,88,65,0,0
53815,-200,4,2,88,5,0,0
53975,-200,4,2,88,65,0,0
54294,-83.3333333333333,4,2,88,65,0,0
54453,-83.3333333333333,4,2,88,5,0,0
54613,-83.3333333333333,4,2,88,65,0,0
54772,-200,4,2,88,65,0,0
55092,-200,4,2,88,5,0,0
55251,-90.9090909090909,4,2,88,65,0,0
55411,-90.9090909090909,4,2,88,5,0,0
55570,-90.9090909090909,4,2,88,65,0,0
56209,-90.9090909090909,4,2,88,65,0,0
56368,-90.9090909090909,4,2,88,5,0,0
56528,-90.9090909090909,4,2,88,65,0,0
56687,-90.9090909090909,4,2,88,5,0,0
56847,-83.3333333333333,4,2,88,65,0,0
57006,-83.3333333333333,4,2,88,65,0,0
57326,-200,4,2,88,65,0,0
57645,-500,4,2,88,5,0,0
57804,-200,4,2,88,65,0,0
58123,-200,4,2,88,5,0,0
58283,-200,4,2,88,65,0,0
58602,-200,4,2,88,5,0,0
58762,-200,4,2,88,65,0,0
58921,-200,4,2,88,5,0,0
59081,-200,4,2,88,65,0,0
60358,-90.9090909090909,4,2,88,65,0,0
60517,-90.9090909090909,4,2,88,5,0,0
60677,-90.9090909090909,4,2,88,65,0,0
61634,-90.9090909090909,4,2,88,65,0,1
61794,-90.9090909090909,4,2,88,5,0,1
61953,-90.9090909090909,4,2,88,65,0,1
62432,-90.9090909090909,4,2,88,5,0,1
62592,-90.9090909090909,4,2,88,65,0,1
62751,-90.9090909090909,4,2,88,5,0,1
62911,-83.3333333333333,4,2,88,65,0,0
63389,-83.3333333333333,4,2,88,5,0,0
63549,-83.3333333333333,4,2,88,65,0,0
64187,-83.3333333333333,4,2,88,65,0,0
64347,-83.3333333333333,4,2,88,5,0,0
64506,-83.3333333333333,4,2,88,65,0,0
64826,-83.3333333333333,4,2,88,65,0,0
64985,-83.3333333333333,4,2,88,5,0,0
65145,-83.3333333333333,4,2,88,65,0,0
65304,-83.3333333333333,4,2,88,5,0,0
65464,-83.3333333333333,4,2,88,65,0,0
65943,-83.3333333333333,4,2,88,5,0,0
66102,-83.3333333333333,4,2,88,65,0,0
66740,-83.3333333333333,4,2,69,65,0,0
66900,-83.3333333333333,4,2,69,5,0,0
67060,-83.3333333333333,4,2,88,65,0,0
67219,-83.3333333333333,4,2,88,5,0,0
67379,-83.3333333333333,4,2,88,65,0,0
68177,-83.3333333333333,4,2,88,5,0,0
68336,-83.3333333333333,4,2,88,65,0,0
68815,-83.3333333333333,4,2,88,5,0,0
68975,-83.3333333333333,4,2,88,65,0,0
69134,-83.3333333333333,4,2,88,5,0,0
69294,-83.3333333333333,4,2,88,65,0,0
69453,-83.3333333333333,4,2,88,5,0,0
69613,-83.3333333333333,4,2,88,65,0,0
70092,-83.3333333333333,4,2,88,5,0,0
70251,-83.3333333333333,4,2,88,65,0,0
70411,-83.3333333333333,4,2,69,65,0,0
71528,-83.3333333333333,4,2,88,45,0,0
71847,-125,4,2,68,45,0,0
72086,-125,4,2,68,5,0,0
72166,-125,4,2,68,45,0,0
72326,-125,4,2,88,45,0,0
72725,-125,4,2,88,5,0,0
72804,-125,4,2,88,45,0,0
73044,-125,4,2,88,5,0,0
73123,-125,4,2,88,45,0,0
73682,-125,4,2,88,5,0,0
73762,-125,4,2,88,45,0,0
73921,-125,4,2,88,5,0,0
74081,-125,4,2,88,45,0,0
74560,-125,4,2,88,5,0,0
74719,-125,4,2,88,45,0,0
75198,-125,4,2,88,5,0,0
75358,-125,4,2,88,45,0,0
75677,-125,4,2,88,5,0,0
75836,-125,4,2,88,45,0,0
75996,-125,4,2,88,5,0,0
76155,-125,4,2,88,45,0,0
76475,-125,4,2,88,5,0,0
76634,-125,4,2,88,45,0,0
77751,-125,4,2,88,5,0,0
77911,-125,4,2,88,45,0,0
79028,-125,4,2,88,5,0,0
79187,-125,4,2,88,45,0,0
79826,-125,4,2,88,5,0,0
79985,-125,4,2,88,45,0,0
80304,-125,4,2,88,5,0,0
80464,-125,4,2,88,45,0,0
80623,-125,4,2,88,5,0,0
80783,-125,4,2,88,45,0,0
81262,-125,4,2,88,5,0,0
81421,-125,4,2,88,45,0,0
81581,-125,4,2,88,5,0,0
81740,-125,4,2,88,45,0,0
82858,-125,4,2,88,5,0,0
83017,-125,4,2,88,45,0,0
83655,-200,4,2,69,45,0,0
83975,-200,4,2,88,65,0,0
84613,-125,4,2,69,45,0,0
85889,-166.666666666667,4,2,69,45,0,0
87405,-166.666666666667,4,2,69,5,0,0
87485,-166.666666666667,4,2,69,45,0,0
88443,-166.666666666667,4,2,88,45,0,0
92272,-200,4,2,69,45,0,0
97379,-250,4,2,69,45,0,0
99932,-200,4,2,69,45,0,0
102485,-142.857142857143,4,2,69,50,0,0
105038,-125,4,2,69,50,0,0
107751,-125,4,2,69,5,0,0
107911,-125,4,2,69,50,0,0
108070,-125,4,2,69,5,0,0
108230,-125,4,2,69,50,0,0
108389,-125,4,2,69,5,0,0
108549,-125,4,2,69,50,0,0
112379,-58.8235294117647,4,2,69,65,0,0
112619,-58.8235294117647,4,2,69,5,0,0
112698,-90.9090909090909,4,2,88,50,0,1
112858,-90.9090909090909,4,2,88,5,0,1
113017,-83.3333333333333,4,2,88,65,0,1
113177,-83.3333333333333,4,2,88,65,0,1
113496,-200,4,2,88,65,0,1
113815,-200,4,2,88,5,0,1
113975,-200,4,2,88,65,0,0
114294,-200,4,2,88,5,0,0
114454,-200,4,2,88,65,0,0
114773,-200,4,2,88,5,0,0
114932,-200,4,2,88,65,0,0
115092,-200,4,2,88,5,0,0
115252,-200,4,2,88,65,0,0
115570,-83.3333333333333,4,2,88,65,0,0
115730,-83.3333333333333,4,2,88,5,0,0
115890,-83.3333333333333,4,2,88,65,0,0
116049,-200,4,2,88,65,0,0
116369,-200,4,2,88,5,0,0
116528,-90.9090909090909,4,2,88,65,0,0
116688,-90.9090909090909,4,2,88,5,0,0
116847,-90.9090909090909,4,2,88,65,0,0
117486,-90.9090909090909,4,2,88,65,0,0
117645,-90.9090909090909,4,2,88,5,0,0
117805,-90.9090909090909,4,2,88,65,0,0
117964,-90.9090909090909,4,2,88,5,0,0
118124,-83.3333333333333,4,2,88,65,0,0
118283,-83.3333333333333,4,2,88,65,0,0
118603,-200,4,2,88,65,0,0
118922,-500,4,2,88,5,0,0
119081,-200,4,2,88,65,0,0
119400,-200,4,2,88,5,0,0
119560,-200,4,2,88,65,0,0
119879,-200,4,2,88,5,0,0
120039,-200,4,2,88,65,0,0
120198,-200,4,2,88,5,0,0
120358,-200,4,2,88,65,0,0
121635,-90.9090909090909,4,2,88,65,0,0
121794,-90.9090909090909,4,2,88,5,0,0
121954,-90.9090909090909,4,2,88,65,0,0
122911,-90.9090909090909,4,2,88,65,0,1
123071,-90.9090909090909,4,2,88,5,0,1
123230,-90.9090909090909,4,2,88,65,0,1
123709,-90.9090909090909,4,2,88,5,0,1
123869,-90.9090909090909,4,2,88,65,0,1
124028,-90.9090909090909,4,2,88,5,0,1
124187,-83.3333333333333,4,2,88,65,0,0
124666,-83.3333333333333,4,2,88,5,0,0
124826,-83.3333333333333,4,2,88,65,0,0
125464,-83.3333333333333,4,2,88,65,0,0
125624,-83.3333333333333,4,2,88,5,0,0
125783,-83.3333333333333,4,2,88,65,0,0
126103,-83.3333333333333,4,2,88,65,0,0
126262,-83.3333333333333,4,2,88,5,0,0
126422,-83.3333333333333,4,2,88,65,0,0
126581,-83.3333333333333,4,2,88,5,0,0
126741,-83.3333333333333,4,2,88,65,0,0
127220,-83.3333333333333,4,2,88,5,0,0
127379,-83.3333333333333,4,2,88,65,0,0
128017,-83.3333333333333,4,2,69,65,0,0
128177,-83.3333333333333,4,2,69,5,0,0
128337,-83.3333333333333,4,2,88,65,0,0
128496,-83.3333333333333,4,2,88,5,0,0
128656,-83.3333333333333,4,2,88,65,0,0
129454,-83.3333333333333,4,2,88,5,0,0
129613,-83.3333333333333,4,2,88,65,0,0
130092,-83.3333333333333,4,2,88,5,0,0
130252,-83.3333333333333,4,2,88,65,0,0
130411,-83.3333333333333,4,2,88,5,0,0
130570,-200,4,2,69,55,0,0
131688,-83.3333333333333,4,2,69,65,0,0
132804,-83.3333333333333,4,2,88,45,0,0
133123,-125,4,2,68,45,0,0
143336,-83.3333333333333,4,2,69,45,0,0
148125,-125,4,2,69,65,0,0
149081,-125,4,2,69,71,0,0
152911,-125,4,2,88,71,0,0
152990,-125,4,2,88,21,0,0
153549,-125,4,2,88,31,0,0
154187,-125,4,2,88,41,0,0
154826,-125,4,2,88,51,0,0
155464,-125,4,2,88,61,0,0
155783,-125,4,2,88,5,0,0
156102,-83.3333333333334,4,2,88,67,0,1
156421,-83.3333333333334,4,2,88,5,0,1
156581,-71.4285714285715,4,2,88,67,0,1
156900,-71.4285714285715,4,2,88,5,0,1
157060,-71.4285714285715,4,2,88,67,0,1
157379,-71.4285714285715,4,2,88,67,0,0
157698,-71.4285714285715,4,2,88,5,0,0
157858,-71.4285714285715,4,2,88,67,0,0
158177,-71.4285714285715,4,2,88,5,0,0
158336,-71.4285714285715,4,2,88,67,0,0
158655,-83.3333333333334,4,2,88,67,0,0
158975,-83.3333333333334,4,2,88,5,0,0
159134,-71.4285714285715,4,2,88,67,0,0
159373,-71.4285714285715,4,2,88,5,0,0
159453,-71.4285714285715,4,2,88,67,0,0
159932,-90.9090909090909,4,2,88,67,0,0
160092,-90.9090909090909,4,2,88,5,0,0
160251,-90.9090909090909,4,2,88,67,0,0
161049,-90.9090909090909,4,2,88,5,0,0
161209,-83.3333333333333,4,2,69,67,0,1
161528,-83.3333333333333,4,2,88,5,0,1
161687,-71.4285714285714,4,2,88,67,0,1
162006,-71.4285714285714,4,2,88,5,0,1
162166,-71.4285714285714,4,2,88,67,0,1
162485,-71.4285714285714,4,2,88,67,0,0
162804,-71.4285714285714,4,2,88,5,0,0
162964,-71.4285714285714,4,2,88,67,0,0
163283,-71.4285714285714,4,2,88,5,0,0
163443,-71.4285714285714,4,2,88,67,0,0
163762,-83.3333333333333,4,2,88,67,0,0
164240,-71.4285714285714,4,2,88,67,0,0
164480,-71.4285714285714,4,2,88,5,0,0
164560,-71.4285714285714,4,2,88,67,0,0
165038,-90.9090909090909,4,2,88,67,0,0
165198,-90.9090909090909,4,2,88,5,0,0
165358,-90.9090909090909,4,2,88,67,0,0
166315,-90.9090909090909,4,2,88,50,0,1
166475,-90.9090909090909,4,2,88,5,0,1
166634,-90.9090909090909,4,2,88,50,0,1
167113,-90.9090909090909,4,2,88,5,0,1
167272,-90.9090909090909,4,2,88,50,0,1
167432,-90.9090909090909,4,2,88,5,0,1
167592,-90.9090909090909,4,2,88,65,0,0
168070,-90.9090909090909,4,2,88,5,0,0
168230,-90.9090909090909,4,2,88,65,0,0
169028,-90.9090909090909,4,2,88,5,0,0
169187,-90.9090909090909,4,2,88,65,0,0
169666,-90.9090909090909,4,2,88,5,0,0
169826,-90.9090909090909,4,2,88,65,0,0
169985,-90.9090909090909,4,2,88,5,0,0
170145,-90.9090909090909,4,2,88,65,0,0
170623,-90.9090909090909,4,2,88,5,0,0
170783,-90.9090909090909,4,2,88,65,0,0
171421,-90.9090909090909,4,2,69,65,0,0
171581,-90.9090909090909,4,2,69,5,0,0
171740,-90.9090909090909,4,2,88,65,0,0
171900,-90.9090909090909,4,2,88,5,0,0
172060,-90.9090909090909,4,2,88,65,0,0
172858,-90.9090909090909,4,2,88,5,0,0
173017,-90.9090909090909,4,2,88,65,0,0
173496,-90.9090909090909,4,2,88,5,0,0
173655,-90.9090909090909,4,2,88,65,0,0
173975,-200,4,2,69,67,0,0

[Colours]
Combo1 : 255,115,164
Combo2 : 192,130,255
Combo3 : 192,192,192

[HitObjects]
88,126,358,5,2,0:0:0:0:
160,276,677,1,2,0:0:0:0:
206,209,836,1,2,0:0:0:0:
46,240,1155,1,2,0:0:0:0:
159,357,1475,1,2,0:0:0:0:
228,313,1634,5,2,0:0:0:0:
124,188,1953,1,2,0:0:0:0:
121,270,2113,1,2,0:0:0:0:
281,230,2432,1,2,0:0:0:0:
234,75,2751,1,2,0:0:0:0:
179,132,2911,5,2,0:0:0:0:
342,134,3230,1,2,0:0:0:0:
312,59,3389,1,2,0:0:0:0:
248,211,3709,1,2,0:0:0:0:
411,208,4028,1,2,0:0:0:0:
422,128,4187,5,2,0:0:0:0:
335,266,4506,1,2,0:0:0:0:
414,288,4666,1,2,0:0:0:0:
252,291,4985,1,2,0:0:0:0:
275,131,5304,1,2,0:0:0:0:
334,188,5464,5,2,0:0:0:0:
171,201,5783,1,2,0:0:0:0:
196,123,5943,1,2,0:0:0:0:
142,277,6262,1,2,2:0:0:0:
38,151,6581,1,2,2:0:0:0:
118,140,6740,5,2,2:0:0:0:
19,271,7060,1,2,0:0:0:0:
83,219,7219,1,2,0:0:0:0:
11,74,7538,1,2,0:0:0:0:
176,78,7858,1,2,0:0:0:0:
118,22,8017,5,2,0:0:0:0:
155,180,8336,1,2,0:0:0:0:
227,141,8496,1,2,0:0:0:0:
61,155,8815,1,2,0:0:0:0:
164,301,9134,1,8,0:3:0:0:
164,301,9214,1,8,0:3:0:0:
164,301,9294,5,8,0:3:0:0:
268,296,9453,1,8,0:3:0:0:
41,317,9772,1,8,0:3:0:0:
119,384,9932,1,8,0:3:0:0:
128,96,10251,5,8,0:0:0:0:
184,160,10411,1,0,0:0:0:0:
184,24,10570,1,6,0:0:0:0:
128,96,10730,1,0,0:1:0:0:
240,96,10889,1,0,0:1:0:0:
48,64,11049,1,0,0:1:0:0:
96,208,11209,5,2,0:0:0:0:
184,160,11368,1,0,0:1:0:0:
43,143,11528,1,0,0:1:0:0:
127,289,11687,1,0,0:1:0:0:
306,165,11847,5,2,0:2:0:0:
191,236,12006,1,0,0:1:0:0:
284,307,12166,1,0,0:1:0:0:
207,143,12326,1,0,0:1:0:0:
91,251,12485,1,0,0:0:0:0:
304,16,12804,1,0,0:0:0:0:
272,192,12964,1,0,0:0:0:0:
144,80,13123,5,2,0:0:0:0:
17,359,13443,1,2,0:0:0:0:
132,368,13602,1,2,0:0:0:0:
0,171,13921,1,2,0:0:0:0:
222,174,14240,1,2,0:0:0:0:
167,280,14400,5,2,0:0:0:0:
190,51,14719,1,2,0:0:0:0:
284,118,14879,1,2,0:0:0:0:
58,206,15198,1,2,0:0:0:0:
120,65,15358,5,0,0:0:0:0:
153,216,15517,1,2,0:0:0:0:
37,115,15677,1,2,0:0:0:0:
191,132,15836,1,0,0:0:0:0:
99,277,15996,1,0,0:0:0:0:
112,145,16156,1,0,0:0:0:0:
223,259,16315,6,0,L|276:247,1,44.999998626709,2|0,0:0|0:0,0:0:0:0:
333,131,16634,2,0,L|281:141,1,44.999998626709,0|0,0:0|0:0,0:0:0:0:
406,23,16953,5,2,0:0:0:0:
411,105,17113,1,0,0:0:0:0:
457,169,17272,2,0,P|474:153|486:134,1,44.999998626709
340,214,17592,2,0,L|386:209,1,44.999998626709,2|0,0:0|0:0,0:0:0:0:
228,131,17911,1,0,0:0:0:0:
205,268,18070,1,0,0:0:0:0:
261,208,18230,5,2,0:0:0:0:
39,243,18549,1,2,0:0:0:0:
100,146,18709,1,2,0:0:0:0:
230,335,19028,1,2,0:0:0:0:
0,329,19347,1,2,0:0:0:0:
100,384,19506,5,2,0:0:0:0:
179,149,19826,1,2,0:0:0:0:
198,256,19985,1,2,0:0:0:0:
0,123,20304,1,2,0:0:0:0:
124,26,20464,5,0,0:0:0:0:
12,35,20623,1,2,0:0:0:0:
101,183,20783,1,4,0:3:0:0:
217,29,20943,1,0,0:0:0:0:
76,94,21102,1,2,0:0:0:0:
268,112,21262,1,0,0:0:0:0:
168,107,21421,2,0,P|170:127|179:149,1,44.999998626709,4|0,0:3|0:0,0:0:0:0:
270,235,21740,1,2,0:0:0:0:
349,108,21900,1,0,0:0:0:0:
168,107,22060,5,4,0:3:0:0:
264,144,22219,1,0,0:0:0:0:
349,108,22379,1,2,0:0:0:0:
366,20,22538,1,0,0:0:0:0:
336,200,22698,1,4,0:3:0:0:
280,56,22858,1,0,0:0:0:0:
418,163,23017,1,2,0:0:0:0:
264,144,23177,1,0,0:0:0:0:
432,72,23336,5,4,0:3:0:0:
412,311,23655,1,2,0:0:0:0:
300,276,23815,1,2,0:0:0:0:
512,186,24134,1,2,0:0:0:0:
380,384,24453,1,2,0:0:0:0:
299,276,24613,6,0,P|288:319|299:362,2,89.9999972534181,4|2|4,0:3|0:0|0:3,0:0:0:0:
52,362,25570,5,2,0:0:0:0:
153,322,25730,1,0,0:0:0:0:
14,220,25889,2,0,L|25:277,1,44.999998626709,4|0,0:3|0:0,0:0:0:0:
52,124,26209,2,0,L|87:166,1,44.999998626709,2|0,0:0|0:0,0:0:0:0:
27,25,26528,2,0,L|75:41,1,44.999998626709,4|0,0:3|0:0,0:0:0:0:
264,92,26847,1,2,0:0:0:0:
165,171,27006,1,0,0:0:0:0:
194,49,27166,6,0,P|216:24|247:10,1,67.4999979400635,4|0,0:3|0:0,0:0:0:0:
335,125,27485,2,0,P|311:149|281:164,1,67.4999979400635,2|0,0:0|0:0,0:0:0:0:
198,143,27804,5,4,0:3:0:0:
233,230,27963,1,0,0:0:0:0:
325,246,28123,1,2,0:0:0:0:
391,180,28282,1,0,0:0:0:0:
295,17,28442,5,4,0:3:0:0:
205,256,28762,1,2,0:0:0:0:
316,309,28921,1,2,0:0:0:0:
280,92,29240,1,2,0:0:0:0:
142,267,29560,1,2,0:0:0:0:
239,266,29719,5,4,0:3:0:0:
42,187,30038,1,2,0:0:0:0:
63,266,30198,1,2,0:0:0:0:
139,64,30517,1,2,0:0:0:0:
325,237,30836,1,2,0:0:0:0:
63,266,30996,6,0,B|140:199|139:65|139:65|141:267|141:267|198:246|255:273,1,525,4|2,0:0|0:0,0:0:0:0:
328,136,33549,6,0,P|397:264|366:121,1,420,2|2,0:0|0:0,0:0:0:0:
86,77,36102,6,0,B|175:81|217:214|217:214|205:95|282:31|343:-13|395:31|384:66|330:42,1,525,2|2,0:0|0:0,0:0:0:0:
414,130,38655,6,0,B|350:90|278:154|278:234|390:250|390:250|278:266|278:370|350:410|422:370,1,525,2|2,0:0|0:0,0:0:0:0:
265,88,41209,6,0,P|308:57|365:41,1,104.999996795654,12|2,0:3|0:0,0:0:0:0:
440,108,41688,1,8,0:1:0:0:
357,179,41848,2,0,P|332:187|294:183,1,52.4999983978272,12|0,0:3|0:0,0:0:0:0:
198,181,42166,2,0,B|227:210|227:210|227:281,1,104.999996795654,8|12,0:1|0:3,0:0:0:0:
157,359,42645,2,0,P|222:352|272:365,1,104.999996795654,8|2,0:1|0:0,0:0:0:0:
346,378,43123,2,0,L|339:325,1,52.4999983978272,12|0,0:3|0:0,0:0:0:0:
392,144,43443,1,8,0:1:0:0:
418,148,43522,1,8,0:1:0:0:
435,168,43602,1,8,0:1:0:0:
433,195,43682,1,8,0:1:0:0:
420,222,43762,6,0,P|384:241|294:231,1,120,12|2,0:3|0:0,0:0:0:0:
232,160,44240,1,8,0:1:0:0:
131,177,44400,2,0,P|99:173|58:180,1,60,12|0,0:3|0:0,0:0:0:0:
62,337,44719,2,0,P|19:298|13:240,1,120,8|12,0:1|0:3,0:0:0:0:
147,328,45198,5,8,0:1:0:0:
221,178,45358,2,0,L|232:256,1,60,8|2,0:1|0:0,0:0:0:0:
288,296,45677,1,12,0:3:0:0:
384,136,45836,1,8,0:1:0:0:
328,376,45996,1,8,0:1:0:0:
272,376,46075,1,8,0:1:0:0:
224,352,46155,1,8,0:1:0:0:
208,304,46235,1,8,0:1:0:0:
208,248,46315,6,0,L|150:265,1,60,12|0,0:3|3:0,0:0:0:0:
194,268,46634,6,0,L|136:286,1,60,12|0,0:3|3:0,0:0:0:0:
183,288,46953,6,0,L|125:306,1,60,12|0,0:3|3:0,0:0:0:0:
409,329,47272,1,12,0:3:0:0:
345,244,47432,1,8,0:1:0:0:
345,244,47512,1,8,0:1:0:0:
345,244,47592,5,12,0:3:0:0:
299,359,47751,1,8,0:1:0:0:
254,203,47911,1,12,0:3:0:0:
433,228,48070,1,8,0:1:0:0:
170,254,48230,1,12,0:3:0:0:
284,11,48389,1,8,0:1:0:0:
512,249,48549,1,12,0:3:0:0:
91,296,48709,1,8,0:1:0:0:
91,273,48788,1,8,0:1:0:0:
92,250,48868,5,12,0:3:0:0:
377,194,51102,6,0,P|440:153|366:163,1,191.250003647804,8|0,0:0|0:0,0:0:0:0:
377,194,51421,6,0,P|384:236|375:276,1,82.5000025177003,4|0,0:1|0:0,0:0:0:0:
127,287,51740,6,0,P|177:284|234:287,1,89.9999972534181,2|4,0:0|0:3,0:0:0:0:
216,285,52060,1,8,0:0:0:0:
64,212,52219,2,0,B|70:203|70:203|79:210|79:210|86:201|86:201|95:208|95:208|102:199|102:199|110:206|110:206|118:197|118:197|127:205,1,75
301,288,52698,6,0,P|294:251|273:221,1,75,2|0,0:0|0:0,0:0:0:0:
198,204,53177,1,2,0:0:0:0:
184,80,53336,2,0,L|184:129,1,37.5,8|0,0:0|0:0,0:0:0:0:
248,16,53655,2,0,L|262:62,1,37.5,2|0,0:0|0:0,0:0:0:0:
104,107,53975,5,2,0:1:0:0:
86,93,54294,6,0,L|88:191,1,89.9999972534181,2|4,0:0|0:3,0:0:0:0:
87,182,54613,1,8,0:0:0:0:
66,15,54772,2,0,B|74:7|74:7|82:15|82:15|90:9|90:9|97:17|97:17|106:11|106:11|114:19|114:19|122:13|122:13|129:21,1,75,2|0,0:0|0:0,0:0:0:0:
164,222,55251,6,0,P|136:252|98:266,1,82.5000025177003,4|0,0:3|0:0,0:0:0:0:
2,138,55570,1,2,0:0:0:0:
167,135,55730,1,4,0:3:0:0:
0,240,55889,1,10,0:0:0:0:
101,62,56049,1,2,0:0:0:0:
236,271,56209,2,0,P|249:225|240:184,1,82.5000025177003,2|0,0:0|0:0,0:0:0:0:
259,23,56528,6,0,P|244:68|254:109,1,82.5000025177003,4|0,0:3|0:0,0:0:0:0:
408,148,56847,6,0,P|369:159|315:151,1,89.9999972534181,2|4,0:2|0:3,0:0:0:0:
321,154,57166,1,8,0:0:0:0:
504,96,57326,2,0,B|510:105|510:105|500:111|500:111|506:121|506:121|497:127|497:127|503:136|503:136|494:142|494:142|500:152|500:152|490:158,1,75,2|0,0:2|0:0,0:0:0:0:
413,361,57804,6,0,P|401:325|405:288,1,75,10|0,0:0|0:0,0:0:0:0:
488,248,58283,1,2,0:0:0:0:
365,144,58443,2,0,L|375:191,1,37.5,8|0,0:0|0:0,0:0:0:0:
298,9,58762,2,0,L|280:53,1,37.5,2|0,0:0|0:0,0:0:0:0:
466,55,59081,5,4,0:3:0:0:
467,78,59400,6,0,L|425:68,2,37.5,8|4|8,0:1|0:3|0:0,0:0:0:0:
285,239,59879,1,8,0:1:0:0:
351,120,60038,1,2,0:0:0:0:
232,165,60198,1,8,0:1:0:0:
408,235,60358,6,0,P|424:197|425:156,1,82.5000025177003,8|0,0:1|0:0,0:0:0:0:
373,27,60677,1,8,0:1:0:0:
337,206,60836,1,2,0:0:0:0:
512,163,60996,1,8,0:0:0:0:
326,113,61155,1,8,0:1:0:0:
486,16,61315,1,8,0:1:0:0:
504,36,61395,1,8,0:1:0:0:
504,61,61475,1,8,0:1:0:0:
252,163,61634,6,0,P|240:123|245:82,1,82.5000025177003,4|0,0:1|0:0,0:0:0:0:
361,7,61953,1,8,0:3:0:0:
357,178,62113,1,8,0:1:0:0:
78,80,62272,6,0,L|173:91,1,82.5000025177003,4|0,0:3|0:0,0:0:0:0:
124,250,62592,2,0,L|200:211,1,82.5000025177003,8|0,0:3|0:0,0:0:0:0:
151,334,62911,2,0,P|42:277|96:167,1,269.999991760254,4|8,0:3|0:1,0:0:0:0:
231,236,63549,5,4,0:3:0:0:
148,36,63709,1,2,0:0:0:0:
124,250,63868,1,8,0:3:0:0:
219,135,64028,1,2,0:0:0:0:
12,121,64187,6,0,P|5:164|12:213,1,89.9999972534181,2|0,0:1|0:0,0:0:0:0:
106,291,64506,1,8,0:3:0:0:
103,91,64666,1,8,0:1:0:0:
248,320,64826,6,0,P|249:274|226:230,1,89.9999972534181,4|0,0:3|0:0,0:0:0:0:
19,322,65145,2,0,P|17:276|40:232,1,89.9999972534181,8|0,0:3|0:0,0:0:0:0:
325,360,65464,2,0,B|362:285|316:204|316:204|343:190|343:190|330:166|330:166|330:111,1,269.999991760254,4|8,0:3|0:1,0:0:0:0:
177,235,66102,5,4,0:3:0:0:
333,335,66262,1,0,0:0:0:0:
83,267,66421,1,8,0:3:0:0:
272,259,66581,1,0,0:3:0:0:
36,333,66740,6,0,P|6:300|2:256,1,89.9999972534181,12|0,0:2|0:0,0:0:0:0:
312,51,67060,2,0,P|328:97|320:145,1,89.9999972534181,10|0,0:0|0:0,0:0:0:0:
74,177,67379,5,4,0:3:0:0:
247,101,67539,1,0,0:0:0:0:
0,128,67698,1,8,0:3:0:0:
171,165,67858,1,0,0:0:0:0:
77,345,68017,6,0,P|60:303|67:259,1,89.9999972534181,4|0,0:3|0:0,0:0:0:0:
74,177,68336,1,8,0:3:0:0:
259,294,68496,2,0,P|246:207|171:164,1,179.999994506836
333,369,68975,6,0,P|377:370|420:356,1,89.9999972534181,8|0,0:3|0:0,0:0:0:0:
512,207,69294,2,0,P|467:208|424:194,1,89.9999972534181,4|0,0:3|0:0,0:0:0:0:
437,117,69613,1,0,0:0:0:0:
455,287,69772,1,0,0:0:0:0:
256,191,69932,2,0,P|261:146|289:111,1,89.9999972534181,4|0,0:3|0:0,0:0:0:0:
430,198,70251,1,0,0:0:0:0:
322,321,70411,5,8,0:3:0:0:
322,321,70491,1,8,0:3:0:0:
322,321,70571,1,8,0:3:0:0:
360,151,70730,1,8,0:3:0:0:
37,261,71050,1,8,0:3:0:0:
197,287,71209,1,8,0:3:0:0:
10,13,71528,5,8,0:3:0:0:
24,101,71687,1,0,0:0:0:0:
179,4,71847,2,0,P|183:47|166:106,1,90,4|0,0:0|0:0,0:0:0:0:
148,126,72166,1,0,0:0:0:0:
94,43,72326,1,2,0:1:0:0:
236,154,72485,2,0,P|282:144|314:93,1,90,8|0,0:3|0:0,0:0:0:0:
304,72,72804,2,0,L|315:161,1,90
324,216,73123,5,4,0:3:0:0:
408,144,73283,1,0,0:0:0:0:
376,288,73443,2,0,P|348:300|284:284,1,90
231,292,73762,2,0,L|313:288,1,60,8|0,0:3|0:0,0:0:0:0:
156,244,74081,1,0,0:0:0:0:
152,328,74240,1,0,0:0:0:0:
18,229,74400,6,0,L|55:289,1,60,2|0,0:1|0:0,0:0:0:0:
116,169,74719,1,2,0:0:0:0:
16,110,74879,2,0,L|19:240,1,120,2|0,0:1|0:0,0:0:0:0:
105,30,75358,2,0,L|11:114,1,120,2|0,0:1|0:0,0:0:0:0:
164,38,75836,6,0,L|79:26,1,60,2|0,0:1|0:0,0:0:0:0:
231,84,76155,1,2,0:0:0:0:
349,13,76315,2,0,L|285:28,1,60,2|0,0:1|0:0,0:0:0:0:
408,84,76634,5,0,0:0:0:0:
442,1,76794,1,0,0:0:0:0:
319,112,76953,1,4,0:3:0:0:
496,80,77113,1,0,0:0:0:0:
408,84,77272,1,0,0:0:0:0:
416,176,77432,1,0,0:0:0:0:
512,158,77592,2,0,P|518:196|507:233,1,60,12|0,0:3|0:0,0:0:0:0:
416,256,77911,5,0,0:0:0:0:
512,306,78070,1,0,0:0:0:0:
328,228,78230,1,4,0:3:0:0:
264,328,78389,1,0,0:0:0:0:
352,312,78549,1,0,0:0:0:0:
243,242,78709,1,0,0:0:0:0:
160,292,78868,2,0,P|150:263|151:233,1,60,12|0,0:3|0:0,0:0:0:0:
216,152,79187,1,0,0:0:0:0:
128,152,79347,1,0,0:0:0:0:
161,52,79506,6,0,L|302:72,1,120,2|0,0:1|0:0,0:0:0:0:
52,101,79985,2,0,L|161:52,1,120,2|0,0:1|0:0,0:0:0:0:
26,155,80464,2,0,L|58:88,1,60,2|0,0:1|0:0,0:0:0:0:
120,207,80783,5,2,0:0:0:0:
224,257,80943,2,0,L|195:132,1,120,2|0,0:1|0:0,0:0:0:0:
288,335,81421,2,0,L|313:271,1,60,2|0,0:1|0:0,0:0:0:0:
151,296,81740,5,0,0:0:0:0:
206,356,81900,1,0,0:0:0:0:
378,227,82060,1,4,0:3:0:0:
274,252,82219,1,0,0:0:0:0:
396,309,82379,1,0,0:0:0:0:
356,145,82538,1,0,0:0:0:0:
288,335,82698,2,0,P|257:336|229:325,1,60,12|0,0:3|0:0,0:0:0:0:
258,165,83017,5,0,0:0:0:0:
274,252,83177,1,0,0:0:0:0:
208,40,83336,5,0,0:0:0:0:
176,232,83496,1,0,0:0:0:0:
356,145,83655,2,0,P|363:170|345:146,1,75,0|8,0:0|0:3,0:0:0:0:
312,64,84135,5,2,0:0:0:0:
437,123,84294,1,2,0:0:0:0:
408,32,84453,1,2,0:0:0:0:
410,200,84613,5,4,0:3:0:0:
93,163,84932,1,2,0:0:0:0:
169,302,85092,1,2,0:0:0:0:
82,0,85411,1,2,0:0:0:0:
376,112,85730,1,2,0:0:0:0:
297,219,85889,6,0,P|286:175|297:132,2,89.9999972534181,4|2|4,0:3|0:0|0:3,0:0:0:0:
90,56,86847,5,0,0:0:0:0:
41,153,87006,1,0,0:0:0:0:
140,143,87166,2,0,P|167:123|178:92,1,67.4999979400635,4|0,0:3|0:0,0:0:0:0:
178,91,87485,5,4,0:3:0:0:
224,106,87564,1,4,0:3:0:0:
271,116,87644,1,4,0:3:0:0:
312,104,87725,1,4,0:3:0:0:
349,71,87804,1,4,0:3:0:0:
361,329,88123,5,0,0:0:0:0:
455,243,88283,1,0,0:0:0:0:
85,353,88443,1,8,0:3:0:0:
19,348,92272,6,0,B|19:192|19:192|27:249|48:264|48:264|96:264|96:264|117:249|125:192|125:192|125:356,1,525,4|0,0:0|0:0,0:0:0:0:
223,248,94826,6,0,B|291:68|291:68|389:235|389:235|353:202|321:193|321:193|264:183,1,525,2|0,0:0|0:0,0:0:0:0:
1,42,97379,6,0,B|194:24|194:24|136:40|103:68|103:68|104:196,1,420,2|0,0:0|0:0,0:0:0:0:
315,117,99932,6,0,B|251:77|179:141|179:221|291:237|291:237|179:253|179:357|251:397|323:357,1,525,2|2,0:0|0:0,0:0:0:0:
131,106,102485,6,0,P|119:163|127:216,1,104.999996795654,12|2,0:3|0:0,0:0:0:0:
203,290,102964,1,8,0:1:0:0:
92,287,103124,2,0,B|68:279|68:279|42:286,1,52.4999983978272,12|0,0:3|0:0,0:0:0:0:
0,380,103442,2,0,B|68:371,1,52.4999983978272,8|0,0:1|0:0,0:0:0:0:
155,350,103762,5,12,0:3:0:0:
147,197,103921,1,0,0:0:0:0:
243,329,104081,1,0,0:0:0:0:
72,176,104400,2,0,P|70:202|75:227,1,52.4999983978272,12|0,0:3|0:0,0:0:0:0:
320,288,104719,1,8,0:1:0:0:
272,272,104799,1,8,0:1:0:0:
216,272,104879,1,8,0:1:0:0:
176,304,104959,1,8,0:1:0:0:
154,349,105038,6,0,P|99:372|41:365,1,120,12|2,0:3|0:0,0:0:0:0:
0,263,105516,1,8,0:1:0:0:
2,157,105676,2,0,L|72:170,1,60,12|0,0:3|0:0,0:0:0:0:
1,71,105996,1,8,0:1:0:0:
319,208,106315,5,12,0:3:0:0:
211,44,106474,1,8,0:1:0:0:
349,94,106634,2,0,P|358:65|358:35,1,60,8|2,0:1|0:0,0:0:0:0:
192,136,106953,1,12,0:3:0:0:
440,152,107112,1,8,0:1:0:0:
288,152,107272,1,8,0:1:0:0:
288,200,107352,1,8,0:1:0:0:
288,248,107432,1,8,0:1:0:0:
288,296,107512,1,8,0:1:0:0:
289,341,107592,6,0,P|267:309|263:278,1,60,12|0,0:3|3:0,0:0:0:0:
286,340,107911,6,0,P|258:321|239:296,1,60,12|0,0:3|3:0,0:0:0:0:
288,341,108230,6,0,P|257:340|227:330,1,60,12|0,0:3|3:0,0:0:0:0:
512,303,108549,1,12,0:3:0:0:
437,209,108709,1,8,0:1:0:0:
437,209,108788,1,8,0:1:0:0:
437,209,108868,5,12,0:3:0:0:
431,384,109028,1,8,0:1:0:0:
512,156,109187,1,12,0:3:0:0:
236,155,109347,1,8,0:1:0:0:
370,322,109506,1,12,0:3:0:0:
257,7,109666,1,8,0:1:0:0:
46,198,109826,1,12,0:3:0:0:
412,88,109985,1,8,0:1:0:0:
407,104,110065,1,8,0:1:0:0:
401,120,110145,5,12,0:3:0:0:
84,101,112379,6,0,P|14:82|82:58,1,191.250003647804,8|0,0:0|0:0,0:0:0:0:
84,101,112698,6,0,P|69:147|82:183,1,82.5000025177003,4|0,0:1|0:0,0:0:0:0:
253,143,113017,6,0,P|203:146|146:143,1,89.9999972534181,2|4,0:0|0:3,0:0:0:0:
164,145,113337,1,8,0:0:0:0:
336,208,113496,2,0,B|330:217|330:217|321:210|321:210|314:219|314:219|305:212|305:212|298:221|298:221|290:214|290:214|282:223|282:223|273:215,1,75,2|0,0:0|0:0,0:0:0:0:
79,142,113975,6,0,P|86:179|107:209,1,75,2|0,0:0|0:0,0:0:0:0:
176,264,114453,1,2,0:0:0:0:
296,304,114613,2,0,L|242:298,1,37.5,8|0,0:0|0:0,0:0:0:0:
64,320,114932,2,0,L|106:299,1,37.5,2|0,0:0|0:0,0:0:0:0:
384,184,115252,5,2,0:1:0:0:
361,178,115570,6,0,L|253:209,1,89.9999972534181,2|4,0:0|0:3,0:0:0:0:
274,202,115890,1,8,0:0:0:0:
401,102,116049,2,0,B|401:101|401:101|393:107|393:107|385:99|385:99|376:105|376:105|369:97|369:97|361:103|361:103|353:95|353:95|345:103,1,75,2|0,0:0|0:0,0:0:0:0:
512,182,116528,6,0,P|506:142|485:107,1,82.5000025177003,4|0,0:3|0:0,0:0:0:0:
362,185,116847,1,2,0:0:0:0:
413,287,117007,1,4,0:3:0:0:
401,102,117166,1,10,0:0:0:0:
263,249,117326,1,2,0:0:0:0:
480,335,117486,2,0,P|493:289|484:248,1,82.5000025177003,2|0,0:0|0:0,0:0:0:0:
199,203,117805,6,0,P|184:248|194:289,1,82.5000025177003,4|0,0:3|0:0,0:0:0:0:
343,348,118124,6,0,L|238:325,1,89.9999972534181,2|4,0:0|0:3,0:0:0:0:
255,328,118443,1,8,0:0:0:0:
432,360,118603,2,0,B|426:351|426:351|436:345|436:345|430:335|430:335|439:329|439:329|433:320|433:320|442:314|442:314|436:304|436:304|446:298,1,75,2|0,0:0|0:0,0:0:0:0:
392,72,119081,6,0,P|386:118|393:155,1,75,10|0,0:0|0:0,0:0:0:0:
463,222,119560,1,2,0:0:0:0:
296,264,119719,2,0,L|348:259,1,37.5,8|0,0:0|0:0,0:0:0:0:
208,144,120039,2,0,L|256:162,1,37.5,2|0,0:0|0:0,0:0:0:0:
134,92,120358,5,4,0:3:0:0:
154,69,120677,6,0,L|203:60,2,37.5,8|4|8,0:1|0:3|0:0,0:0:0:0:
44,78,121156,1,8,0:1:0:0:
147,196,121315,1,2,0:0:0:0:
144,88,121475,1,8,0:1:0:0:
0,162,121635,6,0,P|28:192|65:209,1,82.5000025177003,8|0,0:1|0:0,0:0:0:0:
240,224,121954,1,8,0:1:0:0:
224,72,122113,1,2,0:0:0:0:
136,280,122273,1,8,0:0:0:0:
344,200,122432,1,8,0:1:0:0:
275,129,122592,1,8,0:1:0:0:
307,103,122672,1,8,0:1:0:0:
349,95,122752,1,8,0:1:0:0:
423,243,122911,6,0,P|398:276|360:288,1,82.5000025177003,4|0,0:1|0:0,0:0:0:0:
344,176,123230,1,8,0:3:0:0:
312,368,123390,1,8,0:1:0:0:
211,284,123549,6,0,L|296:240,1,82.5000025177003,4|0,0:3|0:0,0:0:0:0:
114,182,123869,2,0,L|207:201,1,82.5000025177003,8|0,0:3|0:0,0:0:0:0:
0,119,124187,2,0,L|270:67,1,269.999991760254,4|8,0:3|0:1,0:0:0:0:
90,16,124826,5,4,0:3:0:0:
36,193,124986,1,2,0:0:0:0:
263,87,125145,1,8,0:3:0:0:
12,33,125304,1,2,0:0:0:0:
182,223,125464,6,0,P|188:178|174:136,1,89.9999972534181,2|0,0:1|0:0,0:0:0:0:
0,174,125783,1,8,0:3:0:0:
117,76,125943,1,8,0:1:0:0:
119,304,126103,6,0,L|107:214,1,89.9999972534181,4|0,0:3|0:0,0:0:0:0:
74,377,126422,2,0,L|13:309,1,89.9999972534181,8|0,0:3|0:0,0:0:0:0:
338,292,126741,2,0,B|364:283|364:283|345:313|345:313|291:324|291:324|257:397|177:376|164:326|240:320,1,269.999991760254,4|8,0:3|0:1,0:0:0:0:
335,200,127379,5,4,0:3:0:0:
208,327,127539,1,0,0:0:0:0:
429,232,127698,1,8,0:3:0:0:
240,224,127858,1,0,0:3:0:0:
476,298,128017,6,0,P|506:265|510:221,1,89.9999972534181,12|0,0:0|0:0,0:0:0:0:
200,16,128337,2,0,P|184:62|192:110,1,89.9999972534181,10|0,0:0|0:0,0:0:0:0:
438,142,128655,5,4,0:3:0:0:
265,66,128816,1,0,0:0:0:0:
512,93,128975,1,8,0:3:0:0:
341,130,129135,1,0,0:0:0:0:
435,310,129294,6,0,P|452:268|445:224,1,89.9999972534181,4|0,0:3|0:0,0:0:0:0:
438,142,129613,1,8,0:3:0:0:
253,259,129773,2,0,P|266:172|341:129,1,179.999994506836
193,325,130251,1,8,0:3:0:0:
166,331,130570,6,0,L|253:339,3,75,4|0|0|0,0:0|0:0|0:0|0:0,0:0:0:0:
78,251,131687,5,8,0:3:0:0:
78,251,131767,1,8,0:3:0:0:
78,251,131847,1,8,0:3:0:0:
181,378,132007,1,8,0:3:0:0:
304,60,132327,1,8,0:3:0:0:
181,165,132486,1,8,0:3:0:0:
454,171,132805,1,8,0:3:0:0:
151,36,133123,5,6,0:0:0:0:
256,16,143336,6,0,P|269:81|223:32,1,179.999994506836,4|0,0:3|0:0,0:0:0:0:
368,16,143815,1,8,0:1:0:0:
368,16,143975,1,4,0:3:0:0:
139,203,144294,6,0,P|124:161|136:118,1,89.9999972534181,8|0,0:1|0:0,0:0:0:0:
312,144,144613,1,4,0:3:0:0:
209,158,144772,1,8,0:1:0:0:
272,232,144932,1,8,0:1:0:0:
139,28,145251,6,0,L|134:142,1,89.9999972534181,4|0,0:3|0:0,0:0:0:0:
239,330,145570,1,8,0:1:0:0:
248,295,145650,1,8,0:1:0:0:
232,257,145730,1,8,0:1:0:0:
198,247,145810,1,8,0:1:0:0:
160,256,145889,6,0,P|210:184|300:153,1,179.999994506836,4|0,0:3|0:0,0:0:0:0:
384,193,146368,1,8,0:1:0:0:
370,97,146528,1,4,0:3:0:0:
464,350,146847,6,0,P|465:306|475:242,1,89.9999972534181,8|0,0:1|0:0,0:0:0:0:
512,191,147166,1,4,0:3:0:0:
423,191,147326,1,8,0:1:0:0:
502,275,147485,1,8,0:1:0:0:
234,184,147804,5,4,0:3:0:0:
234,184,147964,1,8,0:1:0:0:
0,272,148123,1,8,0:1:0:0:
40,256,148203,1,8,0:1:0:0:
88,240,148283,1,8,0:1:0:0:
136,224,148363,1,8,0:1:0:0:
176,208,148443,6,0,L|174:127,1,60,12|0,0:3|3:0,0:0:0:0:
159,192,148762,6,0,L|156:122,1,60,12|0,0:3|3:0,0:0:0:0:
144,175,149081,6,0,L|141:109,1,60,12|0,0:3|3:0,0:0:0:0:
245,231,149400,1,12,0:3:0:0:
135,318,149560,1,8,0:1:0:0:
135,318,149639,1,8,0:1:0:0:
135,318,149719,5,12,0:3:0:0:
200,74,149879,1,8,0:1:0:0:
327,237,150038,1,12,0:3:0:0:
40,128,150197,1,8,0:1:0:0:
379,46,150357,1,12,0:3:0:0:
269,365,150516,1,8,0:1:0:0:
115,23,150676,1,12,0:3:0:0:
432,272,150836,1,8,0:1:0:0:
432,288,150916,1,8,0:1:0:0:
432,304,150996,5,12,0:3:0:0:
256,192,152911,5,8,0:2:0:0:
256,192,152990,12,0,155783,0:0:0:0:
332,305,156102,6,0,B|339:264|339:264|317:233|317:233|328:196|328:196|306:161|306:161|314:120,1,179.999994506836,4|0,0:1|0:0,0:0:0:0:
325,55,156581,6,0,P|243:86|311:141,1,209.999993591309,2|0,0:0|0:0,0:0:0:0:
403,7,157060,1,2,0:0:0:0:
32,256,157379,6,0,L|42:20,1,209.999993591309,2|0,0:0|0:0,0:0:0:0:
112,320,157858,2,0,L|122:84,1,209.999993591309,2|0,0:0|0:0,0:0:0:0:
192,384,158336,1,2,0:0:0:0:
391,0,158655,6,0,B|384:41|384:41|406:72|406:72|395:109|395:109|417:144|417:144|413:164,1,179.999994506836,2|0,0:0|0:0,0:0:0:0:
512,351,159134,6,0,P|525:275|478:216,1,157.499995193482,2|0,0:0|0:0,0:0:0:0:
399,242,159453,1,2,0:0:0:0:
436,383,159613,1,2,0:0:0:0:
512,0,159932,6,0,P|484:30|446:44,1,82.5000025177003,4|0,0:3|0:0,0:0:0:0:
272,80,160251,1,2,0:0:0:0:
432,144,160411,1,4,0:3:0:0:
352,0,160570,1,10,0:0:0:0:
320,176,160730,1,2,0:0:0:0:
445,44,160890,2,0,P|480:64|505:96,1,82.5000025177003,2|0,0:0|0:0,0:0:0:0:
512,331,161209,6,0,B|473:314|473:314|438:329|438:329|404:310|404:310|365:323|365:323|327:306,1,179.999994506836,4|0,0:0|0:0,0:0:0:0:
275,266,161688,6,0,P|269:353|347:313,1,209.999993591309,2|0,0:0|0:0,0:0:0:0:
163,312,162166,1,2,0:0:0:0:
512,51,162485,6,0,L|308:0,1,209.999993591309,2|0,0:0|0:0,0:0:0:0:
512,205,162964,2,0,L|337:87,1,209.999993591309,2|0,0:0|0:0,0:0:0:0:
512,296,163443,1,2,0:0:0:0:
113,103,163762,6,0,B|148:125|148:125|185:117|185:117|214:141|214:141|255:135|255:135|272:146,1,179.999994506836,2|2,0:0|0:0,0:0:0:0:
480,144,164241,6,0,P|422:92|347:101,1,157.499995193482,2|0,0:0|0:0,0:0:0:0:
347,189,164560,1,8,0:1:0:0:
464,26,164720,1,2,0:0:0:0:
450,228,164879,1,8,0:1:0:0:
354,78,165038,6,0,P|313:79|278:100,1,82.5000025177003
298,272,165358,1,8,0:1:0:0:
441,207,165517,1,2,0:0:0:0:
253,201,165677,1,8,0:1:0:0:
346,346,165836,1,8,0:1:0:0:
314,130,165996,1,8,0:1:0:0:
342,163,166075,1,8,0:1:0:0:
347,203,166155,1,8,0:1:0:0:
174,244,166315,6,0,P|162:205|173:166,1,82.5000025177003,4|0,0:1|0:0,0:0:0:0:
233,83,166634,1,8,0:3:0:0:
229,314,166794,1,8,0:1:0:0:
66,184,166953,6,0,P|76:144|98:109,1,82.5000025177003,4|0,0:3|0:0,0:0:0:0:
31,263,167273,2,0,P|0:234|-16:197,1,82.5000025177003,8|0,0:3|0:0,0:0:0:0:
143,340,167592,2,0,P|34:283|80:176,1,247.500007553101,4|8,0:3|0:1,0:0:0:0:
231,236,168230,5,4,0:3:0:0:
148,36,168390,1,2,0:0:0:0:
124,250,168549,1,8,0:3:0:0:
219,135,168709,1,2,0:0:0:0:
53,76,168868,6,0,P|43:116|52:157,1,82.5000025177003,2|0,0:1|0:0,0:0:0:0:
203,219,169187,1,8,0:3:0:0:
124,120,169347,1,8,0:1:0:0:
292,245,169507,6,0,P|294:205|277:168,1,82.5000025177003,4|0,0:3|0:0,0:0:0:0:
270,328,169826,2,0,P|310:331|347:314,1,82.5000025177003,8|0,0:3|0:0,0:0:0:0:
207,264,170145,2,0,B|203:333|126:332|110:262|159:225|159:225|145:198|145:198|161:137,1,247.500007553101,4|8,0:3|0:1,0:0:0:0:
190,66,170783,5,4,0:3:0:0:
346,166,170943,1,0,0:0:0:0:
96,98,171102,1,8,0:3:0:0:
285,90,171262,1,0,0:3:0:0:
49,164,171421,6,0,P|19:131|16:80,1,82.5000025177003,12|0,0:0|0:0,0:0:0:0:
424,139,171740,2,0,P|425:187|400:224,1,82.5000025177003,10|0,0:0|0:0,0:0:0:0:
158,185,172060,5,4,0:3:0:0:
346,166,172220,1,0,0:0:0:0:
103,115,172379,1,8,0:3:0:0:
254,203,172539,1,0,0:0:0:0:
109,345,172698,6,0,P|105:299|120:264,1,82.5000025177003,4|0,0:3|0:0,0:0:0:0:
158,185,173017,1,8,0:3:0:0:
298,353,173177,2,0,P|312:266|256:208,1,165.000005035401
126,261,173655,1,2,0:0:0:0:
129,278,173975,6,0,L|203:284,3,75,4|0|0|0,0:2|0:0|0:0|0:0,0:0:0:0:
381,110,175251,5,2,0:0:0:0:
