osu file format v14

[General]
AudioFilename: audio.mp3
AudioLeadIn: 0
PreviewTime: 36022
Countdown: 0
SampleSet: Soft
StackLeniency: 0.7
Mode: 0
LetterboxInBreaks: 0
WidescreenStoryboard: 0

[Editor]
Bookmarks: 210,6210,12236,18210,24210,30210,36195,45195,51195,57195,63195,69195,75195,81195,90007
DistanceSpacing: 1.1
BeatDivisor: 4
GridSize: 32
TimelineZoom: 1.3

[Metadata]
Title:Akai Coat (TV Size)
TitleUnicode:赤いコート (TV Size)
Artist:Suneohair
ArtistUnicode:スネオヘアー
Creator:Shyotamaze
Version:Insane
Source:荒川アンダー ザ ブリッジ×ブリッジ
Tags:Arakawa Under the Bridge x Bridge season 2 anime ending jrock j-rock japanese rock jpop j-pop pop SHAFT 2nd x2 渡辺健二 Kenji Watanabe
BeatmapID:3826219
BeatmapSetID:1861068

[Difficulty]
HPDrainRate:5
CircleSize:4.5
OverallDifficulty:7.5
ApproachRate:8.8
SliderMultiplier:1.7
SliderTickRate:1

[Events]
//Background and Video events
0,0,"Coat.jpg",0,0
Video,200,"Akai Coat.mp4"
//Break Periods
//Storyboard Layer 0 (Background)
//Storyboard Layer 1 (Fail)
//Storyboard Layer 2 (Pass)
//Storyboard Layer 3 (Foreground)
//Storyboard Layer 4 (Overlay)
//Storyboard Sound Samples

[TimingPoints]
210,375,4,2,1,70,1,0
12236,375,4,2,1,50,1,0
12236,-111.111111111111,4,2,1,50,0,0
24210,375,4,2,1,50,1,0
24210,-111.111111111111,4,2,1,50,0,0
36195,375,4,2,1,70,1,0
36195,-90.9090909090909,4,2,1,70,0,0
38632,-90.9090909090909,4,2,2,70,0,0
38913,-90.9090909090909,4,2,1,70,0,0
41632,-90.9090909090909,4,2,2,70,0,0
41913,-90.9090909090909,4,2,1,70,0,0
44445,-90.9090909090909,4,2,2,70,0,0
45195,-80,4,2,1,80,0,1
47632,-80,4,2,2,80,0,1
47913,-80,4,2,1,80,0,1
50632,-80,4,2,2,80,0,1
50913,-80,4,2,1,80,0,1
53632,-80,4,2,2,80,0,1
53913,-80,4,2,1,80,0,1
56632,-80,4,2,2,80,0,1
57195,-90.9090909090909,4,2,1,70,0,0
68632,-90.9090909090909,4,2,2,70,0,0
69288,-90.9090909090909,4,2,1,70,0,0
80632,-90.9090909090909,4,2,2,70,0,0
81195,-80,4,2,1,80,0,1
83632,-80,4,2,2,80,0,1
84195,-80,4,2,1,80,0,1
86632,-80,4,2,2,80,0,1
86913,-80,4,2,1,80,0,1
90007,-200,4,2,2,70,0,0

[Colours]
Combo1 : 249,249,96
Combo2 : 147,214,101
Combo3 : 167,231,230

[HitObjects]
352,288,210,6,0,B|393:295|393:295|430:274,1,85,2|0,0:0|0:0,0:0:0:0:
410,173,585,2,0,B|368:165|368:165|331:186,1,85,2|0,0:0|0:0,0:0:0:0:
324,201,866,1,0,0:0:0:0:
317,216,960,1,2,0:0:0:0:
481,211,1147,1,2,0:0:0:0:
405,90,1335,1,2,0:0:0:0:
251,171,1522,2,0,L|168:157,1,85,2|0,0:0|0:0,0:0:0:0:
59,39,1897,5,2,0:0:0:0:
70,191,2085,2,0,B|62:149|62:149|83:112,1,85,2|0,0:0|0:0,0:0:0:0:
98,105,2366,1,2,0:0:0:0:
113,98,2460,1,2,0:0:0:0:
208,62,2647,2,0,L|291:76,2,85,2|0|0,0:0|0:0|0:0,0:0:0:0:
381,169,3210,6,0,B|401:132|401:132|394:90,1,85,2|0,0:0|0:0,0:0:0:0:
292,76,3585,2,0,B|270:112|270:112|277:154,1,85,2|0,0:0|0:0,0:0:0:0:
289,166,3866,1,0,0:0:0:0:
301,178,3960,2,0,L|217:192,2,85,2|2|2,0:0|0:0|0:0,0:0:0:0:
438,226,4522,2,0,L|521:212,1,85,2|0,0:0|0:0,0:0:0:0:
436,307,4897,5,2,0:0:0:0:
381,169,5085,2,0,B|373:127|373:127|394:90,1,85,2|0,0:0|0:0,0:0:0:0:
409,83,5366,1,2,0:0:0:0:
424,76,5460,1,2,0:0:0:0:
512,25,5647,1,2,0:0:0:0:
305,45,5835,2,0,L|221:30,1,85
168,228,6210,6,0,B|209:235|209:235|246:214,1,85,2|0,0:0|0:0,0:0:0:0:
226,113,6585,2,0,B|184:105|184:105|147:126,1,85,2|0,0:0|0:0,0:0:0:0:
140,141,6866,1,0,0:0:0:0:
133,156,6960,1,2,0:0:0:0:
297,151,7147,1,2,0:0:0:0:
221,30,7335,1,2,0:0:0:0:
126,171,7522,2,0,L|141:254,1,85,2|0,0:0|0:0,0:0:0:0:
83,378,7897,5,2,0:0:0:0:
227,326,8085,2,0,B|269:318|269:318|306:339,1,85,2|0,0:0|0:0,0:0:0:0:
313,354,8366,1,2,0:0:0:0:
320,369,8460,1,2,0:0:0:0:
282,234,8647,2,0,L|297:151,2,85,2|0|0,0:0|0:0|0:0,0:0:0:0:
493,326,9210,6,0,B|513:289|513:289|506:247,1,85,2|0,0:0|0:0,0:0:0:0:
404,233,9585,2,0,B|382:269|382:269|389:311,1,85,2|0,0:0|0:0,0:0:0:0:
401,323,9866,1,0,0:0:0:0:
413,335,9960,2,0,L|329:349,2,85,2|2|2,0:0|0:0|0:0,0:0:0:0:
282,234,10522,2,0,L|198:219,1,85,2|0,0:0|0:0,0:0:0:0:
343,181,10897,5,2,0:0:0:0:
242,93,11085,2,0,B|234:51|234:51|255:14,1,85,2|0,0:0|0:0,0:0:0:0:
270,7,11366,1,2,0:0:0:0:
285,0,11460,1,2,0:0:0:0:
357,72,11647,1,2,0:0:0:0:
282,234,11835,2,0,L|198:218,1,85
30,310,12236,6,0,P|68:313|103:298,1,76.4999976654053,2|0,0:0|0:0,0:0:0:0:
182,215,12611,2,0,L|168:139,1,76.4999976654053,2|0,0:0|0:0,0:0:0:0:
76,134,12986,2,0,L|89:209,1,76.4999976654053,2|0,0:0|0:0,0:0:0:0:
190,327,13361,2,0,P|228:330|263:315,1,76.4999976654053,2|0,0:0|0:0,0:0:0:0:
343,181,13736,5,2,0:0:0:0:
415,283,13923,2,0,P|377:287|342:271,1,76.4999976654053,2|0,0:0|0:0,0:0:0:0:
257,153,14298,2,0,L|283:2,1,152.999995330811,2|0,0:0|0:0,0:0:0:0:
379,3,14861,1,0,0:0:0:0:
471,119,15236,6,0,P|475:81|459:46,1,76.4999976654053,2|0,0:0|0:0,0:0:0:0:
343,181,15611,2,0,L|418:194,1,76.4999976654053,2|0,0:0|0:0,0:0:0:0:
471,119,15986,1,2,0:0:0:0:
437,284,16173,2,0,L|512:270,1,76.4999976654053,2|0,0:0|0:0,0:0:0:0:
383,359,16548,6,0,L|232:332,1,152.999995330811,2|0,0:0|0:0,0:0:0:0:
215,241,17111,1,0,0:0:0:0:
146,301,17298,2,0,L|70:314,1,76.4999976654053
53,224,17673,2,0,L|128:210,2,76.4999976654053
215,241,18236,6,0,P|230:206|228:168,1,76.4999976654053,2|0,0:0|0:0,0:0:0:0:
166,100,18611,2,0,L|91:86,1,76.4999976654053,2|0,0:0|0:0,0:0:0:0:
256,80,18986,2,0,L|331:66,1,76.4999976654053,2|0,0:0|0:0,0:0:0:0:
422,72,19361,2,0,P|419:34|397:2,1,76.4999976654053,2|0,0:0|0:0,0:0:0:0:
256,80,19736,5,2,0:0:0:0:
395,172,19923,2,0,L|319:158,1,76.4999976654053,2|0,0:0|0:0,0:0:0:0:
444,253,20298,2,0,L|293:279,1,152.999995330811,2|0,0:0|0:0,0:0:0:0:
215,241,20861,1,0,0:0:0:0:
70,313,21236,6,0,P|105:329|143:326,1,76.4999976654053,2|0,0:0|0:0,0:0:0:0:
187,158,21611,2,0,L|111:171,1,76.4999976654053,2|0,0:0|0:0,0:0:0:0:
39,228,21986,1,2,0:0:0:0:
135,82,22173,2,0,L|60:68,1,76.4999976654053,2|0,0:0|0:0,0:0:0:0:
208,26,22548,6,0,L|358:0,1,152.999995330811,2|0,0:0|0:0,0:0:0:0:
426,61,23111,1,0,0:0:0:0:
326,182,23298,2,0,P|284:129|341:91,1,152.999995330811,2|0,0:0|0:0,0:0:0:0:
413,152,23861,1,0,0:0:0:0:
413,152,24048,1,0,0:0:0:0:
388,326,24210,6,0,P|425:328|460:313,1,76.4999976654053,2|0,0:0|0:0,0:0:0:0:
312,274,24585,2,0,L|237:287,1,76.4999976654053,2|0,0:0|0:0,0:0:0:0:
231,379,24960,2,0,L|305:365,1,76.4999976654053,2|0,0:0|0:0,0:0:0:0:
259,197,25335,2,0,P|221:195|186:210,1,76.4999976654053,2|0,0:0|0:0,0:0:0:0:
70,313,25710,5,2,0:0:0:0:
0,213,25897,2,0,P|-2:175|12:140,1,76.4999976654053,2|0,0:0|0:0,0:0:0:0:
73,23,26272,2,0,L|100:173,1,152.999995330811,2|0,0:0|0:0,0:0:0:0:
186,209,26835,1,0,0:0:0:0:
353,165,27210,6,0,P|356:127|341:91,1,76.4999976654053,2|0,0:0|0:0,0:0:0:0:
272,245,27585,2,0,L|347:258,1,76.4999976654053,2|0,0:0|0:0,0:0:0:0:
429,216,27960,1,2,0:0:0:0:
505,356,28147,2,0,L|492:281,1,76.4999976654053,2|0,0:0|0:0,0:0:0:0:
455,65,28522,6,0,L|429:216,1,152.999995330811,2|0,0:0|0:0,0:0:0:0:
348,258,29085,1,0,0:0:0:0:
285,193,29272,2,0,L|271:117,1,76.4999976654053
352,75,29647,2,0,L|366:0,2,76.4999976654053
194,67,30210,6,0,P|179:101|181:139,1,76.4999976654053,2|0,0:0|0:0,0:0:0:0:
92,116,30585,2,0,L|16:129,1,76.4999976654053,2|0,0:0|0:0,0:0:0:0:
271,118,30960,2,0,L|346:104,1,76.4999976654053,2|0,0:0|0:0,0:0:0:0:
422,155,31335,2,0,P|437:121|435:83,1,76.4999976654053,2|0,0:0|0:0,0:0:0:0:
293,28,31710,5,2,0:0:0:0:
249,208,31897,2,0,L|173:194,1,76.4999976654053,2|0,0:0|0:0,0:0:0:0:
76,324,32272,2,0,L|227:298,1,152.999995330811,2|0,0:0|0:0,0:0:0:0:
321,314,32835,1,0,0:0:0:0:
410,191,33210,6,0,P|395:226|398:264,1,76.4999976654053,2|0,0:0|0:0,0:0:0:0:
500,318,33585,2,0,L|487:243,1,76.4999976654053,2|0,0:0|0:0,0:0:0:0:
340,46,33960,1,2,0:0:0:0:
333,139,34147,1,2,0:0:0:0:
410,191,34335,1,2,0:0:0:0:
249,179,34522,6,0,L|99:205,1,152.999995330811,2|0,0:0|0:0,0:0:0:0:
128,118,35085,1,0,0:0:0:0:
333,139,35272,2,0,P|334:213|282:266,1,152.999995330811,2|0,0:0|0:0,0:0:0:0:
194,286,35835,1,0,0:0:0:0:
194,286,36022,1,0,0:0:0:0:
421,383,36195,6,0,P|408:339|376:306,1,93.5000028533936,2|0,0:0|0:0,0:0:0:0:
511,228,36570,2,0,P|467:210|421:214,1,93.5000028533936,2|0,0:0|0:0,0:0:0:0:
281,266,36945,1,2,0:0:0:0:
250,82,37132,2,0,L|234:174,1,93.5000028533936,2|0,0:0|0:0,0:0:0:0:
97,328,37507,6,0,P|51:331|9:313,1,93.5000028533936,2|0,0:0|0:0,0:0:0:0:
131,165,37882,2,0,P|157:202|164:248,1,93.5000028533936,2|0,0:0|0:0,0:0:0:0:
30,156,38257,2,0,L|46:64,1,93.5000028533936,2|0,0:0|0:0,0:0:0:0:
172,30,38632,2,0,L|166:0,2,31.1666676177979,0|0|0,3:0|3:0|3:0,0:0:0:0:
176,48,38820,2,0,B|238:59|238:59|260:38,1,93.5000028533936,0|0,3:0|0:0,0:0:0:0:
414,127,39195,6,0,P|369:141|336:173,1,93.5000028533936,2|0,0:0|0:0,0:0:0:0:
260,38,39570,2,0,P|242:81|246:127,1,93.5000028533936,2|0,0:0|0:0,0:0:0:0:
309,274,39945,1,2,0:0:0:0:
173,199,40132,2,0,L|80:215,1,93.5000028533936,2|0,0:0|0:0,0:0:0:0:
26,361,40507,6,0,P|3:322|0:276,1,93.5000028533936,2|0,0:0|0:0,0:0:0:0:
185,313,40882,2,0,P|164:354|127:380,1,93.5000028533936,2|0,0:0|0:0,0:0:0:0:
81,215,41257,2,0,L|174:199,1,93.5000028533936,2|0,0:0|0:0,0:0:0:0:
314,243,41632,2,0,L|309:274,2,31.1666676177979,2|0|0,3:2|3:0|3:0,0:0:0:0:
318,224,41820,1,2,3:2:0:0:
246,127,42007,1,2,0:0:0:0:
411,265,42195,6,0,L|503:248,1,93.5000028533936,2|0,0:0|0:0,0:0:0:0:
479,128,42570,2,0,L|387:145,1,93.5000028533936
318,224,42945,1,0,0:0:0:0:
304,42,43132,2,0,P|262:25|216:28,1,93.5000028533936
145,104,43507,1,2,0:0:0:0:
0,180,43695,6,0,B|54:161|91:187|91:189|91:191|128:217|180:200,1,187.000005706787,2|0,0:0|0:0,0:0:0:0:
246,127,44257,1,2,0:0:0:0:
387,145,44445,1,0,3:0:0:0:
391,172,44538,1,0,3:0:0:0:
396,200,44632,1,2,3:2:0:0:
401,227,44726,1,0,3:0:0:0:
406,255,44820,1,0,3:0:0:0:
411,283,44913,1,0,3:0:0:0:
416,310,45007,1,2,3:2:0:0:
421,338,45101,1,0,3:0:0:0:
425,365,45195,6,0,B|371:373|371:373|326:347,1,106.25,6|0,3:2|0:0,0:0:0:0:
349,236,45570,2,0,B|402:227|402:227|448:253,1,106.25,10|0,0:0|0:0,0:0:0:0:
453,273,45851,1,0,0:0:0:0:
459,293,45945,1,2,3:2:0:0:
282,280,46132,1,2,3:2:0:0:
387,145,46320,1,10,0:0:0:0:
215,324,46507,2,0,L|110:305,1,106.25,2|0,3:2|3:0,0:0:0:0:
0,379,46882,5,2,0:0:0:0:
57,183,47070,2,0,B|66:130|66:130|40:84,1,106.25,10|2,0:0|0:0,0:0:0:0:
20,79,47351,1,2,0:0:0:0:
0,73,47445,1,2,3:2:0:0:
188,108,47632,2,0,L|223:101,2,35.4166666666667,2|0|0,3:2|3:0|3:0,0:0:0:0:
167,112,47820,1,10,3:2:0:0:
124,3,48007,1,2,3:2:0:0:
334,164,48195,6,0,B|326:110|326:110|352:65,1,106.25,2|0,3:2|0:0,0:0:0:0:
463,88,48570,2,0,B|472:141|472:141|446:187,1,106.25,10|0,0:0|0:0,0:0:0:0:
426,192,48851,1,0,0:0:0:0:
406,198,48945,2,0,L|510:216,2,106.25,2|2|10,3:2|3:2|0:0,0:0:0:0:
262,238,49507,2,0,L|157:219,1,106.25,2|0,3:2|3:0,0:0:0:0:
304,306,49882,5,2,0:0:0:0:
100,164,50070,2,0,B|73:210|73:210|82:262,1,106.25,10|0,0:0|0:0,0:0:0:0:
99,274,50351,1,2,0:0:0:0:
115,286,50445,1,2,3:2:0:0:
211,147,50632,2,0,L|176:140,2,35.4166666666667,2|0|0,3:2|3:0|3:0,0:0:0:0:
232,151,50820,1,8,3:2:0:0:
156,62,51007,1,0,3:0:0:0:
395,182,51195,6,0,B|349:209|349:209|297:200,1,106.25,6|0,3:2|0:0,0:0:0:0:
280,87,51570,2,0,B|326:60|326:60|378:69,1,106.25,10|0,0:0|0:0,0:0:0:0:
390,86,51851,1,0,0:0:0:0:
403,103,51945,1,2,3:2:0:0:
421,258,52132,1,2,3:2:0:0:
232,151,52320,1,10,0:0:0:0:
492,93,52507,2,0,L|473:197,1,106.25,2|0,3:2|3:0,0:0:0:0:
512,363,52882,5,2,0:0:0:0:
307,282,53070,2,0,B|254:273|254:273|208:299,1,106.25,10|0,0:0|0:0,0:0:0:0:
203,319,53351,1,2,0:0:0:0:
197,339,53445,1,2,3:2:0:0:
232,151,53632,2,0,L|225:116,2,35.4166666666667,2|0|0,3:2|3:0|3:0,0:0:0:0:
236,172,53820,1,8,3:2:0:0:
127,215,54007,1,0,3:0:0:0:
69,5,54195,6,0,B|123:-3|123:-3|168:23,1,106.25,2|0,3:2|0:0,0:0:0:0:
145,134,54570,2,0,B|92:143|92:143|46:117,1,106.25,10|0,0:0|0:0,0:0:0:0:
41,97,54851,1,0,0:0:0:0:
35,77,54945,2,0,L|17:181,2,106.25,2|2|10,3:2|3:2|0:0,0:0:0:0:
127,215,55507,2,0,L|145:319,1,106.25,2|0,3:2|3:0,0:0:0:0:
299,365,55882,5,2,0:0:0:0:
335,156,56070,2,0,B|282:146|282:146|236:172,1,106.25,14|0,0:0|0:0,0:0:0:0:
222,342,56445,1,2,3:2:0:0:
388,254,56632,2,0,L|381:219,2,35.4166666666667,2|0|0,3:2|3:0|3:0,0:0:0:0:
392,275,56820,1,8,3:2:0:0:
512,342,57007,1,8,0:0:0:0:
508,363,57101,1,8,0:0:0:0:
503,384,57195,6,0,P|457:387|415:369,1,93.5000028533936,6|0,3:2|0:0,0:0:0:0:
501,157,57570,2,0,L|485:249,1,93.5000028533936,10|0,0:0|0:0,0:0:0:0:
381,219,57945,2,0,L|397:127,1,93.5000028533936,2|0,3:2|3:0,0:0:0:0:
264,271,58320,2,0,P|218:274|176:256,1,93.5000028533936,10|0,0:0|3:0,0:0:0:0:
46,182,58695,5,2,3:2:0:0:
26,354,58882,2,0,P|72:357|114:340,1,93.5000028533936,2|8,0:0|0:0,0:0:0:0:
237,172,59257,2,0,L|205:-13,1,187.000005706787,2|0,0:0|3:0,0:0:0:0:
105,3,59820,1,8,0:0:0:0:
105,3,60007,1,0,3:0:0:0:
46,182,60195,6,0,P|35:136|45:91,1,93.5000028533936,2|0,3:2|0:0,0:0:0:0:
193,253,60570,2,0,L|100:269,1,93.5000028533936,10|0,0:0|0:0,0:0:0:0:
46,182,60945,1,2,3:2:0:0:
92,371,61132,2,0,L|0:354,1,93.5000028533936,2|8,3:2|0:0,0:0:0:0:
248,340,61507,6,0,L|432:307,1,187.000005706787,2|0,3:2|0:0,0:0:0:0:
511,240,62070,1,8,0:0:0:0:
414,205,62257,2,0,L|322:221,1,93.5000028533936,0|0,0:0|3:0,0:0:0:0:
243,154,62632,2,0,L|150:137,2,93.5000028533936,0|8|0,3:0|0:0|3:0,0:0:0:0:
362,31,63195,6,0,P|360:77|339:118,1,93.5000028533936,2|0,3:2|0:0,0:0:0:0:
225,256,63570,2,0,L|133:239,1,93.5000028533936,10|0,0:0|0:0,0:0:0:0:
151,137,63945,2,0,L|243:154,1,93.5000028533936,2|0,3:2|3:0,0:0:0:0:
31,259,64320,2,0,P|32:213|54:172,1,93.5000028533936,10|0,0:0|0:0,0:0:0:0:
121,38,64695,5,2,3:2:0:0:
243,154,64882,2,0,L|335:138,1,93.5000028533936,2|8,3:2|0:0,0:0:0:0:
512,274,65257,2,0,L|326:241,1,187.000005706787,2|0,3:2|3:0,0:0:0:0:
225,256,65820,1,8,0:0:0:0:
54,171,66195,6,0,P|32:212|31:259,1,93.5000028533936,2|0,3:2|0:0,0:0:0:0:
149,331,66570,2,0,L|133:239,1,93.5000028533936,10|0,0:0|0:0,0:0:0:0:
54,171,66945,1,2,3:2:0:0:
225,256,67132,2,0,L|241:163,1,93.5000028533936,2|8,3:2|0:0,0:0:0:0:
121,38,67507,6,0,L|305:5,1,187.000005706787,2|0,0:0|3:0,0:0:0:0:
325,106,68070,1,8,0:0:0:0:
225,256,68257,2,0,P|169:198|242:164,1,187.000005706787,2|0,0:0|0:0,0:0:0:0:
258,177,68726,1,8,0:0:0:0:
270,195,68820,1,8,0:0:0:0:
291,334,69007,1,8,0:0:0:0:
287,355,69101,1,8,0:0:0:0:
281,375,69195,6,0,P|327:382|372:369,1,93.5000028533936,6|0,3:2|0:0,0:0:0:0:
512,274,69570,2,0,L|419:257,1,93.5000028533936,10|0,0:0|0:0,0:0:0:0:
270,195,69945,2,0,L|363:179,1,93.5000028533936,2|0,3:2|3:0,0:0:0:0:
500,60,70320,2,0,P|454:53|410:66,1,93.5000028533936,10|0,0:0|3:0,0:0:0:0:
270,195,70695,5,2,3:2:0:0:
158,111,70882,2,0,P|167:65|195:29,1,93.5000028533936,2|8,0:0|0:0,0:0:0:0:
169,214,71257,2,0,L|-16:181,1,187.000005706787,2|0,0:0|3:0,0:0:0:0:
3,82,71820,1,8,0:0:0:0:
3,82,72007,1,0,3:0:0:0:
169,214,72195,6,0,P|212:197|245:164,1,93.5000028533936,2|0,3:2|0:0,0:0:0:0:
141,18,72570,2,0,L|158:111,1,93.5000028533936,10|0,0:0|0:0,0:0:0:0:
245,164,72945,1,2,3:2:0:0:
315,308,73132,2,0,L|332:217,1,93.5000028533936,2|8,3:2|0:0,0:0:0:0:
398,0,73507,6,0,L|430:184,1,187.000005706787,2|0,3:2|0:0,0:0:0:0:
332,216,74070,1,8,0:0:0:0:
245,164,74257,2,0,L|261:71,1,93.5000028533936,0|0,0:0|3:0,0:0:0:0:
159,52,74632,2,0,L|142:144,2,93.5000028533936,0|8|0,3:0|0:0|3:0,0:0:0:0:
87,256,75195,6,0,P|134:259|177:242,1,93.5000028533936,2|0,3:2|0:0,0:0:0:0:
57,33,75570,2,0,L|40:125,1,93.5000028533936,10|0,0:0|0:0,0:0:0:0:
142,144,75945,2,0,L|159:52,1,93.5000028533936,2|0,3:2|3:0,0:0:0:0:
347,183,76320,2,0,P|394:185|437:168,1,93.5000028533936,10|0,0:0|0:0,0:0:0:0:
458,10,76695,5,2,3:2:0:0:
274,111,76882,2,0,L|257:18,1,93.5000028533936,2|8,3:2|0:0,0:0:0:0:
347,183,77257,2,0,L|314:367,1,187.000005706787,2|0,3:2|3:0,0:0:0:0:
215,384,77820,1,8,0:0:0:0:
87,256,78195,6,0,P|95:301|124:338,1,93.5000028533936,2|0,3:2|0:0,0:0:0:0:
244,191,78570,2,0,L|152:175,1,93.5000028533936,10|0,0:0|0:0,0:0:0:0:
87,256,78945,1,2,3:2:0:0:
161,72,79132,2,0,L|68:88,1,93.5000028533936,2|8,3:2|0:0,0:0:0:0:
242,9,79507,6,0,L|426:41,1,187.000005706787,2|0,3:2|3:0,0:0:0:0:
511,99,80070,1,12,0:0:0:0:
347,182,80257,2,0,P|419:218|362:275,1,187.000005706787,2|0,0:0|0:0,0:0:0:0:
342,271,80726,1,8,0:0:0:0:
321,267,80820,1,8,0:0:0:0:
300,263,80913,1,8,0:0:0:0:
279,259,81007,1,8,0:3:0:0:
65,322,81195,6,0,P|84:272|78:220,1,106.25,6|0,3:2|0:0,0:0:0:0:
258,255,81570,2,0,P|232:208|189:179,1,106.25,10|0,0:0|0:0,0:0:0:0:
7,127,81945,1,2,3:2:0:0:
185,61,82132,2,0,L|290:43,1,106.25,2|8,3:2|0:0,0:0:0:0:
469,237,82507,6,0,P|425:266|373:273,1,106.25,2|0,0:0|3:0,0:0:0:0:
406,55,82882,2,0,P|454:78|487:120,1,106.25,2|8,0:0|0:0,0:0:0:0:
308,148,83257,2,0,L|290:43,1,106.25,2|0,0:0|3:0,0:0:0:0:
130,18,83632,2,0,L|99:0,2,35.4166666666667,0|0|0,3:0|3:0|3:0,0:0:0:0:
148,26,83820,2,0,B|137:92|137:92|99:102,1,106.25,8|0,3:2|3:0,0:0:0:0:
167,176,84101,1,0,3:0:0:0:
188,178,84195,6,0,P|231:207|257:254,1,106.25,2|0,3:2|0:0,0:0:0:0:
65,321,84570,2,0,P|83:272|78:220,1,106.25,10|0,0:0|0:0,0:0:0:0:
229,369,84945,2,0,P|281:369|329:346,1,106.25,2|0,3:2|3:0,0:0:0:0:
309,111,85320,1,10,0:0:0:0:
470,200,85507,6,0,P|426:229|374:236,1,106.25,2|0,3:2|3:0,0:0:0:0:
408,19,85882,2,0,P|455:41|488:83,1,106.25,2|8,0:0|0:0,0:0:0:0:
309,111,86257,2,0,L|291:5,1,106.25,2|0,0:0|3:0,0:0:0:0:
188,179,86632,2,0,L|152:172,2,35.4166666666667,2|0|0,3:2|3:0|3:0,0:0:0:0:
209,182,86820,1,10,3:2:0:0:
309,111,87007,1,2,0:0:0:0:
18,146,87195,6,0,L|0:250,1,106.25,6|0,3:2|0:0,0:0:0:0:
135,277,87570,2,0,L|153:172,1,106.25,8|0,0:0|0:0,0:0:0:0:
104,65,87945,1,0,3:0:0:0:
333,87,88132,2,0,P|327:34|298:-9,1,106.25,0|8,3:0|0:0,0:0:0:0:
219,76,88507,1,2,0:0:0:0:
472,219,88695,6,0,B|413:233|370:203|369:201|369:199|327:169|268:183,1,212.5,2|8,3:2|0:0,0:0:0:0:
86,268,89257,1,10,0:0:0:0:
62,263,89351,1,8,0:0:0:0:
37,258,89445,2,0,L|90:248,1,53.125,0|0,3:0|0:0,0:0:0:0:
203,312,89632,1,10,0:0:0:0:
227,307,89726,1,8,0:0:0:0:
251,303,89820,1,8,0:0:0:0:
275,299,89913,1,8,0:0:0:0:
299,295,90007,6,0,P|350:329|363:390,1,127.5,2|0,3:2|0:0,0:0:0:0:
