osu file format v14

[General]
AudioFilename: audio.mp3
AudioLeadIn: 0
PreviewTime: 54946
Countdown: 0
SampleSet: Soft
StackLeniency: 0.7
Mode: 0
LetterboxInBreaks: 0
WidescreenStoryboard: 1

[Editor]
DistanceSpacing: 1
BeatDivisor: 4
GridSize: 16
TimelineZoom: 2.899999

[Metadata]
Title:DeCIDE (TV Size)
TitleUnicode:DeCIDE (TV Size)
Artist:SUMMONERS 2+
ArtistUnicode:SUMMONERS 2+
Creator:Yasaija 714
Version:Slave Girl
Source:異世界魔王と召喚少女の奴隷魔術
Tags:isekai maou to shoukan shoujo no dorei majutsu fluffy hair 芹澤 優 和氣あず未 原 由実 大久保瑠美 加藤英美里 加藤裕介 唐沢美帆 _kotachi_ Lasse Nao Tomori Naotoshi Uta
BeatmapID:1751119
BeatmapSetID:834946

[Difficulty]
HPDrainRate:6
CircleSize:4
OverallDifficulty:8.7
ApproachRate:9.5
SliderMultiplier:1.65
SliderTickRate:1

[Events]
//Background and Video events
0,0,"BG.jpg",0,0
//Break Periods
//Storyboard Layer 0 (Background)
//Storyboard Layer 1 (Fail)
//Storyboard Layer 2 (Pass)
//Storyboard Layer 3 (Foreground)
//Storyboard Sound Samples

[TimingPoints]
113,333.333333333333,4,2,3,40,1,0
113,-133.333333333333,4,2,3,50,0,0
2279,-100,4,2,3,50,0,0
2446,-100,4,2,3,60,0,0
2612,-100,4,2,3,70,0,0
2779,-83.3333333333333,4,2,3,70,0,0
5446,-83.3333333333333,4,2,4,70,0,0
5696,-83.3333333333333,4,2,4,5,0,0
5779,-83.3333333333333,4,2,3,70,0,0
8362,-83.3333333333333,4,2,3,5,0,0
8446,-83.3333333333333,4,2,3,70,0,0
9446,-83.3333333333333,4,2,4,70,0,0
9696,-83.3333333333333,4,2,4,5,0,0
9779,-83.3333333333333,4,2,3,70,0,0
10779,-66.6666666666667,4,2,3,70,0,0
11196,-83.3333333333333,4,2,3,5,0,0
11279,-83.3333333333333,4,2,4,70,0,0
11446,-83.3333333333333,4,2,3,70,0,0
11946,-71.4285714285714,4,2,4,70,0,0
12196,-100,4,2,4,5,0,0
12279,-100,4,2,3,70,0,0
12946,-66.6666666666667,4,2,3,70,0,0
13446,-125,4,2,3,50,0,0
23446,-100,4,2,3,60,0,0
23529,-100,4,2,3,70,0,0
23946,-100,4,2,3,70,0,0
30779,-100,4,2,4,70,0,0
30946,-100,4,2,3,70,0,0
32112,-100,4,2,4,70,0,0
32279,-100,4,2,3,70,0,0
33446,-55.5555555555556,4,2,3,70,0,0
33696,-50,4,2,3,60,0,0
33946,-66.6666666666667,4,2,3,60,0,0
34196,-100,4,2,3,5,0,0
34279,-100,4,2,3,70,0,0
34362,-100,4,2,3,5,0,0
34446,-66.6666666666667,4,2,3,70,0,0
34779,-125,4,2,3,70,0,0
40112,-100,4,2,3,70,0,0
45446,-100,4,2,3,55,0,0
45696,-100,4,2,3,5,0,0
45779,-100,4,2,3,70,0,0
48112,-83.3333333333333,4,2,3,70,0,0
48779,-83.3333333333333,4,2,4,70,0,0
48946,-83.3333333333333,4,2,3,70,0,0
50112,-83.3333333333333,4,2,4,70,0,0
50279,-100,4,2,3,70,0,0
50779,-95.2380952380951,4,2,3,60,0,0
53446,-90.9090909090909,4,2,4,70,0,0
53612,-100,4,2,3,70,0,0
54946,-100,4,2,3,50,0,0
55779,-100,4,2,3,70,0,0
55946,-100,4,2,3,70,0,0
56112,-66.6666666666667,4,2,5,80,0,1
56279,-66.6666666666667,4,2,3,80,0,1
58779,-66.6666666666667,4,2,4,80,0,1
59029,-66.6666666666667,4,2,4,5,0,1
59112,-66.6666666666667,4,2,3,80,0,1
61696,-100,4,2,3,5,0,1
61779,-66.6666666666667,4,2,3,80,0,1
62779,-66.6666666666667,4,2,4,80,0,1
63029,-66.6666666666667,4,2,4,5,0,1
63112,-66.6666666666667,4,2,3,80,0,1
64112,-58.8235294117647,4,2,3,80,0,1
64612,-55.5555555555556,4,2,4,80,0,1
64779,-55.5555555555556,4,2,3,80,0,1
65279,-52.6315789473684,4,2,3,80,0,1
65779,-50,4,2,3,80,0,1
66779,-66.6666666666667,4,2,5,80,0,1
66946,-66.6666666666667,4,2,3,80,0,1
69446,-66.6666666666667,4,2,4,80,0,1
69696,-66.6666666666667,4,2,4,5,0,1
69779,-66.6666666666667,4,2,3,80,0,1
73446,-66.6666666666667,4,2,4,80,0,1
73612,-66.6666666666667,4,2,3,80,0,1
75946,-66.6666666666667,4,2,4,80,0,1
76112,-66.6666666666667,4,2,3,80,0,1
76612,-66.6666666666667,4,2,4,80,0,1
76779,-66.6666666666667,4,2,4,80,0,1
76946,-133.333333333333,4,2,3,80,0,1
77446,-133.333333333333,4,2,5,80,0,0
77779,-100,4,2,3,80,0,0
78612,-100,4,2,4,80,0,0
79779,-100,4,2,4,40,0,0
79835,-100,4,2,4,45,0,0
79890,-100,4,2,4,50,0,0
79946,-100,4,2,4,55,0,0
80001,-100,4,2,4,60,0,0
80057,-100,4,2,4,65,0,0
80112,-100,4,2,3,70,0,1
86446,-100,4,2,3,80,0,0
86779,-100,4,2,3,20,0,0
87029,-100,4,2,3,5,0,0

[Colours]
Combo1 : 209,169,46
Combo2 : 68,92,134
Combo3 : 150,91,181
Combo4 : 142,199,67

[HitObjects]
194,104,113,5,2,0:0:0:0:
139,261,279,1,0,0:0:0:0:
199,114,446,1,2,0:0:0:0:
69,174,612,1,0,0:0:0:0:
316,255,779,5,2,0:0:0:0:
273,67,946,1,2,0:0:0:0:
311,244,1112,1,0,0:0:0:0:
389,123,1279,1,2,0:0:0:0:
197,194,1446,5,0,0:0:0:0:
378,329,1612,1,2,0:0:0:0:
174,346,1779,1,0,0:0:0:0:
393,198,1946,1,2,0:0:0:0:
171,79,2112,1,0,0:0:0:0:
481,52,2279,5,8,0:0:0:0:
478,98,2362,1,0,0:0:0:0:
475,145,2446,1,8,0:0:0:0:
472,191,2529,1,8,0:0:0:0:
469,237,2612,1,8,0:0:0:0:
466,284,2696,1,8,0:0:0:0:
462,333,2779,6,0,B|374:369|374:369|307:344,1,148.49999546814,12|0,0:1|0:0,0:0:0:0:
257,278,3112,1,8,0:0:0:0:
97,329,3279,2,0,P|61:348|-1:348,1,98.9999969787599,2|8,0:3|0:1,0:0:0:0:
167,192,3612,2,0,P|168:151|200:100,1,98.9999969787599,2|8,0:3|0:0,0:0:0:0:
300,184,3946,1,2,0:3:0:0:
91,239,4112,6,0,P|56:217|28:168,1,98.9999969787599,8|2,0:1|0:0,0:0:0:0:
153,34,4446,1,8,0:0:0:0:
300,184,4612,1,2,0:3:0:0:
294,216,4696,1,2,0:0:0:0:
289,248,4779,2,0,L|242:269,1,49.4999984893799,10|0,0:1|0:0,0:0:0:0:
412,298,4946,2,0,L|458:274,1,49.4999984893799,2|0,0:3|0:0,0:0:0:0:
265,355,5112,1,8,0:0:0:0:
232,359,5196,1,0,0:0:0:0:
201,346,5279,1,2,0:0:0:0:
179,321,5362,1,0,0:0:0:0:
169,289,5446,6,0,B|168:194|168:194|138:245,1,148.49999546814,6|0,0:0|0:0,0:0:0:0:
97,314,5779,1,8,0:0:0:0:
250,119,5946,2,0,L|250:224,1,98.9999969787599,2|8,0:3|0:1,0:0:0:0:
32,66,6279,2,0,P|72:39|125:40,1,98.9999969787599,2|8,0:3|0:0,0:0:0:0:
277,93,6612,1,2,0:3:0:0:
14,192,6779,5,8,0:1:0:0:
196,260,6946,1,2,0:0:0:0:
95,118,7112,1,8,0:0:0:0:
34,343,7279,1,2,0:3:0:0:
34,343,7362,1,2,0:0:0:0:
34,343,7446,2,0,L|91:330,1,49.4999984893799,10|0,0:1|0:0,0:0:0:0:
150,212,7612,2,0,L|200:223,1,49.4999984893799,2|0,0:3|0:0,0:0:0:0:
339,338,7779,5,8,0:0:0:0:
290,76,7946,1,2,0:3:0:0:
99,324,8112,6,0,B|128:315|151:332|151:332|169:321|169:321|237:341|284:280,1,197.99999395752,12|8,0:1|0:0,0:0:0:0:
396,184,8612,1,2,0:3:0:0:
179,126,8779,2,0,P|186:185|203:235,1,98.9999969787599,8|2,0:1|0:3,0:0:0:0:
280,42,9112,2,0,P|330:31|408:99,1,148.49999546814,8|0,0:0|0:0,0:0:0:0:
353,172,9446,6,0,P|316:164|254:168,1,98.9999969787599,6|0,0:0|0:0,0:0:0:0:
74,203,9779,1,8,0:0:0:0:
271,357,9946,2,0,P|269:285|276:242,2,98.9999969787599,2|8|2,0:3|0:1|0:3,0:0:0:0:
460,367,10446,2,0,P|485:326|433:241,1,148.49999546814,8|0,0:0|0:0,0:0:0:0:
334,103,10779,6,0,B|324:166|324:166|344:225,1,123.750004720688,12|0,0:1|0:0,0:0:0:0:
457,172,11029,2,0,B|466:143|466:143|452:107,1,61.875002360344,8|8,0:1|0:0,0:0:0:0:
254,20,11279,1,6,0:0:0:0:
308,296,11446,5,0,0:0:0:0:
115,157,11612,1,8,0:0:0:0:
150,142,11696,1,8,0:0:0:0:
185,127,11779,1,8,0:0:0:0:
240,346,11946,6,0,P|178:302|204:198,1,173.24999471283,6|0,0:0|0:0,0:0:0:0:
331,196,12279,1,10,0:1:0:0:
49,235,12446,1,12,0:0:0:0:
331,196,12612,1,12,0:0:0:0:
33,0,12946,6,0,B|50:52|32:102|32:102|52:131|52:131|25:187|52:242,1,247.500009441376,8|0,0:0|0:0,0:0:0:0:
128,348,13446,5,4,0:1:0:0:
128,348,13779,2,0,P|121:272|126:215,1,132,0|2,0:0|0:0,0:0:0:0:
160,125,14279,1,2,0:0:0:0:
208,249,14446,1,0,0:0:0:0:
166,109,14612,2,0,P|173:69|169:36,1,66,2|0,0:0|0:0,0:0:0:0:
67,156,14946,1,2,0:0:0:0:
246,145,15112,1,0,0:0:0:0:
123,232,15279,2,0,P|121:290|126:317,1,66,2|0,0:0|0:0,0:0:0:0:
185,370,15612,1,2,0:0:0:0:
48,325,15779,1,2,0:0:0:0:
216,274,15946,1,2,0:0:0:0:
69,175,16112,6,0,L|4:190,1,66,0|0,0:0|0:0,0:0:0:0:
114,84,16446,1,2,0:0:0:0:
243,192,16612,2,0,P|273:192|315:183,1,66,2|0,0:0|0:0,0:0:0:0:
432,88,16946,2,0,P|401:87|353:96,1,66,2|0,0:0|0:0,0:0:0:0:
468,172,17279,1,2,0:0:0:0:
353,265,17446,1,0,0:0:0:0:
287,99,17612,1,2,0:0:0:0:
386,173,17779,1,0,0:0:0:0:
386,173,17862,1,0,0:0:0:0:
386,173,17946,1,0,0:0:0:0:
243,192,18112,1,0,0:0:0:0:
353,265,18279,1,0,0:0:0:0:
197,298,18446,2,0,L|116:312,1,66,2|0,0:0|0:0,0:0:0:0:
277,374,18779,6,0,P|357:381|411:356,1,132,2|0,0:0|0:0,0:0:0:0:
494,293,19279,2,0,L|480:229,1,66,2|0,0:0|0:0,0:0:0:0:
393,158,19612,1,2,0:0:0:0:
371,285,19779,1,0,0:0:0:0:
480,150,19946,1,2,0:0:0:0:
286,130,20112,2,0,L|300:195,1,66,2|0,0:0|0:0,0:0:0:0:
415,31,20446,1,0,0:0:0:0:
393,158,20613,1,2,0:0:0:0:
206,59,20779,2,0,P|164:60|110:74,1,99,2|0,0:0|0:0,0:0:0:0:
95,88,21112,1,2,0:0:0:0:
213,165,21279,1,2,0:0:0:0:
56,173,21446,6,0,P|49:217|45:259,1,66,2|0,0:0|0:0,0:0:0:0:
104,310,21779,1,0,0:0:0:0:
146,145,21946,2,0,P|161:186|176:215,1,66,2|0,0:0|0:0,0:0:0:0:
209,75,22279,2,0,P|243:103|271:119,1,66,2|0,0:0|0:0,0:0:0:0:
362,157,22612,1,2,0:0:0:0:
306,306,22779,2,0,L|225:298,1,66,2|0,0:0|0:0,0:0:0:0:
388,227,23112,1,0,0:0:0:0:
216,224,23279,1,2,0:0:0:0:
448,73,23446,5,12,0:0:0:0:
137,30,23612,1,12,0:0:0:0:
494,317,23946,6,0,B|464:308|434:329|434:329|416:321|416:321|380:341|317:305,1,165,12|2,0:1|0:0,0:0:0:0:
98,240,24446,6,0,P|141:206|216:222,1,123.75,8|0,0:1|0:0,0:0:0:0:
271,267,24779,1,8,0:1:0:0:
42,368,24946,2,0,B|28:330|28:330|38:284,1,82.5,2|8,0:0|0:1,0:0:0:0:
107,108,25279,6,0,P|153:114|202:115,1,82.5,2|8,0:1|0:1,0:0:0:0:
315,54,25612,1,2,0:0:0:0:
171,11,25779,1,8,0:1:0:0:
327,79,25946,1,2,0:0:0:0:
191,212,26112,1,8,0:1:0:0:
236,50,26279,1,2,0:0:0:0:
367,209,26446,2,0,P|419:178|488:205,1,123.75,8|0,0:0|0:0,0:0:0:0:
372,290,26779,6,0,P|336:280|285:284,1,82.5,8|0,0:1|0:0,0:0:0:0:
177,361,27112,1,8,0:1:0:0:
265,198,27279,1,2,0:0:0:0:
285,365,27446,1,8,0:1:0:0:
131,272,27612,1,2,0:0:0:0:
293,185,27779,1,8,0:1:0:0:
104,287,27946,1,2,0:0:0:0:
185,78,28112,6,0,P|183:141|190:168,1,82.5,8|2,0:1|0:0,0:0:0:0:
374,257,28446,2,0,P|377:221|372:176,1,82.5,8|2,0:1|0:0,0:0:0:0:
174,240,28779,5,8,0:1:0:0:
350,92,28946,1,2,0:0:0:0:
140,63,29112,5,8,0:0:0:0:
409,262,29279,1,2,0:0:0:0:
86,349,29446,6,0,P|75:274|80:247,1,82.5,12|0,0:1|0:0,0:0:0:0:
228,145,29779,1,8,0:1:0:0:
274,362,29946,2,0,P|328:348|349:333,1,82.5,2|8,0:0|0:1,0:0:0:0:
195,215,30279,2,0,P|161:200|116:192,1,82.5,2|8,0:0|0:0,0:0:0:0:
172,354,30612,1,2,0:0:0:0:
268,109,30779,6,0,B|372:79|372:79|329:132,1,165,6|8,0:0|0:1,0:0:0:0:
209,222,31279,1,2,0:0:0:0:
264,32,31446,2,0,L|352:8,1,82.5,8|0,0:1|0:0,0:0:0:0:
376,135,31779,2,0,B|301:154|301:154|350:110,1,123.75,8|0,0:0|0:0,0:0:0:0:
471,63,32112,6,0,P|493:145|458:223,1,165,6|8,0:1|0:1,0:0:0:0:
302,324,32612,1,2,0:0:0:0:
148,194,32779,2,0,P|210:201|238:201,1,82.5,8|2,0:1|0:0,0:0:0:0:
65,30,33112,1,8,0:0:0:0:
58,79,33196,1,8,0:0:0:0:
51,127,33279,1,4,0:3:0:0:
44,175,33362,1,0,0:0:0:0:
37,224,33446,6,0,P|96:197|64:273,1,148.49999546814,8|0,0:3|0:0,0:0:0:0:
27,365,33696,6,0,B|16:332|29:296|29:296|60:350|110:360|169:328,1,165,12|0,0:0|0:0,0:0:0:0:
196,282,33946,6,0,B|192:311|197:353|197:353|212:326|231:308,1,123.750004720688,12|0,0:1|0:0,0:0:0:0:
298,181,34279,5,12,0:0:0:0:
421,270,34446,2,0,P|441:274|461:281,1,41.2500015735627,8|0,3:1|3:0,0:0:0:0:
421,239,34557,2,0,P|440:232|461:228,1,41.2500015735627,0|0,3:0|3:0,0:0:0:0:
405,211,34668,2,0,P|418:195|434:182,1,41.2500015735627,0|0,3:0|3:0,0:0:0:0:
298,181,34779,6,0,P|340:117|410:137,1,132,12|0,0:1|0:0,0:0:0:0:
340,253,35279,2,0,P|298:266|260:253,1,66,8|8,0:1|0:0,0:0:0:0:
173,157,35612,1,2,0:0:0:0:
166,264,35779,1,2,0:0:0:0:
174,136,35946,6,0,P|193:61|209:4,1,132,10|10,0:1|0:1,0:0:0:0:
56,60,36446,2,0,P|66:120|70:155,1,66,2|8,0:0|0:0,0:0:0:0:
24,225,36779,1,2,3:2:0:0:
154,200,36946,1,8,3:1:0:0:
7,205,37112,1,12,0:0:0:0:
168,218,37279,1,8,0:1:0:0:
8,306,37446,6,0,P|31:343|122:341,1,132,12|0,0:1|0:0,0:0:0:0:
254,319,37946,2,0,P|201:312|168:335,1,66,8|8,0:1|0:0,0:0:0:0:
331,372,38279,1,2,0:0:0:0:
313,251,38446,1,2,0:0:0:0:
357,374,38612,6,0,B|404:357|404:357|432:361|432:361|488:338,1,132,10|10,0:1|0:1,0:0:0:0:
503,204,39112,1,8,0:0:0:0:
341,154,39279,1,12,0:0:0:0:
416,264,39446,1,10,0:1:0:0:
465,102,39612,1,8,0:1:0:0:
242,125,39779,5,8,0:0:0:0:
245,157,39862,1,8,0:0:0:0:
248,190,39946,1,8,0:0:0:0:
251,222,40029,1,8,0:0:0:0:
255,253,40112,5,12,0:1:0:0:
125,180,40279,1,0,0:0:0:0:
341,154,40446,2,0,L|323:247,1,82.5,10|2,0:1|0:0,0:0:0:0:
159,313,40779,1,10,0:1:0:0:
242,125,40946,1,0,0:0:0:0:
305,337,41112,1,8,0:0:0:0:
420,225,41279,1,2,0:1:0:0:
190,222,41446,6,0,P|144:225|80:229,1,82.5,8|2,0:1|0:1,0:0:0:0:
278,104,41779,2,0,P|324:107|388:111,1,82.5,8|2,0:1|0:1,0:0:0:0:
495,155,42112,1,8,0:1:0:0:
294,218,42279,1,2,0:0:0:0:
498,286,42446,1,8,0:0:0:0:
285,366,42612,1,4,0:3:0:0:
496,188,42779,6,0,P|415:166|390:155,1,82.5,10|0,0:1|0:0,0:0:0:0:
305,27,43112,1,10,0:1:0:0:
181,201,43279,2,0,P|165:250|170:285,1,82.5,2|8,0:0|0:1,0:0:0:0:
355,363,43612,2,0,P|371:314|366:279,1,82.5,2|8,0:1|0:0,0:0:0:0:
255,133,43946,1,2,0:1:0:0:
94,331,44112,6,0,B|56:347|56:347|12:332,1,82.5,8|2,0:1|0:0,0:0:0:0:
212,257,44446,2,0,B|250:241|250:241|289:254,1,82.5,8|2,0:1|0:0,0:0:0:0:
187,365,44779,1,8,0:1:0:0:
110,180,44946,1,2,0:0:0:0:
347,329,45112,1,8,0:0:0:0:
424,144,45279,1,4,0:3:0:0:
155,49,45446,6,0,P|97:47|35:57,1,82.5,12|0,0:1|0:0,0:0:0:0:
246,132,45779,1,10,0:1:0:0:
33,165,45946,1,2,0:0:0:0:
165,247,46112,1,10,0:1:0:0:
73,49,46279,1,2,0:0:0:0:
46,276,46446,1,8,0:0:0:0:
161,135,46612,1,2,0:0:0:0:
240,356,46779,6,0,P|307:350|344:305,1,123.75,8|0,0:1|0:0,0:0:0:0:
349,213,47112,2,0,P|282:204|260:198,1,82.5,8|2,0:1|0:0,0:0:0:0:
422,125,47446,1,8,0:1:0:0:
446,295,47612,1,2,0:0:0:0:
188,197,47779,2,0,P|129:215|85:220,1,82.5,8|0,0:0|0:0,0:0:0:0:
47,20,48112,6,0,B|98:21|142:46|142:46|181:22|246:14,1,197.99999395752,12|8,0:1|0:0,0:0:0:0:
376,89,48612,1,2,0:0:0:0:
153,190,48779,2,0,P|114:184|39:161,1,98.9999969787599,6|0,0:0|0:0,0:0:0:0:
402,217,49112,2,0,P|353:225|305:239,1,98.9999969787599,8|2,0:0|0:0,0:0:0:0:
40,359,49446,6,0,P|28:266|67:149,1,197.99999395752,12|8,0:1|0:0,0:0:0:0:
233,82,49946,1,4,0:3:0:0:
461,358,50112,6,0,B|441:313|441:313|462:266|462:266|441:213,1,148.49999546814,6|0,0:0|0:0,0:0:0:0:
323,144,50446,1,8,0:0:0:0:
319,193,50529,1,8,0:0:0:0:
316,242,50612,1,8,0:0:0:0:
313,291,50696,1,8,0:0:0:0:
310,341,50779,6,0,B|269:330|235:346|235:346|216:338|216:338|180:354|137:338,1,173.24999471283,12|2,0:1|0:0,0:0:0:0:
18,185,51279,2,0,L|110:195,1,86.6249973564149,12|0,0:0|0:0,0:0:0:0:
243,212,51612,1,2,0:1:0:0:
92,25,51779,2,0,L|154:106,1,86.6249973564149,8|0,0:0|0:0,0:0:0:0:
243,212,52112,6,0,P|329:157|409:205,1,173.24999471283,12|2,0:1|0:0,0:0:0:0:
506,369,52612,2,0,P|510:313|508:268,1,86.6249973564149,12|0,0:0|0:0,0:0:0:0:
460,116,52946,1,2,0:0:0:0:
317,343,53112,2,0,P|348:296|369:256,1,86.6249973564149,12|0,0:0|0:0,0:0:0:0:
407,28,53446,5,12,0:1:0:0:
128,102,53612,1,12,0:0:0:0:
485,207,53779,1,12,0:0:0:0:
80,314,53946,5,12,0:0:0:0:
485,207,54279,1,12,0:0:0:0:
127,102,54612,1,12,0:0:0:0:
407,28,54779,5,0,0:0:0:0:
407,28,54862,1,0,0:0:0:0:
407,28,54946,2,0,L|396:79,1,41.25,2|2,0:0|0:0,0:0:0:0:
236,144,55112,2,0,L|247:195,1,41.25,2|2,0:0|0:0,0:0:0:0:
432,277,55279,2,0,L|440:236,1,41.25,2|2,0:0|0:0,0:0:0:0:
243,358,55446,5,2,0:0:0:0:
243,358,55529,1,2,0:0:0:0:
243,358,55612,2,0,L|234:317,1,41.25,2|2,0:0|0:0,0:0:0:0:
459,226,55779,2,0,L|451:267,1,41.25,12|0,0:0|0:0,0:0:0:0:
227,197,55946,2,0,L|219:157,1,41.25,2|2,0:0|0:0,0:0:0:0:
407,28,56112,6,0,B|496:17|496:17|449:78,1,123.750004720688,6|2,0:1|0:3,0:0:0:0:
329,89,56362,1,0,0:0:0:0:
329,89,56446,2,0,P|308:150|335:222,1,123.750004720688,8|2,0:0|0:3,0:0:0:0:
426,318,56779,1,8,0:1:0:0:
495,133,56946,1,2,0:3:0:0:
246,322,57112,2,0,L|185:311,1,61.875002360344,8|0,0:0|0:0,0:0:0:0:
337,243,57279,1,2,0:3:0:0:
367,237,57362,1,0,0:0:0:0:
397,232,57446,6,0,P|439:181|408:112,1,123.750004720688,8|2,0:1|0:3,0:0:0:0:
141,12,57779,2,0,P|147:96|163:174,1,123.750004720688,8|2,0:0|0:3,0:0:0:0:
218,202,58029,1,0,0:0:0:0:
139,252,58112,5,10,0:1:0:0:
380,133,58279,1,2,0:3:0:0:
113,118,58446,5,8,0:0:0:0:
369,262,58612,1,2,0:3:0:0:
21,362,58779,6,0,P|-6:285|77:211,1,185.625007081032,6|0,0:0|0:0,0:0:0:0:
139,252,59112,2,0,L|278:222,1,123.750004720688,8|2,0:0|0:3,0:0:0:0:
471,143,59446,1,8,0:1:0:0:
288,62,59612,1,2,0:3:0:0:
460,237,59779,2,0,L|449:305,1,61.875002360344,8|0,0:0|0:0,0:0:0:0:
291,372,59946,1,2,0:3:0:0:
286,341,60029,1,0,0:0:0:0:
282,311,60112,6,0,B|242:264|242:264|256:157,1,123.750004720688,8|2,0:1|0:3,0:0:0:0:
346,69,60446,1,8,0:0:0:0:
460,237,60612,1,2,0:3:0:0:
230,97,60779,5,8,0:3:0:0:
464,44,60946,1,4,0:3:0:0:
133,41,61112,5,8,0:0:0:0:
432,147,61279,1,2,0:3:0:0:
132,361,61446,6,0,P|90:287|128:221,1,123.750004720688,12|0,0:1|0:0,0:0:0:0:
312,142,61779,1,8,0:0:0:0:
22,47,61946,2,0,P|27:108|37:169,1,123.750004720688,2|10,0:3|0:1,0:0:0:0:
172,290,62279,1,2,0:3:0:0:
203,51,62446,1,8,0:0:0:0:
405,222,62612,1,2,0:3:0:0:
142,185,62779,6,0,B|27:230|27:230|123:269,1,185.625007081032,6|0,0:0|0:0,0:0:0:0:
172,290,63112,1,8,0:0:0:0:
152,49,63279,2,0,P|93:70|26:86,1,123.750004720688,2|10,0:3|0:1,0:0:0:0:
274,20,63612,1,2,0:3:0:0:
256,201,63779,1,8,0:0:0:0:
152,49,63946,1,2,0:3:0:0:
452,18,64112,6,0,P|514:88|425:106,1,210.375004012585,12|0,0:1|0:0,0:0:0:0:
329,18,64446,2,0,P|337:64|330:132,1,70.1250013375282,8|0,0:0|0:0,0:0:0:0:
170,174,64612,6,0,B|96:160|96:160|16:184,1,148.49999546814,6|0,0:0|0:0,0:0:0:0:
316,261,64946,2,0,B|389:274|389:274|470:251,1,148.49999546814,4|8,0:3|0:0,0:0:0:0:
118,17,65279,6,0,B|94:85|133:141|133:141|107:186|107:186|150:252|106:350,1,313.499991628647,12|10,0:1|0:1,0:0:0:0:
25,181,65779,6,0,B|117:186,1,82.5,8|0,0:0|0:0,0:0:0:0:
275,116,65946,6,0,B|268:89|275:62|275:62|308:32|388:28|420:184|316:251|211:222,1,330,12|12,0:0|0:0,0:0:0:0:
170,62,66446,1,0,3:0:0:0:
147,123,66529,1,0,3:0:0:0:
180,179,66612,1,0,3:0:0:0:
157,240,66695,1,0,3:0:0:0:
179,302,66779,6,0,B|97:280|97:280|130:328,1,123.750004720688,6|2,0:1|0:3,0:0:0:0:
235,365,67028,1,0,0:0:0:0:
235,365,67112,2,0,P|259:305|239:243,1,123.750004720688,8|2,0:0|0:3,0:0:0:0:
36,151,67446,1,8,0:1:0:0:
36,353,67612,1,2,0:3:0:0:
193,147,67779,2,0,L|265:133,1,61.875002360344,8|0,0:0|0:0,0:0:0:0:
109,50,67946,1,2,0:3:0:0:
79,44,68029,1,0,0:0:0:0:
48,38,68112,6,0,P|20:103|73:181,1,123.750004720688,8|2,0:1|0:3,0:0:0:0:
164,354,68446,2,0,L|300:333,1,123.750004720688,8|2,0:0|0:3,0:0:0:0:
345,258,68696,1,0,0:0:0:0:
412,327,68779,5,10,0:1:0:0:
197,162,68946,1,2,0:3:0:0:
441,121,69112,5,8,0:0:0:0:
164,354,69279,1,2,0:3:0:0:
23,99,69446,6,0,P|113:53|200:86,1,185.625007081032,6|0,0:0|0:0,0:0:0:0:
255,144,69779,2,0,B|238:204|238:204|259:265,1,123.750004720688,8|2,0:0|0:3,0:0:0:0:
393,331,70112,1,8,0:1:0:0:
361,146,70279,1,2,0:3:0:0:
213,368,70446,2,0,P|209:338|190:289,1,61.875002360344,8|0,0:0|0:0,0:0:0:0:
21,255,70612,1,2,0:3:0:0:
25,224,70695,1,0,0:0:0:0:
34,194,70779,6,0,P|109:184|168:165,1,123.750004720688,8|2,0:1|0:3,0:0:0:0:
340,112,71112,1,8,0:0:0:0:
95,9,71279,1,4,0:3:0:0:
103,38,71362,1,8,0:1:0:0:
112,68,71445,5,12,0:0:0:0:
417,6,71612,1,12,0:0:0:0:
11,65,71946,6,0,P|0:155|0:214,1,123.750004720688,12|0,0:1|0:0,0:0:0:0:
77,332,72279,1,2,0:3:0:0:
125,120,72446,1,8,0:0:0:0:
299,288,72612,1,2,0:3:0:0:
121,99,72779,1,8,0:1:0:0:
72,351,72946,1,2,0:3:0:0:
117,78,73112,1,8,0:0:0:0:
313,305,73279,1,2,0:3:0:0:
122,186,73446,6,0,P|47:193|-2:206,1,123.750004720688,6|2,0:0|0:3,0:0:0:0:
116,325,73779,1,8,0:0:0:0:
156,111,73946,1,2,0:3:0:0:
250,330,74112,1,8,0:1:0:0:
252,112,74279,1,2,0:3:0:0:
383,323,74445,1,8,0:0:0:0:
347,107,74612,1,0,3:0:0:0:
500,378,74779,6,0,P|516:265|506:157,1,185.625007081032,12|0,0:1|0:0,0:0:0:0:
452,87,75112,2,0,P|443:130|432:165,1,61.875002360344,8|0,0:0|0:0,0:0:0:0:
295,213,75279,2,0,P|286:183|281:152,1,61.875002360344,2|0,0:3|0:0,0:0:0:0:
193,28,75446,6,0,L|118:37,1,61.875002360344,8|0,0:1|0:0,0:0:0:0:
13,139,75612,2,0,L|89:139,1,61.875002360344,10|0,0:1|0:0,0:0:0:0:
190,249,75779,2,0,L|115:240,1,61.875002360344,8|0,0:0|0:0,0:0:0:0:
362,154,75946,6,0,P|342:274|348:330,1,123.750004720688,6|0,0:0|0:0,0:0:0:0:
470,39,76279,1,10,0:1:0:0:
502,300,76446,1,8,0:0:0:0:
502,300,76529,1,8,0:0:0:0:
502,300,76612,1,6,0:0:0:0:
49,340,76946,6,0,P|89:278|164:276,1,154.68750590086,14|0,0:1|0:0,0:0:0:0:
130,352,77446,1,6,0:1:0:0:
130,352,78612,5,6,0:0:0:0:
61,37,78946,1,6,0:0:0:0:
61,37,79779,6,0,L|58:74,5,27.5
56,98,80112,5,12,0:1:0:0:
296,58,80279,1,2,0:3:0:0:
78,209,80446,1,8,0:0:0:0:
357,240,80612,5,2,0:3:0:0:
177,36,80779,1,8,0:1:0:0:
148,324,80946,1,2,0:3:0:0:
178,21,81112,1,8,0:0:0:0:
366,254,81279,1,2,0:3:0:0:
100,132,81446,6,0,B|47:122|47:122|-13:139,1,82.5,8|2,0:1|0:3,0:0:0:0:
192,330,81779,2,0,B|245:340|245:340|305:323,1,82.5,8|2,0:0|0:3,0:0:0:0:
481,107,82112,5,8,0:1:0:0:
481,107,82196,1,0,0:0:0:0:
481,107,82279,2,0,L|476:164,1,41.25,2|0,0:3|0:0,0:0:0:0:
403,289,82446,2,0,L|399:247,1,41.25,8|0,0:0|0:0,0:0:0:0:
322,100,82612,2,0,L|317:157,1,41.25,2|0,3:0|3:0,0:0:0:0:
272,332,82779,5,12,0:1:0:0:
89,175,82946,1,2,0:3:0:0:
272,332,83112,1,8,0:0:0:0:
12,303,83279,5,2,0:3:0:0:
326,221,83446,1,8,0:1:0:0:
2,174,83612,1,2,0:3:0:0:
338,223,83779,1,8,0:0:0:0:
0,305,83946,1,2,0:3:0:0:
219,63,84112,6,0,P|290:54|322:58,1,82.5,8|2,0:1|0:3,0:0:0:0:
498,289,84446,2,0,P|427:298|395:294,1,82.5,12|2,0:0|0:0,0:0:0:0:
122,165,84779,5,8,0:1:0:0:
122,165,84862,1,0,0:0:0:0:
122,165,84946,2,0,L|126:221,1,41.25,2|0,3:0|3:0,0:0:0:0:
239,352,85112,2,0,L|243:296,1,41.25,8|0,3:2|3:0,0:0:0:0:
343,143,85279,2,0,L|347:199,1,41.25,0|0,3:0|3:0,0:0:0:0:
477,369,85446,5,12,0:0:0:0:
417,25,85612,1,8,0:0:0:0:
477,369,85946,5,8,0:0:0:0:
124,206,86279,1,8,0:0:0:0:
333,18,86446,6,0,L|345:183,1,165,12|0,0:1|0:0,0:0:0:0:
