osu file format v14

[General]
AudioFilename: audio.mp3
AudioLeadIn: 0
PreviewTime: 54946
Countdown: 0
SampleSet: Soft
StackLeniency: 0.7
Mode: 0
LetterboxInBreaks: 0
WidescreenStoryboard: 1

[Editor]
Bookmarks: 59389
DistanceSpacing: 1
BeatDivisor: 4
GridSize: 16
TimelineZoom: 1

[Metadata]
Title:DeCIDE (TV Size)
TitleUnicode:DeCIDE (TV Size)
Artist:SUMMONERS 2+
ArtistUnicode:SUMMONERS 2+
Creator:Yasaija 714
Version:Normal
Source:異世界魔王と召喚少女の奴隷魔術
Tags:isekai maou to shoukan shoujo no dorei majutsu fluffy hair 芹澤 優 和氣あず未 原 由実 大久保瑠美 加藤英美里 加藤裕介 唐沢美帆 _kotachi_ Lasse Nao Tomori Naotoshi Uta
BeatmapID:1749065
BeatmapSetID:834946

[Difficulty]
HPDrainRate:4
CircleSize:3
OverallDifficulty:5
ApproachRate:5.5
SliderMultiplier:1.1
SliderTickRate:1

[Events]
//Background and Video events
0,0,"BG.jpg",0,0
//Break Periods
//Storyboard Layer 0 (Background)
//Storyboard Layer 1 (Fail)
//Storyboard Layer 2 (Pass)
//Storyboard Layer 3 (Foreground)
//Storyboard Sound Samples

[TimingPoints]
113,333.333333333333,4,2,3,40,1,0
2279,-100,4,2,3,50,0,0
2446,-100,4,2,3,60,0,0
2612,-100,4,2,3,70,0,0
2779,-100,4,2,3,70,0,0
5446,-100,4,2,4,70,0,0
5696,-100,4,2,4,5,0,0
5779,-100,4,2,3,70,0,0
8362,-100,4,2,3,5,0,0
8446,-100,4,2,3,70,0,0
9446,-100,4,2,4,70,0,0
9696,-100,4,2,4,5,0,0
9779,-100,4,2,3,70,0,0
10779,-100,4,2,3,70,0,0
11196,-100,4,2,3,5,0,0
11279,-100,4,2,4,70,0,0
11446,-100,4,2,3,70,0,0
11946,-100,4,2,4,70,0,0
12196,-100,4,2,4,5,0,0
12279,-100,4,2,3,70,0,0
12946,-100,4,2,3,70,0,0
13446,-111.111111111111,4,2,3,50,0,0
23446,-100,4,2,3,60,0,0
23529,-100,4,2,3,70,0,0
23946,-100,4,2,3,70,0,0
30779,-100,4,2,4,70,0,0
30946,-100,4,2,3,70,0,0
32112,-100,4,2,4,70,0,0
32279,-100,4,2,3,70,0,0
33446,-100,4,2,3,70,0,0
34196,-100,4,2,3,5,0,0
34279,-100,4,2,3,70,0,0
34362,-100,4,2,3,5,0,0
34446,-100,4,2,3,70,0,0
34779,-100,4,2,3,70,0,0
40112,-100,4,2,3,70,0,0
45446,-100,4,2,3,55,0,0
45696,-100,4,2,3,5,0,0
45779,-100,4,2,3,70,0,0
48112,-100,4,2,3,70,0,0
48779,-100,4,2,4,70,0,0
48946,-100,4,2,3,70,0,0
50112,-100,4,2,4,70,0,0
50279,-100,4,2,3,70,0,0
50779,-100,4,2,3,60,0,0
53446,-100,4,2,4,70,0,0
53612,-100,4,2,3,70,0,0
54946,-100,4,2,3,50,0,0
55779,-100,4,2,3,70,0,0
55946,-100,4,2,3,70,0,0
56112,-100,4,2,5,80,0,1
56279,-100,4,2,3,80,0,1
58779,-100,4,2,4,80,0,1
59029,-100,4,2,4,5,0,1
59112,-100,4,2,3,80,0,1
61696,-100,4,2,3,5,0,1
61779,-100,4,2,3,80,0,1
62779,-100,4,2,4,80,0,1
63029,-100,4,2,4,5,0,1
63112,-100,4,2,3,80,0,1
64612,-100,4,2,4,80,0,1
64779,-100,4,2,3,80,0,1
66779,-100,4,2,5,80,0,1
66946,-100,4,2,3,80,0,1
69446,-100,4,2,4,80,0,1
69696,-100,4,2,4,5,0,1
69779,-100,4,2,3,80,0,1
73446,-100,4,2,4,80,0,1
73612,-100,4,2,3,80,0,1
75946,-100,4,2,4,80,0,1
76112,-100,4,2,3,80,0,1
76612,-100,4,2,4,80,0,1
76779,-100,4,2,4,80,0,1
77446,-100,4,2,5,80,0,0
77779,-100,4,2,3,80,0,0
78612,-100,4,2,4,80,0,0
79779,-100,4,2,4,40,0,0
79835,-100,4,2,4,45,0,0
79890,-100,4,2,4,50,0,0
79946,-100,4,2,4,55,0,0
80001,-100,4,2,4,60,0,0
80057,-100,4,2,4,65,0,0
80112,-100,4,2,3,70,0,1
86446,-100,4,2,3,80,0,0
87029,-100,4,2,3,5,0,0

[Colours]
Combo1 : 209,169,46
Combo2 : 68,92,134
Combo3 : 150,91,181
Combo4 : 142,199,67

[HitObjects]
63,122,113,6,0,L|77:187,1,55,2|0,0:0|0:0,0:0:0:0:
118,209,446,2,0,P|175:177|220:173,1,110,2|2,0:0|0:0,0:0:0:0:
246,125,946,2,0,P|308:142|343:171,1,110,2|2,0:0|0:0,0:0:0:0:
366,220,1446,1,0,0:0:0:0:
303,310,1779,1,0,0:0:0:0:
200,269,2112,1,0,0:0:0:0:
200,269,2279,2,0,L|204:205,2,55,8|8|8,0:0|0:0|0:0,0:0:0:0:
163,309,2779,6,0,P|94:323|38:302,1,110,12|8,0:1|0:0,0:0:0:0:
19,272,3279,2,0,L|30:153,1,110,2|2,0:3|0:3,0:0:0:0:
100,78,3946,1,2,0:3:0:0:
199,125,4279,1,2,0:0:0:0:
297,76,4612,1,2,0:3:0:0:
297,76,4779,2,0,P|300:132|307:190,1,110,10|8,0:1|0:0,0:0:0:0:
406,232,5446,6,0,P|403:288|396:346,1,110,6|8,0:0|0:0,0:0:0:0:
350,371,5946,2,0,B|280:353|280:353|232:365,1,110,2|2,0:3|0:3,0:0:0:0:
135,380,6612,1,2,0:3:0:0:
74,287,6946,1,2,0:0:0:0:
147,205,7279,1,2,0:3:0:0:
147,205,7446,2,0,L|210:197,1,55,10|2,0:1|0:3,0:0:0:0:
236,155,7779,2,0,L|299:163,1,55,8|2,0:0|0:3,0:0:0:0:
331,199,8112,6,0,L|443:184,1,110,12|8,0:1|0:0,0:0:0:0:
484,151,8612,2,0,P|498:87|486:42,1,110,2|2,0:3|0:3,0:0:0:0:
440,16,9112,1,8,0:0:0:0:
364,95,9446,2,0,L|254:109,1,110,6|8,0:0|0:0,0:0:0:0:
206,136,9946,2,0,P|195:189|209:242,1,110,2|2,0:3|0:3,0:0:0:0:
251,277,10446,1,8,0:0:0:0:
353,316,10779,6,0,L|434:306,2,82.5,12|8|6,0:1|0:1|0:0,0:0:0:0:
308,348,11446,2,0,P|267:366|194:349,1,110,0|8,0:0|0:0,0:0:0:0:
155,330,11946,1,6,0:0:0:0:
251,277,12279,2,0,L|250:220,2,55,10|12|12,0:1|0:0|0:0,0:0:0:0:
148,237,12946,1,8,0:0:0:0:
275,132,13446,5,4,0:1:0:0:
178,109,13779,2,0,P|98:118|72:125,1,98.9999969787599,0|2,0:0|0:0,0:0:0:0:
49,161,14279,2,0,P|58:241|65:267,1,98.9999969787599,2|2,0:0|0:0,0:0:0:0:
141,319,14946,1,2,0:0:0:0:
222,263,15279,2,0,L|333:274,1,98.9999969787599,2|2,0:0|0:0,0:0:0:0:
350,311,15779,2,0,L|412:302,1,49.4999984893799,2|2,0:0|0:0,0:0:0:0:
438,273,16112,5,0,0:0:0:0:
428,174,16446,1,2,0:0:0:0:
428,174,16612,2,0,P|357:160|334:142,1,98.9999969787599,2|2,0:0|0:0,0:0:0:0:
294,55,17279,1,2,0:0:0:0:
213,112,17612,1,2,0:0:0:0:
213,112,17779,2,0,L|222:213,1,98.9999969787599,0|0,0:0|0:0,0:0:0:0:
163,290,18446,1,2,0:0:0:0:
79,237,18779,6,0,P|64:290|82:346,1,98.9999969787599,2|0,0:0|0:0,0:0:0:0:
105,369,19279,1,2,0:0:0:0:
163,290,19612,1,2,0:0:0:0:
237,355,19946,1,2,0:0:0:0:
237,355,20112,2,0,P|322:346|350:336,1,98.9999969787599,2|0,0:0|0:0,0:0:0:0:
418,288,20779,1,2,0:0:0:0:
341,225,21112,1,2,0:0:0:0:
426,175,21446,6,0,P|439:104|433:64,1,98.9999969787599,2|0,0:0|0:0,0:0:0:0:
389,62,21946,2,0,P|321:73|272:77,1,98.9999969787599,2|2,0:0|0:0,0:0:0:0:
198,40,22612,1,2,0:0:0:0:
198,40,22779,2,0,P|200:104|196:153,1,98.9999969787599,2|0,0:0|0:0,0:0:0:0:
87,138,23446,6,0,L|83:193,1,55,12|12,0:0|0:0,0:0:0:0:
149,286,23946,2,0,B|177:260|177:260|263:260,1,110,12|2,0:1|0:0,0:0:0:0:
302,273,24446,6,0,P|286:189|287:163,1,110,8|8,0:1|0:1,0:0:0:0:
322,122,24946,2,0,B|393:130|393:130|442:117,1,110,2|2,0:0|0:1,0:0:0:0:
494,31,25612,1,2,0:0:0:0:
385,13,25946,1,2,0:0:0:0:
385,13,26112,2,0,L|316:29,1,55,8|2,0:1|0:0,0:0:0:0:
280,46,26446,2,0,L|211:62,1,55,8|2,0:0|0:0,0:0:0:0:
174,76,26779,6,0,P|191:137|190:195,1,110,8|8,0:1|0:1,0:0:0:0:
145,213,27279,2,0,P|95:179|59:125,1,110,2|2,0:0|0:0,0:0:0:0:
73,29,27946,1,2,0:0:0:0:
174,76,28279,1,2,0:0:0:0:
174,76,28446,2,0,P|208:58|245:50,1,55,8|2,0:1|0:0,0:0:0:0:
278,53,28779,2,0,P|303:61|327:75,1,55,8|2,0:1|0:0,0:0:0:0:
360,119,29112,2,0,L|352:177,1,55,8|2,0:0|0:0,0:0:0:0:
330,224,29446,6,0,P|270:205|212:210,1,110,12|8,0:1|0:1,0:0:0:0:
172,228,29946,2,0,P|184:319|183:357,1,110,2|2,0:0|0:0,0:0:0:0:
154,383,30446,1,8,0:0:0:0:
65,318,30779,2,0,P|67:263|76:208,1,110,6|8,0:0|0:1,0:0:0:0:
149,125,31446,1,8,0:1:0:0:
223,207,31779,1,8,0:0:0:0:
303,132,32112,6,0,P|418:113|464:136,1,165,6|2,0:1|0:0,0:0:0:0:
493,174,32779,2,0,B|514:289|514:289|480:258|458:254,1,165,8|4,0:1|0:3,0:0:0:0:
423,241,33446,2,0,P|368:234|334:252,2,82.5,8|12|12,0:3|0:0|0:1,0:0:0:0:
389,345,34279,2,0,P|309:352|242:281,1,165,12|12,0:0|0:1,0:0:0:0:
224,135,35279,5,8,0:1:0:0:
224,135,35446,2,0,P|160:154|115:155,1,110,8|2,0:0|0:0,0:0:0:0:
65,135,35946,1,10,0:1:0:0:
8,229,36279,1,10,0:1:0:0:
87,305,36612,2,0,P|151:286|196:285,1,110,8|8,0:0|3:1,0:0:0:0:
248,299,37112,2,0,P|243:266|250:241,1,55,12|8,0:0|0:1,0:0:0:0:
282,201,37446,6,0,B|337:216|337:216|400:210,1,110,12|0,0:1|0:0,0:0:0:0:
437,183,37946,1,8,0:1:0:0:
437,183,38112,2,0,P|445:241|442:304,1,110,8|2,0:0|0:0,0:0:0:0:
410,336,38612,1,10,0:1:0:0:
309,291,38946,1,10,0:1:0:0:
309,291,39112,2,0,P|297:241|296:216,1,55,8|12,0:0|0:0,0:0:0:0:
329,192,39446,2,0,P|324:164|316:138,1,55,10|8,0:1|0:1,0:0:0:0:
273,104,39779,2,0,L|218:114,1,55,8|8,0:0|0:0,0:0:0:0:
164,122,40112,6,0,P|109:110|50:129,1,110,12|10,0:1|0:1,0:0:0:0:
10,152,40612,1,2,0:0:0:0:
10,152,40779,2,0,L|32:268,1,110,10|8,0:1|0:0,0:0:0:0:
84,268,41279,2,0,L|62:384,2,110,2|2|2,0:1|0:1|0:1,0:0:0:0:
127,234,42112,1,8,0:1:0:0:
224,285,42446,2,0,P|256:295|290:297,1,55,8|4,0:0|0:3,0:0:0:0:
323,267,42779,6,0,P|303:201|302:155,1,110,10|10,0:1|0:1,0:0:0:0:
323,109,43279,2,0,P|389:89|435:88,1,110,2|2,0:0|0:1,0:0:0:0:
476,117,43779,1,8,0:0:0:0:
476,117,43946,2,0,L|459:225,2,110,2|2|2,0:1|0:0|0:0,0:0:0:0:
506,70,44779,1,8,0:1:0:0:
417,4,45112,1,8,0:0:0:0:
352,93,45446,6,0,P|281:105|238:95,1,110,12|10,0:1|0:1,0:0:0:0:
197,68,45946,1,2,0:0:0:0:
197,68,46112,2,0,P|204:129|202:186,1,110,10|8,0:1|0:0,0:0:0:0:
171,222,46612,2,0,B|96:205|96:205|60:211,2,110,2|2|2,0:0|0:0|0:0,0:0:0:0:
208,262,47446,1,8,0:1:0:0:
304,209,47779,1,8,0:0:0:0:
396,268,48112,6,0,P|458:270|508:278,1,110,12|8,0:1|0:0,0:0:0:0:
432,359,48779,2,0,P|370:357|320:349,1,110,6|8,0:0|0:0,0:0:0:0:
280,314,49279,1,2,0:0:0:0:
280,314,49446,2,0,P|264:257|257:197,1,110,12|8,0:1|0:0,0:0:0:0:
264,97,50112,1,6,0:0:0:0:
264,97,50279,2,0,L|323:102,2,55,10|8|8,0:1|0:0|0:0,0:0:0:0:
218,65,50779,6,0,P|133:55|102:70,1,110,12|2,0:1|0:0,0:0:0:0:
80,108,51279,2,0,B|77:148|77:148|87:172|87:172|82:217,1,110,12|2,0:0|0:1,0:0:0:0:
41,251,51779,1,8,0:0:0:0:
98,347,52112,6,0,B|151:331|151:331|210:344,1,110,12|2,0:1|0:0,0:0:0:0:
259,342,52612,2,0,B|312:330|312:330|365:346,1,110,12|2,0:0|0:0,0:0:0:0:
420,346,53112,1,12,0:0:0:0:
465,245,53446,6,0,P|453:199|438:176,1,55,12|12,0:1|0:0,0:0:0:0:
394,192,53779,2,0,P|383:217|378:244,1,55,12|12,0:0|0:0,0:0:0:0:
420,346,54279,1,12,0:0:0:0:
310,346,54612,1,12,0:0:0:0:
228,272,54946,6,0,L|150:277,1,55,2|2,0:0|0:0,0:0:0:0:
159,222,55279,2,0,P|202:170|256:166,1,110,2|2,0:0|0:0,0:0:0:0:
297,157,55779,2,0,L|375:152,1,55,12|2,0:0|0:0,0:0:0:0:
396,121,56112,6,0,P|353:66|313:52,1,110,6|8,0:1|0:0,0:0:0:0:
264,68,56612,2,0,B|198:93|198:93|154:73,1,110,2|2,0:3|0:3,0:0:0:0:
112,51,57112,1,8,0:0:0:0:
112,51,57279,2,0,P|126:108|123:169,1,110,2|2,0:3|0:3,0:0:0:0:
103,209,57779,1,8,0:0:0:0:
162,301,58112,2,0,P|197:282|214:278,1,55,10|2,0:1|0:3,0:0:0:0:
266,278,58446,2,0,P|292:286|315:300,1,55,8|2,0:0|0:3,0:0:0:0:
369,313,58779,6,0,P|361:238|363:201,1,110,6|8,0:0|0:0,0:0:0:0:
402,165,59279,2,0,P|410:90|408:53,1,110,2|2,0:3|0:3,0:0:0:0:
360,28,59779,1,8,0:0:0:0:
360,28,59946,2,0,B|277:26|277:26|244:65,1,110,2|2,0:3|0:3,0:0:0:0:
231,93,60446,1,8,0:0:0:0:
162,178,60779,2,0,L|162:242,2,55,8|4|8,0:3|0:3|0:0,0:0:0:0:
51,176,61446,6,0,P|33:243|48:296,1,110,12|8,0:1|0:0,0:0:0:0:
80,320,61946,2,0,P|147:338|200:323,1,110,2|2,0:3|0:3,0:0:0:0:
230,298,62446,2,0,P|270:289|296:293,1,55,8|2,0:0|0:3,0:0:0:0:
324,327,62779,2,0,P|391:345|444:330,1,110,6|8,0:0|0:0,0:0:0:0:
463,293,63279,2,0,P|470:239|453:187,1,110,2|2,0:3|0:3,0:0:0:0:
412,150,63779,1,8,0:0:0:0:
312,196,64112,6,0,L|205:175,1,110,12|8,0:1|0:0,0:0:0:0:
149,165,64612,1,6,0:0:0:0:
219,80,64946,2,0,L|289:66,1,55,4|8,0:3|0:0,0:0:0:0:
325,54,65279,2,0,P|389:90|407:133,1,110,12|10,0:1|0:1,0:0:0:0:
395,175,65779,1,8,0:0:0:0:
395,175,65946,2,0,L|390:286,1,110,12|12,0:0|0:0,0:0:0:0:
363,332,66446,1,0,3:0:0:0:
251,339,66779,6,0,P|187:356|136:344,1,110,6|8,0:1|0:0,0:0:0:0:
119,299,67279,2,0,L|114:189,1,110,2|2,0:3|0:3,0:0:0:0:
113,134,67779,1,8,0:0:0:0:
113,134,67946,2,0,B|153:118|153:118|180:122|180:122|220:104,1,110,2|2,0:3|0:3,0:0:0:0:
260,72,68446,1,8,0:0:0:0:
356,125,68779,2,0,L|348:186,1,55,10|2,0:1|0:3,0:0:0:0:
311,219,69112,2,0,L|319:280,1,55,8|2,0:0|0:3,0:0:0:0:
359,310,69446,6,0,P|424:322|472:299,1,110,6|8,0:0|0:0,0:0:0:0:
496,261,69946,2,0,B|513:206|474:206|496:146,1,110,2|2,0:3|0:3,0:0:0:0:
507,100,70446,1,8,0:0:0:0:
507,100,70612,2,0,B|437:116|437:116|386:101,1,110,2|2,0:3|0:3,0:0:0:0:
348,87,71112,1,8,0:0:0:0:
245,127,71446,2,0,L|250:185,1,55,12|12,0:0|0:0,0:0:0:0:
151,230,71946,6,0,L|142:120,1,110,12|2,0:1|0:3,0:0:0:0:
110,75,72446,2,0,P|76:70|50:71,1,55,8|2,0:0|0:3,0:0:0:0:
20,113,72779,2,0,P|15:147|16:173,1,55,8|2,0:1|0:3,0:0:0:0:
41,218,73112,1,8,0:0:0:0:
41,218,73279,2,0,L|158:230,1,110,2|2,0:3|0:3,0:0:0:0:
195,261,73779,1,8,0:0:0:0:
195,261,73946,2,0,L|312:249,2,110,2|2|0,0:3|0:3|3:0,0:0:0:0:
148,291,74779,5,12,0:1:0:0:
100,191,75112,1,8,0:0:0:0:
178,113,75446,2,0,L|237:120,2,55,8|10|8,0:1|0:1|0:0,0:0:0:0:
144,69,75946,2,0,P|112:49|34:48,1,110,6|10,0:0|0:1,0:0:0:0:
4,86,76446,2,0,P|17:131|19:162,1,55,8|6,0:0|0:0,0:0:0:0:
4,248,76946,2,0,P|53:266|118:236,1,110,14|0,0:1|0:0,0:0:0:0:
145,209,77446,5,6,0:1:0:0:
145,209,78612,1,6,0:0:0:0:
251,182,78946,1,6,0:0:0:0:
145,209,80112,6,0,P|139:177|140:141,2,55,12|2|8,0:1|0:3|0:0,0:0:0:0:
191,238,80612,2,0,P|187:292|191:352,1,110,2|2,0:3|0:3,0:0:0:0:
242,366,81112,1,8,0:0:0:0:
242,366,81279,2,0,P|300:340|346:333,1,110,2|2,0:3|0:3,0:0:0:0:
399,344,81779,1,8,0:0:0:0:
374,236,82112,2,0,L|358:161,1,55,8|2,0:1|0:3,0:0:0:0:
313,156,82446,2,0,L|297:81,1,55,8|2,0:0|3:0,0:0:0:0:
253,76,82779,6,0,L|269:1,2,55,12|2|8,0:1|0:3|0:0,0:0:0:0:
209,110,83279,2,0,P|138:122|85:112,1,110,2|2,0:3|0:3,0:0:0:0:
57,83,83779,1,8,0:0:0:0:
57,83,83946,2,0,B|40:136|40:136|56:197,1,110,2|2,0:3|0:3,0:0:0:0:
79,237,84446,1,12,0:0:0:0:
172,295,84779,2,0,B|196:283|196:283|228:297,1,55,8|2,0:1|3:0,0:0:0:0:
273,313,85112,2,0,B|297:325|297:325|329:311,1,55,8|0,3:2|3:0,0:0:0:0:
369,284,85446,5,12,0:0:0:0:
369,284,85612,1,8,0:0:0:0:
429,191,85946,1,8,0:0:0:0:
349,115,86279,1,8,0:0:0:0:
349,115,86446,1,12,0:1:0:0:
