osu file format v14

[General]
AudioFilename: audio.mp3
AudioLeadIn: 0
PreviewTime: 54946
Countdown: 0
SampleSet: Soft
StackLeniency: 0.7
Mode: 0
LetterboxInBreaks: 0
WidescreenStoryboard: 1

[Editor]
DistanceSpacing: 1.5
BeatDivisor: 4
GridSize: 16
TimelineZoom: 3.099999

[Metadata]
Title:DeCIDE (TV Size)
TitleUnicode:DeCIDE (TV Size)
Artist:SUMMONERS 2+
ArtistUnicode:SUMMONERS 2+
Creator:Yasaija 714
Version:Light Insane
Source:異世界魔王と召喚少女の奴隷魔術
Tags:isekai maou to shoukan shoujo no dorei majutsu fluffy hair 芹澤 優 和氣あず未 原 由実 大久保瑠美 加藤英美里 加藤裕介 唐沢美帆 _kotachi_ Lasse Nao Tomori Naotoshi Uta
BeatmapID:1751100
BeatmapSetID:834946

[Difficulty]
HPDrainRate:5
CircleSize:4
OverallDifficulty:7
ApproachRate:8
SliderMultiplier:1.45
SliderTickRate:1

[Events]
//Background and Video events
0,0,"BG.jpg",0,0
//Break Periods
//Storyboard Layer 0 (Background)
//Storyboard Layer 1 (Fail)
//Storyboard Layer 2 (Pass)
//Storyboard Layer 3 (Foreground)
//Storyboard Sound Samples

[TimingPoints]
113,333.333333333333,4,2,3,40,1,0
113,-133.333333333333,4,2,3,50,0,0
2279,-100,4,2,3,50,0,0
2446,-100,4,2,3,60,0,0
2612,-100,4,2,3,70,0,0
2779,-100,4,2,3,70,0,0
5446,-100,4,2,4,70,0,0
5696,-100,4,2,4,5,0,0
5779,-100,4,2,3,70,0,0
8362,-100,4,2,3,5,0,0
8446,-100,4,2,3,70,0,0
9446,-100,4,2,4,70,0,0
9696,-100,4,2,4,5,0,0
9779,-100,4,2,3,70,0,0
10779,-100,4,2,3,70,0,0
11196,-100,4,2,3,5,0,0
11279,-100,4,2,4,70,0,0
11446,-100,4,2,3,70,0,0
11946,-100,4,2,4,70,0,0
12196,-100,4,2,4,5,0,0
12279,-100,4,2,3,70,0,0
12946,-100,4,2,3,70,0,0
13446,-125,4,2,3,50,0,0
23446,-100,4,2,3,60,0,0
23529,-100,4,2,3,70,0,0
23946,-100,4,2,3,70,0,0
30779,-100,4,2,4,70,0,0
30946,-100,4,2,3,70,0,0
32112,-100,4,2,4,70,0,0
32279,-100,4,2,3,70,0,0
33446,-100,4,2,3,70,0,0
34196,-100,4,2,3,5,0,0
34279,-100,4,2,3,70,0,0
34362,-100,4,2,3,5,0,0
34446,-100,4,2,3,70,0,0
34779,-125,4,2,3,70,0,0
40112,-100,4,2,3,70,0,0
45446,-100,4,2,3,55,0,0
45696,-100,4,2,3,5,0,0
45779,-100,4,2,3,70,0,0
48112,-100,4,2,3,70,0,0
48779,-100,4,2,4,70,0,0
48946,-100,4,2,3,70,0,0
50112,-100,4,2,4,70,0,0
50279,-100,4,2,3,70,0,0
50779,-95.2380952380951,4,2,3,60,0,0
53446,-90.9090909090909,4,2,4,70,0,0
53612,-90.9090909090909,4,2,3,70,0,0
54946,-100,4,2,3,50,0,0
55779,-100,4,2,3,70,0,0
55946,-100,4,2,3,70,0,0
56112,-86.9565217391303,4,2,5,80,0,1
56279,-86.9565217391304,4,2,3,80,0,1
58779,-86.9565217391304,4,2,4,80,0,1
59029,-86.9565217391304,4,2,4,5,0,1
59112,-86.9565217391304,4,2,3,80,0,1
61696,-86.9565217391304,4,2,3,5,0,1
61779,-86.9565217391304,4,2,3,80,0,1
62779,-86.9565217391304,4,2,4,80,0,1
63029,-86.9565217391304,4,2,4,5,0,1
63112,-86.9565217391304,4,2,3,80,0,1
64612,-86.9565217391304,4,2,4,80,0,1
64779,-86.9565217391304,4,2,3,80,0,1
66779,-86.9565217391304,4,2,5,80,0,1
66946,-86.9565217391304,4,2,3,80,0,1
69446,-86.9565217391304,4,2,4,80,0,1
69696,-86.9565217391304,4,2,4,5,0,1
69779,-86.9565217391304,4,2,3,80,0,1
73446,-86.9565217391304,4,2,4,80,0,1
73612,-86.9565217391304,4,2,3,80,0,1
75946,-86.9565217391304,4,2,4,80,0,1
76112,-86.9565217391304,4,2,3,80,0,1
76612,-86.9565217391304,4,2,4,80,0,1
76779,-86.9565217391304,4,2,4,80,0,1
77446,-133.333333333333,4,2,5,80,0,0
77779,-100,4,2,3,80,0,0
78612,-133.333333333333,4,2,4,80,0,0
79779,-100,4,2,4,40,0,0
79835,-100,4,2,4,45,0,0
79890,-100,4,2,4,50,0,0
79946,-100,4,2,4,55,0,0
80001,-100,4,2,4,60,0,0
80057,-100,4,2,4,65,0,0
80112,-100,4,2,3,70,0,1
86446,-100,4,2,3,80,0,0
86779,-100,4,2,3,20,0,0
87029,-100,4,2,3,5,0,0

[Colours]
Combo1 : 209,169,46
Combo2 : 68,92,134
Combo3 : 150,91,181
Combo4 : 142,199,67

[HitObjects]
244,175,113,5,2,0:0:0:0:
244,175,279,1,0,0:0:0:0:
138,137,446,2,0,P|128:183|127:201,1,54.3750020742417,2|0,0:0|0:0,0:0:0:0:
163,317,779,2,0,L|225:303,1,54.3750020742417,2|2,0:0|0:0,0:0:0:0:
303,233,1112,2,0,L|365:247,1,54.3750020742417,0|2,0:0|0:0,0:0:0:0:
476,299,1446,5,0,0:0:0:0:
476,299,1612,1,2,0:0:0:0:
359,349,1779,1,0,0:0:0:0:
392,233,1946,2,0,P|400:206|402:177,1,54.3750020742417,2|0,0:0|0:0,0:0:0:0:
352,88,2279,1,8,0:0:0:0:
352,88,2362,1,0,0:0:0:0:
352,88,2446,2,0,L|307:90,3,36.25,8|8|8|8,0:0|0:0|0:0|0:0,0:0:0:0:
282,72,2779,6,0,P|222:51|140:73,1,145,12|8,0:1|0:0,0:0:0:0:
39,168,3279,2,0,P|70:134|80:102,1,72.5,2|8,0:3|0:1,0:0:0:0:
157,213,3612,2,0,P|166:168|159:135,1,72.5,2|8,0:3|0:0,0:0:0:0:
74,22,3946,1,2,0:3:0:0:
214,22,4112,6,0,P|261:17|300:26,1,72.5,8|2,0:1|0:0,0:0:0:0:
390,78,4446,1,8,0:0:0:0:
301,130,4612,2,0,L|263:122,2,36.25,2|2|10,0:3|0:0|0:1,0:0:0:0:
398,173,4946,2,0,L|436:165,2,36.25,2|0|8,0:3|0:0|0:0,0:0:0:0:
304,220,5279,1,2,0:0:0:0:
428,268,5446,6,0,P|429:341|355:370,1,145,6|8,0:0|0:0,0:0:0:0:
220,327,5946,2,0,P|277:311|312:316,1,72.5,2|8,0:3|0:1,0:0:0:0:
236,198,6279,2,0,P|293:212|321:234,1,72.5,2|8,0:3|0:0,0:0:0:0:
370,340,6612,1,2,0:3:0:0:
474,272,6779,6,0,P|460:237|448:198,1,72.5,8|2,0:1|0:0,0:0:0:0:
470,84,7112,1,8,0:0:0:0:
360,136,7279,2,0,L|307:120,2,36.25,2|2|10,0:3|0:0|0:1,0:0:0:0:
266,63,7612,2,0,L|231:73,2,36.25,2|0|8,0:3|0:0|0:0,0:0:0:0:
169,137,7946,1,2,0:3:0:0:
56,65,8112,6,0,P|71:157|71:218,1,145,12|8,0:1|0:0,0:0:0:0:
134,307,8612,2,0,B|169:294|201:307|201:307|221:296|221:296|256:309|287:301,1,145,2|2,0:3|0:3,0:0:0:0:
341,192,9112,2,0,P|381:208|356:269,1,108.75,8|0,0:0|0:0,0:0:0:0:
265,209,9446,6,0,P|257:166|257:59,1,145,6|8,0:0|0:0,0:0:0:0:
421,19,9946,2,0,P|422:91|412:162,1,145,2|2,0:3|0:3,0:0:0:0:
337,292,10446,2,0,B|301:285|301:285|267:295|267:295|215:278,1,108.75,8|0,0:0|0:0,0:0:0:0:
194,262,10779,6,0,P|189:312|206:373,1,108.75,12|8,0:1|0:1,0:0:0:0:
123,370,11112,2,0,P|116:325|116:288,1,72.5,8|6,0:0|0:0,0:0:0:0:
143,174,11446,1,0,0:0:0:0:
277,193,11612,1,8,0:0:0:0:
277,193,11696,1,8,0:0:0:0:
277,193,11779,1,8,0:0:0:0:
183,90,11946,6,0,P|96:92|62:129,1,108.75,6|0,0:0|0:0,0:0:0:0:
65,134,12279,1,10,0:1:0:0:
143,174,12446,1,12,0:0:0:0:
6,198,12612,2,0,P|4:230|13:275,1,72.5,12|0,0:0|0:0,0:0:0:0:
149,304,12946,2,0,P|169:244|175:155,1,145,8|0,0:0|0:0,0:0:0:0:
127,100,13446,6,0,L|13:120,1,116,4|0,0:1|0:0,0:0:0:0:
192,29,14112,1,2,0:0:0:0:
192,29,14279,2,0,P|198:62|208:89,1,58,2|0,0:0|0:0,0:0:0:0:
295,162,14612,2,0,P|301:110|319:43,2,116,2|2|2,0:0|0:0|0:0,0:0:0:0:
358,294,15612,1,2,0:0:0:0:
358,294,15779,2,0,P|356:265|348:238,1,58,2|2,0:0|0:0,0:0:0:0:
217,213,16112,6,0,P|192:274|193:340,1,116,0|2,0:0|0:0,0:0:0:0:
287,376,16612,2,0,L|349:366,1,58,2|0,0:0|0:0,0:0:0:0:
472,343,16946,1,2,0:0:0:0:
411,270,17112,1,0,0:0:0:0:
494,222,17279,2,0,P|502:179|502:158,1,58,2|0,0:0|0:0,0:0:0:0:
420,87,17612,2,0,P|325:106|296:108,1,116,2|0,0:0|0:0,0:0:0:0:
195,77,18112,2,0,P|192:125|200:160,1,58,0|0,0:0|0:0,0:0:0:0:
107,45,18446,2,0,P|70:76|51:107,1,58,2|0,0:0|0:0,0:0:0:0:
36,222,18779,6,0,B|94:238|93:206|178:222,1,116,2|0,0:0|0:0,0:0:0:0:
256,253,19279,2,0,P|261:290|259:324,1,58,2|0,0:0|0:0,0:0:0:0:
165,350,19612,1,2,0:0:0:0:
165,350,19779,2,0,L|101:340,1,58,0|2,0:0|0:0,0:0:0:0:
27,252,20112,2,0,P|14:292|11:325,1,58,2|0,0:0|0:0,0:0:0:0:
100,203,20446,2,0,P|108:244|122:274,1,58,0|2,0:0|0:0,0:0:0:0:
158,140,20779,2,0,P|191:186|230:216,1,87,2|0,0:0|0:0,0:0:0:0:
231,205,21112,2,0,P|254:181|282:168,1,58,2|2,0:0|0:0,0:0:0:0:
388,200,21446,6,0,B|396:262|396:262|380:317,1,116,2|0,0:0|0:0,0:0:0:0:
283,273,21946,2,0,P|242:271|220:283,1,58,2|0,0:0|0:0,0:0:0:0:
234,360,22279,2,0,P|275:362|297:350,1,58,2|0,0:0|0:0,0:0:0:0:
381,313,22612,1,2,0:0:0:0:
294,216,22779,2,0,L|282:272,1,58,2|0,0:0|0:0,0:0:0:0:
174,178,23112,2,0,L|185:234,1,58,0|2,0:0|0:0,0:0:0:0:
329,90,23446,5,12,0:0:0:0:
294,216,23612,1,12,0:0:0:0:
144,31,23946,6,0,P|56:42|31:102,1,145,12|2,0:1|0:0,0:0:0:0:
84,184,24446,2,0,P|80:229|92:285,1,72.5,8|2,0:1|0:0,0:0:0:0:
155,329,24779,1,8,0:1:0:0:
155,329,24946,2,0,B|261:310|261:310|278:268,1,145,2|2,0:0|0:1,0:0:0:0:
303,167,25446,6,0,P|256:158|206:156,1,72.5,8|2,0:1|0:0,0:0:0:0:
353,94,25779,2,0,P|400:85|450:83,1,72.5,8|2,0:1|0:0,0:0:0:0:
271,21,26112,1,8,0:1:0:0:
231,156,26279,1,2,0:0:0:0:
387,178,26446,2,0,P|397:219|400:256,1,72.5,8|2,0:0|0:0,0:0:0:0:
283,317,26779,6,0,P|210:306|137:316,1,145,8|8,0:1|0:1,0:0:0:0:
48,358,27279,1,2,0:0:0:0:
48,358,27446,2,0,P|31:313|29:280,1,72.5,8|2,0:1|0:0,0:0:0:0:
136,205,27779,2,0,P|100:209|66:224,1,72.5,8|2,0:1|0:0,0:0:0:0:
199,260,28112,5,8,0:1:0:0:
239,141,28279,1,2,0:0:0:0:
239,141,28446,2,0,L|217:70,1,72.5,8|2,0:1|0:0,0:0:0:0:
352,111,28779,2,0,L|330:180,1,72.5,8|2,0:1|0:0,0:0:0:0:
199,260,29112,1,8,0:0:0:0:
311,285,29279,1,2,0:0:0:0:
173,351,29446,6,0,P|123:310|114:220,1,145,12|8,0:1|0:1,0:0:0:0:
138,137,29946,1,2,0:0:0:0:
286,173,30112,2,0,P|238:175|204:169,1,72.5,8|2,0:1|0:0,0:0:0:0:
435,144,30446,2,0,P|387:142|353:148,1,72.5,8|2,0:0|0:0,0:0:0:0:
314,313,30779,6,0,P|287:231|288:158,1,145,6|8,0:0|0:1,0:0:0:0:
365,56,31279,1,2,0:0:0:0:
470,149,31446,2,0,P|458:218|442:256,1,108.75,8|0,0:1|0:0,0:0:0:0:
423,269,31779,1,8,0:0:0:0:
501,334,31946,1,2,0:0:0:0:
370,352,32112,6,0,B|298:357|298:357|246:325,1,108.75,6|0,0:1|0:0,0:0:0:0:
254,322,32446,2,0,P|243:274|240:233,1,72.5,8|2,0:1|0:0,0:0:0:0:
318,165,32779,2,0,P|326:98|313:41,1,108.75,8|0,0:1|0:0,0:0:0:0:
306,42,33112,2,0,B|265:32,2,36.25,8|8|4,0:0|0:0|0:3,0:0:0:0:
417,113,33446,6,0,B|493:98|493:98|476:135,1,108.75,8|12,0:3|0:0,0:0:0:0:
473,144,33779,2,0,P|475:190|482:228,1,72.5,0|12,0:0|0:1,0:0:0:0:
319,111,34279,2,0,P|315:194|331:277,1,145,12|0,0:0|3:0,0:0:0:0:
374,343,34779,6,0,L|490:325,1,116,12|0,0:1|0:0,0:0:0:0:
398,222,35279,1,8,0:1:0:0:
398,222,35446,1,8,0:0:0:0:
55,337,35946,1,10,0:1:0:0:
137,184,36279,1,10,0:1:0:0:
224,346,36612,1,8,0:0:0:0:
134,273,36779,2,0,L|61:265,1,58,2|8,3:2|3:1,0:0:0:0:
218,238,37112,2,0,L|291:230,1,58,12|8,0:0|0:1,0:0:0:0:
137,184,37446,6,0,L|8:170,1,116,12|0,0:1|0:0,0:0:0:0:
97,68,37946,1,8,0:1:0:0:
97,68,38112,1,8,0:0:0:0:
443,157,38612,1,10,0:1:0:0:
313,279,38946,1,10,0:1:0:0:
313,279,39112,2,0,P|298:238|296:212,1,58,8|12,0:0|0:0,0:0:0:0:
420,264,39446,2,0,L|410:329,1,58,10|8,0:1|0:1,0:0:0:0:
309,364,39779,1,8,0:0:0:0:
309,364,39862,1,8,0:0:0:0:
309,364,39946,2,0,L|257:361,1,29,8|8,0:0|0:0,0:0:0:0:
217,310,40112,6,0,P|170:308|135:316,1,72.5,12|0,0:1|0:0,0:0:0:0:
30,356,40446,1,10,0:1:0:0:
67,240,40612,1,2,0:0:0:0:
67,240,40779,2,0,P|55:198|50:155,2,72.5,10|0|8,0:1|0:0|0:0,0:0:0:0:
145,312,41279,1,2,0:1:0:0:
146,185,41446,6,0,P|217:172|291:196,1,145,8|8,0:1|0:1,0:0:0:0:
359,263,41946,1,2,0:1:0:0:
359,263,42112,2,0,P|320:294|298:330,1,72.5,8|2,0:1|0:0,0:0:0:0:
497,311,42446,2,0,P|474:282|445:262,1,72.5,8|4,0:0|0:3,0:0:0:0:
370,175,42779,6,0,P|349:105|348:24,1,145,10|10,0:1|0:1,0:0:0:0:
441,92,43279,2,0,L|523:101,1,72.5,2|8,0:0|0:1,0:0:0:0:
461,186,43612,2,0,L|388:178,1,72.5,2|8,0:1|0:0,0:0:0:0:
272,166,43946,1,2,0:1:0:0:
346,33,44112,6,0,B|273:8|273:64|186:34,1,145,8|8,0:1|0:1,0:0:0:0:
92,14,44612,1,2,0:0:0:0:
92,14,44779,2,0,P|108:66|108:90,1,72.5,8|2,0:1|0:0,0:0:0:0:
210,126,45112,2,0,P|184:174|167:191,1,72.5,8|4,0:0|0:3,0:0:0:0:
22,209,45446,6,0,P|34:280|90:350,1,145,12|10,0:1|0:1,0:0:0:0:
183,353,45946,1,2,0:0:0:0:
183,353,46112,2,0,L|194:276,2,72.5,10|2|8,0:1|0:0|0:0,0:0:0:0:
283,369,46612,1,2,0:0:0:0:
258,222,46779,6,0,P|300:189|398:183,1,145,8|8,0:1|0:1,0:0:0:0:
508,251,47279,1,2,0:0:0:0:
508,251,47446,2,0,L|431:246,1,72.5,8|2,0:1|0:0,0:0:0:0:
299,166,47779,5,8,0:0:0:0:
458,115,47946,1,4,0:3:0:0:
303,27,48112,6,0,P|282:100|308:180,1,145,12|8,0:1|0:0,0:0:0:0:
394,244,48612,1,2,0:0:0:0:
394,244,48779,2,0,P|425:221|457:212,1,72.5,6|0,0:0|0:0,0:0:0:0:
364,327,49112,2,0,P|333:350|301:359,1,72.5,8|2,0:0|0:0,0:0:0:0:
134,325,49446,6,0,P|173:301|175:372,1,145,12|8,0:1|0:0,0:0:0:0:
54,324,49946,1,4,0:3:0:0:
54,324,50112,2,0,P|40:281|45:234,1,72.5,6|10,0:0|0:1,0:0:0:0:
113,136,50446,1,8,0:0:0:0:
113,136,50529,1,8,0:0:0:0:
113,136,50612,2,0,L|117:184,1,36.25,8|8,0:0|0:0,0:0:0:0:
189,238,50779,6,0,L|265:229,2,76.1249976768494,12|0|2,0:1|0:0|0:0,0:0:0:0:
81,308,51279,2,0,L|5:299,2,76.1249976768494,12|0|2,0:0|0:0|0:1,0:0:0:0:
197,356,51779,1,8,0:0:0:0:
197,356,51946,1,0,0:0:0:0:
90,227,52112,6,0,P|76:186|75:154,2,76.1249976768494,12|0|2,0:1|0:0|0:0,0:0:0:0:
240,147,52612,2,0,P|254:106|255:74,2,76.1249976768494,12|0|2,0:0|0:0|0:0,0:0:0:0:
58,79,53112,2,0,P|44:38|43:6,1,76.1249976768494,12|0,0:0|0:0,0:0:0:0:
196,14,53446,5,12,0:1:0:0:
154,146,53612,1,12,0:0:0:0:
196,14,53779,1,12,0:0:0:0:
246,171,53946,2,0,P|304:138|364:128,1,119.625003650665,12|0,0:0|0:0,0:0:0:0:
374,135,54279,2,0,P|366:186|365:222,1,79.7500024337769,12|0,0:0|0:0,0:0:0:0:
397,329,54612,2,0,L|482:312,1,79.7500024337769,12|0,0:0|0:0,0:0:0:0:
311,280,54946,5,2,0:0:0:0:
300,369,55112,1,2,0:0:0:0:
311,280,55279,2,0,P|250:269|220:269,1,72.5,2|2,0:0|0:0,0:0:0:0:
148,333,55612,1,2,0:0:0:0:
148,333,55779,2,0,P|87:344|57:344,1,72.5,12|2,0:0|0:0,0:0:0:0:
25,221,56112,6,0,P|10:158|8:108,1,83.375001590252,6|2,0:1|0:3,0:0:0:0:
66,46,56446,1,8,0:0:0:0:
66,46,56612,2,0,P|119:50|167:61,1,83.375001590252,2|8,0:3|0:1,0:0:0:0:
237,130,56946,1,2,0:3:0:0:
237,130,57112,2,0,P|290:126|338:115,1,83.375001590252,8|2,0:0|0:3,0:0:0:0:
434,45,57446,6,0,P|423:127|444:209,1,166.750003180504,8|8,0:1|0:0,0:0:0:0:
499,314,57946,1,2,0:3:0:0:
368,278,58112,2,0,P|376:331|380:373,1,83.375001590252,10|2,0:1|0:3,0:0:0:0:
252,252,58446,2,0,P|244:305|240:347,1,83.375001590252,8|2,0:0|0:3,0:0:0:0:
350,188,58779,6,0,P|279:136|193:149,1,166.750003180504,6|8,0:0|0:0,0:0:0:0:
101,218,59279,1,2,0:3:0:0:
101,218,59446,2,0,P|89:168|85:127,1,83.375001590252,8|2,0:1|0:3,0:0:0:0:
163,268,59779,2,0,P|157:309|147:349,1,83.375001590252,8|2,0:0|0:3,0:0:0:0:
19,273,60112,6,0,P|-2:180|-4:93,1,166.750003180504,8|8,0:1|0:0,0:0:0:0:
65,19,60612,1,2,0:3:0:0:
115,140,60779,2,0,L|202:124,1,83.375001590252,8|4,0:3|0:3,0:0:0:0:
274,61,61112,2,0,P|297:111|284:179,1,125.062502385378,8|0,0:0|0:0,0:0:0:0:
266,193,61446,6,0,P|253:240|259:280,1,83.375001590252,12|0,0:1|0:0,0:0:0:0:
319,356,61779,1,8,0:0:0:0:
319,356,61946,2,0,P|377:341|413:339,1,83.375001590252,2|10,0:3|0:1,0:0:0:0:
507,251,62279,1,2,0:3:0:0:
507,251,62446,2,0,P|465:246|425:234,1,83.375001590252,8|2,0:0|0:3,0:0:0:0:
333,128,62779,6,0,P|248:113|154:140,1,166.750003180504,6|8,0:0|0:0,0:0:0:0:
29,203,63279,2,0,L|116:213,1,83.375001590252,2|10,0:3|0:1,0:0:0:0:
191,284,63612,1,2,0:3:0:0:
191,284,63779,2,0,L|278:274,1,83.375001590252,8|2,0:0|0:3,0:0:0:0:
445,169,64112,6,0,P|360:140|315:194,1,166.750003180504,12|8,0:1|0:0,0:0:0:0:
457,331,64612,2,0,P|468:276|464:246,1,83.375001590252,6|0,0:0|0:0,0:0:0:0:
323,360,64946,2,0,P|360:317|371:289,1,83.375001590252,4|8,0:3|0:0,0:0:0:0:
132,278,65279,6,0,P|217:307|262:253,1,166.750003180504,12|10,0:1|0:1,0:0:0:0:
164,109,65779,1,8,0:0:0:0:
164,109,65946,2,0,L|152:219,1,83.375001590252,12|0,0:0|0:0,0:0:0:0:
51,258,66279,1,12,0:0:0:0:
51,258,66362,1,0,3:0:0:0:
51,258,66446,2,0,L|29:203,3,41.687500795126,0|0|0|0,3:0|3:0|3:0|3:0,0:0:0:0:
36,194,66779,6,0,P|94:178|142:182,1,83.375001590252,6|2,0:1|0:3,0:0:0:0:
210,237,67112,1,8,0:0:0:0:
210,237,67279,2,0,P|251:234|290:221,1,83.375001590252,2|8,0:3|0:1,0:0:0:0:
366,138,67612,1,2,0:3:0:0:
366,138,67779,2,0,P|350:85|348:44,1,83.375001590252,8|2,0:0|0:3,0:0:0:0:
508,26,68112,6,0,P|510:110|488:198,1,166.750003180504,8|8,0:1|0:0,0:0:0:0:
402,283,68612,1,2,0:3:0:0:
292,196,68779,2,0,B|237:186|237:186|197:205,1,83.375001590252,10|2,0:1|0:3,0:0:0:0:
89,272,69112,2,0,B|144:282|144:282|168:270,1,83.375001590252,8|2,0:0|0:3,0:0:0:0:
46,188,69446,6,0,P|-1:263|36:353,1,166.750003180504,6|8,0:0|0:0,0:0:0:0:
172,353,69946,1,2,0:3:0:0:
172,353,70112,2,0,P|167:302|170:258,1,83.375001590252,8|2,0:1|0:3,0:0:0:0:
252,191,70446,2,0,P|257:140|254:96,1,83.375001590252,8|2,0:0|0:3,0:0:0:0:
102,18,70779,6,0,P|86:104|98:187,1,166.750003180504,8|8,0:1|0:0,0:0:0:0:
168,269,71279,1,4,0:3:0:0:
252,191,71446,5,12,0:0:0:0:
221,350,71612,1,12,0:0:0:0:
255,107,71946,6,0,B|306:86|306:86|419:120,1,166.750003180504,12|2,0:1|0:3,0:0:0:0:
506,198,72446,1,8,0:0:0:0:
506,198,72612,2,0,P|461:202|411:224,1,83.375001590252,2|8,0:3|0:1,0:0:0:0:
329,297,72946,1,2,0:3:0:0:
329,296,73112,2,0,P|370:300|409:314,1,83.375001590252,8|2,0:0|0:3,0:0:0:0:
241,360,73446,5,6,0:0:0:0:
241,360,73612,2,0,L|224:278,1,83.375001590252,2|8,0:3|0:0,0:0:0:0:
135,181,73946,2,0,L|102:349,1,166.750003180504,2|2,0:3|0:3,0:0:0:0:
260,370,74446,2,0,L|243:286,1,83.375001590252,8|0,0:0|3:0,0:0:0:0:
118,167,74779,6,0,L|78:349,1,166.750003180504,12|8,0:1|0:0,0:0:0:0:
180,378,75279,1,2,0:3:0:0:
211,254,75446,2,0,P|254:245|296:248,1,83.375001590252,8|10,0:1|0:1,0:0:0:0:
379,317,75779,1,8,0:0:0:0:
341,174,75946,6,0,P|405:142|480:215,1,166.750003180504,6|10,0:0|0:1,0:0:0:0:
506,296,76446,2,0,L|498:341,2,41.687500795126,8|8|6,0:0|0:0|0:0,0:0:0:0:
478,46,76946,6,0,P|392:65|306:69,1,166.750003180504,14|0,0:1|0:0,0:0:0:0:
192,30,77446,1,6,0:1:0:0:
192,30,78612,2,0,L|199:100,1,54.3750020742417,6|0,0:0|0:0,0:0:0:0:
275,160,78946,2,0,L|268:230,1,54.3750020742417,6|0,0:0|0:0,0:0:0:0:
92,332,80112,6,0,P|45:328|8:331,1,72.5,12|2,0:1|0:3,0:0:0:0:
162,270,80446,1,8,0:0:0:0:
162,270,80612,2,0,P|123:243|89:227,1,72.5,2|8,0:3|0:1,0:0:0:0:
253,251,80946,2,0,P|232:208|211:177,1,72.5,2|8,0:3|0:0,0:0:0:0:
121,128,81279,1,2,0:3:0:0:
240,29,81446,6,0,P|260:71|281:102,1,72.5,8|2,0:1|0:3,0:0:0:0:
219,187,81779,2,0,P|257:213|291:229,1,72.5,8|2,0:0|0:3,0:0:0:0:
398,266,82112,1,8,0:1:0:0:
398,266,82196,1,0,0:0:0:0:
398,266,82279,2,0,L|444:258,1,36.25,2|0,0:3|0:0,0:0:0:0:
498,178,82446,2,0,L|450:173,3,36.25,8|0|2|0,0:0|0:0|3:0|3:0,0:0:0:0:
441,169,82779,6,0,P|414:137|400:84,1,72.5,12|2,0:1|0:3,0:0:0:0:
321,209,83112,1,8,0:0:0:0:
321,209,83279,2,0,P|313:167|327:114,1,72.5,2|8,0:3|0:1,0:0:0:0:
197,183,83612,2,0,P|211:143|250:104,1,72.5,2|8,0:3|0:0,0:0:0:0:
322,44,83946,1,2,0:3:0:0:
137,80,84112,6,0,P|115:51|103:16,1,72.5,8|2,0:1|0:3,0:0:0:0:
96,154,84446,2,0,P|63:140|36:116,1,72.5,12|2,0:0|0:0,0:0:0:0:
101,240,84779,1,8,0:1:0:0:
101,240,84862,1,0,0:0:0:0:
101,240,84946,2,0,P|65:238|51:234,1,36.25,2|0,3:0|3:0,0:0:0:0:
161,304,85112,2,0,P|197:302|211:298,3,36.25,8|0|0|0,3:2|3:0|3:0|3:0,0:0:0:0:
222,296,85446,5,12,0:0:0:0:
84,346,85612,1,8,0:0:0:0:
364,342,85946,1,8,0:0:0:0:
187,123,86279,1,8,0:0:0:0:
204,269,86446,6,0,B|224:354|224:354|240:292,1,145,12|0,0:1|0:0,0:0:0:0:
