osu file format v14

[General]
AudioFilename: audio.mp3
AudioLeadIn: 0
PreviewTime: 262336
Countdown: 0
SampleSet: Soft
StackLeniency: 0.4
Mode: 0
LetterboxInBreaks: 0
WidescreenStoryboard: 1

[Editor]
DistanceSpacing: 1.8
BeatDivisor: 8
GridSize: 4
TimelineZoom: 2.959999

[Metadata]
Title:Hoshi no Utsuwa
TitleUnicode:星のうつわ
Artist:SUKIMASWITCH
ArtistUnicode:スキマスイッチ
Creator:-Lian-
Version:Eternal Love
Source:THE LAST -NARUTO THE MOVIE-
Tags:ザ・ラスト ナルト・ザ・ムービー Hoshinoutsuwa theme song ending ed anime japanese jpop pop lian2002 sukima switch shippuden 疾風伝 uzumaki naruto うずまき hyuga hinata 日向ヒナタ 岸本斉史 kishimoto masashi うちはサスケ uchiha sasuke 春野サクラ haruno sakura はたけカカシ hatake kakashi サイ sai 奈良シカマル nara shikamaru 大筒木トネリ otsutsuki toneri
BeatmapID:1826073
BeatmapSetID:873632

[Difficulty]
HPDrainRate:5
CircleSize:3.5
OverallDifficulty:8
ApproachRate:9
SliderMultiplier:1.4
SliderTickRate:1

[Events]
//Background and Video events
Video,-160,"video.mp4"
0,0,"naruhina.jpg",0,0
//Break Periods
//Storyboard Layer 0 (Background)
//Storyboard Layer 1 (Fail)
//Storyboard Layer 2 (Pass)
//Storyboard Layer 3 (Foreground)
//Storyboard Layer 4 (Overlay)
//Storyboard Sound Samples

[TimingPoints]
1760,712.589073634204,4,2,1,5,1,8
2472,-100,4,2,1,6,0,0
3185,-100,4,2,1,7,0,0
3897,-100,4,2,1,10,0,0
4610,-100,4,2,1,15,0,0
5322,-100,4,2,1,20,0,0
6035,-100,4,2,1,25,0,0
6510,720.288115246098,4,2,1,30,1,8
7230,738.007380073801,4,2,1,30,1,8
7968,720.288115246098,4,2,1,30,1,8
8688,823.045267489712,4,2,1,30,1,8
11157,734.394124847001,4,2,1,30,1,8
11891,785.340314136126,4,2,1,30,1,8
12676,744.416873449132,4,2,1,30,1,8
13420,934.579439252336,4,2,1,30,1,8
15522,609.137055837563,4,2,1,40,1,8
15674,740.740740740741,4,2,1,40,1,8
15859,-100,4,2,1,35,0,0
16414,-66.6666666666667,4,2,1,35,0,0
17155,740.740740740741,4,2,1,50,1,0
17155,-71.4285714285714,3,2,1,40,0,0
18451,-66.6666666666667,3,2,1,40,0,0
19377,-71.4285714285714,3,2,1,40,0,0
22710,-62.5,3,2,1,40,0,0
24562,-66.6666666666667,3,2,1,40,0,0
27895,-71.4285714285714,3,2,1,40,0,0
37895,-71.4285714285714,3,2,1,45,0,0
40858,-55.5555555555556,3,2,1,50,0,0
41599,-66.6666666666667,3,2,1,50,0,0
42340,-55.5555555555556,3,2,1,50,0,0
43080,-66.6666666666667,3,2,1,50,0,0
45303,-55.5555555555556,3,2,1,50,0,0
49377,-66.6666666666667,3,2,1,50,0,0
51043,-55.5555555555556,3,2,1,50,0,0
51599,-66.6666666666667,3,2,1,50,0,0
52155,-55.5555555555556,3,2,1,50,0,0
56969,-66.6666666666667,3,2,1,50,0,0
58636,-55.5555555555556,3,2,1,50,0,0
59006,-66.6666666666667,3,2,1,50,0,0
64192,-55.5555555555556,3,2,1,50,0,0
64562,-45.4545454545455,3,2,1,60,0,0
65303,-66.6666666666667,3,2,1,60,0,0
65858,-55.5555555555556,3,2,1,60,0,0
69747,-66.6666666666667,3,2,1,60,0,0
72340,-55.5555555555556,3,2,1,60,0,0
72895,-66.6666666666667,3,2,1,60,0,0
75303,-83.3333333333333,3,2,1,60,0,0
75673,-45.4545454545455,3,2,1,60,0,0
76043,-100,3,2,1,60,0,0
76414,-43.4782608695652,3,2,1,60,0,0
76784,-66.6666666666667,3,2,1,60,0,0
78636,-55.5555555555556,3,2,1,60,0,0
80117,-55.5555555555556,3,2,1,60,0,0
82340,-55.5555555555556,3,2,1,65,0,0
88266,-55.5555555555556,3,2,1,70,0,0
89377,-125,3,2,1,70,0,0
90488,-100,3,2,1,70,0,0
90858,-90.9090909090909,3,2,1,70,0,0
91136,-100,3,2,1,5,0,0
91229,-50,3,2,1,75,0,1
114932,-66.6666666666667,3,2,1,40,0,0
126784,-66.6666666666667,3,2,1,45,0,0
128266,-80,3,2,1,45,0,0
129747,-55.5555555555556,3,2,1,50,0,0
130487,-66.6666666666667,3,2,1,50,0,0
131228,-55.5555555555556,3,2,1,50,0,0
131969,-66.6666666666667,3,2,1,50,0,0
134191,-55.5555555555556,3,2,1,50,0,0
144561,-66.6666666666667,3,2,1,50,0,0
146043,-55.5555555555556,3,2,1,50,0,0
153450,-55.5555555555556,3,2,1,60,0,0
165302,-55.5555555555556,3,2,1,60,0,0
171228,-54.054054054054,3,2,1,65,0,0
177154,-54.054054054054,3,2,1,70,0,0
177339,-52.6315789473684,3,2,1,70,0,0
178265,-100,3,2,1,70,0,0
179376,-125,3,2,1,70,0,0
179747,-66.6666666666667,3,2,1,70,0,0
180117,-43.4782608695652,3,2,1,80,0,1
203821,-52.6315789473684,3,2,1,70,0,0
209746,759.493670886076,4,2,1,70,1,8
209746,-52.6315789473684,4,2,1,70,0,8
210505,733.998825601879,4,2,1,70,1,8
210505,-52.6315789473684,4,2,1,70,0,8
211238,734.034744311231,4,2,1,70,1,8
211238,-52.6315789473684,4,2,1,70,0,8
212339,740.740740740741,4,2,1,70,1,8
212339,-52.6315789473684,4,2,1,70,0,8
212709,740.740740740741,4,2,1,70,1,8
212709,-52.6315789473684,4,2,1,70,0,8
214931,-50,3,2,1,70,0,0
215671,-52.6315789473684,3,2,1,70,0,0
218264,-43.4782608695652,3,2,1,70,0,0
219005,-52.6315789473684,3,2,1,70,0,0
224190,-40,3,2,1,70,0,0
224931,-52.6315789473684,3,2,1,70,0,0
227153,-50,3,2,1,70,0,0
228264,-50,3,2,1,72,0,0
228634,-62.5,3,2,1,74,0,0
229005,-58.8235294117647,3,2,1,76,0,0
229375,-55.5555555555556,3,2,1,78,0,0
229746,-52.6315789473684,3,2,1,80,0,0
230486,-52.6315789473684,3,2,1,80,0,0
230857,-52.6315789473684,3,2,1,75,0,0
231227,-52.6315789473684,3,2,1,70,0,0
231597,-52.6315789473684,3,2,1,65,0,0
231968,-52.6315789473684,3,2,1,60,0,0
232338,-52.6315789473684,3,2,1,55,0,0
232709,-52.6315789473684,3,2,1,50,0,0
233079,-52.6315789473684,3,2,1,45,0,0
233449,-83.3333333333333,3,2,1,40,0,0
244561,-100,4,2,1,45,0,0
245301,-71.4285714285714,3,2,1,50,0,0
251227,-50,3,2,1,60,0,0
254190,-45.4545454545455,3,2,1,70,0,0
257153,-41.6666666666667,3,2,1,80,0,0
261598,-41.6666666666667,3,2,1,70,0,0
262338,-41.6666666666667,3,2,1,60,0,0
263079,-62.5,3,2,1,50,0,0
263634,-71.4285714285714,3,2,1,50,0,0
264375,-83.3333333333333,3,2,1,50,0,0
265301,-100,3,2,1,60,0,0
265672,-66.6666666666667,3,2,1,70,0,0
266042,-40,3,2,1,85,0,1
288264,-50,3,2,1,85,0,0
289746,-45.4545454545455,3,2,1,70,0,1
298634,-41.6666666666667,3,2,1,75,0,1
299004,-41.6666666666667,3,2,1,80,0,1
299375,-41.6666666666667,3,2,1,85,0,1
300102,740.740740740741,4,2,1,85,1,9
301213,769.230769230769,4,2,1,85,1,9
301597,740.740740740741,4,2,1,85,1,1
301597,-45.4545454545455,3,2,1,80,0,1
313448,-55.5555555555556,3,2,1,70,0,0
314189,-55.5555555555556,3,2,1,60,0,0
314930,-55.5555555555556,3,2,1,50,0,0
315671,-55.5555555555556,3,2,1,40,0,0
316411,-55.5555555555556,3,2,1,30,0,0
317152,-55.5555555555556,3,2,1,20,0,0
317708,-55.5555555555556,3,2,1,5,0,0
317893,758.533501896334,4,2,1,30,1,8
318651,731.707317073171,4,2,1,30,1,8
319382,737.100737100737,4,2,1,30,1,8
320119,770.218228498074,4,2,1,30,1,8
322429,802.139037433155,4,2,1,30,1,8
323231,946.372239747634,4,2,1,30,1,8
324177,1237.11340206186,4,2,1,30,1,8
325414,1010.10101010101,4,2,1,30,1,0
326424,-100,4,2,1,25,0,0
327434,-100,4,2,1,20,0,0
328444,-100,4,2,1,15,0,0
329454,-100,4,2,1,10,0,0
330464,-100,4,2,1,9,0,0
330969,-100,4,2,1,8,0,0
331474,-100,4,2,1,7,0,0
331979,-100,4,2,1,6,0,0
332484,-100,4,2,1,5,0,0

[Colours]
Combo1 : 210,166,255
Combo2 : 255,255,128
Combo3 : 128,255,255
Combo4 : 255,128,192
Combo5 : 255,157,111
Combo6 : 207,158,158

[HitObjects]
256,192,1760,12,0,6035,0:0:0:0:
30,364,6480,5,2,0:0:0:0:
128,348,7230,1,2,0:0:0:0:
226,331,7968,1,2,0:0:0:0:
353,366,8688,5,2,0:0:0:0:
477,162,11157,5,2,0:0:0:0:
400,94,11891,1,2,0:0:0:0:
309,135,12676,1,2,0:0:0:0:
212,46,13420,5,2,0:0:0:0:
41,149,15522,5,2,0:2:0:0:
41,149,15598,1,2,0:2:0:0:
41,149,15674,1,2,1:2:0:0:
24,239,15859,6,0,P|60:264|83:303,1,81.6666666666667,4|8,2:2|0:3,0:0:0:0:
90,295,16353,1,8,0:3:0:0:
100,300,16414,2,0,L|109:248,1,52.5000020027161,8|8,0:3|0:3,0:0:0:0:
189,262,16785,2,0,L|179:313,1,52.5000020027161,4|8,0:3|0:3,0:0:0:0:
259,353,17155,6,0,L|276:256,1,97.9999970092774,4|2,3:2|3:2,0:0:0:0:
310,133,17895,2,0,L|318:181,1,48.9999985046387,0|0,1:0|0:0,0:0:0:0:
381,243,18266,1,2,0:0:0:0:
381,243,18451,2,0,L|432:233,2,52.5000020027161,0|0|0,1:0|2:0|1:0,0:0:0:0:
395,336,19006,2,0,L|446:326,1,52.5000020027161,2|0,3:2|0:0,0:0:0:0:
510,266,19377,2,0,P|510:204|474:164,1,97.9999970092774,0|2,1:0|3:2,0:0:0:0:
398,56,19932,1,0,1:0:0:0:
398,56,20025,1,0,1:0:0:0:
398,56,20117,6,0,L|346:46,1,48.9999985046387,4|0,3:2|0:0,0:0:0:0:
311,126,20488,2,0,L|301:178,1,48.9999985046387,2|0,3:2|0:0,0:0:0:0:
407,144,20858,2,0,L|310:125,1,97.9999970092774,0|2,1:0|3:0,0:0:0:0:
223,140,21414,2,0,L|232:91,1,48.9999985046387,0|0,1:0|0:0,0:0:0:0:
104,33,21784,1,0,1:0:0:0:
121,119,21969,2,0,L|144:240,1,97.9999970092774,2|0,3:2|1:0,0:0:0:0:
85,285,22525,1,0,0:0:0:0:
11,233,22710,2,0,P|31:212|63:197,1,56,2|0,3:0|1:0,0:0:0:0:
99,199,22988,1,0,1:0:0:0:
139,215,23080,6,0,P|159:237|172:278,1,56,4|0,3:2|0:0,0:0:0:0:
93,376,23451,2,0,P|39:365|3:320,2,112,2|0|2,3:2|1:0|3:0,0:0:0:0:
167,324,24377,1,0,1:0:0:0:
167,324,24562,2,0,L|218:314,1,52.5000020027161,0|0,0:0|1:0,0:0:0:0:
346,357,24932,2,0,P|320:353|296:344,1,52.5000020027161,2|0,3:2|0:0,0:0:0:0:
416,304,25303,2,0,P|416:238|379:197,1,105.000004005432,0|2,1:0|3:0,0:0:0:0:
324,161,25858,1,0,1:0:0:0:
324,161,25951,1,0,1:0:0:0:
324,161,26043,6,0,P|364:130|437:139,1,105.000004005432,4|2,3:2|3:0,0:0:0:0:
336,270,26784,2,0,L|283:279,1,52.5000020027161,0|0,1:0|0:0,0:0:0:0:
203,253,27155,1,2,3:0:0:0:
162,179,27340,2,0,L|109:169,2,52.5000020027161,0|0|0,1:0|0:0|1:0,0:0:0:0:
214,108,27895,2,0,P|216:60|193:18,2,97.9999970092774,2|0|2,3:2|1:0|3:0,0:0:0:0:
162,179,28821,1,0,1:0:0:0:
162,179,28914,1,0,1:0:0:0:
162,179,29006,6,0,L|174:229,1,48.9999985046387,4|0,3:2|0:0,0:0:0:0:
85,233,29377,2,0,L|72:280,1,48.9999985046387,2|0,3:2|0:0,0:0:0:0:
63,147,29747,2,0,P|38:105|39:56,1,97.9999970092774,0|2,1:0|3:0,0:0:0:0:
195,17,30303,2,0,P|218:59|216:107,1,97.9999970092774,0|0,1:0|1:0,0:0:0:0:
163,219,30858,2,0,L|151:172,1,48.9999985046387,2|0,3:2|0:0,0:0:0:0:
63,147,31229,2,0,L|15:134,2,48.9999985046387,0|0|2,1:0|0:0|3:0,0:0:0:0:
151,172,31784,1,0,1:0:0:0:
151,172,31877,1,0,1:0:0:0:
151,172,31969,6,0,L|231:188,1,48.9999985046387,4|0,3:2|0:0,0:0:0:0:
85,233,32340,2,0,L|5:249,1,48.9999985046387,2|0,3:0|0:0,0:0:0:0:
95,330,32710,2,0,L|208:352,1,97.9999970092774,0|2,1:0|3:0,0:0:0:0:
333,250,33266,2,0,P|282:249|236:282,1,97.9999970092774,0|0,1:0|1:0,0:0:0:0:
413,298,33821,2,0,P|426:248|409:194,2,97.9999970092774,2|0|2,3:2|1:0|3:0,0:0:0:0:
320,381,34747,1,0,1:0:0:0:
320,381,34840,1,0,1:0:0:0:
320,381,34932,6,0,L|305:316,1,48.9999985046387,4|0,3:2|0:0,0:0:0:0:
242,274,35303,2,0,L|257:209,1,48.9999985046387,2|0,3:0|0:0,0:0:0:0:
319,167,35673,2,0,P|287:145|214:145,1,97.9999970092774,0|2,1:0|3:0,0:0:0:0:
119,80,36229,1,0,1:0:0:0:
119,80,36414,2,0,L|168:72,1,48.9999985046387,0|0,0:0|1:0,0:0:0:0:
46,137,36784,2,0,P|27:89|39:34,1,97.9999970092774,6|0,3:2|1:0,0:0:0:0:
119,80,37340,5,8,0:3:0:0:
119,80,37525,1,2,3:2:0:0:
154,170,37895,5,6,3:2:0:0:
137,188,38266,1,2,0:0:0:0:
116,170,38636,1,2,0:0:0:0:
133,146,39006,1,2,0:0:0:0:
133,146,39192,6,0,L|95:135,2,24.4999992523194,0|0|0,3:0|3:0|1:0,0:0:0:0:
214,209,39562,5,8,0:3:0:0:
227,59,39932,5,8,0:3:0:0:
227,59,40117,1,4,0:3:0:0:
306,188,40488,5,8,0:3:0:0:
227,59,40858,6,0,P|243:31|287:5,1,62.9999980773926,6|0,3:2|0:0,0:0:0:0:
353,47,41229,2,0,P|337:75|293:101,1,62.9999980773926,6|0,0:3|0:0,0:0:0:0:
165,130,41599,2,0,L|41:96,1,105.000004005432,0|0,1:0|3:0,0:0:0:0:
227,59,42155,1,0,1:0:0:0:
214,209,42340,2,0,L|234:286,1,62.9999980773926,6|0,0:3|0:0,0:0:0:0:
138,258,42710,2,0,L|158:335,1,62.9999980773926,6|0,0:3|0:0,0:0:0:0:
53,226,43080,6,0,P|84:184|132:167,1,105.000004005432,0|0,1:0|3:0,0:0:0:0:
163,347,43636,1,2,1:2:0:0:
163,347,43729,1,0,1:0:0:0:
163,347,43821,2,0,P|115:347|66:314,1,105.000004005432,2|2,3:0|3:0,0:0:0:0:
138,258,44377,1,2,0:0:0:0:
267,319,44562,2,0,L|385:298,1,105.000004005432,0|2,1:0|3:0,0:0:0:0:
429,369,45117,1,2,1:2:0:0:
429,369,45303,6,0,P|453:337|459:296,1,62.9999980773926,0|0,3:0|1:0,0:0:0:0:
400,246,45673,2,0,P|376:278|370:319,1,62.9999980773926,0|0,3:0|0:0,0:0:0:0:
485,220,46043,2,0,P|446:168|377:156,1,125.999996154785,2|2,1:2|3:2,0:0:0:0:
310,109,46599,1,2,1:2:0:0:
310,109,46692,1,0,1:0:0:0:
310,109,46784,2,0,P|333:84|373:67,1,62.9999980773926,6|2,0:3|0:0,0:0:0:0:
311,202,47155,2,0,P|253:181|220:125,1,125.999996154785,6|0,0:3|1:0,0:0:0:0:
142,103,47710,6,0,P|117:122|87:131,1,62.9999980773926,0|2,0:0|3:0,0:0:0:0:
4,97,48080,1,2,1:2:0:0:
4,97,48266,2,0,P|-3:129|4:164,1,62.9999980773926,4|2,0:3|0:0,0:0:0:0:
99,223,48636,2,0,P|62:173|2:159,1,125.999996154785,6|0,0:3|1:0,0:0:0:0:
14,250,49192,1,0,0:0:0:0:
66,363,49377,2,0,L|86:285,1,52.5000020027161,0|0,3:0|1:0,0:0:0:0:
165,285,49747,6,0,L|288:251,1,105.000004005432,6|2,0:3|3:0,0:0:0:0:
351,230,50303,1,2,0:0:0:0:
344,380,50488,2,0,L|220:346,1,105.000004005432,0|2,1:0|3:0,0:0:0:0:
335,198,51043,2,0,P|353:230|356:262,1,62.9999980773926,2|0,1:2|3:0,0:0:0:0:
263,248,51414,1,0,1:0:0:0:
172,224,51599,2,0,P|199:180|246:158,1,105.000004005432,0|2,3:0|1:2,0:0:0:0:
421,226,52155,5,6,0:3:0:0:
424,316,52340,2,0,P|404:341|378:358,1,62.9999980773926,10|2,0:3|3:0,0:0:0:0:
420,226,52710,2,0,P|451:228|479:244,1,62.9999980773926,6|0,0:3|0:0,0:0:0:0:
341,272,53080,2,0,P|327:212|355:158,1,125.999996154785,6|0,0:3|1:0,0:0:0:0:
353,69,53636,2,0,P|386:74|416:92,1,62.9999980773926,0|0,0:0|3:0,0:0:0:0:
354,158,54006,1,0,1:0:0:0:
275,116,54192,6,0,P|263:84|263:55,1,62.9999980773926,6|0,0:3|0:0,0:0:0:0:
354,158,54562,2,0,P|332:185|299:204,1,62.9999980773926,6|0,0:3|1:0,0:0:0:0:
353,69,54932,1,0,1:0:0:0:
212,108,55303,2,0,L|275:116,1,62.9999980773926,2|2,3:0|1:2,0:0:0:0:
151,178,55673,2,0,L|27:200,1,125.999996154785,6|2,0:3|3:0,0:0:0:0:
132,62,56229,1,2,0:0:0:0:
132,62,56414,6,0,P|121:123|151:178,1,125.999996154785,0|2,1:0|3:0,0:0:0:0:
294,71,56969,2,0,P|260:30|205:17,1,105.000004005432,2|0,1:2|1:0,0:0:0:0:
356,144,57525,2,0,L|434:130,1,52.5000020027161,0|2,3:0|0:0,0:0:0:0:
294,71,57895,1,0,1:2:0:0:
215,119,58080,1,2,0:0:0:0:
226,208,58266,1,2,3:0:0:0:
316,224,58451,1,2,1:2:0:0:
316,224,58543,1,0,1:0:0:0:
316,224,58636,6,0,L|302:302,1,62.9999980773926,6|0,0:3|0:0,0:0:0:0:
201,304,59006,2,0,L|304:285,1,105.000004005432,6|2,0:3|1:2,0:0:0:0:
446,369,59562,2,0,L|394:378,1,52.5000020027161,0|2,0:0|3:0,0:0:0:0:
314,337,59932,1,2,1:2:0:0:
314,337,60117,2,0,L|304:285,1,52.5000020027161,4|2,0:3|0:0,0:0:0:0:
384,235,60488,2,0,L|398:310,1,52.5000020027161,6|0,0:3|0:0,0:0:0:0:
466,189,60858,6,0,P|448:141|394:149,1,105.000004005432,0|0,1:0|3:0,0:0:0:0:
286,91,61414,1,0,1:0:0:0:
286,91,61506,1,0,1:0:0:0:
286,91,61599,2,0,B|305:122|305:122|292:191,1,105.000004005432,6|2,0:3|3:0,0:0:0:0:
211,147,62155,1,2,0:0:0:0:
201,51,62340,2,0,P|239:11|309:5,1,105.000004005432,0|2,1:0|3:0,0:0:0:0:
211,147,62895,6,0,L|167:156,2,26.2500010013581,2|0|0,1:2|1:0|3:0,0:0:0:0:
286,91,63266,1,0,1:0:0:0:
200,51,63451,1,4,3:2:0:0:
249,229,63821,6,0,L|264:293,1,52.5000020027161,2|4,1:2|0:3,0:0:0:0:
171,268,64192,6,0,P|217:263|261:281,1,94.499997116089,10|0,0:3|0:0,0:0:0:0:
377,212,64562,6,0,P|303:219|260:280,1,154.000004699707,6|2,3:2|3:0,0:0:0:0:
349,297,65117,1,2,0:0:0:0:
465,190,65303,2,0,P|437:143|384:120,1,105.000004005432,0|2,1:0|3:0,0:0:0:0:
349,297,65858,2,0,L|362:375,1,62.9999980773926,2|0,1:2|3:0,0:0:0:0:
446,375,66229,1,0,1:0:0:0:
450,286,66414,2,0,P|391:305|359:358,1,125.999996154785,0|2,3:0|1:2,0:0:0:0:
282,301,66969,5,2,0:0:0:0:
297,211,67155,2,0,L|311:133,1,62.9999980773926,2|2,3:0|1:2,0:0:0:0:
161,115,67525,1,0,3:0:0:0:
176,205,67710,2,0,L|199:352,1,125.999996154785,2|0,0:0|0:0,0:0:0:0:
91,285,68266,2,0,P|152:285|196:329,1,125.999996154785,2|2,1:2|3:0,0:0:0:0:
55,368,68821,5,0,1:0:0:0:
55,368,68914,1,0,1:0:0:0:
55,368,69006,1,2,3:0:0:0:
0,297,69192,1,0,1:0:0:0:
35,213,69377,1,2,3:0:0:0:
151,63,69747,6,0,L|164:141,1,52.5000020027161,2|0,1:2|0:0,0:0:0:0:
276,115,70117,2,0,L|262:193,1,52.5000020027161,2|2,3:0|1:2,0:0:0:0:
345,236,70488,2,0,L|455:216,1,105.000004005432,0|2,3:0|3:0,0:0:0:0:
404,134,71043,1,2,0:0:0:0:
404,134,71229,2,0,L|352:143,1,52.5000020027161,0|2,1:0|0:0,0:0:0:0:
276,87,71599,1,0,3:0:0:0:
347,23,71784,1,2,1:2:0:0:
347,23,71877,1,0,1:0:0:0:
347,23,71969,6,0,L|398:32,1,52.5000020027161,0|0,3:0|1:0,0:0:0:0:
276,87,72340,2,0,P|259:152|293:217,1,125.999996154785,2|0,3:0|1:0,0:0:0:0:
225,279,72895,2,0,L|173:288,1,52.5000020027161,2|0,0:0|3:0,0:0:0:0:
267,361,73266,1,2,1:2:0:0:
267,361,73358,1,0,1:0:0:0:
267,361,73451,1,0,3:0:0:0:
225,279,73636,1,2,0:0:0:0:
289,215,73821,2,0,L|399:234,1,105.000004005432,2|2,3:0|1:2,0:0:0:0:
407,148,74377,5,0,0:0:0:0:
407,148,74562,2,0,L|355:138,1,52.5000020027161,2|0,3:0|1:0,0:0:0:0:
346,50,74932,6,0,L|278:76,1,52.5000020027161,0|0,3:0|1:0,0:0:0:0:
217,29,75303,6,0,L|208:71,1,41.9999987182618,2|0,3:0|0:0,0:0:0:0:
126,159,75673,6,0,P|164:164|207:198,1,77.0000023498536,6|0,1:2|0:0,0:0:0:0:
408,210,76043,6,0,P|377:210|346:221,1,52.5,2|0,3:2|2:0,0:0:0:0:
320,241,76414,6,0,P|350:187|335:121,1,120.750002303124,6|0,3:2|0:0,0:0:0:0:
303,113,76784,1,2,3:0:0:0:
231,259,76969,1,2,0:0:0:0:
290,327,77155,2,0,L|353:338,1,52.5000020027161,0|0,1:0|0:0,0:0:0:0:
320,242,77525,1,2,3:0:0:0:
201,344,77710,1,2,1:2:0:0:
201,344,77803,1,0,1:0:0:0:
201,344,77895,2,0,L|149:334,1,52.5000020027161,0|0,3:0|1:0,0:0:0:0:
81,277,78266,2,0,L|29:286,1,52.5000020027161,0|2,3:0|0:0,0:0:0:0:
148,217,78636,6,0,P|169:275|144:339,1,125.999996154785,2|2,1:2|3:0,0:0:0:0:
81,277,79192,1,2,1:2:0:0:
60,184,79377,2,0,P|108:131|182:130,1,125.999996154785,2|2,3:0|3:0,0:0:0:0:
249,168,79932,1,2,0:0:0:0:
192,34,80117,2,0,P|222:51|249:96,1,62.9999980773926,0|2,1:0|0:0,0:0:0:0:
324,106,80488,2,0,L|402:92,1,62.9999980773926,2|0,3:0|1:0,0:0:0:0:
501,36,80858,2,0,L|438:25,1,62.9999980773926,0|0,3:0|1:0,0:0:0:0:
460,139,81229,2,0,P|472:83|439:25,1,125.999996154785,2|0,3:0|1:0,0:0:0:0:
394,206,81969,5,8,2:3:0:0:
394,206,82340,6,0,L|429:332,1,125.999996154785,6|2,3:2|3:0,0:0:0:0:
277,260,83080,2,0,L|246:390,1,125.999996154785,2|2,1:2|3:0,0:0:0:0:
105,221,83821,2,0,L|138:344,1,125.999996154785,6|0,1:2|3:0,0:0:0:0:
129,205,84377,1,0,3:0:0:0:
155,197,84562,6,0,L|132:331,1,125.999996154785,6|6,1:2|0:3,0:0:0:0:
73,384,85117,1,0,1:0:0:0:
0,336,85303,1,4,3:2:0:0:
253,187,85673,5,0,3:0:0:0:
159,58,86043,1,0,1:2:0:0:
253,187,86414,5,0,3:0:0:0:
159,156,86599,1,0,1:0:0:0:
159,58,86784,1,0,3:0:0:0:
253,28,86969,1,4,0:3:0:0:
310,107,87155,1,8,0:3:0:0:
310,107,87525,5,4,0:3:0:0:
391,58,87710,1,8,0:3:0:0:
457,129,87895,1,4,0:3:0:0:
411,223,88080,1,0,3:0:0:0:
319,205,88266,5,6,3:2:0:0:
350,319,88451,1,2,3:0:0:0:
221,230,88636,1,0,1:0:0:0:
254,344,88821,1,6,3:2:0:0:
74,384,89192,5,2,3:0:0:0:
155,314,89377,2,0,B|45:288,1,112,6|8,3:2|2:3,0:0:0:0:
146,183,90488,6,0,L|157:230,1,35,2|0,1:2|1:0,0:0:0:0:
102,110,90858,6,0,P|132:97|158:98,1,57.7500017623902,2|0,1:2|2:0,0:0:0:0:
258,200,91229,6,0,L|154:218,2,105,6|2|0,3:2|0:0|0:0,0:0:0:0:
366,67,91969,2,0,P|316:61|258:96,2,105,2|2|2,1:2|0:2|0:2,0:0:0:0:
459,91,92710,2,0,L|477:4,1,70,2|0,3:2|1:0,0:0:0:0:
333,147,93080,2,0,L|348:218,1,70,2|0,3:0|3:0,0:0:0:0:
364,303,93451,2,0,P|409:279|432:183,1,140,2|2,1:2|3:0,0:0:0:0:
347,215,94006,1,2,1:2:0:0:
270,271,94192,6,0,L|252:392,2,105,6|2|2,3:2|0:0|0:0,0:0:0:0:
105,230,94932,2,0,L|127:359,2,105,2|2|2,1:2|0:0|0:0,0:0:0:0:
156,149,95673,2,0,L|83:134,1,70,2|0,3:2|1:0,0:0:0:0:
197,69,96043,2,0,L|282:52,1,70,2|0,3:0|3:0,0:0:0:0:
156,149,96414,2,0,P|113:88|123:24,1,140,2|2,1:2|3:0,0:0:0:0:
197,69,96969,1,0,1:0:0:0:
243,148,97155,6,0,L|219:258,2,105,6|2|2,3:2|0:0|0:0,0:0:0:0:
430,168,97895,2,0,P|381:218|313:218,1,140,2|0,1:2|0:0,0:0:0:0:
329,68,98451,1,2,1:2:0:0:
329,68,98543,1,0,1:2:0:0:
329,68,98636,2,0,P|329:100|347:138,1,70,2|0,3:0|1:0,0:0:0:0:
510,130,99006,2,0,P|517:54|464:-7,2,140,2|2|2,3:0|1:2|3:0,0:0:0:0:
430,168,99932,1,2,1:2:0:0:
430,168,100025,1,0,1:0:0:0:
430,168,100117,6,0,L|465:275,2,105,6|2|2,3:2|0:0|0:0,0:0:0:0:
356,226,100858,2,0,L|387:322,1,70,2|0,1:2|0:0,0:0:0:0:
279,270,101229,2,0,L|302:347,1,70,2|2,0:0|0:0,0:0:0:0:
160,200,101599,5,6,3:2:0:0:
72,229,101784,1,0,1:0:0:0:
72,321,101969,1,2,3:2:0:0:
214,275,102155,1,2,3:2:0:0:
72,229,102340,6,0,L|-3:205,1,70,8|0,1:3|3:0,0:0:0:0:
214,275,102710,1,10,2:3:0:0:
160,349,102895,1,6,3:0:0:0:
160,200,103080,6,0,L|188:76,2,105,6|2|2,3:2|0:0|0:0,0:0:0:0:
100,63,103821,2,0,P|135:23|203:13,2,105,2|2|2,1:2|0:2|0:2,0:0:0:0:
183,97,104562,2,0,L|258:115,1,70,2|0,3:0|1:0,0:0:0:0:
328,249,104932,2,0,L|311:179,1,70,2|0,3:0|3:0,0:0:0:0:
440,0,105303,2,0,L|333:102,1,140,2|2,1:2|3:2,0:0:0:0:
328,249,105858,1,0,1:0:0:0:
397,181,106043,6,0,P|447:175|510:220,2,105,6|2|2,3:2|0:0|0:0,0:0:0:0:
240,250,106784,2,0,P|188:245|130:292,2,105,6|2|2,1:2|0:2|0:2,0:0:0:0:
431,313,107525,2,0,L|514:288,1,70,6|0,3:2|1:0,0:0:0:0:
292,356,107895,2,0,L|216:338,1,70,2|0,3:0|3:0,0:0:0:0:
431,313,108266,5,6,1:2:0:0:
342,273,108451,1,2,3:0:0:0:
353,179,108636,1,2,3:0:0:0:
442,159,108821,1,2,1:2:0:0:
493,241,109006,5,6,3:2:0:0:
234,157,109284,1,2,0:0:0:0:
380,87,109562,1,2,0:0:0:0:
442,159,109747,5,2,1:2:0:0:
268,346,110025,1,2,0:0:0:0:
131,208,110303,1,2,0:0:0:0:
169,47,110488,5,2,3:0:0:0:
394,73,110766,1,2,0:0:0:0:
328,270,111043,1,2,0:0:0:0:
206,157,111229,5,2,1:2:0:0:
428,156,111599,5,2,3:0:0:0:
339,176,111784,1,0,3:0:0:0:
328,270,111969,1,4,3:2:0:0:
428,156,112340,5,8,0:3:0:0:
417,310,112710,5,4,0:3:0:0:
339,175,112895,1,4,0:3:0:0:
479,238,113080,1,8,0:3:0:0:
328,270,113266,1,0,3:0:0:0:
428,155,113451,1,4,3:2:0:0:
80,342,114192,5,0,1:0:0:0:
55,242,114377,1,8,0:3:0:0:
177,320,114562,1,0,3:0:0:0:
155,226,114747,1,0,1:0:0:0:
155,226,114840,1,0,1:0:0:0:
155,226,114932,5,4,3:2:0:0:
364,123,115303,1,2,3:0:0:0:
364,123,115673,6,0,P|406:93|457:97,1,105.000004005432,0|2,1:0|3:2,0:0:0:0:
323,207,116229,1,0,1:0:0:0:
323,207,116321,1,0,1:0:0:0:
323,207,116414,2,0,L|271:199,1,52.5000020027161,0|0,3:0|1:0,0:0:0:0:
256,95,116784,2,0,L|272:210,1,105.000004005432,2|0,3:0|1:0,0:0:0:0:
200,261,117340,1,0,2:0:0:0:
200,261,117525,1,2,3:0:0:0:
175,170,117710,1,0,1:0:0:0:
175,170,117803,1,0,1:0:0:0:
175,170,117895,6,0,P|226:170|270:198,1,105.000004005432,0|2,3:0|3:0,0:0:0:0:
125,311,118451,2,0,L|9:294,1,105.000004005432,0|0,1:0|1:0,0:0:0:0:
199,260,119006,2,0,P|211:314|195:364,2,105.000004005432,6|0|2,3:2|3:0|3:2,0:0:0:0:
20,208,120117,6,0,B|9:178|9:178|83:192,1,105.000004005432,0|2,1:2|2:0,0:0:0:0:
165,165,120673,1,0,0:0:0:0:
190,76,120858,2,0,P|138:75|94:103,1,105.000004005432,2|0,3:0|3:0,0:0:0:0:
279,232,121599,2,0,L|227:224,1,52.5000020027161,0|0,1:0|0:0,0:0:0:0:
347,162,121969,1,2,3:0:0:0:
381,302,122155,1,0,1:0:0:0:
381,302,122247,1,0,1:0:0:0:
381,302,122340,6,0,L|329:309,1,52.5000020027161,0|0,3:0|1:0,0:0:0:0:
449,236,122710,2,0,P|473:289|462:345,2,105.000004005432,2|0|2,3:0|1:0|3:0,0:0:0:0:
354,110,123636,1,0,1:0:0:0:
354,110,123729,1,0,1:0:0:0:
354,110,123821,2,0,L|345:173,1,52.5000020027161,0|0,3:0|0:0,0:0:0:0:
242,176,124192,2,0,L|345:161,1,105.000004005432,2|0,3:0|1:0,0:0:0:0:
347,330,124932,5,2,3:0:0:0:
347,330,125117,2,0,L|283:338,1,52.5000020027161,0|0,1:0|3:0,0:0:0:0:
222,276,125488,1,0,1:0:0:0:
222,276,125673,2,0,L|158:267,1,52.5000020027161,2|0,3:0|0:0,0:0:0:0:
66,234,126043,2,0,L|79:345,1,105.000004005432,0|2,1:0|0:0,0:0:0:0:
159,157,126599,5,0,1:0:0:0:
159,157,126692,1,0,1:0:0:0:
159,157,126784,5,2,3:0:0:0:
180,127,126969,1,2,0:0:0:0:
159,97,127155,1,2,0:0:0:0:
124,108,127340,1,2,3:0:0:0:
124,145,127525,6,0,P|176:119|236:143,1,105.000004005432,4|0,1:2|0:0,0:0:0:0:
312,272,128080,5,8,0:3:0:0:
312,272,128173,1,8,0:3:0:0:
312,272,128266,1,10,0:3:0:0:
355,198,128451,1,8,0:3:0:0:
438,216,128636,1,6,0:3:0:0:
448,301,128821,1,0,3:0:0:0:
368,335,129006,1,2,1:2:0:0:
216,174,129377,5,4,0:0:0:0:
316,40,129747,6,0,L|305:111,1,62.9999980773926,6|0,3:2|0:0,0:0:0:0:
162,104,130117,2,0,P|194:90|230:90,1,62.9999980773926,6|0,0:3|0:0,0:0:0:0:
310,204,130488,2,0,P|267:174|215:174,1,105.000004005432,0|0,1:0|3:0,0:0:0:0:
244,256,131043,1,0,1:0:0:0:
96,249,131229,2,0,L|158:240,1,62.9999980773926,6|0,0:3|0:0,0:0:0:0:
94,160,131599,2,0,P|61:166|30:187,1,62.9999980773926,6|0,0:3|0:0,0:0:0:0:
104,346,131969,6,0,P|84:298|96:248,1,105.000004005432,0|0,1:0|3:0,0:0:0:0:
170,203,132525,1,2,1:2:0:0:
275,305,132710,2,0,L|164:289,1,105.000004005432,2|2,3:0|3:0,0:0:0:0:
95,248,133266,1,2,0:0:0:0:
160,104,133451,2,0,P|180:152|170:203,1,105.000004005432,0|2,1:0|3:0,0:0:0:0:
95,248,134006,1,2,1:2:0:0:
31,150,134192,6,0,L|107:161,1,62.9999980773926,0|0,3:0|1:0,0:0:0:0:
97,35,134562,2,0,L|20:46,1,62.9999980773926,0|2,3:0|0:0,0:0:0:0:
160,104,134932,1,2,1:2:0:0:
160,104,135117,1,2,1:2:0:0:
213,31,135303,1,2,3:2:0:0:
234,158,135488,1,2,1:2:0:0:
286,84,135673,2,0,L|348:74,1,62.9999980773926,6|2,0:3|0:0,0:0:0:0:
475,200,136043,2,0,P|437:166|363:166,1,125.999996154785,6|0,0:3|1:0,0:0:0:0:
323,286,136599,5,0,0:0:0:0:
420,367,136784,2,0,L|402:240,1,125.999996154785,2|4,3:0|0:3,0:0:0:0:
260,296,137340,1,2,0:0:0:0:
260,296,137525,2,0,L|322:286,1,62.9999980773926,6|0,0:3|0:0,0:0:0:0:
175,271,137895,2,0,P|152:211|178:149,1,125.999996154785,0|0,1:0|3:0,0:0:0:0:
260,296,138451,1,0,1:0:0:0:
260,296,138543,1,0,1:0:0:0:
260,296,138636,6,0,P|219:346|154:359,1,125.999996154785,6|2,0:3|3:0,0:0:0:0:
175,271,139192,1,2,0:0:0:0:
238,211,139377,2,0,L|365:229,1,125.999996154785,0|2,1:0|3:0,0:0:0:0:
321,72,139932,1,2,1:2:0:0:
321,72,140025,1,0,1:0:0:0:
321,72,140117,2,0,L|311:134,1,62.9999980773926,0|0,3:0|1:0,0:0:0:0:
238,211,140488,2,0,L|228:149,1,62.9999980773926,0|0,3:0|1:0,0:0:0:0:
23,68,140858,5,2,1:2:0:0:
118,174,141043,1,6,0:3:0:0:
103,32,141229,1,10,0:3:0:0:
32,155,141414,1,2,3:0:0:0:
161,98,141599,2,0,P|189:89|185:116,1,62.9999980773926,6|0,0:3|0:0,0:0:0:0:
257,37,141969,2,0,P|276:84|251:167,1,125.999996154785,6|0,0:3|3:0,0:0:0:0:
185,201,142525,1,0,1:0:0:0:
267,274,142710,1,2,3:2:0:0:
282,268,142803,1,2,0:2:0:0:
296,261,142895,1,2,1:2:0:0:
309,258,142988,1,2,0:2:0:0:
324,252,143080,6,0,L|243:239,1,62.9999980773926,6|0,3:2|0:0,0:0:0:0:
27,242,143451,5,6,0:3:0:0:
41,332,143636,1,0,1:0:0:0:
129,347,143821,2,0,P|149:289|199:309,1,125.999996154785,0|2,1:0|3:0,0:0:0:0:
398,336,144377,1,2,1:2:0:0:
455,180,144562,2,0,L|473:307,1,105.000004005432,6|2,0:3|3:0,0:0:0:0:
398,336,145117,1,2,0:0:0:0:
377,247,145303,6,0,P|428:252|470:284,1,105.000004005432,0|2,1:0|3:0,0:0:0:0:
398,336,145858,1,2,1:2:0:0:
312,311,146043,2,0,L|249:319,1,62.9999980773926,0|0,3:0|1:0,0:0:0:0:
28,267,146414,5,0,3:0:0:0:
157,324,146599,1,2,0:0:0:0:
86,201,146784,1,0,1:2:0:0:
71,343,146969,1,2,1:2:0:0:
166,237,147155,1,2,3:2:0:0:
183,238,147247,1,2,0:2:0:0:
199,239,147340,1,2,1:2:0:0:
212,240,147432,1,2,1:2:0:0:
226,240,147525,6,0,L|234:303,1,62.9999980773926,6|0,3:2|0:0,0:0:0:0:
332,214,147895,1,6,0:3:0:0:
344,127,148080,1,0,0:0:0:0:
332,214,148266,2,0,B|311:356,1,125.999996154785,2|2,1:2|3:0,0:0:0:0:
465,273,148821,5,2,1:2:0:0:
465,273,148914,1,0,1:0:0:0:
465,273,149006,1,4,0:3:0:0:
332,214,149192,1,2,0:0:0:0:
473,172,149377,2,0,P|434:172|389:199,1,62.9999980773926,6|0,0:3|0:0,0:0:0:0:
252,43,149747,2,0,P|277:102|258:166,1,125.999996154785,0|0,1:0|3:0,0:0:0:0:
85,212,150303,5,0,1:0:0:0:
85,212,150395,1,0,1:0:0:0:
85,212,150488,2,0,B|64:70,1,125.999996154785,6|2,0:3|3:0,0:0:0:0:
189,110,151043,1,2,3:0:0:0:
177,197,151229,2,0,B|164:283,1,62.9999980773926,0|0,1:0|0:0,0:0:0:0:
72,336,151599,5,2,3:2:0:0:
46,327,151692,1,2,0:2:0:0:
46,301,151784,1,2,1:2:0:0:
72,293,151877,1,2,1:2:0:0:
87,314,151969,1,2,3:2:0:0:
177,358,152155,1,0,1:0:0:0:
254,277,152340,1,2,3:2:0:0:
254,277,152432,1,2,0:0:0:0:
254,277,152525,1,2,0:0:0:0:
444,313,152710,5,2,1:2:0:0:
421,224,152895,1,4,0:3:0:0:
356,336,153080,1,10,0:3:0:0:
333,247,153266,1,0,3:0:0:0:
501,177,153451,6,0,P|446:133|392:133,1,125.999996154785,6|2,3:2|3:0,0:0:0:0:
310,171,154006,1,2,0:0:0:0:
306,48,154192,2,0,B|312:95|312:95|303:124|303:124|310:171,1,125.999996154785,0|2,1:0|3:0,0:0:0:0:
163,102,154747,2,0,P|191:89|223:88,1,62.9999980773926,2|0,1:2|3:0,0:0:0:0:
211,173,155117,1,0,1:0:0:0:
124,179,155303,2,0,P|88:141|88:62,1,125.999996154785,0|2,3:0|1:2,0:0:0:0:
211,173,156043,5,2,3:0:0:0:
197,267,156229,2,0,B|184:353,1,62.9999980773926,2|0,1:2|3:0,0:0:0:0:
12,209,156599,2,0,P|62:173|124:179,1,125.999996154785,2|0,0:0|0:0,0:0:0:0:
340,226,157155,2,0,B|254:239,1,62.9999980773926,2|0,1:2|0:0,0:0:0:0:
84,256,157525,5,2,3:0:0:0:
98,347,157710,1,0,1:0:0:0:
192,192,157895,1,2,3:0:0:0:
180,286,158080,1,0,1:0:0:0:
52,115,158266,1,2,3:0:0:0:
291,46,158636,6,0,B|278:132,1,62.9999980773926,2|0,1:2|0:0,0:0:0:0:
116,151,159006,1,2,3:0:0:0:
167,79,159192,1,2,1:2:0:0:
167,79,159284,1,0,1:0:0:0:
167,79,159377,2,0,P|192:110|192:195,1,125.999996154785,0|2,3:0|3:0,0:0:0:0:
122,243,159932,5,2,0:0:0:0:
53,160,160117,2,0,B|139:147,1,62.9999980773926,0|2,1:0|0:0,0:0:0:0:
207,283,160488,5,0,3:0:0:0:
192,192,160673,1,2,1:2:0:0:
278,342,160858,1,0,3:0:0:0:
295,252,161043,1,0,1:0:0:0:
415,309,161229,2,0,P|439:282|446:245,1,62.9999980773926,2|2,3:0|0:0,0:0:0:0:
390,157,161599,2,0,P|405:227|470:262,1,125.999996154785,0|0,1:0|3:0,0:0:0:0:
447,75,162155,5,2,1:2:0:0:
447,75,162247,1,0,1:0:0:0:
447,75,162340,1,0,3:0:0:0:
295,112,162525,1,2,0:0:0:0:
195,26,162710,2,0,B|109:39,1,62.9999980773926,2|0,3:0|0:0,0:0:0:0:
131,162,163080,2,0,B|193:171,1,62.9999980773926,2|0,1:2|0:0,0:0:0:0:
60,105,163451,2,0,P|40:163|60:222,1,125.999996154785,6|0,3:2|3:0,0:0:0:0:
281,325,164006,5,8,2:3:0:0:
258,236,164192,1,6,2:3:0:0:
170,259,164377,1,0,3:0:0:0:
193,348,164562,1,6,1:2:0:0:
343,261,164932,5,2,3:2:0:0:
307,140,165117,1,0,1:2:0:0:
429,250,165303,6,0,P|464:184|436:116,1,125.999996154785,6|2,3:2|3:0,0:0:0:0:
375,87,165858,1,2,0:0:0:0:
267,214,166043,2,0,P|320:175|395:191,1,125.999996154785,0|2,1:0|3:0,0:0:0:0:
358,321,166599,1,2,1:2:0:0:
358,321,166784,2,0,L|342:260,1,62.9999980773926,0|0,3:0|1:0,0:0:0:0:
282,367,167155,2,0,L|266:306,1,62.9999980773926,0|2,3:0|0:0,0:0:0:0:
184,151,167525,6,0,B|166:277,1,125.999996154785,2|2,1:2|3:0,0:0:0:0:
56,309,168080,1,2,1:2:0:0:
56,309,168173,1,0,1:0:0:0:
56,309,168266,2,0,P|109:270|184:286,1,125.999996154785,2|2,3:0|3:0,0:0:0:0:
304,318,168821,1,2,0:0:0:0:
304,318,169006,2,0,P|271:318|218:344,1,62.9999980773926,0|2,1:0|0:0,0:0:0:0:
385,361,169377,5,2,3:0:0:0:
434,282,169562,1,0,1:0:0:0:
333,221,169747,1,0,3:0:0:0:
436,165,169932,1,0,1:0:0:0:
267,124,170117,1,2,3:0:0:0:
431,42,170488,5,0,1:0:0:0:
267,124,170858,1,8,2:3:0:0:
157,94,171043,1,4,3:3:0:0:
157,94,171136,1,0,1:0:0:0:
157,94,171229,6,0,L|168:14,1,64.7499997529984,6|0,3:2|0:0,0:0:0:0:
114,179,171599,2,0,L|123:243,1,64.7499997529984,2|0,3:0|3:0,0:0:0:0:
39,118,171969,2,0,P|94:85|157:94,1,129.499999505997,2|2,1:2|3:0,0:0:0:0:
295,116,172525,1,0,3:0:0:0:
295,116,172617,1,0,1:0:0:0:
295,116,172710,6,0,B|273:88|273:88|258:190,1,129.499999505997,6|0,1:2|3:0,0:0:0:0:
304,268,173266,1,0,3:0:0:0:
377,206,173451,2,0,P|322:173|259:182,1,129.499999505997,6|6,1:2|0:3,0:0:0:0:
192,316,174006,1,0,1:0:0:0:
170,165,174192,6,0,L|178:229,1,64.7499997529984,4|0,3:2|0:0,0:0:0:0:
89,215,174562,2,0,L|97:278,1,64.7499997529984,0|0,3:0|0:0,0:0:0:0:
40,348,174932,1,0,1:2:0:0:
458,130,175303,5,0,3:0:0:0:
405,57,175488,1,0,1:0:0:0:
318,85,175673,1,0,3:0:0:0:
318,175,175858,1,4,0:3:0:0:
405,204,176043,1,8,0:3:0:0:
229,341,176414,5,4,0:3:0:0:
183,315,176599,1,8,0:3:0:0:
208,269,176784,1,4,0:3:0:0:
253,295,176969,1,0,3:0:0:0:
80,276,177155,5,6,3:2:0:0:
64,183,177340,2,0,L|50:87,1,66.4999982242585,2|0,0:0|1:0,0:0:0:0:
259,47,177710,6,0,L|249:112,1,66.4999982242585,6|0,3:2|0:0,0:0:0:0:
171,182,178080,1,2,3:0:0:0:
292,23,178266,6,0,L|266:179,1,140,6|8,3:2|2:3,0:0:0:0:
455,318,179377,6,0,L|463:266,1,42,2|0,1:2|0:0,0:0:0:0:
414,206,179747,6,0,P|424:242|434:303,1,78.7500030040742,2|0,1:2|0:0,0:0:0:0:
297,265,180117,6,0,P|348:259|407:313,2,120.750002303124,6|2|2,3:2|0:0|0:0,0:0:0:0:
144,343,180858,2,0,L|125:217,2,120.750002303124,2|2|2,1:2|0:2|0:2,0:0:0:0:
219,246,181599,2,0,L|231:167,1,80.5000015354157,2|0,3:2|1:0,0:0:0:0:
113,144,181969,2,0,L|126:224,1,80.5000015354157,2|0,3:0|3:0,0:0:0:0:
174,71,182340,2,0,P|95:48|28:96,1,161.000003070831,2|2,1:2|3:0,0:0:0:0:
231,167,182895,1,2,1:2:0:0:
314,118,183080,6,0,B|374:108|374:108|424:154,2,120.750002303124,6|2|2,3:2|0:0|0:0,0:0:0:0:
489,205,183821,2,0,P|508:149|488:94,2,120.750002303124,2|2|2,1:2|0:0|0:0,0:0:0:0:
302,285,184562,1,2,3:2:0:0:
302,285,184747,1,0,1:0:0:0:
389,339,184932,2,0,L|400:254,1,80.5000015354157,2|0,3:0|3:0,0:0:0:0:
199,194,185303,2,0,B|226:232|226:232|210:345,1,161.000003070831,2|2,1:2|3:0,0:0:0:0:
39,282,185858,1,2,1:2:0:0:
128,258,186043,6,0,B|118:333|118:333|82:364,2,120.750002303124,6|2|2,3:2|0:0|0:0,0:0:0:0:
14,163,186784,2,0,L|39:282,2,120.750002303124,2|2|2,1:2|0:0|0:0,0:0:0:0:
120,91,187525,2,0,L|106:170,1,80.5000015354157,2|0,3:0|1:0,0:0:0:0:
202,50,187895,2,0,P|133:0|53:28,2,161.000003070831,2|2|2,3:0|1:2|3:0,0:0:0:0:
106,170,188821,1,2,1:2:0:0:
208,227,189006,6,0,L|224:346,2,120.750002303124,6|2|2,3:2|0:0|0:0,0:0:0:0:
395,179,189747,2,0,L|374:323,2,120.750002303124,2|2|2,1:2|0:0|0:0,0:0:0:0:
288,138,190488,2,0,L|301:230,1,80.5000015354157,6|0,3:2|1:0,0:0:0:0:
377,298,190858,1,2,3:2:0:0:
471,128,191043,1,2,1:2:0:0:
471,128,191136,1,0,1:0:0:0:
471,128,191229,2,0,P|441:59|374:99,1,161.000003070831,0|10,1:2|2:3,0:0:0:0:
257,177,191784,1,6,2:3:0:0:
65,88,191969,6,0,P|109:50|169:44,2,120.750002303124,6|2|2,3:2|0:0|0:0,0:0:0:0:
257,177,192710,2,0,P|210:139|149:139,2,120.750002303124,2|2|2,1:2|0:2|0:2,0:0:0:0:
200,357,193451,1,2,3:0:0:0:
179,230,193636,1,0,1:0:0:0:
45,315,193821,2,0,L|125:302,1,80.5000015354157,2|0,3:0|3:0,0:0:0:0:
253,281,194192,2,0,B|361:259|361:259|341:319,1,161.000003070831,2|2,1:2|0:0,0:0:0:0:
355,167,194747,1,0,1:0:0:0:
355,167,194840,1,0,1:0:0:0:
355,167,194932,6,0,P|400:172|455:254,2,120.750002303124,6|2|2,3:2|0:0|0:0,0:0:0:0:
186,133,195673,2,0,P|167:86|191:2,2,120.750002303124,6|2|2,1:2|0:2|0:2,0:0:0:0:
354,167,196414,1,6,3:2:0:0:
354,167,196599,1,0,1:0:0:0:
239,315,196784,2,0,L|219:222,1,80.5000015354157,2|0,3:0|3:0,0:0:0:0:
105,384,197155,2,0,B|135:343|135:343|113:203,1,161.000003070831,6|2,1:2|3:0,0:0:0:0:
91,70,197710,5,2,1:2:0:0:
102,54,197895,5,6,3:2:0:0:
268,243,198173,1,2,0:0:0:0:
83,221,198451,1,2,0:0:0:0:
198,61,198636,5,2,1:2:0:0:
115,315,198914,1,2,0:0:0:0:
39,133,199192,1,2,0:0:0:0:
172,236,199377,5,2,3:0:0:0:
29,351,199655,1,2,0:0:0:0:
136,148,199932,1,2,0:0:0:0:
268,243,200117,6,0,L|359:258,1,80.5000015354157,2|0,1:2|0:0,0:0:0:0:
423,209,200488,1,2,3:0:0:0:
406,328,200673,1,0,3:0:0:0:
504,165,200858,6,0,P|419:113|366:133,2,161.000003070831,4|8|4,3:2|0:3|0:3,0:0:0:0:
307,47,201784,1,4,0:3:0:0:
220,56,201969,1,8,0:3:0:0:
154,122,202155,1,0,3:0:0:0:
139,211,202340,5,4,3:2:0:0:
157,215,202710,5,0,3:0:0:0:
178,219,203080,5,0,1:0:0:0:
368,335,203451,5,0,3:0:0:0:
372,231,203636,1,0,1:0:0:0:
458,288,203821,1,4,3:2:0:0:
222,219,204192,5,10,0:3:0:0:
222,219,204284,1,2,0:0:0:0:
222,219,204377,1,2,3:0:0:0:
124,237,204562,1,2,1:2:0:0:
57,163,204747,1,2,3:0:0:0:
87,69,204932,1,10,0:3:0:0:
185,49,205117,1,2,3:0:0:0:
251,123,205303,5,6,0:3:0:0:
342,102,205488,1,10,0:3:0:0:
376,193,205673,1,6,0:3:0:0:
300,259,205858,1,6,0:3:0:0:
362,338,206043,1,0,1:0:0:0:
440,273,206229,1,2,3:0:0:0:
376,193,206414,6,0,B|286:172|286:261|167:232,1,199.499994672775,6|0,3:2|0:0,0:0:0:0:
111,295,207155,2,0,P|79:293|33:255,1,66.4999982242585,4|0,0:3|0:0,0:0:0:0:
114,173,207525,2,0,P|89:233|111:295,1,132.999996448517,0|0,1:0|3:0,0:0:0:0:
216,363,208080,1,0,1:0:0:0:
188,238,208266,1,2,3:0:0:0:
302,288,208451,1,0,1:0:0:0:
316,152,208636,2,0,L|230:138,1,66.4999982242585,4|0,3:2|0:0,0:0:0:0:
385,222,209006,2,0,P|415:157|392:88,1,132.999996448517,2|2,1:2|3:0,0:0:0:0:
316,152,209562,1,8,0:3:0:0:
225,39,209747,6,0,L|236:130,1,66.4999982242585,6|0,3:2|0:0,0:0:0:0:
144,79,210125,2,0,L|155:157,1,66.4999982242585,4|0,0:3|0:0,0:0:0:0:
37,189,210505,2,0,P|88:148|153:145,1,132.999996448517,2|2,1:2|3:0,0:0:0:0:
149,291,211055,1,0,1:0:0:0:
149,291,211147,1,0,1:0:0:0:
149,291,211238,2,0,P|123:249|123:201,1,66.4999982242585,2|0,3:0|1:0,0:0:0:0:
243,309,211605,2,0,P|231:341|195:374,1,66.4999982242585,2|0,3:0|0:0,0:0:0:0:
214,215,211972,2,0,P|253:210|283:219,1,66.4999982242585,0|0,1:0|0:0,0:0:0:0:
417,327,212339,6,0,P|479:338|493:270,1,132.999996448517,4|0,3:2|0:0,0:0:0:0:
430,169,212894,1,0,3:0:0:0:
430,169,213079,2,0,L|419:256,1,66.4999982242585,6|0,0:3|0:0,0:0:0:0:
282,351,213449,2,0,P|246:282|262:227,1,132.999996448517,4|10,1:2|2:3,0:0:0:0:
339,276,214005,1,4,0:3:0:0:
348,117,214190,2,0,L|335:201,1,66.4999982242585,4|8,0:3|0:3,0:0:0:0:
150,214,214560,1,6,0:3:0:0:
116,344,214746,5,4,3:3:0:0:
116,344,214838,1,0,3:0:0:0:
116,344,214931,2,0,P|120:327|124:310,3,35,2|0|4|4,1:2|3:0|3:3|0:3,0:0:0:0:
83,270,215301,5,8,0:3:0:0:
65,239,215394,1,4,0:3:0:0:
61,205,215486,1,4,0:3:0:0:
70,171,215579,1,8,0:3:0:0:
91,144,215671,5,4,3:2:0:0:
451,356,216042,5,6,0:3:0:0:
368,242,216227,1,6,0:3:0:0:
353,340,216412,1,2,1:2:0:0:
466,258,216597,1,2,3:0:0:0:
296,176,216783,5,2,1:2:0:0:
376,55,216968,1,2,3:0:0:0:
239,105,217153,2,0,L|155:80,1,66.4999982242585,6|8,0:3|0:3,0:0:0:0:
383,147,217523,2,0,L|464:128,1,66.4999982242585,2|4,3:0|0:3,0:0:0:0:
288,31,217894,1,2,1:2:0:0:
295,176,218264,6,0,B|322:243|280:276|309:338|309:338|287:313|257:302|222:302|191:328,1,281.750005373955,6|0,3:2|0:0,0:0:0:0:
168,347,219005,2,0,L|91:341,1,66.4999982242585,6|0,0:3|0:0,0:0:0:0:
30,277,219375,2,0,B|67:247|67:247|157:255,1,132.999996448517,0|2,1:0|3:0,0:0:0:0:
236,146,219931,2,0,L|225:217,1,66.4999982242585,0|0,1:0|3:0,0:0:0:0:
142,157,220301,1,0,1:0:0:0:
305,89,220486,6,0,P|248:57|185:71,1,132.999996448517,2|6,3:0|1:2,0:0:0:0:
362,10,221042,1,2,0:0:0:0:
460,98,221227,2,0,L|447:167,1,66.4999982242585,2|0,3:0|1:0,0:0:0:0:
374,222,221505,1,0,1:0:0:0:
374,222,221597,6,0,L|392:365,1,132.999996448517,4|0,3:2|3:0,0:0:0:0:
280,178,222338,2,0,L|271:244,1,66.4999982242585,0|0,1:0|0:0,0:0:0:0:
247,366,222709,1,2,3:0:0:0:
151,280,222894,2,0,P|205:243|270:243,1,132.999996448517,0|0,1:0|1:0,0:0:0:0:
327,158,223449,2,0,P|288:141|249:141,1,66.4999982242585,10|4,0:3|0:3,0:0:0:0:
229,52,223820,2,0,P|193:76|174:109,1,66.4999982242585,2|0,1:2|0:0,0:0:0:0:
43,71,224190,6,0,B|56:143|56:143|39:191|39:191|53:268|53:268|81:201|81:201|133:188,1,306.25,6|0,3:2|0:0,0:0:0:0:
159,187,224931,2,0,L|148:274,1,66.4999982242585,4|0,0:3|0:0,0:0:0:0:
265,368,225301,2,0,B|246:237,1,132.999996448517,6|2,1:2|1:2,0:0:0:0:
409,305,225857,2,0,P|363:285|312:285,1,66.4999982242585,2|4,3:0|0:3,0:0:0:0:
147,316,226227,5,0,1:0:0:0:
265,368,226412,1,0,3:0:0:0:
472,251,226597,5,4,0:3:0:0:
347,282,226783,2,0,P|322:241|323:194,1,66.4999982242585,10|0,0:3|0:0,0:0:0:0:
372,51,227153,6,0,B|222:68|222:68|260:114|260:114|284:63,1,245,6|0,3:2|0:0,0:0:0:0:
274,82,227894,6,0,P|306:135|278:217,1,140,0|6,3:0|0:3,0:0:0:0:
56,263,228634,6,0,B|41:233|41:233|51:188,1,56,10|0,1:3|0:0,0:0:0:0:
213,287,229005,6,0,L|200:355,1,59.5000011348725,10|0,1:3|0:0,0:0:0:0:
145,119,229375,6,0,P|176:103|219:103,1,62.9999980773926,10|8,1:3|0:3,0:0:0:0:
387,238,229746,6,0,L|319:254,1,66.4999982242585,6|0,0:3|3:0,0:0:0:0:
348,25,230116,5,2,3:0:0:0:
487,81,230301,1,0,3:0:0:0:
400,136,230486,5,6,3:2:0:0:
256,192,230672,12,2,232709,0:0:0:0:
274,59,233079,5,2,0:0:0:0:
274,59,233449,6,0,P|300:44|354:44,1,83.9999974365235,6|0,3:3|0:0,0:0:0:0:
329,128,234005,1,2,0:0:0:0:
329,128,234190,2,0,L|344:238,1,83.9999974365235,0|2,1:0|3:0,0:0:0:0:
457,150,234746,1,2,1:2:0:0:
457,150,234931,2,0,L|415:155,1,41.9999987182618,0|0,3:0|1:0,0:0:0:0:
340,211,235301,2,0,L|298:216,1,41.9999987182618,0|2,3:0|2:0,0:0:0:0:
137,240,235672,6,0,P|178:239|215:258,1,83.9999974365235,2|2,1:2|3:0,0:0:0:0:
156,327,236227,1,2,1:2:0:0:
156,327,236320,1,0,1:0:0:0:
156,327,236412,1,0,3:0:0:0:
324,338,236597,2,0,L|240:349,1,83.9999974365235,2|0,0:0|0:0,0:0:0:0:
137,240,237153,2,0,L|53:228,1,83.9999974365235,0|2,1:0|3:0,0:0:0:0:
86,148,237709,1,2,1:2:0:0:
86,148,237894,2,0,L|127:153,1,41.9999987182618,0|0,3:0|1:0,0:0:0:0:
214,139,238264,1,0,3:0:0:0:
232,51,238449,5,0,0:0:0:0:
232,51,238542,1,0,0:0:0:0:
232,51,238634,2,0,P|191:51|149:74,1,83.9999974365235,2|2,1:2|3:0,0:0:0:0:
214,139,239190,1,2,1:2:0:0:
270,290,239375,2,0,L|283:194,1,83.9999974365235,2|2,3:2|3:0,0:0:0:0:
182,261,239931,1,2,0:0:0:0:
182,261,240116,2,0,L|195:356,1,83.9999974365235,2|2,1:2|3:0,0:0:0:0:
84,357,240672,5,2,1:2:0:0:
84,357,240764,1,0,1:0:0:0:
84,357,240857,1,0,3:0:0:0:
13,304,241042,1,0,1:0:0:0:
98,227,241227,2,0,L|93:268,1,41.9999987182618,2|2,3:0|0:0,0:0:0:0:
68,142,241597,2,0,P|129:142|157:159,1,83.9999974365235,0|2,1:0|3:0,0:0:0:0:
206,41,242153,6,0,L|211:82,1,41.9999987182618,2|0,1:2|3:0,0:0:0:0:
293,126,242523,2,0,L|279:221,1,83.9999974365235,2|0,0:0|0:0,0:0:0:0:
206,266,243079,2,0,L|217:349,1,83.9999974365235,2|2,1:2|3:2,0:0:0:0:
298,296,243634,1,0,1:0:0:0:
298,296,243727,1,0,1:0:0:0:
298,296,243820,1,2,3:0:0:0:
375,351,244005,1,0,1:0:0:0:
464,327,244190,5,6,3:2:0:0:
394,52,244560,5,2,1:2:0:0:
435,189,244746,1,0,1:0:0:0:
297,160,244931,1,10,0:3:0:0:
84,340,245301,6,0,P|58:312|58:228,1,97.9999970092774,6|2,3:2|3:0,0:0:0:0:
135,268,245857,1,2,0:0:0:0:
275,330,246042,2,0,L|169:349,1,97.9999970092774,2|2,1:2|3:2,0:0:0:0:
206,213,246597,1,2,1:2:0:0:
206,213,246690,1,0,1:0:0:0:
206,213,246783,1,0,3:0:0:0:
135,268,246968,1,0,1:0:0:0:
80,153,247153,2,0,L|129:158,1,48.9999985046387,0|2,3:0|0:0,0:0:0:0:
303,200,247523,6,0,L|205:213,1,97.9999970092774,2|2,1:2|3:0,0:0:0:0:
310,50,248079,1,2,1:2:0:0:
216,28,248264,2,0,P|215:75|242:119,1,97.9999970092774,0|2,3:0|3:0,0:0:0:0:
303,200,248820,1,2,0:0:0:0:
436,147,249005,2,0,L|388:141,1,48.9999985046387,0|2,1:0|0:0,0:0:0:0:
240,117,249375,5,2,3:0:0:0:
269,303,249560,1,0,1:0:0:0:
372,265,249746,1,0,3:0:0:0:
432,360,249931,1,0,1:0:0:0:
432,360,250023,1,0,1:0:0:0:
432,360,250116,1,8,3:3:0:0:
62,221,250486,5,0,1:0:0:0:
16,137,250672,1,0,1:0:0:0:
74,63,250857,1,6,0:3:0:0:
107,69,250949,1,2,0:0:0:0:
140,75,251042,1,2,0:0:0:0:
174,80,251134,1,2,0:0:0:0:
207,87,251227,6,0,L|301:70,1,70,6|0,3:2|0:0,0:0:0:0:
439,41,251597,1,0,1:2:0:0:
262,179,251783,6,0,L|356:195,1,70,6|0,3:2|0:0,0:0:0:0:
491,215,252153,1,2,1:2:0:0:
267,359,252338,6,0,L|404:334,1,140,6|0,3:2|1:0,0:0:0:0:
224,270,252894,1,4,0:3:0:0:
330,191,253079,2,0,L|319:260,1,70,8|0,0:3|3:0,0:0:0:0:
169,351,253449,1,4,0:3:0:0:
79,311,253634,1,8,0:3:0:0:
31,225,253820,1,4,0:3:0:0:
58,131,254005,1,0,1:0:0:0:
130,64,254190,6,0,L|242:85,1,77.0000023498536,6|0,3:2|0:0,0:0:0:0:
401,109,254560,1,0,1:0:0:0:
248,268,254746,6,0,L|263:188,1,77.0000023498536,6|0,3:2|0:0,0:0:0:0:
300,0,255116,1,0,1:0:0:0:
396,275,255301,6,0,L|380:175,1,77.0000023498536,6|0,3:2|0:0,0:0:0:0:
478,320,255672,2,0,P|417:365|333:344,1,154.000004699707,0|4,1:0|0:3,0:0:0:0:
226,54,256227,5,0,1:0:0:0:
356,105,256412,1,2,3:0:0:0:
297,249,256597,1,0,3:0:0:0:
168,193,256783,1,10,0:3:0:0:
297,249,256968,1,4,0:3:0:0:
77,346,257153,6,0,P|48:320|36:263,1,83.9999974365235,6|0,3:2|0:0,0:0:0:0:
99,65,257523,1,2,1:2:0:0:
131,264,257709,6,0,P|142:221|174:188,1,83.9999974365235,6|0,3:2|0:0,0:0:0:0:
338,43,258079,1,2,1:2:0:0:
226,263,258264,6,0,P|295:249|368:308,1,167.999994873047,6|0,3:2|3:0,0:0:0:0:
279,342,258820,1,0,1:0:0:0:
458,277,259005,2,0,L|442:382,1,83.9999974365235,2|0,3:0|0:0,0:0:0:0:
388,173,259375,2,0,L|406:75,1,83.9999974365235,0|0,1:0|0:0,0:0:0:0:
221,45,259746,1,6,0:3:0:0:
255,178,259931,1,8,0:3:0:0:
133,144,260116,6,0,L|42:160,1,83.9999974365235,6|0,3:2|0:0,0:0:0:0:
136,348,260486,2,0,L|235:328,1,83.9999974365235,0|0,3:0|0:0,0:0:0:0:
118,249,260857,2,0,L|28:264,1,83.9999974365235,10|2,1:3|0:0,0:0:0:0:
364,316,261227,5,6,0:3:0:0:
325,154,261412,1,2,1:2:0:0:
268,342,261597,1,6,0:3:0:0:
392,222,261783,1,6,0:3:0:0:
298,243,261968,1,10,0:3:0:0:
459,292,262153,1,2,3:0:0:0:
387,82,262338,5,6,0:3:0:0:
359,64,262462,1,8,0:3:0:0:
328,57,262585,1,0,3:0:0:0:
297,60,262709,5,6,0:3:0:0:
269,73,262832,1,8,0:3:0:0:
246,95,262955,1,0,3:0:0:0:
233,124,263079,6,0,P|171:109|148:62,1,112,6|2,3:2|0:0,0:0:0:0:
247,96,263634,6,0,L|233:257,1,146.999995513916,2|2,0:0|0:0,0:0:0:0:
62,308,264375,6,0,P|76:233|151:249,1,167.999994873047,2|0,0:0|0:0,0:0:0:0:
238,289,265301,6,0,P|229:332|226:352,1,52.5,2|0,0:0|0:0,0:0:0:0:
264,200,265672,6,0,P|270:257|278:285,1,78.7500030040742,2|0,0:0|0:0,0:0:0:0:
332,90,266042,6,0,B|395:74|395:74|451:119,2,131.25,6|2|2,3:2|0:0|0:0,0:0:0:0:
149,185,266783,2,0,B|98:177|98:177|73:162|73:162|17:154,2,131.25,2|2|2,1:2|0:2|0:2,0:0:0:0:
218,25,267523,2,0,L|230:118,1,87.5,2|0,3:2|1:0,0:0:0:0:
359,211,267894,2,0,L|371:125,1,87.5,2|0,3:0|3:0,0:0:0:0:
149,185,268264,2,0,P|123:262|179:339,1,175,2|2,1:2|3:0,0:0:0:0:
294,300,268820,1,2,1:2:0:0:
331,214,269005,6,0,P|257:214|213:249,2,131.25,6|2|2,3:2|0:0|0:0,0:0:0:0:
467,359,269746,2,0,L|490:201,2,131.25,2|2|2,1:2|0:0|0:0,0:0:0:0:
331,214,270486,1,2,3:2:0:0:
274,344,270672,1,0,1:0:0:0:
111,299,270857,2,0,L|198:287,1,87.5,2|0,3:0|3:0,0:0:0:0:
64,377,271227,2,0,P|16:300|58:222,1,175,2|2,1:2|3:0,0:0:0:0:
197,287,271783,1,0,1:0:0:0:
291,111,271968,6,0,P|358:104|415:144,2,131.25,6|2|2,3:2|0:0|0:0,0:0:0:0:
103,39,272709,2,0,B|14:54|14:54|63:97,2,131.25,2|2|2,1:2|0:0|0:0,0:0:0:0:
183,193,273449,1,2,3:0:0:0:
291,111,273634,1,0,1:0:0:0:
93,157,273820,2,0,P|84:200|106:253,1,87.5,2|0,3:0|3:0,0:0:0:0:
250,374,274190,2,0,L|274:199,1,175,2|2,1:2|3:0,0:0:0:0:
421,351,274746,1,2,1:2:0:0:
460,267,274931,6,0,B|397:248|397:248|346:288,2,131.25,6|2|2,3:2|0:0|0:0,0:0:0:0:
196,227,275672,2,0,L|109:239,1,87.5,2|2,1:2|0:0,0:0:0:0:
49,79,276042,2,0,L|137:88,1,87.5,2|0,0:0|0:0,0:0:0:0:
265,141,276412,5,6,3:2:0:0:
379,52,276597,1,0,1:0:0:0:
410,257,276783,1,2,3:2:0:0:
265,141,276968,1,2,3:2:0:0:
492,186,277153,5,0,1:2:0:0:
269,273,277338,1,0,3:0:0:0:
393,153,277523,1,10,2:3:0:0:
426,359,277709,1,6,2:3:0:0:
472,101,277894,6,0,P|413:60|331:80,2,131.25,6|2|2,3:2|0:0|0:0,0:0:0:0:
297,342,278634,2,0,L|276:202,2,131.25,2|2|2,1:2|0:2|0:2,0:0:0:0:
393,153,279375,1,2,3:0:0:0:
278,213,279560,1,0,1:0:0:0:
183,66,279746,2,0,L|171:153,1,87.5,2|0,3:0|3:0,0:0:0:0:
48,311,280116,2,0,P|59:240|134:277,1,175,2|2,1:2|3:0,0:0:0:0:
346,338,280672,1,0,1:0:0:0:
346,338,280764,1,0,1:0:0:0:
346,338,280857,6,0,P|279:337|208:356,2,131.25,6|2|2,3:2|0:0|0:0,0:0:0:0:
484,106,281597,2,0,P|450:46|395:82,2,131.25,6|2|2,1:2|0:2|0:2,0:0:0:0:
414,261,282338,6,0,B|408:221|408:221|403:210|403:210|397:172,1,87.5,6|0,3:2|1:0,0:0:0:0:
230,266,282709,2,0,B|226:303|226:303|220:316|220:316|216:355,1,87.5,2|0,3:0|3:0,0:0:0:0:
40,133,283079,5,2,1:2:0:0:
117,52,283264,1,10,0:3:0:0:
221,103,283449,1,6,2:3:0:0:
208,213,283634,1,2,1:2:0:0:
96,240,283820,5,6,3:2:0:0:
331,341,284097,1,2,0:0:0:0:
394,158,284375,1,2,0:0:0:0:
306,51,284560,5,2,1:2:0:0:
165,318,284838,1,2,0:0:0:0:
311,233,285116,1,2,0:0:0:0:
168,147,285301,5,2,3:0:0:0:
383,338,285579,1,2,0:0:0:0:
432,52,285857,1,2,0:0:0:0:
318,138,286042,5,2,1:2:0:0:
103,63,286412,5,2,3:0:0:0:
40,175,286597,1,0,3:0:0:0:
121,273,286783,2,0,L|140:366,1,87.5,4|0,3:2|0:0,0:0:0:0:
309,188,287153,2,0,L|294:281,1,87.5,8|0,0:3|0:0,0:0:0:0:
184,130,287523,2,0,L|199:223,1,87.5,4|4,0:3|0:3,0:0:0:0:
459,332,287894,5,8,0:3:0:0:
397,225,288079,1,0,3:0:0:0:
278,266,288264,1,4,3:2:0:0:
116,346,288634,5,0,1:0:0:0:
69,94,288820,1,0,1:0:0:0:
296,166,289005,1,4,0:3:0:0:
52,240,289190,1,8,0:3:0:0:
208,40,289375,1,8,0:3:0:0:
221,295,289560,1,4,2:3:0:0:
443,168,289746,6,0,P|465:97|425:34,1,154.000004699707,6|0,3:2|3:0,0:0:0:0:
306,219,290301,1,0,0:0:0:0:
400,261,290486,2,0,L|375:110,1,154.000004699707,2|0,1:2|3:0,0:0:0:0:
489,245,291042,1,0,1:0:0:0:
489,245,291134,1,0,1:0:0:0:
489,245,291227,1,2,3:0:0:0:
352,356,291412,5,0,1:0:0:0:
130,272,291597,2,0,P|204:264|260:315,1,154.000004699707,0|2,3:0|1:2,0:0:0:0:
399,260,292153,1,0,3:0:0:0:
318,142,292338,2,0,L|305:229,1,77.0000023498536,0|0,3:0|1:0,0:0:0:0:
141,348,292709,6,0,L|128:261,1,77.0000023498536,2|0,3:2|0:0,0:0:0:0:
19,195,293079,2,0,P|56:260|129:271,1,154.000004699707,0|2,3:0|1:2,0:0:0:0:
21,98,293634,1,0,0:0:0:0:
170,28,293820,2,0,L|156:112,1,77.0000023498536,0|0,3:0|1:0,0:0:0:0:
316,225,294190,1,2,3:0:0:0:
362,137,294375,6,0,P|295:128|222:191,1,154.000004699707,0|0,1:0|0:0,0:0:0:0:
372,337,294931,1,2,1:2:0:0:
468,254,295116,2,0,L|317:226,1,154.000004699707,2|2,3:0|1:3,0:0:0:0:
116,358,295672,6,0,B|78:332|78:332|57:213,1,154.000004699707,6|2,3:2|3:0,0:0:0:0:
43,133,296227,1,0,0:0:0:0:
176,202,296412,2,0,L|159:289,1,77.0000023498536,2|0,1:2|0:0,0:0:0:0:
128,98,296783,5,2,3:2:0:0:
291,192,296968,1,2,1:2:0:0:
215,20,297153,1,2,3:2:0:0:
176,202,297338,1,2,1:2:0:0:
315,77,297523,2,0,L|417:96,1,77.0000023498536,2|0,3:0|0:0,0:0:0:0:
324,277,297894,2,0,L|213:294,1,77.0000023498536,2|0,1:2|0:0,0:0:0:0:
443,345,298264,5,2,3:0:0:0:
324,277,298449,1,2,1:2:0:0:
487,160,298634,6,0,L|472:247,1,83.9999974365235,6|0,3:2|0:0,0:0:0:0:
311,51,299005,6,0,P|348:51|399:75,1,83.9999974365235,6|0,3:2|0:0,0:0:0:0:
211,263,299375,6,0,P|247:263|300:239,1,83.9999974365235,6|0,1:2|0:0,0:0:0:0:
114,348,299746,5,2,1:2:0:0:
33,156,299931,1,4,0:3:0:0:
211,263,300102,1,4,0:3:0:0:
3,281,300287,5,2,1:2:0:0:
157,147,300472,1,4,2:3:0:0:
114,348,300657,1,4,2:3:0:0:
211,262,300842,5,2,1:2:0:0:
321,365,301027,1,8,0:3:0:0:
342,174,301213,1,10,0:3:0:0:
485,315,301405,1,8,0:3:0:0:
474,107,301597,6,0,P|418:55|343:53,1,154.000004699707,6|4,3:2|0:3,0:0:0:0:
268,145,302152,1,0,0:0:0:0:
372,205,302337,2,0,L|344:53,1,154.000004699707,6|0,1:2|3:0,0:0:0:0:
56,55,302893,5,0,1:2:0:0:
56,55,302985,1,0,1:2:0:0:
56,55,303078,1,2,1:2:0:0:
135,159,303263,1,0,1:0:0:0:
246,94,303448,2,0,L|262:193,1,77.0000023498536,0|0,3:0|0:0,0:0:0:0:
49,204,303819,6,0,P|96:250|185:249,1,154.000004699707,6|0,1:2|3:0,0:0:0:0:
351,157,304374,1,0,1:0:0:0:
445,106,304559,2,0,P|394:57|311:57,1,154.000004699707,6|0,3:2|3:0,0:0:0:0:
300,267,305115,1,4,2:3:0:0:
199,184,305300,2,0,L|357:155,1,154.000004699707,6|0,1:2|3:0,0:0:0:0:
453,357,305856,5,4,0:3:0:0:
373,284,306041,2,0,P|333:267|298:267,1,77.0000023498536,6|0,3:2|0:0,0:0:0:0:
453,357,306411,2,0,L|483:185,1,154.000004699707,4|6,0:3|1:2,0:0:0:0:
373,284,306967,5,4,0:3:0:0:
300,348,307152,1,8,0:3:0:0:
207,363,307337,1,8,0:3:0:0:
66,331,307522,6,0,L|52:253,1,77.0000023498536,6|0,3:2|0:0,0:0:0:0:
166,205,307893,2,0,L|148:297,1,77.0000023498536,0|0,3:0|0:0,0:0:0:0:
116,123,308263,2,0,P|184:112|257:176,1,154.000004699707,0|0,1:0|3:0,0:0:0:0:
457,111,308819,5,0,1:0:0:0:
457,111,308911,1,0,1:0:0:0:
457,111,309004,1,0,3:0:0:0:
318,83,309189,1,0,1:0:0:0:
399,29,309374,1,0,3:0:0:0:
373,170,309559,1,2,0:0:0:0:
373,170,309652,1,2,0:0:0:0:
373,170,309745,6,0,L|391:266,1,77.0000023498536,2|0,1:2|0:0,0:0:0:0:
255,230,310115,2,0,L|271:313,1,77.0000023498536,2|4,3:0|0:3,0:0:0:0:
118,382,310485,6,0,L|91:230,1,154.000004699707,6|4,3:2|0:3,0:0:0:0:
184,290,311041,1,8,0:3:0:0:
12,279,311226,2,0,P|-1:246|5:199,1,77.0000023498536,4|0,1:2|0:0,0:0:0:0:
186,116,311597,2,0,L|171:213,1,77.0000023498536,8|0,0:3|0:0,0:0:0:0:
60,110,311967,5,4,0:3:0:0:
275,33,312152,2,0,L|291:130,1,77.0000023498536,8|0,0:3|3:0,0:0:0:0:
312,261,312522,1,4,0:3:0:0:
419,145,312708,5,8,0:3:0:0:
512,384,313078,1,8,0:3:0:0:
242,328,313448,1,6,3:2:0:0:
256,192,313634,12,0,317708,0:0:0:0:
422,185,317893,5,2,0:0:0:0:
307,303,318651,1,2,0:0:0:0:
473,346,319382,1,2,0:0:0:0:
420,186,320119,5,2,0:0:0:0:
62,161,322429,5,2,0:0:0:0:
197,341,323231,5,2,0:0:0:0:
456,220,324177,5,2,0:0:0:0:
76,83,325414,6,0,L|64:85,2,8.75,2|2|2,0:0|0:0|0:0,0:0:0:0:
256,192,325666,12,0,332484,0:0:0:0:
