osu file format v14

[General]
AudioFilename: audio.mp3
AudioLeadIn: 0
PreviewTime: 270666
Countdown: 0
SampleSet: Soft
StackLeniency: 0.9
Mode: 0
LetterboxInBreaks: 0
WidescreenStoryboard: 0

[Editor]
Bookmarks: 318791
DistanceSpacing: 0.1
BeatDivisor: 6
GridSize: 8
TimelineZoom: 3.499999

[Metadata]
Title:Golden Time Lover
TitleUnicode:ゴールデンタイムラバー
Artist:SUKIMASWITCH
ArtistUnicode:スキマスイッチ
Creator:Yudragen
Version:At the summit of Babel
Source:鋼の錬金術師 FULLMETAL ALCHEMIST
Tags:Hagane no Renkinjutsushi FMA FMAB ChaoticRed brotherhood hagaren sukima switch anime rock japanese
BeatmapID:2420423
BeatmapSetID:1160028

[Difficulty]
HPDrainRate:5.3
CircleSize:4.7
OverallDifficulty:8.6
ApproachRate:9.4
SliderMultiplier:2.1
SliderTickRate:1

[Events]
//Background and Video events
0,0,"e5l8eg7.jpg",0,0
//Break Periods
2,109691,116641
//Storyboard Layer 0 (Background)
//Storyboard Layer 1 (Fail)
//Storyboard Layer 2 (Pass)
//Storyboard Layer 3 (Foreground)
//Storyboard Layer 4 (Overlay)
//Storyboard Sound Samples

[TimingPoints]
1951,480,4,2,1,50,1,0
1951,-111.111111111111,4,2,1,50,0,0
9631,-95.2380952380952,4,2,1,60,0,0
24991,-117.647058823529,4,2,1,50,0,0
40351,-95.2380952380952,4,2,1,60,0,0
48031,-105.263157894737,4,2,1,70,0,0
63401,480,4,2,1,80,1,0
63401,-83.3333333333333,4,2,1,80,0,0
76601,-200,4,2,1,80,0,0
76961,-200,4,2,1,5,0,0
77081,-57.1428571428571,4,2,1,80,0,0
77321,-66.6666666666667,4,2,1,80,0,0
78771,480,4,2,1,90,1,1
78771,-55.5555555555556,4,2,1,90,0,1
93651,444.444444444444,4,2,1,90,1,1
94131,480,4,2,1,90,1,1
94131,-55.5555555555556,4,2,1,90,0,1
109491,-86.9565217391304,4,2,1,100,0,0
117181,480,4,2,1,70,1,0
117181,-100,4,2,1,70,0,0
122461,460.652591170825,4,2,1,70,1,0
122921,480,4,2,1,70,1,0
124361,-71.4285714285714,4,2,1,70,0,0
124841,-125,4,2,1,70,0,0
126271,480,4,2,1,85,1,0
126751,480,4,2,1,70,1,0
128681,480,4,2,1,70,1,0
130601,-68.9655172413793,4,2,1,75,0,0
132521,-83.3333333333333,4,2,1,80,0,0
134451,480,4,2,1,80,1,0
134451,-83.3333333333333,4,2,1,80,0,0
140211,-90.9090909090909,4,2,1,80,0,0
145491,-68.9655172413793,4,2,1,80,0,0
146451,-68.9655172413793,4,2,1,90,0,0
147891,-55.5555555555556,4,2,1,90,0,1
151751,480,4,2,1,90,1,1
151751,-55.5555555555556,4,2,1,90,0,1
155581,480,4,2,1,90,1,1
155581,-55.5555555555556,4,2,1,90,0,1
175261,465.116279069767,4,2,1,90,1,1
175261,-55.5555555555556,4,2,1,90,0,1
176221,480,4,2,1,90,1,1
176701,480,4,2,1,90,1,1
176701,-55.5555555555556,4,2,1,90,0,1
177181,461.538461538462,4,2,1,90,1,1
177181,-55.5555555555556,4,2,1,90,0,1
178141,480,4,2,1,90,1,1
178141,-50,4,2,1,90,0,1
178341,-55.5555555555556,4,2,1,5,0,1
178381,-50,4,2,1,90,0,1
178581,-55.5555555555556,4,2,1,5,0,1
178621,480,4,2,1,60,1,0
178621,-86.9565217391304,4,2,1,60,0,0
193991,480,4,2,1,60,1,0
193991,-86.9565217391304,4,2,1,60,0,0
197101,480,4,2,1,60,1,0
197101,-86.9565217391304,4,2,1,60,0,0
197821,480,4,2,1,60,1,0
197821,-86.9565217391304,4,2,1,60,0,0
201301,-99.009900990099,4,2,1,60,0,0
201661,-76.9230769230769,4,2,1,70,0,0
207421,487.80487804878,4,2,1,70,1,0
207421,-76.9230769230769,4,2,1,70,0,0
208884,457.142857142857,4,2,1,70,1,0
208884,-76.9230769230769,4,2,1,70,0,0
209341,480,4,2,1,70,1,0
209341,-117.647058823529,4,2,1,50,0,0
212241,480,4,2,1,50,1,0
212961,-117.647058823529,4,2,1,50,0,0
213201,480,4,2,1,50,1,0
213201,-117.647058823529,4,2,1,50,0,0
222791,503.14465408805,4,2,1,50,1,0
222791,-117.647058823529,4,2,1,50,0,0
223461,413.793103448276,4,2,1,50,1,0
223461,-117.647058823529,4,2,1,50,0,0
223943,480,4,2,1,50,1,0
223943,-117.647058823529,4,2,1,50,0,0
224741,480,4,2,1,50,1,0
224741,-117.647058823529,4,2,1,50,0,0
227361,480,4,2,1,50,1,0
227361,-117.647058823529,4,2,1,50,0,0
227601,480,4,2,1,50,1,0
227601,-117.647058823529,4,2,1,50,0,0
228561,480,4,2,1,50,1,0
228561,-117.647058823529,4,2,1,50,0,0
232401,-90.9090909090909,4,2,1,75,0,0
236721,-80,4,2,1,80,0,0
237201,-71.4285714285714,4,2,1,85,0,0
237681,-55.5555555555556,4,2,1,90,0,0
238401,-58.8235294117647,4,2,1,95,0,0
238881,-58.8235294117647,4,2,1,50,0,0
239121,-250,4,2,1,50,0,0
240061,480,4,2,1,90,1,1
240061,-55.5555555555556,4,2,1,90,0,1
243921,480,4,2,1,90,1,1
243921,-55.5555555555556,4,2,1,90,0,1
250611,485.436893203884,4,2,1,90,1,1
250611,-55.5555555555556,4,2,1,90,0,1
251581,480,4,2,1,90,1,1
251581,-55.5555555555556,4,2,1,90,0,1
253381,-59.9880023995201,4,2,1,90,0,1
253521,480,4,2,1,90,1,1
253521,-55.5555555555556,4,2,1,90,0,1
254481,470.219435736677,4,2,1,90,1,1
254481,-55.5555555555556,4,2,1,90,0,1
255421,480,4,2,1,90,1,1
255421,-55.5555555555556,4,2,1,90,0,1
257351,480,4,2,1,90,1,1
257351,-55.5555555555556,4,2,1,90,0,1
259261,480.961923847695,4,2,1,90,1,1
259261,-55.5555555555556,4,2,1,90,0,1
266951,480,4,2,1,90,1,1
266951,-55.5555555555556,4,2,1,90,0,1
268871,461.538461538462,4,2,1,90,1,1
268871,-55.5555555555556,4,2,1,90,0,1
269794,521.739130434783,4,2,1,90,1,1
269794,-55.5555555555556,4,2,1,90,0,1
270315,468.75,4,2,1,90,1,1
270315,-55.5555555555556,4,2,1,90,0,1
270771,480,4,2,1,100,1,0
270771,-83.3333333333333,4,2,1,100,0,0
271271,480,4,2,1,75,1,0
272711,480,4,2,1,100,1,0
274391,-50,4,2,1,90,0,1
299591,-33.3333333333333,4,2,1,100,0,0
301511,-33.3333333333333,4,2,1,85,0,0
303431,-71.4285714285714,4,2,1,75,0,0
303931,480,4,2,1,75,1,0
303931,-71.4285714285714,4,2,1,75,0,0
305371,475.247524752475,4,2,1,75,1,0
305371,-71.4285714285714,4,2,1,75,0,0
307271,480,4,2,1,75,1,0
307271,-71.4285714285714,4,2,1,75,0,0
313011,480,4,2,1,75,1,0
313011,-71.4285714285714,4,2,1,75,0,0
316391,480,4,2,1,75,1,0
316391,-71.4285714285714,4,2,1,75,0,0
316631,-71.4285714285714,4,2,1,90,0,0
316871,480,4,2,1,90,1,0
316871,-71.4285714285714,4,2,1,90,0,0

[Colours]
Combo1 : 165,139,122
Combo2 : 242,200,75
Combo3 : 140,91,62
Combo4 : 242,183,73
Combo5 : 123,75,32
Combo6 : 242,190,126

[HitObjects]
58,62,1711,5,2,0:2:0:0:
58,62,1951,2,0,P|96:114|112:185,1,94.499997116089,4|0,3:2|0:0,0:0:0:0:
163,192,2311,1,2,0:0:0:0:
159,200,2431,1,8,3:2:0:0:
257,100,2671,1,0,3:0:0:0:
264,105,2791,2,0,P|312:94|375:79,1,94.499997116089,2|8,0:0|3:2,0:0:0:0:
411,32,3151,1,4,3:0:0:0:
505,132,3391,2,0,L|480:200,1,47.2499985580445,8|2,3:2|0:0,0:0:0:0:
424,228,3631,2,0,L|410:192,2,31.4999990386963,0|4|4,3:0|3:0|3:0,0:0:0:0:
469,294,3871,5,0,3:0:0:0:
463,300,3991,2,0,P|403:321|375:370,1,94.499997116089,2|2,0:0|3:2,0:0:0:0:
322,294,4351,2,0,P|262:273|234:224,1,94.499997116089,8|0,3:2|3:0,0:0:0:0:
173,227,4711,1,2,0:0:0:0:
55,329,4951,1,8,3:2:0:0:
61,322,5071,2,0,L|41:241,1,47.2499985580445,4|0,3:0|0:0,0:0:0:0:
0,219,5311,2,0,L|20:138,2,47.2499985580445,8|0|2,3:2|3:0|3:2,0:0:0:0:
81,141,5671,1,4,3:0:0:0:
81,141,5731,1,4,3:0:0:0:
81,141,5791,6,0,L|62:76,1,47.2499985580445,2|0,3:2|3:0,0:0:0:0:
195,214,6151,1,0,3:0:0:0:
201,207,6271,2,0,P|254:194|302:240,1,94.499997116089,8|2,3:2|3:2,0:0:0:0:
338,262,6631,2,0,P|391:275|439:229,1,94.499997116089,2|8,0:0|3:2,0:0:0:0:
496,251,6991,1,4,3:0:0:0:
384,134,7231,2,0,P|416:117|445:111,1,47.2499985580445,8|2,3:2|0:0,0:0:0:0:
501,35,7471,1,0,3:0:0:0:
494,46,7551,1,4,3:0:0:0:
498,60,7631,1,4,3:0:0:0:
484,63,7711,6,0,P|436:40|386:-9,1,94.499997116089,0|2,3:0|0:0,0:0:0:0:
343,56,8071,1,0,3:0:0:0:
333,54,8191,2,0,L|254:28,1,47.2499985580445,8|0,3:2|0:0,0:0:0:0:
227,79,8431,2,0,L|104:114,1,94.499997116089,0|0,3:0|0:0,0:0:0:0:
67,79,8791,1,8,3:2:0:0:
59,84,8911,1,4,3:0:0:0:
153,219,9151,2,0,P|120:286|131:322,1,94.499997116089,8|2,3:2|3:2,0:0:0:0:
223,255,9511,1,4,3:0:0:0:
231,262,9631,6,0,P|304:277|364:305,1,110.249996635437,2|0,3:2|0:0,0:0:0:0:
389,348,9991,1,0,3:0:0:0:
395,357,10111,1,8,3:2:0:0:
494,269,10351,1,0,3:0:0:0:
487,260,10471,2,0,P|462:182|454:136,1,110.249996635437,2|8,3:2|3:2,0:0:0:0:
497,89,10831,1,4,3:0:0:0:
378,17,11071,1,8,3:2:0:0:
368,22,11191,1,0,3:0:0:0:
306,68,11311,1,0,3:0:0:0:
296,62,11431,1,0,3:0:0:0:
222,27,11551,6,0,P|140:9|63:-7,1,110.249996635437,2|0,3:2|3:2,0:0:0:0:
62,63,11911,1,2,3:2:0:0:
53,70,12031,2,0,L|-7:91,1,55.1249983177186,8|0,3:2|0:0,0:0:0:0:
116,159,12271,2,0,P|175:210|168:297,1,165.374994953156,2|8,3:2|3:2,0:0:0:0:
120,346,12751,1,4,3:0:0:0:
280,260,12991,2,0,P|316:279|347:288,1,55.1249983177186,10|0,3:2|0:0,0:0:0:0:
396,246,13231,1,4,3:0:0:0:
402,254,13351,1,4,3:0:0:0:
469,300,13471,6,0,P|485:226|481:135,1,165.374994953156,2|2,3:2|0:0,0:0:0:0:
512,70,13951,2,0,P|448:47|391:92,1,110.249996635437,8|4,3:2|3:0,0:0:0:0:
361,116,14311,1,0,3:0:0:0:
228,28,14551,1,10,3:2:0:0:
219,35,14671,2,0,P|181:23|124:12,1,55.1249983177186,2|0,3:2|3:0,0:0:0:0:
105,64,14911,1,8,3:2:0:0:
112,71,15031,1,0,3:0:0:0:
153,133,15151,1,2,3:2:0:0:
145,140,15271,1,4,3:0:0:0:
94,194,15391,6,0,P|69:286|65:316,1,110.249996635437,2|0,3:2|0:0,0:0:0:0:
88,370,15751,1,0,3:0:0:0:
83,380,15871,1,8,3:2:0:0:
204,291,16111,1,4,3:0:0:0:
221,306,16231,1,0,3:0:0:0:
294,356,16351,1,0,3:0:0:0:
313,341,16471,1,8,3:2:0:0:
374,285,16591,2,0,P|419:304|448:332,1,55.1249983177186,2|0,3:2|0:0,0:0:0:0:
512,164,16831,2,0,P|456:197|369:205,1,110.249996635437,8|2,3:2|3:2,0:0:0:0:
405,203,17151,1,4,3:0:0:0:
398,210,17231,1,4,3:0:0:0:
386,206,17311,5,2,3:2:0:0:
327,163,17431,2,0,P|342:100|360:31,1,110.249996635437,2|0,3:2|3:0,0:0:0:0:
414,9,17791,1,8,3:2:0:0:
246,114,18031,1,0,3:0:0:0:
238,106,18151,2,0,P|205:86|176:86,1,55.1249983177186,4|0,3:0|0:0,0:0:0:0:
156,12,18391,1,8,3:2:0:0:
149,20,18511,2,0,P|116:40|87:40,1,55.1249983177186,2|0,3:2|0:0,0:0:0:0:
40,85,18751,1,8,3:2:0:0:
47,92,18871,1,0,3:0:0:0:
90,152,18991,1,0,3:0:0:0:
83,159,19111,1,4,3:0:0:0:
31,218,19231,6,0,P|49:295|58:352,1,110.249996635437,2|0,3:2|0:0,0:0:0:0:
122,365,19591,1,0,3:0:0:0:
121,354,19711,2,0,P|134:315|154:286,1,55.1249983177186,8|0,3:2|0:0,0:0:0:0:
135,228,19951,2,0,B|224:223|191:298|290:293,1,165.374994953156,2|8,3:2|3:2,0:0:0:0:
338,248,20431,1,4,3:0:0:0:
512,384,20671,2,0,B|520:357|520:357|507:321,1,55.1249983177186,8|0,3:2|3:0,0:0:0:0:
434,288,20911,2,0,B|426:315|426:315|439:351,1,55.1249983177186,2|4,3:2|3:0,0:0:0:0:
503,240,21151,6,0,P|487:160|482:83,1,110.249996635437,2|2,3:2|0:2,0:0:0:0:
443,71,21511,1,4,3:0:0:0:
449,61,21631,1,8,3:2:0:0:
318,153,21871,1,0,3:0:0:0:
309,145,21991,2,0,P|220:124|152:106,1,110.249996635437,2|8,3:2|3:2,0:0:0:0:
144,73,22351,1,0,3:0:0:0:
33,184,22591,1,8,3:2:0:0:
41,191,22711,1,0,3:0:0:0:
106,243,22831,2,0,L|137:226,2,27.5624991588593,0|4|4,3:0|3:0|3:0,0:0:0:0:
48,308,23071,6,0,P|118:325|234:368,1,165.374994953156,2|2,3:2|3:2,0:0:0:0:
266,301,23551,2,0,P|304:292|341:273,1,55.1249983177186,8|0,3:2|0:0,0:0:0:0:
440,367,23791,1,2,3:2:0:0:
429,363,23911,2,0,P|395:309|431:234,1,110.249996635437,4|8,3:0|3:2,0:0:0:0:
455,213,24271,2,0,P|474:257|469:281,1,55.1249983177186,4|0,3:0|3:0,0:0:0:0:
349,189,24511,5,8,3:2:0:0:
404,141,24631,1,4,3:0:0:0:
345,100,24751,1,2,3:2:0:0:
286,143,24871,1,4,3:0:0:0:
286,143,24991,6,0,P|215:164|171:195,1,89.2500017023087,6|2,3:2|0:0,0:0:0:0:
104,155,25351,1,0,3:0:0:0:
111,160,25471,2,0,P|145:223|147:259,1,89.2500017023087,10|2,3:2|3:2,0:0:0:0:
100,298,25831,2,0,P|84:327|85:366,1,44.6250008511543,2|0,3:2|0:0,0:0:0:0:
140,381,26071,1,10,3:2:0:0:
147,376,26191,1,4,3:0:0:0:
155,373,26311,1,0,3:0:0:0:
213,322,26431,2,0,P|252:340|294:348,1,44.6250008511543,10|0,3:2|0:0,0:0:0:0:
320,304,26671,1,2,3:2:0:0:
361,364,26791,6,0,P|400:346|442:338,1,44.6250008511543,2|2,0:0|3:0,0:0:0:0:
451,292,27031,2,0,P|434:221|423:167,1,89.2500017023087,2|2,0:0|3:2,0:0:0:0:
453,139,27391,1,10,3:2:0:0:
355,6,27631,1,2,3:2:0:0:
306,55,27751,2,0,P|248:79|202:105,1,89.2500017023087,2|10,3:2|3:2,0:0:0:0:
187,151,28111,1,2,3:2:0:0:
127,114,28231,2,0,P|104:103|67:85,1,44.6250008511543,2|8,3:2|3:2,0:0:0:0:
32,202,28471,2,0,P|55:191|92:173,2,44.6250008511543,2|0|4,0:0|3:0|3:0,0:0:0:0:
94,264,28831,5,2,3:0:0:0:
100,269,28951,1,4,3:0:0:0:
67,338,29071,1,2,0:0:0:0:
131,376,29191,1,2,3:2:0:0:
209,321,29311,2,0,P|235:305|280:306,1,44.6250008511543,10|0,3:2|0:0,0:0:0:0:
304,381,29551,1,2,3:2:0:0:
364,349,29671,2,0,P|382:285|387:226,1,89.2500017023087,2|10,3:2|3:2,0:0:0:0:
341,202,30031,2,0,P|318:149|316:136,1,44.6250008511543,2|0,3:0|0:0,0:0:0:0:
379,112,30271,1,10,3:2:0:0:
277,36,30511,1,2,3:2:0:0:
249,110,30631,6,0,P|210:82|189:66,1,44.6250008511543,2|2,3:2|3:0,0:0:0:0:
144,58,30871,2,0,P|105:86|84:102,1,44.6250008511543,2|0,0:0|0:0,0:0:0:0:
21,67,31111,2,0,L|42:128,1,44.6250008511543,2|8,3:2|3:2,0:0:0:0:
99,157,31351,1,2,0:0:0:0:
55,219,31471,1,2,3:2:0:0:
118,260,31591,2,0,L|97:321,1,44.6250008511543,2|0,3:2|3:0,0:0:0:0:
145,363,31831,1,10,3:2:0:0:
152,357,31951,1,4,3:0:0:0:
274,193,32191,2,0,P|238:183|212:169,1,44.6250008511543,8|4,3:2|3:0,0:0:0:0:
338,261,32431,2,0,P|302:271|276:285,1,44.6250008511543,2|0,3:2|3:0,0:0:0:0:
408,220,32671,5,2,3:2:0:0:
301,40,32911,1,2,0:0:0:0:
366,4,33031,1,2,3:2:0:0:
427,46,33151,2,0,P|472:32|493:26,1,44.6250008511543,10|0,3:2|0:0,0:0:0:0:
342,157,33391,1,2,3:2:0:0:
270,179,33511,2,0,P|237:166|202:161,1,44.6250008511543,2|0,3:2|0:0,0:0:0:0:
103,111,33751,2,0,P|137:157|145:191,1,89.2500017023087,10|2,3:2|0:0,0:0:0:0:
106,254,34111,1,10,3:2:0:0:
223,365,34351,1,2,3:2:0:0:
265,298,34471,6,0,P|304:316|334:323,1,44.6250008511543,2|2,3:2|3:0,0:0:0:0:
363,363,34711,2,0,P|402:345|432:338,1,44.6250008511543,2|0,0:0|3:0,0:0:0:0:
512,247,34951,1,2,3:2:0:0:
454,282,35071,2,0,P|433:274|413:263,1,44.6250008511543,10|0,3:2|0:0,0:0:0:0:
365,207,35311,1,2,3:2:0:0:
439,192,35431,2,0,P|454:146|461:131,1,44.6250008511543,2|0,3:2|0:0,0:0:0:0:
472,61,35671,1,10,3:2:0:0:
412,26,35791,1,2,3:2:0:0:
359,73,35911,1,2,0:0:0:0:
293,97,36031,1,10,3:2:0:0:
233,62,36151,2,0,P|210:48|188:44,2,44.6250008511543,2|4|4,3:2|3:0|3:0,0:0:0:0:
284,12,36511,5,2,3:2:0:0:
161,144,36751,1,2,0:0:0:0:
99,100,36871,1,2,3:2:0:0:
37,142,36991,2,0,P|22:175|15:202,1,44.6250008511543,10|0,3:2|0:0,0:0:0:0:
88,236,37231,1,2,3:2:0:0:
141,278,37351,2,0,P|156:311|163:338,1,44.6250008511543,2|0,3:2|0:0,0:0:0:0:
11,355,37591,2,0,P|18:334|28:314,1,44.6250008511543,10|4,3:2|3:0,0:0:0:0:
233,369,37951,2,0,P|264:337|333:323,1,89.2500017023087,10|2,3:2|3:2,0:0:0:0:
371,351,38311,6,0,P|416:363|435:345,1,44.6250008511543,2|2,3:2|3:0,0:0:0:0:
425,293,38551,2,0,P|400:216|391:168,1,89.2500017023087,2|2,0:0|3:2,0:0:0:0:
418,139,38911,1,10,3:2:0:0:
403,0,39151,1,2,3:2:0:0:
341,35,39271,2,0,P|279:64|262:73,1,44.6250008511543,2|0,3:2|0:0,0:0:0:0:
204,23,39511,1,10,3:2:0:0:
153,78,39631,1,2,3:2:0:0:
203,139,39751,1,2,0:0:0:0:
270,174,39871,1,10,3:2:0:0:
292,247,39991,2,0,P|274:302|271:334,1,89.2500017023087,2|4,3:2|3:0,0:0:0:0:
350,326,40351,6,0,B|268:312|300:392|167:371,1,165.374994953156,6|0,3:2|3:0,0:0:0:0:
124,383,40831,2,0,P|139:323|147:305,1,55.1249983177186,8|0,3:2|0:0,0:0:0:0:
76,294,41071,1,0,3:0:0:0:
68,301,41191,2,0,P|53:216|43:178,1,110.249996635437,2|8,3:2|3:2,0:0:0:0:
1,142,41551,1,4,3:0:0:0:
99,21,41791,1,8,3:2:0:0:
107,27,41911,1,0,3:0:0:0:
154,89,42031,1,2,0:0:0:0:
162,83,42151,1,0,3:0:0:0:
233,48,42271,6,0,P|282:72|345:88,1,110.249996635437,2|0,3:2|0:0,0:0:0:0:
400,62,42631,1,2,0:0:0:0:
410,61,42751,2,0,P|459:45|481:29,1,55.1249983177186,8|0,3:2|0:0,0:0:0:0:
512,124,42991,2,0,P|480:175|464:261,1,110.249996635437,2|0,3:2|0:0,0:0:0:0:
499,284,43351,1,8,3:2:0:0:
503,293,43471,1,2,3:2:0:0:
374,368,43711,1,10,3:2:0:0:
253,255,43951,1,2,3:2:0:0:
262,249,44071,1,4,3:0:0:0:
283,174,44191,6,0,P|245:159|212:139,1,55.1249983177186,2|0,3:2|0:0,0:0:0:0:
346,73,44431,2,0,P|308:88|275:108,1,55.1249983177186,2|0,0:0|3:0,0:0:0:0:
163,186,44671,2,0,P|127:123|162:64,1,110.249996635437,8|0,3:2|3:0,0:0:0:0:
177,33,45031,2,0,P|203:59|205:87,1,55.1249983177186,2|0,3:2|0:0,0:0:0:0:
34,0,45271,1,8,3:2:0:0:
49,66,45391,2,0,P|31:119|21:191,1,110.249996635437,4|8,3:0|3:2,0:0:0:0:
75,225,45751,1,0,3:0:0:0:
68,233,45871,1,4,3:0:0:0:
18,298,45991,5,4,3:0:0:0:
18,298,46051,1,4,3:0:0:0:
18,298,46111,2,0,P|75:330|78:361,1,55.1249983177186,0|0,3:0|3:0,0:0:0:0:
181,369,46351,5,8,3:2:0:0:
148,302,46471,1,4,3:0:0:0:
280,245,46591,5,8,3:2:0:0:
245,311,46711,1,4,3:0:0:0:
313,347,46831,1,4,3:0:0:0:
414,362,46951,5,8,3:2:0:0:
441,293,47071,1,4,3:0:0:0:
494,224,47191,5,8,3:2:0:0:
423,190,47311,1,4,3:0:0:0:
431,118,47431,1,4,3:0:0:0:
375,46,47551,5,8,3:2:0:0:
272,0,47671,1,0,3:0:0:0:
195,66,47791,5,8,3:2:0:0:
125,102,47911,1,0,3:0:0:0:
38,69,48031,6,0,P|23:97|16:145,1,49.8749986681939,6|0,3:2|0:0,0:0:0:0:
117,225,48271,2,0,P|109:201|97:179,1,49.8749986681939,2|0,0:0|3:0,0:0:0:0:
31,251,48511,2,0,P|4:327|-8:392,1,99.7499973363877,10|2,3:2|3:2,0:0:0:0:
77,370,48871,2,0,P|153:343|218:331,1,99.7499973363877,2|2,0:2|0:0,0:0:0:0:
254,374,49231,1,0,3:0:0:0:
512,384,49471,2,0,P|490:320|488:301,1,49.8749986681939,10|0,3:2|0:0,0:0:0:0:
435,288,49711,1,2,3:2:0:0:
493,231,49831,6,0,P|515:167|517:148,1,49.8749986681939,2|2,0:0|3:0,0:0:0:0:
451,130,50071,2,0,P|371:153|314:162,1,99.7499973363877,2|2,0:0|0:0,0:0:0:0:
286,132,50431,2,0,B|275:155|275:155|285:178,1,49.8749986681939,10|0,3:2|0:0,0:0:0:0:
211,228,50671,1,2,3:2:0:0:
257,282,50791,2,0,B|267:305|267:305|256:328,1,49.8749986681939,2|0,3:2|0:0,0:0:0:0:
315,384,51031,1,10,3:2:0:0:
174,330,51151,2,0,P|104:350|71:358,1,99.7499973363877,0|10,3:0|3:2,0:0:0:0:
8,378,51511,2,0,B|-2:355|-2:355|9:332,1,49.8749986681939,2|0,0:0|3:0,0:0:0:0:
97,220,51751,1,4,3:0:0:0:
97,220,51811,1,4,3:0:0:0:
97,220,51871,6,0,B|108:243|108:243|98:266,1,49.8749986681939,2|0,3:0|0:0,0:0:0:0:
0,126,52111,2,0,P|45:148|83:152,1,49.8749986681939,2|0,0:0|3:0,0:0:0:0:
186,233,52351,2,0,P|231:211|307:201,1,99.7499973363877,10|2,3:2|3:2,0:0:0:0:
297,122,52711,2,0,P|342:144|380:148,1,49.8749986681939,2|0,0:0|0:0,0:0:0:0:
461,250,52951,2,0,B|450:224|450:224|459:189,1,49.8749986681939,10|0,3:2|3:0,0:0:0:0:
354,263,53191,1,2,0:0:0:0:
384,326,53311,2,0,P|305:347|271:356,1,99.7499973363877,10|2,3:2|0:0,0:0:0:0:
178,264,53671,5,4,3:0:0:0:
178,264,53731,1,4,3:0:0:0:
178,264,53791,2,0,P|207:326|191:362,1,99.7499973363877,2|2,3:0|0:0,0:0:0:0:
129,331,54151,1,2,0:2:0:0:
71,375,54271,1,10,3:2:0:0:
2,239,54511,1,2,3:2:0:0:
46,181,54631,2,0,P|60:116|65:59,1,99.7499973363877,2|10,3:2|3:2,0:0:0:0:
133,37,54991,2,0,P|148:101|156:119,1,49.8749986681939,0|0,3:0|0:0,0:0:0:0:
215,163,55231,1,8,3:2:0:0:
221,155,55351,1,0,0:0:0:0:
287,121,55471,1,0,3:0:0:0:
293,129,55591,1,4,3:0:0:0:
368,147,55711,5,2,3:0:0:0:
474,25,55951,2,0,P|496:54|502:99,1,49.8749986681939,2|0,0:0|3:0,0:0:0:0:
480,144,56191,2,0,P|458:173|452:218,1,49.8749986681939,10|0,3:2|0:0,0:0:0:0:
502,246,56431,1,2,3:2:0:0:
439,290,56551,2,0,P|387:266|323:253,1,99.7499973363877,2|10,3:2|3:2,0:0:0:0:
281,297,56911,1,2,3:2:0:0:
209,275,57031,1,2,0:0:0:0:
163,334,57151,2,0,P|191:377|199:399,1,49.8749986681939,10|0,3:2|0:0,0:0:0:0:
50,277,57391,2,0,P|20:267|7:267,3,24.9374993340969,2|4|4|4,3:2|3:0|3:0|3:0,0:0:0:0:
116,234,57631,5,2,3:0:0:0:
109,226,57751,2,0,P|89:159|80:112,1,99.7499973363877,2|2,0:0|3:2,0:0:0:0:
31,80,58111,1,10,3:2:0:0:
225,190,58351,1,2,3:2:0:0:
296,174,58471,2,0,P|329:186|353:189,1,49.8749986681939,2|0,0:0|0:0,0:0:0:0:
198,89,58711,2,0,P|231:77|255:74,1,49.8749986681939,10|0,3:2|3:0,0:0:0:0:
459,74,58951,1,2,0:0:0:0:
448,0,59071,1,10,3:2:0:0:
377,8,59191,2,0,P|339:56|357:119,1,99.7499973363877,2|4,0:0|3:0,0:0:0:0:
295,155,59551,5,2,3:0:0:0:
474,223,59791,1,2,0:0:0:0:
419,270,59911,1,2,3:2:0:0:
471,322,60031,2,0,P|480:372|485:395,1,49.8749986681939,10|0,3:2|0:0,0:0:0:0:
286,342,60271,1,2,3:2:0:0:
324,285,60391,2,0,P|328:260|332:235,1,49.8749986681939,2|0,0:0|0:0,0:0:0:0:
196,352,60631,1,10,3:2:0:0:
187,347,60751,2,0,L|110:329,1,49.8749986681939,0|0,3:0|0:0,0:0:0:0:
64,366,60991,1,10,3:2:0:0:
207,236,61231,2,0,L|246:223,3,24.9374993340969,2|4|4|4,3:2|3:0|3:0|3:0,0:0:0:0:
141,195,61471,6,0,P|121:152|128:126,1,49.8749986681939,2|0,3:0|0:0,0:0:0:0:
228,102,61711,2,0,P|223:126|208:145,1,49.8749986681939,2|0,0:0|3:0,0:0:0:0:
107,0,61951,2,0,P|176:20|245:36,1,99.7499973363877,10|2,3:2|0:0,0:0:0:0:
315,85,62311,1,0,3:0:0:0:
322,78,62431,2,0,P|331:36|336:3,1,49.8749986681939,2|0,0:0|3:0,0:0:0:0:
420,103,62671,2,0,P|424:127|436:163,1,49.8749986681939,2|0,3:2|3:0,0:0:0:0:
279,242,62911,1,10,3:2:0:0:
352,218,63031,1,4,3:0:0:0:
413,268,63151,1,0,3:2:0:0:
402,341,63271,1,4,3:0:0:0:
327,365,63401,6,0,P|258:340|214:332,1,62.9999980773926,6|0,3:2|0:0,0:0:0:0:
189,291,63641,2,0,P|120:316|76:324,1,62.9999980773926,2|0,0:0|0:0,0:0:0:0:
6,145,63881,2,0,B|-10:118|-10:118|3:82,1,62.9999980773926,10|0,3:2|0:0,0:0:0:0:
75,114,64121,2,0,B|165:93|153:177|253:157,1,188.999994232178,2|0,3:2|0:0,0:0:0:0:
320,196,64601,2,0,B|337:165|337:165|315:110,1,62.9999980773926,2|0,3:2|0:0,0:0:0:0:
240,17,64841,2,0,B|229:42|229:42|246:73,1,62.9999980773926,10|0,3:2|0:0,0:0:0:0:
446,151,65081,2,0,P|490:129|535:118,1,62.9999980773926,2|0,3:2|0:0,0:0:0:0:
383,64,65321,5,2,3:0:0:0:
452,267,65561,2,0,P|422:255|394:240,1,62.9999980773926,2|0,0:0|0:0,0:0:0:0:
401,345,65801,2,0,P|430:356|458:371,1,62.9999980773926,8|0,3:2|0:0,0:0:0:0:
244,251,66041,2,0,P|175:298|180:359,1,125.999996154785,2|2,3:2|0:0,0:0:0:0:
92,250,66401,1,0,3:0:0:0:
26,295,66521,2,0,P|10:254|17:194,1,62.9999980773926,2|0,3:2|0:0,0:0:0:0:
188,122,66761,2,0,P|183:153|170:181,1,62.9999980773926,10|0,3:2|0:0,0:0:0:0:
30,53,67001,1,2,3:2:0:0:
37,63,67121,1,0,3:0:0:0:
92,0,67241,6,0,P|166:23|263:37,1,125.999996154785,2|0,3:2|0:0,0:0:0:0:
355,105,67601,1,0,3:0:0:0:
345,112,67721,2,0,P|307:70|313:27,1,62.9999980773926,10|0,3:2|0:0,0:0:0:0:
441,171,67961,1,0,3:0:0:0:
390,222,68081,1,2,0:0:0:0:
444,275,68201,2,0,L|463:354,1,62.9999980773926,2|0,3:2|3:0,0:0:0:0:
275,275,68441,2,0,L|289:213,1,62.9999980773926,2|0,3:2|0:0,0:0:0:0:
362,370,68681,2,0,L|300:384,1,62.9999980773926,10|0,3:2|0:0,0:0:0:0:
204,351,68921,5,2,3:2:0:0:
311,225,69161,1,0,3:0:0:0:
164,134,69401,1,2,3:0:0:0:
40,258,69641,1,8,3:2:0:0:
259,171,69881,6,0,P|212:194|194:219,1,62.9999980773926,2|0,3:2|0:0,0:0:0:0:
117,249,70121,2,0,P|163:272|181:297,1,62.9999980773926,2|0,0:0|0:0,0:0:0:0:
80,174,70361,2,0,P|60:104|56:79,1,62.9999980773926,2|0,3:2|0:0,0:0:0:0:
261,300,70601,2,0,P|253:330|242:360,1,62.9999980773926,10|0,3:2|0:0,0:0:0:0:
416,307,70841,5,4,3:0:0:0:
472,241,70961,1,4,3:0:0:0:
394,212,71081,2,0,P|360:142|431:48,1,188.999994232178,2|0,3:2|0:0,0:0:0:0:
274,0,71561,2,0,P|293:35|288:68,1,62.9999980773926,8|0,3:2|0:0,0:0:0:0:
187,133,71801,2,0,P|187:101|204:75,1,62.9999980773926,2|0,3:2|0:0,0:0:0:0:
274,187,72041,1,2,3:2:0:0:
264,195,72161,1,0,3:0:0:0:
200,249,72281,2,0,P|172:234|120:226,1,62.9999980773926,2|0,3:2|0:0,0:0:0:0:
31,175,72521,2,0,P|61:167|89:152,1,62.9999980773926,10|0,3:2|0:0,0:0:0:0:
101,340,72761,1,4,3:0:0:0:
116,329,72841,1,4,3:0:0:0:
130,335,72921,1,4,3:0:0:0:
145,328,73001,6,0,P|213:346|279:396,1,125.999996154785,2|0,3:2|0:0,0:0:0:0:
404,241,73361,1,0,3:0:0:0:
396,230,73481,2,0,P|340:268|347:346,2,125.999996154785,10|0|2,3:2|3:0|0:0,0:0:0:0:
505,120,74081,1,0,3:0:0:0:
496,129,74201,2,0,P|460:149|395:126,1,62.9999980773926,2|0,3:2|0:0,0:0:0:0:
327,55,74441,2,0,P|358:58|384:75,1,62.9999980773926,10|0,3:2|0:0,0:0:0:0:
305,187,74681,1,2,3:2:0:0:
248,149,74801,1,0,3:0:0:0:
187,185,74921,6,0,P|168:145|176:109,1,62.9999980773926,2|0,3:0|0:0,0:0:0:0:
102,19,75161,2,0,P|100:50|84:76,1,62.9999980773926,2|0,0:0|0:0,0:0:0:0:
10,114,75401,1,8,3:2:0:0:
65,276,75641,2,0,B|166:253|128:356|245:343,1,188.999994232178,2|0,3:2|0:0,0:0:0:0:
300,301,76121,2,0,P|352:284|399:280,1,62.9999980773926,2|0,3:2|0:0,0:0:0:0:
465,179,76361,2,0,P|434:171|404:160,1,62.9999980773926,10|0,3:2|0:0,0:0:0:0:
255,54,76601,6,0,B|242:93|242:93|261:144,1,78.75,2|0,3:2|0:0,0:0:0:0:
243,133,77081,6,0,B|226:86|226:86|241:44,1,91.8750008761883,4|0,3:0|0:0,0:0:0:0:
142,157,77321,2,0,B|56:142|83:216|-43:212,1,157.500006008148,12|0,3:2|3:0,0:0:0:0:
184,262,77681,1,0,3:0:0:0:
129,362,77801,2,0,P|97:305|130:245,1,105.000004005432,2|4,3:2|3:0,0:0:0:0:
243,360,78041,1,4,3:0:0:0:
300,312,78161,1,0,3:0:0:0:
396,335,78281,5,8,3:2:0:0:
471,267,78401,1,4,3:0:0:0:
399,197,78521,2,0,P|348:183|318:167,1,78.7500030040742,4|0,3:0|3:0,0:0:0:0:
70,143,78771,6,0,B|173:146|123:223|255:233,1,188.999994232178,6|2,3:2|3:2,0:0:0:0:
125,306,79131,1,4,3:0:0:0:
216,371,79251,2,0,P|317:342|366:335,1,94.499997116089,10|0,3:2|0:0,0:0:0:0:
413,179,79491,2,0,P|367:167|322:152,1,94.499997116089,2|4,0:3|3:0,0:0:0:0:
466,384,79731,2,0,P|477:338|492:293,1,94.499997116089,2|0,3:2|0:0,0:0:0:0:
283,347,79971,1,2,3:2:0:0:
289,353,80091,1,0,3:0:0:0:
295,360,80211,2,0,P|344:362|385:322,1,94.499997116089,10|0,3:2|0:0,0:0:0:0:
512,192,80451,2,0,P|474:164|428:167,1,94.499997116089,2|0,3:0|3:0,0:0:0:0:
218,212,80691,6,0,P|140:233|25:274,1,188.999994232178,2|2,3:2|3:2,0:0:0:0:
79,179,81051,1,4,3:0:0:0:
140,116,81171,2,0,P|82:99|40:75,1,94.499997116089,10|0,3:2|0:0,0:0:0:0:
139,259,81411,2,0,P|81:276|39:300,1,94.499997116089,2|4,3:2|3:0,0:0:0:0:
263,127,81651,1,2,0:0:0:0:
270,120,81771,1,0,3:0:0:0:
278,115,81891,2,0,B|320:93|320:93|405:133,1,94.499997116089,2|0,3:2|0:0,0:0:0:0:
252,229,82131,2,0,P|321:241|347:346,1,188.999994232178,10|2,3:2|0:3,0:0:0:0:
331,362,82451,1,4,3:0:0:0:
310,366,82531,1,4,3:0:0:0:
300,384,82611,6,0,P|263:276|264:239,1,94.499997116089,2|0,3:2|0:0,0:0:0:0:
387,132,82851,2,0,P|374:177|352:219,1,94.499997116089,2|0,3:2|0:0,0:0:0:0:
169,39,83091,1,10,3:2:0:0:
96,114,83211,1,0,3:0:0:0:
158,156,83331,2,0,P|241:130|268:124,1,94.499997116089,2|4,0:3|3:0,0:0:0:0:
438,54,83571,1,2,3:2:0:0:
372,126,83691,1,0,3:0:0:0:
444,184,83811,1,2,0:0:0:0:
505,114,83931,1,0,3:0:0:0:
505,114,84051,2,0,P|467:208|455:315,1,188.999994232178,10|2,3:2|0:3,0:0:0:0:
386,356,84411,1,4,3:0:0:0:
259,291,84531,6,0,P|345:294|407:371,1,188.999994232178,2|2,3:2|3:2,0:0:0:0:
178,238,84891,1,4,3:0:0:0:
124,370,85011,2,0,B|102:323|102:323|130:272,1,94.499997116089,10|0,3:2|0:0,0:0:0:0:
302,194,85251,1,2,0:0:0:0:
187,79,85371,1,4,3:0:0:0:
256,49,85491,2,0,B|272:92|272:92|250:147,1,94.499997116089,2|0,3:2|0:0,0:0:0:0:
91,206,85731,2,0,P|9:178|-17:172,1,94.499997116089,2|0,3:2|0:0,0:0:0:0:
246,315,85971,2,0,P|328:287|354:281,1,94.499997116089,10|0,3:2|0:0,0:0:0:0:
426,50,86211,1,2,3:2:0:0:
391,143,86331,1,4,3:0:0:0:
504,134,86451,6,0,B|399:107|441:198|291:192,1,188.999994232178,4|2,3:0|3:2,0:0:0:0:
420,253,86811,1,4,3:0:0:0:
341,301,86931,2,0,P|305:280|239:282,1,94.499997116089,10|0,3:2|0:0,0:0:0:0:
141,134,87171,1,2,3:2:0:0:
149,129,87291,1,4,3:0:0:0:
156,123,87411,2,0,P|202:123|243:146,1,94.499997116089,0|0,3:0|0:0,0:0:0:0:
171,384,87651,2,0,P|139:274|132:254,1,94.499997116089,2|0,3:2|0:0,0:0:0:0:
334,208,87891,2,0,P|366:98|373:78,1,94.499997116089,10|0,3:2|0:0,0:0:0:0:
329,0,88131,1,2,3:2:0:0:
480,85,88251,1,4,3:0:0:0:
504,0,88371,6,0,P|412:21|383:29,1,94.499997116089,2|0,3:2|0:0,0:0:0:0:
243,157,88611,2,0,P|197:145|150:135,1,94.499997116089,2|0,3:2|0:0,0:0:0:0:
0,35,88851,2,0,P|62:152|74:243,1,188.999994232178,8|2,3:2|3:2,0:0:0:0:
155,349,89211,1,4,3:0:0:0:
233,295,89331,2,0,P|164:273|104:315,1,94.499997116089,2|0,3:2|0:0,0:0:0:0:
254,174,89571,2,0,P|300:178|341:157,1,94.499997116089,2|0,3:2|3:0,0:0:0:0:
512,198,89811,2,0,B|399:206|455:267|326:295,1,188.999994232178,10|2,3:2|0:0,0:0:0:0:
268,367,90171,1,4,3:0:0:0:
132,282,90291,6,0,B|172:265|172:265|220:282,1,94.499997116089,2|0,3:0|0:0,0:0:0:0:
327,148,90531,2,0,B|286:164|286:164|238:147,1,94.499997116089,2|0,3:2|0:0,0:0:0:0:
0,123,90771,1,10,3:2:0:0:
55,52,90891,1,0,3:0:0:0:
152,90,91011,1,2,3:2:0:0:
91,159,91131,1,4,3:0:0:0:
91,159,91251,2,0,P|64:72|42:32,1,94.499997116089,2|0,3:0|0:0,0:0:0:0:
330,256,91491,2,0,P|312:299|301:345,1,94.499997116089,4|0,3:0|0:0,0:0:0:0:
512,106,91731,1,10,3:2:0:0:
512,106,91971,6,0,B|411:70|441:165|303:151,1,188.999994232178,6|0,3:2|0:0,0:0:0:0:
512,207,92331,1,8,3:2:0:0:
443,304,92451,2,0,P|423:243|464:195,1,94.499997116089,2|0,3:0|0:0,0:0:0:0:
269,11,92691,2,0,P|280:55|259:96,1,94.499997116089,10|0,3:2|0:0,0:0:0:0:
11,255,92931,6,0,B|112:219|82:314|220:300,1,188.999994232178,6|0,3:2|0:0,0:0:0:0:
72,168,93291,1,8,3:2:0:0:
150,84,93411,2,0,B|171:130|171:130|142:190,1,94.499997116089,2|0,3:0|0:0,0:0:0:0:
323,365,93651,5,8,3:2:0:0:
472,296,93762,1,4,3:0:0:0:
393,248,93873,5,8,3:2:0:0:
262,182,93984,1,4,3:0:0:0:
403,47,94131,6,0,P|378:141|371:189,1,94.499997116089,6|0,3:2|0:0,0:0:0:0:
110,0,94371,2,0,P|135:94|142:142,1,94.499997116089,2|0,3:2|0:0,0:0:0:0:
286,0,94611,2,0,P|253:134|241:264,1,188.999994232178,10|2,3:2|3:0,0:0:0:0:
104,334,94971,1,4,3:0:0:0:
150,227,95091,2,0,P|174:259|167:335,1,94.499997116089,2|0,3:2|0:0,0:0:0:0:
0,379,95331,2,0,P|0:332|27:293,1,94.499997116089,2|0,3:2|0:0,0:0:0:0:
266,381,95571,2,0,B|366:371|313:291|434:290,1,188.999994232178,10|2,3:2|3:0,0:0:0:0:
309,241,95931,1,4,3:0:0:0:
396,170,96051,6,0,P|464:195|519:205,1,94.499997116089,2|0,3:2|0:0,0:0:0:0:
274,29,96291,2,0,P|319:16|363:0,1,94.499997116089,2|0,3:2|0:0,0:0:0:0:
213,265,96531,2,0,P|184:220|215:144,1,94.499997116089,10|0,3:2|0:0,0:0:0:0:
254,124,96771,1,2,3:2:0:0:
80,51,96891,1,2,3:2:0:0:
177,1,97011,2,0,P|149:107|147:129,1,94.499997116089,2|0,3:2|0:0,0:0:0:0:
396,286,97251,1,2,3:2:0:0:
389,292,97371,1,4,3:0:0:0:
385,300,97491,2,0,P|363:202|330:107,1,188.999994232178,10|2,3:2|3:0,0:0:0:0:
346,105,97811,1,4,3:0:0:0:
335,88,97891,1,4,3:0:0:0:
344,74,97971,6,0,P|307:195|296:228,1,94.499997116089,2|0,3:2|0:0,0:0:0:0:
491,302,98211,2,0,P|477:256|463:211,1,94.499997116089,2|0,3:2|0:0,0:0:0:0:
294,350,98451,2,0,P|190:353|85:401,1,188.999994232178,10|2,3:2|3:0,0:0:0:0:
206,264,98811,1,4,3:0:0:0:
61,228,98931,2,0,P|101:218|176:153,1,94.499997116089,2|0,3:2|0:0,0:0:0:0:
0,73,99171,2,0,P|39:98|84:110,1,94.499997116089,2|0,3:2|0:0,0:0:0:0:
303,63,99411,1,10,3:2:0:0:
253,0,99531,1,0,3:0:0:0:
212,85,99651,1,2,0:3:0:0:
286,157,99771,1,0,3:0:0:0:
286,157,99891,6,0,B|331:145|331:145|395:174,1,94.499997116089,2|0,3:2|0:0,0:0:0:0:
434,334,100131,2,0,B|429:286|429:286|396:253,1,94.499997116089,2|0,3:2|0:0,0:0:0:0:
512,114,100371,2,0,B|499:158|499:158|460:186,1,94.499997116089,10|0,3:2|0:0,0:0:0:0:
250,72,100611,2,0,B|122:31|161:176|-15:170,1,283.499991348267,6|0,3:2|0:0,0:0:0:0:
102,233,101091,2,0,P|145:244|212:299,1,94.499997116089,2|0,3:2|0:0,0:0:0:0:
426,53,101331,2,0,P|386:78|341:90,1,94.499997116089,10|0,3:2|0:0,0:0:0:0:
263,185,101571,1,2,3:2:0:0:
432,291,101691,1,4,3:0:0:0:
361,362,101811,6,0,B|341:314|341:314|362:252,1,94.499997116089,2|0,3:0|0:0,0:0:0:0:
512,88,102051,2,0,B|525:128|525:128|505:176,1,94.499997116089,2|0,3:2|0:0,0:0:0:0:
271,279,102291,2,0,P|206:262|101:237,1,94.499997116089,10|0,3:2|0:0,0:0:0:0:
51,371,102531,1,2,3:2:0:0:
44,377,102651,1,4,3:0:0:0:
37,384,102771,2,0,P|102:367|207:342,1,94.499997116089,0|0,3:0|0:0,0:0:0:0:
137,157,103011,2,0,P|72:230|79:285,1,94.499997116089,2|0,3:2|0:0,0:0:0:0:
254,154,103251,2,0,P|274:46|282:10,1,94.499997116089,10|0,3:2|0:0,0:0:0:0:
438,1,103491,1,2,3:2:0:0:
433,23,103571,1,4,3:0:0:0:
451,37,103651,1,4,3:0:0:0:
443,50,103731,6,0,P|451:96|459:142,1,94.499997116089,2|0,3:0|0:0,0:0:0:0:
251,241,103971,2,0,P|291:273|305:331,1,94.499997116089,2|0,3:2|0:0,0:0:0:0:
512,239,104211,2,0,P|441:288|431:395,1,188.999994232178,10|2,3:2|3:2,0:0:0:0:
372,242,104571,1,4,3:0:0:0:
299,328,104691,2,0,P|250:345|164:385,1,94.499997116089,0|0,3:0|0:0,0:0:0:0:
337,149,104931,2,0,P|292:133|248:115,1,94.499997116089,2|0,3:2|0:0,0:0:0:0:
45,359,105171,2,0,P|68:317|82:272,1,94.499997116089,10|0,3:2|0:0,0:0:0:0:
113,111,105411,1,2,3:2:0:0:
101,98,105491,1,4,3:0:0:0:
112,82,105571,1,4,3:0:0:0:
108,70,105651,6,0,P|68:175|67:206,1,94.499997116089,2|0,3:0|0:0,0:0:0:0:
243,100,105891,2,0,P|229:54|205:13,1,94.499997116089,2|0,3:2|0:0,0:0:0:0:
180,262,106131,1,10,3:2:0:0:
180,262,106371,5,0,3:0:0:0:
281,316,106491,1,4,3:0:0:0:
357,290,106611,1,0,3:0:0:0:
425,344,106731,1,4,3:0:0:0:
341,377,106851,5,2,3:2:0:0:
282,296,106971,1,4,3:0:0:0:
368,202,107091,1,2,3:2:0:0:
368,202,107211,1,4,3:0:0:0:
310,115,107331,5,2,3:2:0:0:
448,83,107451,1,4,3:0:0:0:
465,220,107571,1,8,3:2:0:0:
115,118,108531,6,0,L|90:198,1,62.9999980773926,0|0,3:0|3:0,0:0:0:0:
90,187,108691,1,4,3:0:0:0:
92,196,108771,1,0,3:0:0:0:
102,204,108851,1,4,3:0:0:0:
96,212,108931,1,4,3:0:0:0:
102,219,109011,5,4,3:0:0:0:
194,165,109131,1,4,3:0:0:0:
291,255,109251,1,0,3:0:0:0:
291,255,109491,5,4,3:2:0:0:
464,45,117181,6,0,P|409:68|344:84,1,105,6|2,3:2|0:0,0:0:0:0:
299,45,117541,1,2,0:0:0:0:
265,124,117661,2,0,P|236:86|240:57,1,52.5,10|0,3:2|0:0,0:0:0:0:
92,65,117901,1,2,3:2:0:0:
135,11,118021,2,0,P|164:49|160:78,1,52.5,2|0,3:2|0:0,0:0:0:0:
52,154,118261,2,0,P|37:209|30:275,1,105,2|0,0:0|0:0,0:0:0:0:
148,358,118621,2,0,P|140:306|126:255,1,105,10|2,3:2|0:0,0:0:0:0:
215,215,118981,6,0,P|246:230|281:242,1,52.5,2|2,3:2|3:0,0:0:0:0:
346,298,119221,2,0,P|321:307|298:319,1,52.5,2|0,0:0|0:0,0:0:0:0:
380,206,119461,1,2,3:2:0:0:
320,161,119581,1,10,3:2:0:0:
486,30,119821,1,2,3:2:0:0:
426,66,119941,2,0,P|389:48|308:29,1,105,2|10,0:0|3:2,0:0:0:0:
209,27,120301,2,0,P|250:3|286:-5,1,52.5,2|0,3:2|0:0,0:0:0:0:
179,163,120541,1,10,3:2:0:0:
140,105,120661,2,0,P|99:81|63:73,1,52.5,2|4,0:0|3:0,0:0:0:0:
85,83,120861,1,4,3:0:0:0:
74,71,120941,1,4,3:0:0:0:
59,71,121021,5,2,3:0:0:0:
96,189,121261,2,0,P|81:232|74:269,1,52.5,2|0,0:0|0:0,0:0:0:0:
128,300,121501,1,10,3:2:0:0:
196,270,121621,1,2,0:0:0:0:
236,328,121741,1,2,3:2:0:0:
300,361,121861,2,0,P|354:342|420:330,1,105,2|10,0:0|3:2,0:0:0:0:
468,352,122221,1,0,3:0:0:0:
512,201,122461,2,0,P|488:139|460:55,1,105,10|2,3:2|0:0,0:0:0:0:
425,45,122806,6,0,P|442:7|448:-20,1,52.5,2|2,3:2|3:0,0:0:0:0:
347,89,123041,2,0,P|358:112|366:137,1,52.5,2|0,0:0|0:0,0:0:0:0:
269,42,123281,1,2,3:2:0:0:
237,110,123401,2,0,P|202:144|146:141,1,105,10|2,3:2|3:2,0:0:0:0:
76,139,123761,1,2,0:0:0:0:
224,283,124001,1,10,3:2:0:0:
167,322,124121,2,0,P|114:307|66:299,1,52.5,0|0,3:0|0:0,0:0:0:0:
17,384,124361,6,0,B|30:349|30:349|14:311,1,73.4999977569581,4|0,3:0|0:0,0:0:0:0:
154,151,124601,2,0,B|140:189|140:189|157:229,1,73.4999977569581,10|0,3:2|0:0,0:0:0:0:
297,327,124841,6,0,P|373:307|439:297,1,126,2|2,0:0|0:0,0:0:0:0:
507,278,125321,2,0,P|466:229|435:207,1,84,2|2,0:0|0:0,0:0:0:0:
416,150,125681,1,2,0:0:0:0:
128,42,126271,5,4,3:0:0:0:
245,103,126391,1,0,3:0:0:0:
316,163,126511,5,4,3:0:0:0:
221,206,126631,1,4,3:0:0:0:
307,281,126751,6,0,P|294:332|287:383,1,105,6|2,3:2|0:0,0:0:0:0:
222,342,127111,1,2,0:0:0:0:
156,374,127231,2,0,P|90:354|18:337,1,105,10|2,3:2|3:2,0:0:0:0:
0,286,127591,2,0,P|40:266|62:244,1,52.5,2|0,0:0|0:0,0:0:0:0:
133,136,127831,1,10,3:2:0:0:
62,156,127951,1,2,3:2:0:0:
116,209,128071,1,2,0:0:0:0:
191,194,128191,1,10,3:2:0:0:
191,194,128311,2,0,P|259:216|325:245,1,105,2|0,0:0|0:0,0:0:0:0:
363,207,128681,5,2,3:0:0:0:
512,35,128921,2,0,P|491:89|492:116,1,52.5,2|0,0:0|0:0,0:0:0:0:
432,129,129161,2,0,P|471:212|468:268,1,105,10|2,3:2|3:2,0:0:0:0:
512,293,129521,2,0,P|461:304|417:333,1,105,2|10,0:2|3:2,0:0:0:0:
347,304,129881,1,0,3:0:0:0:
147,374,130121,5,10,3:2:0:0:
107,315,130241,1,4,3:0:0:0:
171,253,130361,1,2,3:2:0:0:
205,149,130481,1,4,3:0:0:0:
140,44,130601,1,2,3:0:0:0:
140,44,130841,6,0,L|245:21,1,76.1250023231507,10|0,3:2|3:0,0:0:0:0:
376,150,131081,5,10,3:2:0:0:
344,47,131201,2,0,P|314:83|312:120,1,76.1250023231507,10|2,3:2|3:2,0:0:0:0:
479,139,131441,2,0,P|509:175|511:212,1,76.1250023231507,10|2,3:2|3:2,0:0:0:0:
404,320,131681,5,8,3:2:0:0:
338,276,131801,1,4,3:0:0:0:
395,225,131921,1,4,3:0:0:0:
309,376,132041,5,10,3:2:0:0:
197,315,132161,1,4,3:0:0:0:
266,237,132281,5,10,3:2:0:0:
391,145,132401,1,8,3:2:0:0:
172,160,132521,6,0,B|68:146|101:232|-35:240,1,188.999994232178,4|0,3:2|0:0,0:0:0:0:
95,74,133001,2,0,P|57:59|29:30,1,62.9999980773926,10|0,3:2|0:0,0:0:0:0:
186,71,133241,2,0,P|255:33|354:22,1,125.999996154785,2|0,3:2|0:0,0:0:0:0:
408,117,133601,1,4,3:0:0:0:
399,126,133721,2,0,P|371:79|389:45,1,62.9999980773926,2|0,3:2|0:0,0:0:0:0:
490,152,133961,2,0,P|456:229|446:297,1,125.999996154785,10|2,3:2|0:0,0:0:0:0:
393,316,134281,2,0,P|412:365|413:385,1,41.9999987182618,4|0,3:0|0:0,0:0:0:0:
480,350,134451,6,0,P|435:282|307:307,1,188.999994232178,2|0,3:0|0:0,0:0:0:0:
247,296,134931,2,0,L|273:187,1,62.9999980773926,8|0,3:2|0:0,0:0:0:0:
357,119,135171,2,0,L|342:180,1,62.9999980773926,2|0,3:2|0:0,0:0:0:0:
175,132,135411,1,2,0:3:0:0:
185,125,135531,1,4,3:0:0:0:
197,121,135651,2,0,P|230:126|264:173,1,62.9999980773926,2|0,3:2|0:0,0:0:0:0:
170,249,135891,2,0,P|145:268|114:272,1,62.9999980773926,10|0,3:2|0:0,0:0:0:0:
39,345,136131,2,0,P|22:290|0:252,1,62.9999980773926,2|4,3:2|3:0,0:0:0:0:
19,285,136311,1,4,3:0:0:0:
19,285,136371,6,0,P|28:211|63:84,1,188.999994232178,2|0,3:2|0:0,0:0:0:0:
10,11,136851,2,0,B|88:-3|63:50|154:39,1,125.999996154785,10|2,3:2|3:0,0:0:0:0:
256,46,137211,2,0,P|195:85|190:147,1,125.999996154785,2|0,0:0|0:0,0:0:0:0:
236,193,137571,2,0,B|265:177|265:177|320:194,1,62.9999980773926,2|0,3:2|0:0,0:0:0:0:
404,285,137811,2,0,B|375:301|375:301|320:284,1,62.9999980773926,10|0,3:2|0:0,0:0:0:0:
382,205,138051,2,0,P|402:134|407:101,1,62.9999980773926,2|0,3:2|0:0,0:0:0:0:
512,29,138291,5,4,3:0:0:0:
457,88,138411,1,4,3:0:0:0:
512,147,138531,1,8,3:2:0:0:
299,54,139011,5,2,3:2:0:0:
289,62,139131,1,0,0:0:0:0:
288,74,139251,2,0,P|258:63|225:57,1,62.9999980773926,2|0,3:2|0:0,0:0:0:0:
172,107,139491,1,4,3:0:0:0:
106,70,139611,1,4,3:0:0:0:
160,11,139731,5,8,3:2:0:0:
186,121,139851,1,4,3:0:0:0:
212,231,139971,1,4,3:0:0:0:
212,231,140211,6,0,P|302:241|328:313,1,173.250005287171,6|0,3:2|0:0,0:0:0:0:
391,176,140691,2,0,P|395:204|406:231,1,57.7500017623902,8|0,3:2|0:0,0:0:0:0:
506,100,140931,2,0,P|473:110|434:119,1,57.7500017623902,2|0,0:0|0:0,0:0:0:0:
376,75,141171,1,2,0:3:0:0:
366,68,141291,1,4,3:0:0:0:
354,64,141411,2,0,P|321:54|282:45,1,57.7500017623902,2|0,3:2|0:0,0:0:0:0:
194,137,141651,2,0,B|209:66|154:97|179:-15,1,115.50000352478,10|2,3:2|0:0,0:0:0:0:
161,25,141971,1,4,3:0:0:0:
148,33,142051,1,4,3:0:0:0:
134,25,142131,6,0,P|89:98|89:185,1,173.250005287171,2|0,3:2|0:0,0:0:0:0:
170,236,142611,2,0,P|123:255|86:283,1,57.7500017623902,10|0,3:2|0:0,0:0:0:0:
237,276,142851,2,0,P|289:290|336:373,1,115.50000352478,2|2,3:0|0:0,0:0:0:0:
442,360,143211,1,4,3:0:0:0:
433,367,143331,2,0,P|406:338|410:298,1,57.7500017623902,2|0,3:2|0:0,0:0:0:0:
498,153,143571,2,0,P|472:235|465:279,1,115.50000352478,10|2,3:2|0:0,0:0:0:0:
448,252,143891,1,4,3:0:0:0:
444,237,143971,1,4,3:0:0:0:
430,225,144051,6,0,P|418:168|398:114,2,115.50000352478,2|2|10,3:0|0:0|3:2,0:0:0:0:
296,217,144651,1,0,0:0:0:0:
288,207,144771,2,0,P|294:169|327:152,1,57.7500017623902,0|0,3:0|0:0,0:0:0:0:
383,278,145011,1,2,3:2:0:0:
373,285,145131,1,0,0:0:0:0:
364,292,145251,2,0,P|322:306|289:327,1,57.7500017623902,2|0,3:2|0:0,0:0:0:0:
163,379,145491,6,0,P|182:339|145:290,1,76.1250023231507,10|0,3:2|0:0,0:0:0:0:
54,185,145731,2,0,P|35:225|72:274,1,76.1250023231507,10|0,3:2|0:0,0:0:0:0:
187,200,145971,5,4,3:0:0:0:
286,169,146091,1,4,3:0:0:0:
344,119,146211,5,4,3:0:0:0:
407,149,146331,1,4,3:0:0:0:
508,46,146451,6,0,P|453:30|396:-13,1,76.1250023231507,4|0,3:2|0:0,0:0:0:0:
366,37,146691,1,4,3:0:0:0:
303,2,146811,1,4,3:0:0:0:
227,83,146931,5,2,3:2:0:0:
181,25,147051,2,0,P|162:9|134:-4,2,38.0625011615754,4|4|4,3:0|3:0|3:0,0:0:0:0:
126,110,147291,5,2,3:2:0:0:
57,94,147411,1,0,3:0:0:0:
58,166,147531,1,4,3:0:0:0:
136,217,147651,5,2,3:2:0:0:
171,288,147771,1,4,3:0:0:0:
109,358,147891,6,0,P|71:323|5:312,1,94.499997116089,6|0,3:2|0:0,0:0:0:0:
237,210,148131,2,0,P|272:172|283:106,1,94.499997116089,2|0,3:2|0:0,0:0:0:0:
333,361,148371,2,0,B|435:349|387:270|534:275,1,188.999994232178,10|2,3:2|3:0,0:0:0:0:
394,210,148731,1,4,3:0:0:0:
438,114,148851,2,0,P|475:172|432:236,1,94.499997116089,2|0,3:2|0:0,0:0:0:0:
265,118,149091,2,0,P|267:71|298:38,1,94.499997116089,2|0,3:2|0:0,0:0:0:0:
210,284,149331,1,10,3:2:0:0:
127,247,149451,1,0,3:0:0:0:
194,196,149571,1,2,3:0:0:0:
286,248,149691,1,4,3:0:0:0:
286,248,149811,6,0,P|384:222|435:217,1,94.499997116089,2|0,3:2|0:0,0:0:0:0:
148,364,150051,2,0,P|50:338|-1:333,1,94.499997116089,2|0,3:2|0:0,0:0:0:0:
184,184,150291,2,0,P|198:139|208:92,1,94.499997116089,10|0,3:2|0:0,0:0:0:0:
155,32,150531,1,2,3:2:0:0:
316,126,150651,1,4,3:0:0:0:
374,36,150771,2,0,P|388:80|398:127,1,94.499997116089,2|0,3:2|0:0,0:0:0:0:
273,250,151011,2,0,B|317:233|317:233|365:253,1,94.499997116089,2|0,3:2|0:0,0:0:0:0:
512,321,151251,2,0,B|392:288|448:383|300:388,1,188.999994232178,10|2,3:2|3:0,0:0:0:0:
182,281,151611,1,4,3:0:0:0:
228,189,151751,6,0,P|264:237|265:279,1,94.499997116089,2|0,3:2|0:0,0:0:0:0:
41,333,151991,2,0,P|48:286|79:252,1,94.499997116089,2|0,3:2|0:0,0:0:0:0:
40,114,152231,1,10,3:2:0:0:
120,150,152351,1,0,3:2:0:0:
184,90,152471,1,2,3:0:0:0:
113,39,152591,1,4,3:0:0:0:
113,39,152711,2,0,P|59:14|1:-6,1,94.499997116089,2|0,3:2|0:0,0:0:0:0:
301,89,152951,2,0,P|355:64|413:44,1,94.499997116089,2|0,3:2|0:0,0:0:0:0:
200,195,153191,2,0,P|259:289|263:399,1,188.999994232178,10|2,3:2|3:0,0:0:0:0:
285,356,153511,1,4,3:0:0:0:
302,378,153591,1,4,3:0:0:0:
318,366,153671,6,0,B|364:385|364:385|420:362,1,94.499997116089,2|0,3:2|0:0,0:0:0:0:
175,312,153911,2,0,B|129:331|129:331|73:308,1,94.499997116089,2|0,3:2|0:0,0:0:0:0:
0,98,154151,2,0,P|107:173|101:256,1,188.999994232178,10|2,3:2|3:2,0:0:0:0:
182,110,154511,1,4,3:0:0:0:
255,176,154631,2,0,P|296:151|341:139,1,94.499997116089,2|0,3:2|0:0,0:0:0:0:
172,0,154871,2,0,P|230:31|314:31,1,94.499997116089,2|0,3:2|0:0,0:0:0:0:
455,183,155111,2,0,P|472:110|497:78,1,94.499997116089,10|0,3:2|0:0,0:0:0:0:
354,262,155351,2,0,P|372:296|378:343,1,62.9999980773926,2|4,3:2|3:0,0:0:0:0:
368,337,155511,1,4,3:0:0:0:
376,356,155581,6,0,B|258:313|308:385|171:370,2,188.999994232178,2|2|10,3:0|3:2|3:2,0:0:0:0:
456,307,156181,1,4,3:0:0:0:
339,235,156301,1,2,3:2:0:0:
454,171,156421,1,4,3:0:0:0:
409,77,156541,2,0,P|372:127|384:163,1,94.499997116089,0|0,3:0|0:0,0:0:0:0:
225,284,156781,2,0,P|227:238|194:206,1,94.499997116089,2|0,3:2|0:0,0:0:0:0:
66,37,157021,2,0,P|173:72|263:92,1,188.999994232178,10|2,3:2|3:2,0:0:0:0:
258,85,157341,1,4,3:0:0:0:
270,92,157421,1,4,3:0:0:0:
284,86,157501,6,0,P|220:117|178:147,1,94.499997116089,0|0,3:0|0:0,0:0:0:0:
26,184,157741,2,0,P|90:215|132:245,1,94.499997116089,2|0,3:2|0:0,0:0:0:0:
297,234,157981,2,0,P|220:289|242:384,1,188.999994232178,8|2,3:2|3:2,0:0:0:0:
353,367,158341,1,4,3:0:0:0:
415,309,158461,2,0,B|431:263|431:263|405:208,1,94.499997116089,0|0,3:2|0:0,0:0:0:0:
207,97,158701,2,0,B|187:138|187:138|203:184,1,94.499997116089,2|0,3:2|0:0,0:0:0:0:
499,89,158941,2,0,P|408:62|325:18,1,188.999994232178,10|2,3:2|3:2,0:0:0:0:
311,27,159261,1,4,3:0:0:0:
295,22,159341,1,4,3:0:0:0:
282,36,159421,6,0,P|238:3|194:1,1,94.499997116089,2|0,3:2|0:0,0:0:0:0:
92,82,159661,2,0,P|48:115|4:117,1,94.499997116089,2|0,3:2|0:0,0:0:0:0:
168,255,159901,2,0,P|189:162|201:120,1,94.499997116089,8|0,3:2|0:0,0:0:0:0:
371,211,160141,1,2,3:0:0:0:
244,320,160261,1,4,3:0:0:0:
344,373,160381,2,0,P|334:326|323:280,1,94.499997116089,0|0,3:0|0:0,0:0:0:0:
464,136,160621,2,0,B|485:177|485:177|457:249,1,94.499997116089,2|0,3:0|0:0,0:0:0:0:
323,87,160861,2,0,B|302:46|302:46|330:-26,1,94.499997116089,8|0,3:2|0:0,0:0:0:0:
201,176,161101,5,4,3:2:0:0:
188,162,161221,2,0,P|101:122|-7:112,1,188.999994232178,2|4,3:2|3:0,0:0:0:0:
53,221,161581,2,0,P|85:327|90:383,1,94.499997116089,2|0,3:0|0:0,0:0:0:0:
295,94,161821,2,0,P|306:48|324:4,1,94.499997116089,10|0,3:2|0:0,0:0:0:0:
477,238,162061,1,4,3:2:0:0:
491,225,162181,2,0,B|395:199|422:305|273:284,1,188.999994232178,2|4,3:2|3:0,0:0:0:0:
320,286,162481,1,4,3:0:0:0:
320,286,162541,2,0,B|295:242|295:242|331:189,1,94.499997116089,4|0,3:0|3:0,0:0:0:0:
325,21,162781,5,8,3:2:0:0:
281,83,162901,1,0,3:0:0:0:
213,179,163021,5,8,3:2:0:0:
130,25,163141,1,4,3:0:0:0:
0,192,163261,6,0,P|43:162|91:153,1,94.499997116089,6|0,3:2|0:0,0:0:0:0:
129,307,163501,2,0,P|176:329|208:366,1,94.499997116089,2|0,3:2|0:0,0:0:0:0:
234,180,163741,2,0,B|340:160|301:258|459:258,1,188.999994232178,10|2,3:2|3:0,0:0:0:0:
457,49,164101,1,4,3:0:0:0:
504,124,164221,2,0,P|458:133|413:148,1,94.499997116089,2|0,3:2|0:0,0:0:0:0:
258,0,164461,2,0,P|304:9|349:23,1,94.499997116089,2|0,3:2|0:0,0:0:0:0:
182,193,164701,2,0,P|105:122|150:30,1,188.999994232178,10|2,3:2|3:0,0:0:0:0:
140,47,165021,1,4,3:0:0:0:
161,31,165101,1,4,3:0:0:0:
175,33,165181,6,0,P|206:133|217:169,1,94.499997116089,2|0,3:2|0:0,0:0:0:0:
256,341,165421,2,0,P|269:295|284:250,1,94.499997116089,2|0,3:2|0:0,0:0:0:0:
428,167,165661,2,0,P|481:184|502:245,1,94.499997116089,10|0,3:2|0:0,0:0:0:0:
339,147,165901,1,2,3:2:0:0:
277,88,166021,1,4,3:0:0:0:
142,177,166141,2,0,P|89:160|68:99,1,94.499997116089,2|0,3:2|0:0,0:0:0:0:
314,0,166381,1,2,3:2:0:0:
324,15,166501,1,4,3:0:0:0:
332,31,166621,2,0,P|296:167|300:250,1,188.999994232178,10|2,3:2|3:0,0:0:0:0:
393,373,166981,1,4,3:0:0:0:
393,373,167041,1,4,3:0:0:0:
393,373,167101,6,0,B|298:377|322:285|202:304,1,188.999994232178,2|2,3:2|3:2,0:0:0:0:
389,193,167461,1,4,3:0:0:0:
308,225,167581,2,0,P|255:201|187:158,1,94.499997116089,10|0,3:2|0:0,0:0:0:0:
134,335,167821,2,0,P|81:359|13:402,1,94.499997116089,2|4,0:3|3:0,0:0:0:0:
0,126,168061,2,0,P|89:150|110:270,2,188.999994232178,2|2|10,3:2|3:2|3:2,0:0:0:0:
87,50,168661,1,4,3:0:0:0:
173,105,168781,1,2,3:0:0:0:
250,62,168901,1,4,3:0:0:0:
324,86,169021,6,0,P|377:67|446:51,1,94.499997116089,2|0,3:2|0:0,0:0:0:0:
492,229,169261,2,0,P|457:171|481:121,1,94.499997116089,2|0,3:2|0:0,0:0:0:0:
298,252,169501,2,0,P|343:264|387:280,1,94.499997116089,10|0,3:2|0:0,0:0:0:0:
231,149,169741,2,0,B|129:66|24:152|62:237|137:238|149:224|155:215,1,283.499991348267,6|0,3:2|0:0,0:0:0:0:
332,93,170221,2,0,P|252:35|216:27,1,94.499997116089,2|0,3:2|0:0,0:0:0:0:
189,313,170461,2,0,P|229:288|274:276,1,94.499997116089,10|0,3:2|0:0,0:0:0:0:
425,384,170701,2,0,P|400:343|388:298,1,94.499997116089,2|0,3:2|0:0,0:0:0:0:
478,251,170941,6,0,P|489:205|512:164,1,94.499997116089,2|0,3:0|0:0,0:0:0:0:
400,0,171181,2,0,P|423:40|434:86,1,94.499997116089,2|0,3:2|0:0,0:0:0:0:
291,34,171421,2,0,P|250:10|204:0,1,94.499997116089,10|0,3:2|0:0,0:0:0:0:
72,168,171661,1,2,3:2:0:0:
185,112,171781,1,4,3:0:0:0:
96,44,171901,2,0,P|55:67|9:78,1,94.499997116089,0|0,3:0|0:0,0:0:0:0:
233,275,172141,2,0,B|252:231|252:231|223:162,1,94.499997116089,2|0,3:2|0:0,0:0:0:0:
22,297,172381,2,0,B|3:341|3:341|32:410,1,94.499997116089,10|0,3:2|0:0,0:0:0:0:
80,183,172621,1,2,3:2:0:0:
58,188,172701,1,4,3:0:0:0:
35,178,172781,1,4,3:0:0:0:
17,188,172861,6,0,L|141:220,1,94.499997116089,2|0,3:0|0:0,0:0:0:0:
198,384,173101,2,0,L|322:351,1,94.499997116089,2|0,3:2|0:0,0:0:0:0:
386,272,173341,2,0,L|477:295,1,94.499997116089,8|0,3:2|0:0,0:0:0:0:
261,186,173581,2,0,P|212:97|203:6,1,188.999994232178,2|2,3:2|0:0,0:0:0:0:
316,117,173941,1,4,3:0:0:0:
411,46,174061,2,0,B|365:28|365:28|305:51,1,94.499997116089,2|0,3:2|0:0,0:0:0:0:
420,185,174301,2,0,B|466:203|466:203|526:180,1,94.499997116089,10|0,3:2|0:0,0:0:0:0:
268,245,174541,1,2,3:2:0:0:
261,225,174621,1,4,3:0:0:0:
243,214,174701,1,4,3:0:0:0:
238,195,174781,6,0,P|202:233|200:276,1,94.499997116089,2|0,3:0|0:0,0:0:0:0:
187,88,175021,2,0,P|201:37|238:14,1,94.499997116089,2|0,3:2|0:0,0:0:0:0:
106,157,175261,2,0,P|61:169|18:151,1,94.499997116089,10|0,3:2|0:0,0:0:0:0:
99,261,175493,5,4,3:0:0:0:
34,322,175609,1,4,3:0:0:0:
107,374,175726,5,0,3:0:0:0:
176,339,175842,1,4,3:0:0:0:
249,367,175958,1,2,3:2:0:0:
316,339,176074,1,4,3:0:0:0:
466,262,176221,5,10,3:2:0:0:
414,178,176341,1,4,3:0:0:0:
362,262,176461,1,2,3:2:0:0:
424,339,176581,1,6,3:0:0:0:
280,182,176701,6,0,B|180:162|208:259|82:242,1,188.999994232178,4|2,3:2|3:2,0:0:0:0:
101,237,177021,1,4,3:0:0:0:
85,240,177101,1,4,3:0:0:0:
71,234,177181,2,0,P|52:194|68:167,1,62.9999980773926,2|4,3:2|3:0,0:0:0:0:
56,162,177334,1,4,3:0:0:0:
68,149,177411,2,0,P|117:82|86:17,1,125.999996154785,2|0,3:2|3:0,0:0:0:0:
117,35,177642,1,4,3:0:0:0:
130,21,177719,1,4,3:0:0:0:
148,27,177796,1,4,3:0:0:0:
166,30,177873,2,0,P|191:12|226:14,2,62.9999980773926,0|4|4,3:2|3:0|3:0,0:0:0:0:
221,98,178141,2,0,P|274:117|351:42,1,175,4|0,3:0|0:0,0:0:0:0:
351,43,178381,2,0,P|307:81|321:190,1,175,4|0,3:0|0:0,0:0:0:0:
319,188,178621,6,0,B|301:276|397:256|382:374,1,181.125003454685,6|0,3:2|0:0,0:0:0:0:
446,285,179101,2,0,P|459:253|453:188,1,60.3750011515618,8|0,3:2|0:0,0:0:0:0:
512,155,179341,1,0,3:0:0:0:
504,164,179461,2,0,P|459:128|374:130,1,120.750002303124,4|4,3:0|3:0,0:0:0:0:
377,38,179821,2,0,P|350:52|321:61,1,60.3750011515618,2|0,3:0|0:0,0:0:0:0:
211,16,180061,2,0,P|252:94|262:166,1,120.750002303124,8|0,3:2|3:0,0:0:0:0:
254,135,180381,1,4,3:0:0:0:
262,147,180461,1,4,3:0:0:0:
257,158,180541,5,0,3:0:0:0:
308,208,180661,1,2,3:2:0:0:
263,261,180781,1,2,3:2:0:0:
263,261,181021,2,0,P|189:240|124:228,1,120.750002303124,8|2,3:2|3:2,0:0:0:0:
85,271,181381,2,0,P|48:283|13:294,1,60.3750011515618,0|2,3:0|0:0,0:0:0:0:
173,134,181621,1,8,3:2:0:0:
105,152,181741,2,0,P|68:140|33:129,1,60.3750011515618,2|0,3:0|0:0,0:0:0:0:
234,60,181981,2,0,P|214:28|211:-9,2,60.3750011515618,10|0|2,3:2|3:0|3:2,0:0:0:0:
247,57,182301,1,4,3:0:0:0:
258,66,182381,1,4,3:0:0:0:
270,62,182461,6,0,P|308:77|341:89,1,60.3750011515618,2|0,3:2|0:0,0:0:0:0:
402,62,182701,1,0,3:0:0:0:
410,70,182821,1,4,3:0:0:0:
445,136,182941,2,0,P|407:151|374:163,1,60.3750011515618,8|0,3:2|0:0,0:0:0:0:
277,173,183181,1,0,3:0:0:0:
288,176,183301,2,0,P|330:228|317:297,1,120.750002303124,4|8,3:0|3:2,0:0:0:0:
378,332,183661,1,2,3:0:0:0:
212,231,183901,2,0,P|154:257|95:268,1,120.750002303124,8|0,3:2|3:0,0:0:0:0:
89,262,184221,1,4,3:0:0:0:
74,270,184301,1,4,3:0:0:0:
59,268,184381,6,0,P|34:222|70:160,1,120.750002303124,2|0,3:2|0:0,0:0:0:0:
128,49,184741,1,4,3:0:0:0:
168,109,184861,2,0,P|155:127|140:180,1,60.3750011515618,8|2,3:2|0:0,0:0:0:0:
392,37,185101,1,0,3:0:0:0:
347,92,185221,2,0,B|291:95|300:43|218:53,1,120.750002303124,8|0,3:2|0:0,0:0:0:0:
309,166,185581,2,0,P|322:184|337:237,1,60.3750011515618,2|0,3:0|0:0,0:0:0:0:
449,278,185821,1,8,3:2:0:0:
388,319,185941,2,0,P|316:298|250:288,1,120.750002303124,2|4,3:2|3:0,0:0:0:0:
205,335,186301,6,0,P|169:269|208:206,1,120.750002303124,2|0,3:2|0:0,0:0:0:0:
90,156,186661,1,4,3:0:0:0:
90,156,186721,1,4,3:0:0:0:
90,156,186781,2,0,P|101:213|66:261,2,120.750002303124,8|0|0,3:2|3:0|0:0,0:0:0:0:
29,104,187381,1,8,3:2:0:0:
81,51,187501,1,2,3:0:0:0:
299,181,187741,2,0,P|345:148|437:137,1,120.750002303124,8|0,3:2|3:0,0:0:0:0:
418,127,188061,1,4,3:0:0:0:
432,130,188141,1,4,3:0:0:0:
447,123,188221,6,0,P|470:57|479:40,1,60.3750011515618,2|4,3:2|3:0,0:0:0:0:
379,57,188461,2,0,P|356:-9|347:-26,1,60.3750011515618,0|0,3:0|0:0,0:0:0:0:
300,88,188701,2,0,B|227:70|254:135|141:124,1,120.750002303124,10|4,3:2|3:0,0:0:0:0:
95,30,189061,2,0,P|149:61|166:67,1,60.3750011515618,8|0,3:2|0:0,0:0:0:0:
89,191,189301,1,4,3:0:0:0:
150,233,189421,2,0,P|204:202|221:196,1,60.3750011515618,2|0,3:0|0:0,0:0:0:0:
93,328,189661,2,0,P|161:354|232:369,1,120.750002303124,8|2,3:2|3:0,0:0:0:0:
221,358,189981,1,4,3:0:0:0:
238,368,190061,1,4,3:0:0:0:
256,364,190141,5,2,3:2:0:0:
307,311,190261,2,0,P|375:285|446:270,1,120.750002303124,4|0,3:0|0:0,0:0:0:0:
512,160,190621,2,0,P|487:192|497:241,1,60.3750011515618,8|0,3:2|0:0,0:0:0:0:
366,179,190861,1,0,3:0:0:0:
404,120,190981,2,0,P|398:90|377:68,1,60.3750011515618,4|0,3:0|0:0,0:0:0:0:
265,192,191221,1,8,3:2:0:0:
208,144,191341,2,0,P|172:130|128:118,1,60.3750011515618,2|0,3:0|0:0,0:0:0:0:
51,121,191581,1,8,3:2:0:0:
87,182,191701,1,4,3:0:0:0:
36,230,191821,1,2,3:0:0:0:
80,286,191941,1,4,3:0:0:0:
47,366,192061,6,0,P|29:342|-15:338,2,60.3750011515618,0|0|2,3:0|3:2|3:2,0:0:0:0:
184,273,192541,2,0,P|252:294|311:315,1,120.750002303124,8|0,3:2|3:0,0:0:0:0:
392,166,192901,2,0,P|334:185|277:203,1,120.750002303124,10|0,3:2|0:0,0:0:0:0:
163,111,193261,2,0,P|201:172|206:203,1,60.3750011515618,2|0,3:0|0:0,0:0:0:0:
294,103,193501,1,8,3:2:0:0:
275,85,193581,1,4,3:0:0:0:
285,66,193661,1,4,3:0:0:0:
279,50,193741,2,0,P|292:21|301:12,3,30.1875005757809,0|4|4|4,3:0|3:0|3:0|3:0,0:0:0:0:
190,0,193991,6,0,P|117:30|53:75,1,120.750002303124,4|0,3:2|0:0,0:0:0:0:
1,198,194351,1,4,3:0:0:0:
46,150,194471,2,0,P|91:205|77:268,1,120.750002303124,8|0,3:2|0:0,0:0:0:0:
163,135,194831,2,0,P|205:176|264:175,1,120.750002303124,10|0,0:3|3:0,0:0:0:0:
329,119,195191,1,2,0:0:0:0:
322,108,195311,1,0,3:0:0:0:
396,169,195431,1,8,3:2:0:0:
388,178,195551,2,0,P|361:259|343:335,1,120.750002303124,2|2,0:0|0:0,0:0:0:0:
413,343,195911,6,0,L|487:320,1,60.3750011515618,2|0,3:2|0:0,0:0:0:0:
266,367,196151,2,0,L|340:390,1,60.3750011515618,2|0,3:2|0:0,0:0:0:0:
202,294,196391,2,0,L|63:332,1,120.750002303124,10|0,3:2|3:0,0:0:0:0:
0,169,196751,2,0,P|71:224|135:232,1,120.750002303124,8|0,3:2|3:0,0:0:0:0:
187,117,197101,2,0,P|142:141|121:185,1,60.3750011515618,2|0,3:2|0:0,0:0:0:0:
16,37,197341,1,8,3:2:0:0:
89,67,197461,2,0,P|122:29|142:19,1,60.3750011515618,2|4,3:2|3:0,0:0:0:0:
154,20,197661,1,4,3:0:0:0:
173,6,197741,1,4,3:0:0:0:
196,6,197821,6,0,P|218:26|246:37,1,60.3750011515618,2|0,3:2|3:0,0:0:0:0:
486,153,198181,1,4,3:0:0:0:
419,126,198301,2,0,P|379:161|293:192,1,120.750002303124,8|0,3:2|0:0,0:0:0:0:
414,289,198661,2,0,P|385:270|329:255,1,60.3750011515618,0|2,3:0|3:2,0:0:0:0:
303,321,198901,1,4,3:0:0:0:
234,277,199021,2,0,P|205:296|149:311,1,60.3750011515618,0|0,3:0|0:0,0:0:0:0:
66,371,199261,2,0,P|93:311|83:234,1,120.750002303124,8|0,3:2|3:0,0:0:0:0:
39,199,199621,1,2,3:2:0:0:
105,155,199741,6,0,P|127:134|125:103,1,60.3750011515618,0|4,3:0|3:0,0:0:0:0:
216,103,199981,2,0,P|208:73|180:59,1,60.3750011515618,2|4,3:2|3:0,0:0:0:0:
296,0,200221,2,0,P|266:-8|240:8,2,60.3750011515618,8|2|0,3:2|0:0|3:0,0:0:0:0:
363,44,200581,1,2,0:3:0:0:
321,106,200701,1,2,0:0:0:0:
330,113,200821,1,4,3:0:0:0:
391,164,200941,2,0,B|371:222|352:311,1,120.750002303124,10|4,3:2|3:0,0:0:0:0:
406,344,201249,1,4,3:0:0:0:
406,344,201318,2,0,P|421:334|437:336,2,30.1875005757809,4|4|4,3:0|3:0|3:0,0:0:0:0:
344,378,201523,2,4,L|304:363,1,30.1875005757809,4|4,3:0|3:0,3:0:0:0:
275,275,201661,5,2,3:2:0:0:
232,335,201781,2,0,P|130:363|55:378,1,136.499993751526,8|4,3:2|3:0,0:0:0:0:
0,248,202141,2,0,P|32:273|46:333,1,68.2499968757631,8|0,3:2|0:0,0:0:0:0:
130,238,202381,1,2,3:0:0:0:
185,182,202501,1,4,3:0:0:0:
134,126,202621,2,0,P|102:151|88:211,1,68.2499968757631,0|4,3:0|3:0,0:0:0:0:
210,49,202861,1,8,3:2:0:0:
266,101,202981,2,0,B|345:80|322:144|432:128,1,136.499993751526,2|0,0:0|3:0,0:0:0:0:
466,91,203341,1,8,3:2:0:0:
511,159,203461,1,0,3:0:0:0:
449,210,203581,5,0,3:0:0:0:
381,217,203701,1,4,3:0:0:0:
367,283,203821,1,4,3:0:0:0:
425,317,203941,1,4,3:0:0:0:
477,272,204061,5,8,3:2:0:0:
410,321,204181,1,4,3:0:0:0:
351,280,204301,1,2,3:0:0:0:
282,307,204421,2,0,P|254:277|191:274,2,68.2499968757631,10|0|4,3:2|3:0|3:0,0:0:0:0:
170,378,204781,2,0,P|145:275|115:189,1,136.499993751526,8|2,3:2|3:2,0:0:0:0:
81,190,205141,1,4,3:0:0:0:
81,190,205201,1,4,3:0:0:0:
81,190,205261,2,0,P|96:141|102:128,3,34.1249984378815,2|4|4|4,3:2|3:0|3:0|3:0,0:0:0:0:
163,123,205501,5,2,3:2:0:0:
109,68,205621,2,0,P|89:3|91:-20,1,68.2499968757631,8|0,3:2|0:0,0:0:0:0:
264,112,205861,1,0,3:0:0:0:
302,53,205981,2,0,P|380:56|411:141,1,136.499993751526,8|0,3:2|3:0,0:0:0:0:
476,154,206341,1,2,0:3:0:0:
401,189,206461,1,0,3:0:0:0:
456,254,206581,1,0,3:0:0:0:
402,321,206701,2,0,P|347:333|316:357,1,68.2499968757631,8|0,3:2|0:0,0:0:0:0:
206,248,206941,2,0,P|237:262|271:265,1,68.2499968757631,4|0,3:0|0:0,0:0:0:0:
136,323,207181,6,0,P|104:244|91:154,1,136.499993751526,8|0,3:2|3:0,0:0:0:0:
156,102,207583,1,4,3:0:0:0:
156,102,207624,1,4,3:0:0:0:
156,102,207664,2,0,P|176:52|180:17,1,68.2499968757631,4|0,3:0|0:0,0:0:0:0:
298,13,207908,5,4,3:0:0:0:
247,121,208071,1,4,3:0:0:0:
331,208,208234,1,4,3:0:0:0:
450,147,208396,5,4,3:0:0:0:
512,274,208559,1,4,3:0:0:0:
392,333,208721,1,4,3:0:0:0:
247,301,208884,6,0,P|191:288|115:273,1,90.9999958343508,0|0,3:0|3:0,0:0:0:0:
146,284,209112,1,0,3:0:0:0:
133,279,209188,1,0,3:0:0:0:
121,271,209264,1,0,3:0:0:0:
107,276,209341,5,4,3:2:0:0:
244,34,210061,2,0,P|269:80|272:95,1,66.9375012767315,0|0,3:0|0:0,0:0:0:0:
271,93,210301,2,0,B|168:81|213:154|98:150,1,178.500003404617,8|2,0:2|0:3,0:0:0:0:
207,264,211021,1,0,3:0:0:0:
207,264,211141,1,0,3:0:0:0:
207,264,211261,6,0,P|164:247|54:228,1,133.875002553463,2|0,0:3|3:0,0:0:0:0:
18,269,211741,1,2,0:0:0:0:
197,154,211981,1,2,3:0:0:0:
324,314,212241,1,8,0:2:0:0:
461,126,212961,2,0,P|431:113|386:100,1,66.9375012767315,2|0,0:3|0:0,0:0:0:0:
398,102,213201,6,0,P|464:204|469:361,1,267.750005106926,4|2,0:2|0:3,0:0:0:0:
380,242,214161,2,0,P|307:224|235:317,1,178.500003404617,8|2,0:2|0:3,0:0:0:0:
56,156,214881,1,0,3:0:0:0:
56,156,215001,1,0,3:0:0:0:
56,156,215121,6,0,P|117:138|197:119,1,133.875002553463,2|0,3:0|3:0,0:0:0:0:
232,61,215601,1,2,0:0:0:0:
387,267,215841,2,0,P|369:231|376:214,1,44.6250008511543,4|0,3:2|0:0,0:0:0:0:
417,160,216081,1,8,0:2:0:0:
264,274,216321,1,0,3:0:0:0:
395,362,216561,1,0,3:0:0:0:
388,356,216681,2,0,P|318:379|266:394,1,89.2500017023087,4|0,3:0|0:0,0:0:0:0:
231,369,217041,6,0,B|172:332|146:252|200:180|266:202|289:233|277:269,1,267.750005106926,4|2,0:2|0:3,0:0:0:0:
160,152,218001,2,0,P|85:184|-26:211,1,178.500003404617,8|2,0:2|0:3,0:0:0:0:
286,37,218721,1,0,3:0:0:0:
286,37,218841,1,0,3:0:0:0:
286,37,218961,6,0,B|294:113|247:97|261:184,2,133.875002553463,2|0|2,0:0|3:0|3:0,0:0:0:0:
450,134,219921,1,8,0:2:0:0:
272,248,220401,1,2,0:3:0:0:
418,325,220641,1,4,0:3:0:0:
407,323,220721,1,4,0:3:0:0:
395,333,220801,1,4,0:3:0:0:
379,331,220881,6,0,P|363:290|367:258,1,44.6250008511543,0|0,3:0|0:0,0:0:0:0:
405,193,221121,2,0,P|345:218|274:236,1,133.875002553463,8|0,0:2|0:0,0:0:0:0:
218,280,221601,2,0,B|200:261|200:261|206:233,1,44.6250008511543,4|0,0:0|0:0,0:0:0:0:
280,117,221841,2,0,B|192:97|209:172|115:186,1,178.500003404617,8|0,0:0|0:0,0:0:0:0:
27,46,222561,2,0,P|8:34|-11:31,2,29.7500005674362,4|4|4,3:0|3:0|3:0,0:0:0:0:
89,15,222791,6,0,P|55:62|32:214,1,178.500003404617,4|0,0:0|3:0,0:0:0:0:
16,307,223461,1,4,3:0:0:0:
26,299,223529,1,4,3:0:0:0:
20,283,223598,1,4,3:0:0:0:
30,274,223667,1,4,3:0:0:0:
25,262,223736,1,4,3:0:0:0:
130,232,223943,1,4,3:0:0:0:
124,242,224023,2,0,P|145:274|144:287,1,29.7500005674362,4|4,3:0|3:0,0:0:0:0:
246,199,224263,2,0,P|271:160|271:151,1,29.7500005674362,4|4,3:0|3:0,0:0:0:0:
196,139,224423,2,0,P|171:128|160:118,2,22.3125004255772,4|4|4,3:0|3:0|3:0,0:0:0:0:
212,132,224603,1,2,3:0:0:0:
337,210,224741,6,0,P|353:258|352:410,1,178.500003404617,4|2,0:0|0:3,0:0:0:0:
487,233,225461,1,2,0:3:0:0:
309,104,225701,2,0,P|228:93|132:50,1,178.500003404617,8|2,0:0|0:0,0:0:0:0:
32,158,226421,2,0,P|49:199|56:223,1,44.6250008511543,2|4,0:0|0:3,0:0:0:0:
21,266,226661,6,0,P|62:227|144:238,1,133.875002553463,2|0,3:2|3:0,0:0:0:0:
202,206,227141,1,2,0:0:0:0:
309,369,227361,2,0,P|331:324|336:301,1,66.9375012767315,4|0,0:0|0:0,0:0:0:0:
334,307,227601,2,0,P|310:248|294:118,1,178.500003404617,8|2,0:0|0:0,0:0:0:0:
418,48,228321,1,4,0:3:0:0:
430,57,228401,1,4,0:3:0:0:
420,72,228481,1,4,0:3:0:0:
402,64,228561,6,0,P|344:50|283:34,2,89.2500017023087,4|4|2,0:0|0:3|0:0,0:0:0:0:
466,221,229281,2,0,P|483:200|477:164,1,44.6250008511543,4|0,0:0|0:0,0:0:0:0:
395,250,229521,2,0,P|304:275|233:306,1,156.18750297904,8|0,0:0|0:0,0:0:0:0:
247,298,230001,2,0,L|227:243,1,44.6250008511543,4|0,3:2|0:0,0:0:0:0:
272,197,230241,1,4,3:0:0:0:
215,151,230361,1,4,3:0:0:0:
260,98,230481,6,0,P|284:54|300:-11,2,89.2500017023087,0|4|4,3:0|3:0|3:0,0:0:0:0:
205,149,231081,1,4,3:0:0:0:
141,105,231201,1,4,3:0:0:0:
14,221,231441,1,2,0:0:0:0:
165,319,231681,1,0,3:0:0:0:
289,202,231921,1,4,3:0:0:0:
355,234,232041,2,0,P|439:190|467:187,1,89.2500017023087,4|0,3:0|0:0,0:0:0:0:
502,148,232401,6,0,P|451:184|444:329,1,202.125006168366,4|0,3:2|0:0,0:0:0:0:
435,314,232881,2,0,P|377:336|304:361,1,115.50000352478,8|0,3:2|3:0,0:0:0:0:
116,139,233361,2,0,P|170:157|224:177,1,115.50000352478,8|0,3:2|3:0,0:0:0:0:
409,38,233841,2,0,P|354:110|356:161,1,115.50000352478,8|0,3:2|3:0,0:0:0:0:
198,384,234321,6,0,P|182:329|140:290,1,115.50000352478,8|0,3:2|3:0,0:0:0:0:
285,285,234801,2,0,B|335:259|335:259|405:287,1,115.50000352478,8|0,3:2|3:0,0:0:0:0:
123,168,235281,2,0,B|73:194|73:194|3:166,1,115.50000352478,8|0,3:2|3:0,0:0:0:0:
291,28,235761,2,0,P|249:66|233:121,1,115.50000352478,8|0,3:2|3:0,0:0:0:0:
441,222,236241,6,0,P|459:198|457:170,1,57.7500017623902,12|0,3:2|0:0,0:0:0:0:
380,175,236481,2,0,P|362:199|364:227,1,57.7500017623902,4|0,3:0|0:0,0:0:0:0:
313,381,236721,6,0,L|249:365,1,65.625,8|0,3:2|0:0,0:0:0:0:
217,274,236961,2,0,L|280:289,1,65.625,4|0,3:0|0:0,0:0:0:0:
167,71,237201,6,0,B|151:101|151:101|172:163,1,73.4999977569581,8|0,3:2|0:0,0:0:0:0:
243,188,237441,2,0,B|259:158|259:158|238:96,1,73.4999977569581,4|0,3:0|0:0,0:0:0:0:
35,120,237681,6,0,P|-6:227|-13:265,1,94.499997116089,10|0,3:2|0:0,0:0:0:0:
67,377,237921,2,0,P|108:270|115:232,1,94.499997116089,10|0,3:2|0:0,0:0:0:0:
323,48,238401,6,0,P|370:49|388:142,1,133.875002553463,4|0,3:2|0:0,0:0:0:0:
400,120,238641,1,8,3:2:0:0:
512,238,238881,5,2,0:0:0:0:
512,238,239001,1,2,0:0:0:0:
512,238,239121,2,0,P|480:213|443:212,2,63,2|2|2,0:0|0:0|0:0,0:0:0:0:
450,285,240061,6,0,P|388:307|333:338,1,94.499997116089,6|0,3:2|0:0,0:0:0:0:
268,191,240301,2,0,P|294:125|248:62,1,94.499997116089,2|0,3:2|0:0,0:0:0:0:
129,279,240541,2,0,P|104:318|107:365,1,94.499997116089,10|0,3:2|0:0,0:0:0:0:
199,320,240781,1,2,3:0:0:0:
26,182,240901,1,4,3:0:0:0:
94,99,241021,2,0,B|117:139|117:139|97:213,1,94.499997116089,2|0,3:2|0:0,0:0:0:0:
292,361,241261,2,0,P|334:340|379:326,1,94.499997116089,2|0,3:2|0:0,0:0:0:0:
512,145,241501,2,0,B|395:124|447:186|333:221,1,188.999994232178,10|4,3:2|3:0,0:0:0:0:
332,206,241821,1,4,3:0:0:0:
318,210,241901,1,4,3:0:0:0:
307,192,241981,6,0,P|328:149|342:104,1,94.499997116089,2|0,3:2|0:0,0:0:0:0:
159,0,242221,2,0,P|173:45|193:87,1,94.499997116089,2|0,3:2|0:0,0:0:0:0:
91,183,242461,2,0,P|32:207|-13:225,1,94.499997116089,10|0,3:2|0:0,0:0:0:0:
161,271,242701,1,2,3:2:0:0:
82,332,242821,1,4,3:0:0:0:
234,349,242941,2,0,P|293:373|338:391,1,94.499997116089,2|0,3:2|0:0,0:0:0:0:
455,257,243181,2,0,B|432:297|432:297|444:343,1,94.499997116089,2|0,3:2|0:0,0:0:0:0:
315,239,243421,1,10,3:2:0:0:
382,180,243541,1,4,3:0:0:0:
311,114,243661,1,2,3:0:0:0:
341,39,243781,1,4,3:0:0:0:
341,39,243841,1,4,3:0:0:0:
341,39,243921,6,0,B|244:9|255:88|163:102,1,188.999994232178,2|2,3:2|3:2,0:0:0:0:
247,186,244281,1,4,3:0:0:0:
156,250,244401,2,0,P|110:268|52:312,1,94.499997116089,10|0,3:2|0:0,0:0:0:0:
5,111,244641,1,2,3:0:0:0:
94,168,244761,1,4,3:0:0:0:
196,93,244881,1,2,3:2:0:0:
177,8,245001,1,4,3:0:0:0:
100,46,245121,2,0,P|54:28|-4:-16,1,94.499997116089,2|0,3:2|0:0,0:0:0:0:
262,170,245361,2,0,P|351:119|434:100,1,188.999994232178,10|2,3:2|3:0,0:0:0:0:
359,247,245721,1,4,3:0:0:0:
434,305,245841,6,0,B|450:259|450:259|430:217,1,94.499997116089,2|0,3:2|0:0,0:0:0:0:
252,297,246081,2,0,B|235:342|235:342|255:384,1,94.499997116089,2|0,3:2|0:0,0:0:0:0:
282,174,246321,2,0,P|258:99|249:68,1,94.499997116089,8|0,3:2|0:0,0:0:0:0:
146,182,246561,1,2,3:2:0:0:
38,67,246681,1,4,3:0:0:0:
155,2,246801,2,0,P|141:47|126:92,1,94.499997116089,2|0,3:2|0:0,0:0:0:0:
0,298,247041,2,0,P|57:250|102:273,1,94.499997116089,2|0,3:2|0:0,0:0:0:0:
226,379,247281,2,0,P|180:371|155:332,1,94.499997116089,10|0,3:2|0:0,0:0:0:0:
329,186,247521,1,2,3:2:0:0:
255,243,247641,1,4,3:0:0:0:
326,304,247761,6,0,P|416:305|467:226,1,188.999994232178,2|2,3:0|3:2,0:0:0:0:
420,158,248121,1,4,3:0:0:0:
475,89,248241,2,0,P|509:124|508:177,1,94.499997116089,10|0,3:2|0:0,0:0:0:0:
261,162,248481,1,2,3:2:0:0:
334,80,248601,1,4,3:0:0:0:
244,0,248721,2,0,P|210:31|206:78,1,94.499997116089,2|0,3:2|0:0,0:0:0:0:
89,187,248961,2,0,P|43:160|-18:135,1,94.499997116089,2|0,3:2|0:0,0:0:0:0:
169,325,249201,2,0,P|215:298|276:273,1,94.499997116089,10|0,3:2|0:0,0:0:0:0:
426,370,249441,1,2,3:2:0:0:
418,357,249521,1,4,3:0:0:0:
420,340,249601,1,4,3:0:0:0:
412,325,249681,6,0,P|395:226|390:192,1,94.499997116089,2|0,3:0|0:0,0:0:0:0:
512,179,249921,1,2,3:2:0:0:
369,102,250041,1,4,3:0:0:0:
447,7,250161,2,0,P|455:53|463:100,1,94.499997116089,8|0,3:2|0:0,0:0:0:0:
266,30,250401,1,2,3:2:0:0:
204,108,250521,1,4,3:0:0:0:
92,55,250611,2,0,P|52:44|-15:91,1,94.499997116089,2|0,3:2|0:0,0:0:0:0:
170,243,250853,2,0,P|210:254|277:207,1,94.499997116089,2|0,3:2|0:0,0:0:0:0:
58,183,251096,2,0,P|20:276|-1:390,1,188.999994232178,10|2,3:2|3:2,0:0:0:0:
16,358,251420,1,4,3:0:0:0:
29,366,251500,1,4,3:0:0:0:
45,358,251581,6,0,P|79:332|143:331,1,94.499997116089,2|0,3:0|0:0,0:0:0:0:
258,251,251821,2,0,P|211:247|173:219,1,94.499997116089,2|0,3:2|0:0,0:0:0:0:
339,384,252061,2,0,P|359:291|395:204,1,188.999994232178,8|2,3:2|3:0,0:0:0:0:
327,124,252421,1,4,3:0:0:0:
420,21,252541,2,0,B|443:66|443:66|420:131,1,94.499997116089,0|4,3:0|0:3,0:0:0:0:
235,236,252781,2,0,B|212:191|212:191|235:126,1,94.499997116089,2|0,3:0|0:0,0:0:0:0:
445,334,253021,1,8,3:2:0:0:
445,334,253261,5,4,3:2:0:0:
385,285,253381,2,0,B|294:270|308:351|207:343,1,188.999994232178,0|4,3:2|3:0,0:0:0:0:
324,201,253761,2,0,P|346:109|352:83,1,94.499997116089,2|0,3:0|0:0,0:0:0:0:
100,293,254001,2,0,P|110:338|121:384,1,94.499997116089,8|0,3:2|0:0,0:0:0:0:
245,94,254241,5,4,3:2:0:0:
211,163,254361,2,0,P|174:193|115:193,1,94.499997116089,0|0,3:0|0:0,0:0:0:0:
0,51,254598,5,4,3:0:0:0:
98,114,254716,1,4,3:0:0:0:
135,1,254833,1,4,3:0:0:0:
269,100,254951,5,8,3:2:0:0:
390,37,255068,1,4,3:0:0:0:
324,204,255186,5,8,3:2:0:0:
494,289,255303,1,4,3:0:0:0:
295,305,255421,6,0,P|217:326|102:367,1,188.999994232178,6|2,3:2|3:2,0:0:0:0:
157,272,255781,1,4,3:0:0:0:
217,209,255901,2,0,P|159:192|117:168,1,94.499997116089,10|0,3:2|0:0,0:0:0:0:
216,352,256141,2,0,P|158:369|116:393,1,94.499997116089,2|4,3:0|3:0,0:0:0:0:
345,235,256381,2,0,B|366:190|366:190|330:106,1,94.499997116089,2|0,3:2|0:0,0:0:0:0:
237,0,256621,2,0,B|216:45|216:45|252:129,1,94.499997116089,2|0,3:2|0:0,0:0:0:0:
512,0,256861,2,0,B|398:-13|448:65|309:52,1,188.999994232178,10|2,3:2|3:0,0:0:0:0:
450,126,257221,1,4,3:0:0:0:
375,230,257351,6,0,P|353:182|388:114,1,94.499997116089,2|0,3:2|0:0,0:0:0:0:
512,310,257591,2,0,P|438:330|389:363,1,94.499997116089,2|0,3:2|0:0,0:0:0:0:
238,169,257831,2,0,P|164:149|115:116,1,94.499997116089,10|0,3:2|0:0,0:0:0:0:
72,200,258071,1,2,3:2:0:0:
202,296,258191,1,4,3:0:0:0:
131,372,258311,2,0,B|110:325|110:325|130:259,1,94.499997116089,2|0,3:2|0:0,0:0:0:0:
334,134,258551,2,0,B|355:181|355:181|335:247,1,94.499997116089,2|0,3:2|0:0,0:0:0:0:
160,123,258791,1,8,3:2:0:0:
222,62,258911,1,4,3:0:0:0:
134,24,259031,1,2,3:0:0:0:
74,100,259151,1,4,3:0:0:0:
74,100,259211,1,4,3:0:0:0:
74,100,259261,6,0,P|45:218|37:252,1,94.499997116089,2|0,3:2|0:0,0:0:0:0:
220,302,259501,2,0,P|208:256|197:210,1,94.499997116089,2|0,3:2|0:0,0:0:0:0:
408,120,259741,2,0,P|345:55|259:82,1,188.999994232178,8|2,3:2|3:0,0:0:0:0:
488,187,260102,1,4,3:0:0:0:
420,245,260222,2,0,P|366:257|316:213,1,94.499997116089,2|0,3:2|0:0,0:0:0:0:
476,365,260463,2,0,P|422:353|372:397,1,94.499997116089,2|0,3:2|0:0,0:0:0:0:
148,384,260703,2,0,P|195:287|211:193,1,188.999994232178,10|2,3:2|3:0,0:0:0:0:
196,214,261024,1,4,3:0:0:0:
178,210,261104,1,4,3:0:0:0:
157,201,261184,6,0,P|81:233|35:252,1,94.499997116089,2|0,3:2|0:0,0:0:0:0:
190,108,261425,2,0,P|114:76|68:57,1,94.499997116089,2|0,3:2|0:0,0:0:0:0:
363,125,261665,2,0,P|320:143|276:161,1,94.499997116089,10|4,3:2|0:3,0:0:0:0:
452,58,261906,2,0,P|362:29|272:1,1,188.999994232178,4|2,3:2|0:0,0:0:0:0:
376,138,262267,1,4,3:0:0:0:
270,235,262387,2,0,B|250:189|250:189|269:137,1,94.499997116089,2|0,3:2|0:0,0:0:0:0:
416,316,262627,2,0,B|436:270|436:270|417:218,1,94.499997116089,10|0,3:2|0:0,0:0:0:0:
274,354,262868,1,2,3:2:0:0:
259,344,262948,1,4,3:0:0:0:
244,347,263028,1,4,3:0:0:0:
230,341,263108,6,0,P|119:322|65:376,1,188.999994232178,2|2,3:0|3:2,0:0:0:0:
0,290,263469,1,4,3:0:0:0:
89,230,263589,2,0,P|36:209|-14:184,1,94.499997116089,10|0,3:2|0:0,0:0:0:0:
215,211,263830,1,2,3:2:0:0:
156,115,263950,1,4,3:0:0:0:
304,146,264070,2,0,P|357:125|407:100,1,94.499997116089,0|0,3:0|0:0,0:0:0:0:
424,203,264311,2,0,P|394:239|367:278,1,94.499997116089,2|0,3:2|0:0,0:0:0:0:
239,75,264551,2,0,P|268:38|295:0,1,94.499997116089,10|0,3:2|0:0,0:0:0:0:
146,125,264792,1,2,3:2:0:0:
145,124,264852,1,4,3:0:0:0:
145,124,264912,1,4,3:0:0:0:
86,56,265032,6,0,P|58:53|-7:97,1,94.499997116089,2|0,3:0|0:0,0:0:0:0:
122,228,265273,2,0,P|160:254|206:255,1,94.499997116089,2|0,3:2|0:0,0:0:0:0:
369,102,265513,2,0,P|346:199|337:245,1,94.499997116089,10|0,3:2|0:0,0:0:0:0:
463,149,265753,1,2,3:2:0:0:
366,303,265874,1,4,3:0:0:0:
473,342,265994,2,0,P|462:295|451:250,1,94.499997116089,0|0,3:2|0:0,0:0:0:0:
281,370,266234,2,0,B|233:356|233:356|170:379,1,94.499997116089,2|0,3:2|0:0,0:0:0:0:
103,238,266475,2,0,B|151:252|151:252|214:229,1,94.499997116089,10|0,3:2|0:0,0:0:0:0:
270,103,266715,1,2,3:2:0:0:
252,118,266796,1,4,3:0:0:0:
233,120,266876,1,4,3:0:0:0:
217,134,266951,6,0,P|191:52|182:7,1,94.499997116089,2|0,3:0|0:0,0:0:0:0:
29,150,267191,2,0,P|16:195|1:240,1,94.499997116089,2|0,3:2|0:0,0:0:0:0:
174,364,267431,2,0,P|267:319|357:302,1,188.999994232178,8|2,3:2|3:0,0:0:0:0:
480,219,267791,1,4,3:0:0:0:
431,122,267911,2,0,P|401:166|448:259,1,94.499997116089,0|0,3:0|0:0,0:0:0:0:
512,384,268151,2,0,P|509:337|482:300,1,94.499997116089,2|0,3:0|0:0,0:0:0:0:
262,172,268391,1,10,3:2:0:0:
200,119,268511,1,0,3:0:0:0:
122,184,268631,1,4,3:0:0:0:
27,100,268751,1,8,3:2:0:0:
106,21,268871,5,4,3:0:0:0:
124,107,268986,1,2,3:0:0:0:
142,193,269101,1,0,3:0:0:0:
160,279,269217,1,4,3:0:0:0:
75,351,269332,5,4,3:0:0:0:
94,342,269409,1,4,3:0:0:0:
106,354,269486,1,4,3:0:0:0:
122,356,269563,1,4,3:0:0:0:
161,384,269640,5,4,3:0:0:0:
182,378,269717,1,4,3:0:0:0:
193,366,269794,1,4,3:0:0:0:
194,366,270054,6,0,B|263:349|263:349|303:367|303:367|414:341,1,188.999994232178,4|2,3:2|0:0,0:0:0:0:
439,297,270432,1,2,3:2:0:0:
326,250,270549,5,8,3:2:0:0:
430,174,270666,1,8,3:2:0:0:
370,35,270771,1,12,3:2:0:0:
266,106,271991,5,0,3:0:0:0:
176,152,272231,1,0,3:0:0:0:
175,51,272471,5,4,3:2:0:0:
315,195,272951,1,4,3:0:0:0:
128,254,273431,1,4,3:0:0:0:
128,254,273911,5,2,3:2:0:0:
325,199,274151,5,2,3:2:0:0:
168,45,274391,6,0,B|190:88|231:94|231:94|184:155|127:114|127:114|58:103|29:163,1,315,6|0,3:2|0:0,0:0:0:0:
12,279,274871,2,0,P|57:250|117:243,1,105,2|0,3:2|0:0,0:0:0:0:
168,384,275111,2,0,P|176:332|204:288,1,105,10|0,3:2|0:0,0:0:0:0:
410,163,275351,1,2,3:0:0:0:
315,297,275471,1,4,3:0:0:0:
431,350,275591,2,0,P|422:298|394:254,1,105,2|0,3:2|0:0,0:0:0:0:
202,162,275831,2,0,P|304:192|342:201,1,105,2|0,3:2|0:0,0:0:0:0:
512,32,276071,2,0,P|360:76|304:89,1,210,10|2,3:2|3:0,0:0:0:0:
296,82,276391,1,4,3:0:0:0:
280,88,276471,1,4,3:0:0:0:
263,80,276551,6,0,P|202:58|152:76,1,105,2|0,3:2|0:0,0:0:0:0:
293,183,276791,2,0,P|250:213|233:261,1,105,2|0,3:2|0:0,0:0:0:0:
504,145,277031,2,0,P|420:167|361:184,1,105,10|0,3:2|0:0,0:0:0:0:
244,384,277271,1,2,3:2:0:0:
367,267,277391,1,4,3:0:0:0:
442,384,277511,2,0,P|358:362|299:345,1,105,2|0,3:2|0:0,0:0:0:0:
244,166,277751,2,0,B|266:215|266:215|243:278,1,105,2|0,3:2|0:0,0:0:0:0:
107,384,277991,2,0,B|89:335|89:335|111:286,1,105,10|0,3:2|0:0,0:0:0:0:
128,134,278231,2,0,P|95:169|23:165,1,105,2|0,3:2|0:0,0:0:0:0:
217,50,278471,6,0,P|300:37|359:138,1,210,2|2,3:0|3:2,0:0:0:0:
403,221,278831,1,4,3:0:0:0:
482,173,278951,2,0,P|495:122|512:73,1,105,10|0,3:2|0:0,0:0:0:0:
344,313,279191,1,2,3:2:0:0:
284,244,279311,1,4,3:0:0:0:
222,376,279431,2,0,P|209:325|192:275,1,105,0|0,3:0|0:0,0:0:0:0:
98,70,279671,2,0,B|45:52|45:52|-16:78,1,105,2|0,3:2|0:0,0:0:0:0:
160,159,279911,2,0,B|213:177|213:177|274:151,1,105,10|0,3:2|0:0,0:0:0:0:
423,56,280151,1,2,3:2:0:0:
410,40,280231,1,4,3:0:0:0:
384,53,280311,1,4,3:0:0:0:
363,43,280391,6,0,P|292:20|227:6,1,105,2|0,3:0|0:0,0:0:0:0:
393,194,280631,2,0,P|464:171|529:157,1,105,2|0,3:2|0:0,0:0:0:0:
247,144,280871,2,0,P|170:216|207:339,1,210,8|2,3:2|3:2,0:0:0:0:
105,366,281231,1,4,3:0:0:0:
11,277,281351,1,0,3:0:0:0:
85,216,281471,1,4,3:0:0:0:
37,146,281591,2,0,P|18:93|11:36,1,105,2|0,3:2|0:0,0:0:0:0:
234,133,281831,2,0,P|215:186|208:243,1,105,8|0,3:2|0:0,0:0:0:0:
120,0,282071,1,2,3:2:0:0:
185,45,282191,1,4,3:0:0:0:
256,10,282311,5,0,3:0:0:0:
88,233,282551,1,2,3:2:0:0:
316,341,282791,1,8,3:2:0:0:
470,149,283031,1,2,3:0:0:0:
386,101,283151,1,4,3:0:0:0:
360,193,283271,1,0,3:0:0:0:
451,247,283391,1,4,3:0:0:0:
375,85,283511,1,2,3:0:0:0:
261,237,283751,1,8,3:2:0:0:
481,25,283991,6,0,B|313:-12|364:166|168:115,1,315,4|4,3:2|3:0,0:0:0:0:
53,0,284471,2,0,P|113:176|111:191,1,105,2|0,3:0|0:0,0:0:0:0:
69,275,284711,2,0,P|89:226|120:184,1,105,8|0,3:2|0:0,0:0:0:0:
366,237,284951,2,0,P|217:249|169:382,1,280,4|4,3:2|3:0,0:0:0:0:
177,365,285351,1,4,3:0:0:0:
195,365,285431,1,4,3:0:0:0:
215,356,285511,1,4,3:0:0:0:
235,366,285591,1,4,3:0:0:0:
250,365,285671,2,0,P|291:348|335:336,1,70,0|4,3:0|3:0,0:0:0:0:
440,267,285831,1,4,3:0:0:0:
428,271,285911,2,0,P|387:254|343:242,1,70,0|4,3:0|3:0,0:0:0:0:
222,94,286071,1,4,3:0:0:0:
236,82,286151,6,0,P|284:105|280:194,1,105,6|0,3:2|0:0,0:0:0:0:
461,16,286391,2,0,P|413:39|417:128,1,105,2|0,3:2|0:0,0:0:0:0:
236,239,286631,2,0,P|138:199|17:171,1,210,8|2,3:2|3:0,0:0:0:0:
150,76,286991,1,4,3:0:0:0:
68,0,287111,2,0,B|46:43|46:43|73:106,1,105,2|0,3:2|0:0,0:0:0:0:
280,162,287351,2,0,B|302:109|302:109|280:66,1,105,2|0,3:2|0:0,0:0:0:0:
105,231,287591,2,0,B|218:203|183:307|328:288,1,210,10|2,3:2|3:0,0:0:0:0:
512,330,287951,1,4,3:0:0:0:
401,375,288071,6,0,P|417:325|436:276,1,105,2|0,3:2|0:0,0:2:0:0:
347,96,288311,2,0,P|365:144|382:194,1,105,2|0,3:2|0:0,0:0:0:0:
512,72,288551,2,0,P|460:64|421:30,1,105,10|0,3:2|0:0,0:0:0:0:
268,177,288791,2,0,P|216:184|177:218,1,105,2|4,3:2|3:0,0:0:0:0:
49,59,289031,1,0,3:0:0:0:
116,114,289151,1,4,3:0:0:0:
43,168,289271,2,0,B|19:216|19:216|49:284,1,105,2|0,3:2|0:0,0:0:0:0:
271,384,289511,2,0,B|291:337|291:337|267:289,1,105,10|0,3:2|0:0,0:0:0:0:
439,129,289751,1,6,3:0:0:0:
417,207,289871,1,4,3:0:0:0:
394,284,289991,6,0,P|476:316|511:334,1,105,2|0,3:2|0:0,0:0:0:0:
261,169,290231,2,0,P|179:201|144:219,1,105,2|0,3:2|0:0,0:0:0:0:
416,115,290471,2,0,P|441:57|422:-6,1,105,10|0,3:2|0:0,0:0:0:0:
306,76,290711,1,2,3:0:0:0:
244,24,290831,1,4,3:0:0:0:
162,91,290951,2,0,L|12:46,1,105,2|0,3:2|0:0,0:0:0:0:
165,220,291191,2,0,L|266:190,1,105,2|0,3:2|0:0,0:0:0:0:
67,384,291431,2,0,P|34:255|3:177,1,210,10|2,3:2|3:0,0:0:0:0:
159,370,291791,1,4,3:0:0:0:
229,314,291911,6,0,P|276:316|336:390,1,105,2|0,3:2|0:0,0:0:0:0:
478,178,292151,2,0,P|451:218|357:233,1,105,2|0,3:2|0:0,0:0:0:0:
261,84,292391,2,0,P|253:135|276:181,1,105,10|0,3:2|0:0,0:0:0:0:
68,284,292631,2,0,P|120:209|71:83,1,210,6|2,3:2|0:0,0:0:0:0:
15,162,292991,1,4,3:0:0:0:
0,17,293111,2,0,B|43:-8|43:-8|96:2,1,105,2|0,3:2|0:0,0:0:0:0:
216,179,293351,2,0,B|269:189|269:189|330:153,1,105,10|4,3:2|3:0,0:0:0:0:
508,47,293591,1,6,3:0:0:0:
414,12,293711,1,4,3:0:0:0:
441,116,293831,6,0,B|419:227|528:182|511:299,2,210,2|2|10,3:2|3:2|3:2,0:0:0:0:
369,210,294431,1,4,3:0:0:0:
296,146,294551,2,0,P|231:169|168:193,1,105,2|4,3:2|3:0,0:0:0:0:
311,296,294791,2,0,P|376:319|439:343,1,105,0|0,3:0|0:0,0:0:0:0:
227,384,295031,2,0,P|194:346|212:283,1,105,2|0,3:2|0:0,0:0:0:0:
394,200,295271,2,0,P|427:162|409:99,1,105,10|0,3:2|0:0,0:0:0:0:
278,27,295511,1,2,3:2:0:0:
262,36,295591,1,4,3:0:0:0:
240,35,295671,1,4,3:0:0:0:
223,46,295751,6,0,P|174:18|87:17,1,105,2|0,3:0|0:0,0:0:0:0:
39,86,295991,2,0,P|64:199|71:228,1,105,2|0,3:2|0:0,0:0:0:0:
0,327,296231,2,0,P|49:299|136:298,1,105,10|0,3:2|0:0,0:0:0:0:
192,231,296471,1,2,3:2:0:0:
241,333,296591,1,4,3:0:0:0:
339,280,296711,2,0,P|350:228|361:177,1,105,0|0,3:0|0:0,0:0:0:0:
447,21,296951,2,0,B|472:69|472:69|448:135,1,105,2|0,3:2|0:0,0:0:0:0:
256,151,297191,2,0,B|231:103|231:103|255:37,1,105,10|0,3:2|0:0,0:0:0:0:
370,196,297431,1,2,3:2:0:0:
354,215,297511,1,4,3:0:0:0:
363,237,297591,1,4,3:0:0:0:
349,260,297671,6,0,P|368:315|381:381,1,105,2|0,3:0|0:0,0:0:0:0:
512,204,297911,2,0,P|492:259|480:325,1,105,2|0,3:2|0:0,0:0:0:0:
266,140,298151,2,0,B|152:115|182:206|62:214,1,210,10|2,3:2|3:0,0:0:0:0:
15,280,298511,1,4,3:0:0:0:
76,344,298631,1,0,3:0:0:0:
164,302,298751,1,4,3:0:0:0:
261,382,298871,2,0,P|302:348|380:347,1,105,2|0,3:2|0:0,0:0:0:0:
497,212,299111,1,10,3:2:0:0:
480,220,299191,1,4,3:0:0:0:
454,208,299271,1,4,3:0:0:0:
441,214,299351,2,0,P|389:205|350:171,1,105,2|0,3:2|0:0,0:0:0:0:
218,3,299591,6,0,B|232:39|232:39|209:106,1,78.7500030040742,8|0,3:2|0:0,0:0:0:0:
218,76,301511,5,0,3:0:0:0:
161,157,301671,1,8,3:2:0:0:
166,167,301751,1,8,3:2:0:0:
161,188,301831,1,8,3:2:0:0:
255,317,301991,5,0,3:0:0:0:
322,279,302111,1,4,3:0:0:0:
256,233,302231,1,4,3:0:0:0:
346,163,302391,5,8,3:2:0:0:
360,171,302471,1,8,3:2:0:0:
473,110,302711,5,0,3:0:0:0:
512,48,302831,1,0,3:0:0:0:
411,24,302951,5,4,3:0:0:0:
385,42,303031,1,4,3:0:0:0:
354,35,303111,1,4,3:0:0:0:
325,49,303191,1,4,3:0:0:0:
294,57,303271,1,4,3:0:0:0:
271,35,303351,1,4,3:0:0:0:
257,41,303431,6,0,P|172:72|101:91,1,146.999995513916,4|2,3:2|0:0,0:0:0:0:
13,150,303791,1,0,0:0:0:0:
33,134,303931,2,0,P|63:181|50:233,1,73.4999977569581,8|0,3:2|0:0,0:0:0:0:
138,237,304171,1,2,0:0:0:0:
83,299,304291,1,8,3:2:0:0:
144,357,304411,1,2,0:0:0:0:
160,342,304531,1,0,3:0:0:0:
239,373,304651,2,0,P|286:356|325:340,1,73.4999977569581,2|0,3:0|0:0,0:0:0:0:
328,266,304891,2,0,P|398:297|472:320,1,146.999995513916,8|2,3:2|3:2,0:0:0:0:
473,307,305211,1,4,3:0:0:0:
475,294,305291,1,4,3:0:0:0:
486,283,305371,6,0,P|501:244|501:183,1,73.4999977569581,2|0,3:2|0:0,0:0:0:0:
397,142,305608,2,0,P|401:178|415:212,1,73.4999977569581,2|0,3:2|0:0,0:0:0:0:
458,49,305846,2,0,B|371:21|392:94|279:81,1,146.999995513916,8|2,3:2|0:0,0:0:0:0:
255,41,306202,2,0,L|178:18,1,73.4999977569581,8|0,3:2|3:0,0:0:0:0:
250,141,306440,1,4,3:0:0:0:
192,194,306559,2,0,L|115:217,1,73.4999977569581,2|0,3:0|0:0,0:0:0:0:
0,208,306796,2,0,P|50:261|24:370,1,146.999995513916,8|2,3:2|0:0,0:0:0:0:
123,382,307153,1,4,3:0:0:0:
123,382,307212,1,4,3:0:0:0:
123,382,307271,6,0,P|188:354|283:343,1,146.999995513916,2|0,3:0|3:0,0:0:0:0:
321,272,307631,1,2,0:0:0:0:
332,290,307751,2,0,P|377:318|425:318,1,73.4999977569581,8|0,3:2|0:0,0:0:0:0:
512,313,307991,2,0,P|457:244|481:175,1,146.999995513916,2|0,3:2|0:0,0:0:0:0:
408,134,308351,1,8,3:2:0:0:
480,84,308471,1,2,3:0:0:0:
284,4,308711,2,0,P|208:26|132:49,1,146.999995513916,8|2,3:2|0:0,0:0:0:0:
64,3,309071,1,4,3:0:0:0:
16,74,309191,6,0,P|51:146|65:188,1,73.4999977569581,2|0,3:2|0:0,0:0:0:0:
142,132,309431,2,0,P|107:204|93:246,1,73.4999977569581,2|0,3:2|0:0,0:0:0:0:
43,248,309671,1,8,3:2:0:0:
114,286,309791,1,4,3:0:0:0:
70,368,309911,1,2,3:0:0:0:
141,380,310031,2,0,P|183:362|223:356,1,73.4999977569581,4|0,3:0|0:0,0:0:0:0:
256,252,310271,1,8,3:2:0:0:
293,315,310391,2,0,P|335:333|375:339,1,73.4999977569581,2|0,3:0|0:0,0:0:0:0:
512,172,310631,2,0,P|430:199|354:211,1,146.999995513916,8|2,3:2|3:2,0:0:0:0:
356,198,310951,1,4,3:0:0:0:
340,207,311031,1,4,3:0:0:0:
325,190,311111,6,0,B|301:109|375:130|352:10,2,146.999995513916,0|2|8,3:0|3:2|3:2,0:0:0:0:
247,120,311711,1,0,0:0:0:0:
230,134,311831,2,0,P|179:148|79:189,1,146.999995513916,2|0,3:2|0:0,0:0:0:0:
32,243,312191,1,8,3:2:0:0:
86,309,312311,2,0,P|57:373|52:406,1,73.4999977569581,2|0,3:0|0:0,0:0:0:0:
178,251,312551,2,0,P|243:250|285:322,1,146.999995513916,8|2,3:2|3:2,0:0:0:0:
276,324,312871,1,4,3:0:0:0:
287,336,312951,1,4,3:0:0:0:
286,353,313011,6,0,P|360:324|396:318,1,73.4999977569581,2|0,3:0|0:0,0:0:0:0:
456,267,313251,2,0,P|421:255|388:239,1,73.4999977569581,2|0,3:2|0:0,0:0:0:0:
336,180,313491,1,8,3:2:0:0:
403,125,313611,1,4,3:0:0:0:
339,70,313731,2,0,P|245:92|143:116,1,146.999995513916,2|0,3:2|0:0,0:0:0:0:
92,182,314091,2,0,P|163:198|235:215,1,146.999995513916,8|0,3:2|0:0,0:0:0:0:
299,291,314451,2,0,P|247:361|252:387,1,73.4999977569581,8|0,3:2|0:0,0:0:0:0:
389,261,314691,1,2,3:2:0:0:
410,275,314771,1,4,3:0:0:0:
432,268,314851,1,4,3:0:0:0:
448,276,314931,6,0,P|484:200|405:125,1,146.999995513916,2|2,3:2|0:0,0:0:0:0:
386,109,315291,1,0,0:0:0:0:
367,121,315411,2,0,P|337:74|350:37,1,73.4999977569581,10|0,3:2|0:0,0:0:0:0:
488,0,315651,2,0,P|484:35|459:61,1,73.4999977569581,2|0,3:2|0:0,0:0:0:0:
281,163,315891,1,2,0:0:0:0:
219,113,316011,1,4,3:0:0:0:
152,155,316131,2,0,P|90:133|56:125,1,73.4999977569581,2|0,3:2|0:0,0:0:0:0:
266,294,316391,2,0,P|328:272|362:264,1,73.4999977569581,8|0,3:2|0:0,0:0:0:0:
118,375,316631,1,6,3:2:0:0:
118,375,317111,6,0,P|148:322|148:288,1,73.4999977569581,2|0,3:2|0:0,0:0:0:0:
81,220,317351,1,8,3:2:0:0:
34,286,317471,1,4,3:0:0:0:
197,215,317591,2,0,P|174:185|201:70,1,146.999995513916,6|0,3:2|0:0,0:0:0:0:
304,62,317951,5,4,3:0:0:0:
350,138,318071,1,4,3:0:0:0:
422,88,318191,1,4,3:0:0:0:
477,205,318311,5,8,3:2:0:0:
383,245,318431,1,4,3:0:0:0:
307,316,318551,5,8,3:2:0:0:
178,256,318671,1,4,3:0:0:0:
48,297,318791,5,4,3:2:0:0:
