osu file format v14

[General]
AudioFilename: audio.mp3
AudioLeadIn: 0
PreviewTime: 120634
Countdown: 0
SampleSet: Soft
StackLeniency: 0.7
Mode: 0
LetterboxInBreaks: 0
WidescreenStoryboard: 1

[Editor]
Bookmarks: 40463,80884
DistanceSpacing: 0.88
BeatDivisor: 2
GridSize: 4
TimelineZoom: 1.3

[Metadata]
Title:LAKUNA
TitleUnicode:LAKUNA
Artist:SUICIDEWAVE
ArtistUnicode:SUICIDEWΛVЕ
Creator:2zz
Version:easy
Source:
Tags:witch house
BeatmapID:1442592
BeatmapSetID:512167

[Difficulty]
HPDrainRate:1.3
CircleSize:3.3
OverallDifficulty:2.3
ApproachRate:4.3
SliderMultiplier:1.1
SliderTickRate:2

[Events]
//Background and Video events
0,0,"24637.png",0,0
//Break Periods
//Storyboard Layer 0 (Background)
//Storyboard Layer 1 (Fail)
//Storyboard Layer 2 (Pass)
//Storyboard Layer 3 (Foreground)
//Storyboard Sound Samples

[TimingPoints]
42,631.578947368421,4,1,1,10,1,0
2568,-100,4,1,1,15,0,0
5094,-100,4,1,1,20,0,0
7620,-100,4,1,1,25,0,0
10147,-100,4,1,1,30,0,0
12673,-100,4,1,1,35,0,0
15199,-100,4,1,1,40,0,0
17726,-100,4,1,1,45,0,0
20252,-100,4,1,1,50,0,0
22778,-100,4,1,1,55,0,0
25305,-100,4,1,1,60,0,0
27831,-100,4,1,1,65,0,0
30357,-100,4,1,1,70,0,0
32884,-100,4,1,1,80,0,0
35410,-100,4,1,1,90,0,0
37936,-100,4,1,1,100,0,0
40463,-100,4,1,1,100,0,0
60357,-90.9090909090909,4,1,1,100,0,0
60989,-100,4,1,1,100,0,0
80884,-125,4,2,1,80,0,0
119094,-128.205128205128,4,2,1,80,0,0
120673,-125,4,1,1,100,0,0
121305,-100,4,1,1,100,0,1
141199,-90.9090909090909,4,1,1,100,0,1
141831,-100,4,1,1,100,0,1
161726,-100,4,1,1,100,0,0
182884,-100,4,1,1,100,0,1
186989,-100,4,1,1,100,0,0

[Colours]
Combo1 : 244,244,244
Combo2 : 159,159,159
SliderBorder : 220,220,220
SliderTrackOverride : 20,20,20

[HitObjects]
204,144,42,6,0,P|204:240|252:272,1,110,2|0,0:0|0:0,0:0:0:0:
288,192,1305,2,0,P|288:96|240:64,1,110
188,88,2568,1,8,0:0:0:0:
92,88,3199,1,8,0:0:0:0:
8,40,3831,2,0,B|40:0|40:0|104:0,1,110
196,0,5094,5,10,0:0:0:0:
292,0,5726,2,0,P|308:0|364:72,1,110
364,160,6989,1,0,0:0:0:0:
364,256,7620,2,0,P|296:228|272:180,1,110,8|0,0:0|0:0,0:0:0:0:
220,120,8884,2,0,B|188:72|124:80,1,110
28,80,10147,5,10,0:0:0:0:
28,176,10778,1,8,0:0:0:0:
124,176,11410,2,0,B|180:176|180:176|220:216,1,110
284,284,12673,2,8,B|324:324|324:324|380:324,1,110,8|0,0:0|0:0,0:0:0:0:
476,324,13936,2,0,P|464:276|408:232,1,110
340,184,15199,6,0,P|324:168|316:136,2,55,2|8|0,0:0|0:0|0:0,0:0:0:0:
412,120,16463,2,0,P|428:104|436:72,2,55,2|8|0,0:0|0:0|0:0,0:0:0:0:
336,60,17726,2,0,L|280:60,1,55
232,60,18357,2,8,B|232:116|232:116|272:156,2,110,8|0|8,0:0|0:0|0:0,0:0:0:0:
200,24,19936,6,0,L|144:24,1,55,8|2,0:0|0:0,0:0:0:0:
108,56,20568,2,0,L|52:56,2,55,0|8|0,0:0|0:0|0:0,0:0:0:0:
108,104,21515,1,0,0:0:0:0:
108,200,22147,1,0,0:0:0:0:
12,200,22778,2,8,B|12:256|12:256|68:288,1,110
144,328,24042,2,0,L|200:360,2,55,0|8|0,0:0|0:0|0:0,0:0:0:0:
144,280,24989,1,0,0:0:0:0:
144,232,25305,6,0,P|144:208|208:160,1,110,2|0,0:0|0:0,0:0:0:0:
304,160,26568,2,0,P|320:120|320:104,2,55,8|0|0,0:0|0:0|0:0,0:0:0:0:
276,200,27515,1,0,0:0:0:0:
236,224,27831,2,0,P|204:240|186:240,2,55,8|0|0,0:0|0:0|0:0,0:0:0:0:
276,200,28778,1,0,0:0:0:0:
316,228,29094,1,8,0:0:0:0:
316,324,29726,1,8,0:0:0:0:
412,324,30357,6,0,B|412:252|412:252|384:224,1,110,2|0,0:0|0:0,0:0:0:0:
336,224,31305,1,8,0:0:0:0:
288,224,31620,2,0,B|232:224|232:224|192:184,1,110
144,184,32568,1,8,0:0:0:0:
96,184,32884,2,0,L|96:240,2,55,0|8|0,0:0|0:0|0:0,0:0:0:0:
96,136,33831,1,8,0:0:0:0:
96,88,34147,2,0,L|40:88,2,55,0|8|0,0:0|0:0|0:0,0:0:0:0:
96,40,35094,2,8,L|152:40,1,55,8|0,0:0|0:0,0:0:0:0:
224,108,36042,5,0,0:0:0:0:
292,176,36673,2,0,L|348:176,1,55,8|0,0:0|0:0,0:0:0:0:
380,140,37305,2,0,L|436:140,1,55
464,100,37936,2,8,L|464:44,2,55,8|0|8,0:0|0:0|0:0,0:0:0:0:
496,136,38884,1,0,0:0:0:0:
464,172,39199,2,0,L|464:228,1,55
496,264,39831,1,0,0:0:0:0:
400,264,40463,6,0,L|344:264,2,55,10|0|0,0:0|0:0|0:0,0:0:0:0:
416,168,41726,1,0,0:0:0:0:
320,174,42357,1,0,0:0:0:0:
224,180,42989,2,0,L|224:124,2,55,8|0|0,0:0|0:0|0:0,0:0:0:0:
292,248,44252,2,0,P|276:264|236:280,1,55,0|8,0:0|0:0,0:0:0:0:
200,280,44884,2,0,P|169:266|152:248,1,55
140,204,45515,5,10,0:0:0:0:
88,204,45831,2,0,L|32:204,2,55,0|0|8,0:0|0:0|0:0,0:0:0:0:
88,252,46778,2,0,L|88:308,1,55
136,308,47410,2,0,L|192:308,1,55,0|8,0:0|0:0,0:0:0:0:
240,308,48042,1,0,0:0:0:0:
240,212,48673,1,0,0:0:0:0:
144,212,49305,2,8,B|104:172|104:172|128:124|128:124|88:84,1,165
92,36,50568,6,0,P|148:20|196:36,1,110,2|0,0:0|0:0,0:0:0:0:
196,84,51515,1,8,0:0:0:0:
244,84,51831,1,0,0:0:0:0:
340,84,52463,1,0,0:0:0:0:
416,24,53094,2,8,L|472:24,1,55
504,60,53726,2,0,L|504:116,1,55
504,164,54357,1,8,0:0:0:0:
408,164,54989,1,8,0:0:0:0:
312,164,55620,6,0,B|248:164|248:164|216:196,1,110,2|0,0:0|0:0,0:0:0:0:
216,244,56568,1,8,0:0:0:0:
216,292,56884,2,0,P|280:332|312:332,1,110
408,332,58147,1,8,0:0:0:0:
504,332,58778,2,0,L|504:276,1,55
504,228,59410,2,0,L|504:172,2,55,8|8|0,0:0|0:0|0:0,0:0:0:0:
452,228,60357,6,10,B|420:228|420:228|420:196,1,60.5000018463135,10|2,0:0|0:0,0:0:0:0:
420,104,61305,1,0,0:0:0:0:
324,104,61936,2,0,B|268:104|268:104|228:144,1,110,8|0,0:0|0:0,0:0:0:0:
132,140,63199,2,8,L|132:84,1,55
100,48,63831,2,0,L|44:48,1,55
8,80,64463,1,0,0:0:0:0:
8,176,65094,1,0,0:0:0:0:
76,244,65726,6,8,B|76:300|76:300|116:340,1,110,10|0,0:0|0:0,0:0:0:0:
164,340,66673,1,8,0:0:0:0:
212,340,66989,2,0,B|252:300|252:300|252:244,1,110,0|8,0:0|0:0,0:0:0:0:
252,200,67936,1,0,0:0:0:0:
284,164,68252,2,0,L|340:164,1,55
372,128,68884,2,8,L|428:128,1,55
460,164,69515,2,0,B|436:212|436:212|380:212|380:212|348:276,1,165,0|8,0:0|0:0,0:0:0:0:
356,308,70778,6,0,L|356:364,2,55,2|8|0,0:0|0:0|0:0,0:0:0:0:
308,308,71726,1,0,0:0:0:0:
260,308,72041,1,0,0:0:0:0:
260,212,72673,2,0,L|204:212,1,55,0|8,0:0|0:0,0:0:0:0:
172,244,73305,2,0,P|140:236|116:164,1,110
52,96,74568,2,0,L|92:56,1,55
140,56,75199,2,8,L|178:94,1,55
228,96,75831,6,0,B|340:96,1,110,2|0,0:0|0:0,0:0:0:0:
340,192,77094,1,8,0:0:0:0:
244,192,77726,2,0,B|244:236|244:236|292:284,1,110
388,284,78989,2,0,L|388:228,1,55
416,192,79620,2,0,L|416:136,1,55,0|8,0:0|0:0,0:0:0:0:
448,100,80252,2,0,L|504:100,2,55,0|0|10,0:0|0:0|0:0,0:0:0:0:
376,72,81515,6,0,L|344:40,1,44
256,116,82778,2,0,L|288:148,1,44
288,264,84041,2,0,L|320:296,1,44
436,296,85305,2,0,L|468:328,2,44,0|8|0,0:0|0:0|0:0,0:0:0:0:
360,296,86568,6,0,L|328:328,1,44
212,328,87831,2,0,L|180:360,1,44
96,280,89094,2,0,L|128:248,1,44
128,132,90357,2,0,L|160:100,2,44,0|8|0,0:0|0:0|0:0,0:0:0:0:
180,188,91620,6,0,L|212:220,1,44
292,304,92884,2,0,L|324:336,1,44
440,336,94147,2,0,L|400:296,1,44
408,188,95410,2,0,L|376:156,2,44,0|8|0,0:0|0:0|0:0,0:0:0:0:
352,240,96673,6,0,B|320:272|320:272|288:240,1,88,0|8,0:0|0:0,0:0:0:0:
228,288,97936,2,0,L|196:256,1,44
112,176,99199,2,0,L|80:144,2,44,0|8|0,0:0|0:0|0:0,0:0:0:0:
168,228,100463,2,0,B|200:260|200:260|232:228,1,88,0|10,0:0|0:0,0:0:0:0:
316,232,101726,6,0,P|324:232|356:216,1,44
448,144,102989,2,0,P|464:112|464:104,1,44
348,104,104252,2,0,P|340:104|308:88,1,44
192,88,105515,2,0,P|192:96|208:128,1,44
240,148,106147,1,8,0:0:0:0:
296,204,106778,6,0,P|296:212|280:244,1,44
192,320,108041,2,0,P|176:352|176:360,1,44
292,360,109305,2,0,P|300:360|332:344,1,44
332,228,110568,2,0,P|364:212|372:212,1,44
412,212,111199,1,8,0:0:0:0:
412,136,111831,6,0,P|404:136|372:120,1,44
292,36,113094,2,0,P|284:36|252:52,1,44
176,140,114357,2,0,P|144:156|136:156,1,44
20,152,115620,2,0,P|20:160|36:192,1,44
68,216,116252,1,8,0:0:0:0:
68,292,116884,6,0,L|116:292,1,44,0|8,0:0|0:0,0:0:0:0:
188,292,117831,2,8,B|220:260|220:260|268:260,1,88
340,260,119094,2,8,B|372:228|372:228|372:188|372:188|404:156,1,128.700004320374
372,96,120673,6,0,B|372:72,2,22,0|8|0,0:0|0:0|0:0,0:0:0:0:
324,96,121305,6,8,L|284:136,1,55,10|8,0:0|0:0,0:0:0:0:
236,132,121936,2,0,L|236:77,1,55
236,28,122568,1,8,0:0:0:0:
140,28,123199,1,8,0:0:0:0:
44,28,123831,2,0,B|44:84|44:84|84:124,1,110
120,156,124778,1,8,0:0:0:0:
156,188,125094,2,0,B|196:228|196:228|196:284,2,110,0|8|10,0:0|0:0|0:0,0:0:0:0:
100,268,126989,5,0,0:0:0:0:
100,364,127620,2,0,B|44:364,2,55,0|0|8,0:0|0:0|0:0,0:0:0:0:
148,364,128568,1,0,0:0:0:0:
196,356,128884,2,0,P|244:268|244:260,1,110,0|8,0:0|0:0,0:0:0:0:
300,184,130147,2,0,B|276:136|276:136|228:112|228:112|204:56,1,165,0|8,0:0|0:0,0:0:0:0:
204,12,131410,5,10,0:0:0:0:
292,48,132042,1,0,0:0:0:0:
388,48,132673,2,0,L|444:48,2,55,0|8|0,0:0|0:0|0:0,0:0:0:0:
388,96,133620,1,0,0:0:0:0:
388,144,133936,2,0,B|332:144|332:144|292:184,1,110,8|0,0:0|0:0,0:0:0:0:
260,216,134884,1,0,0:0:0:0:
228,252,135199,2,0,B|188:292,2,55,8|0|0,0:0|0:0|0:0,0:0:0:0:
272,252,136147,1,8,0:0:0:0:
320,252,136463,6,0,P|352:260|416:300,1,110,10|0,0:0|0:0,0:0:0:0:
448,336,137410,1,8,0:0:0:0:
484,304,137726,2,0,P|508:264|508:256,1,55,0|8,0:0|0:0,0:0:0:0:
504,208,138357,1,0,0:0:0:0:
408,212,138989,2,0,L|352:212,1,55
316,180,139620,2,8,L|260:180,1,55
212,180,140252,2,0,L|212:236,1,55
212,284,140884,1,8,0:0:0:0:
160,284,141199,2,2,B|128:284|128:284|128:252,1,60.5000018463135,10|2,0:0|0:0,0:0:0:0:
128,160,142147,6,0,B|88:112|88:112|40:112,1,110,0|8,0:0|0:0,0:0:0:0:
40,208,143410,1,0,0:0:0:0:
40,304,144042,2,8,P|40:320|112:368,1,110
204,368,145305,2,0,L|260:368,2,55,0|8|0,0:0|0:0|0:0,0:0:0:0:
204,320,146252,1,0,0:0:0:0:
204,272,146568,6,8,L|164:232,1,55,10|8,0:0|0:0,0:0:0:0:
132,200,147199,1,0,0:0:0:0:
132,104,147831,2,0,P|148:48|188:16,1,110
284,16,149094,2,8,B|324:56|324:56|292:96|292:96|332:136,1,165,8|0,0:0|0:0,0:0:0:0:
332,184,150357,2,0,L|332:240,1,55,0|8,0:0|0:0,0:0:0:0:
364,272,150989,2,0,L|420:272,1,55
468,272,151620,5,10,0:0:0:0:
464,176,152252,2,0,L|352:176,1,110
256,176,153515,1,0,0:0:0:0:
160,176,154147,2,0,L|160:120,1,55,0|8,0:0|0:0,0:0:0:0:
128,88,154778,1,0,0:0:0:0:
204,28,155410,2,0,B|244:68|244:68|300:68,1,110,0|8,0:0|0:0,0:0:0:0:
344,68,156357,1,0,0:0:0:0:
392,68,156673,6,0,B|432:108|432:108|432:164,1,110,2|0,0:0|0:0,0:0:0:0:
500,228,157936,1,8,0:0:0:0:
500,324,158568,1,0,0:0:0:0:
404,324,159199,2,0,B|364:284|364:284|308:284,1,110,8|0,0:0|0:0,0:0:0:0:
236,344,160463,2,0,L|180:344,1,55,8|0,0:0|0:0,0:0:0:0:
132,344,161094,1,8,0:0:0:0:
136,296,161410,2,8,B|176:256,1,55,8|2,0:0|0:1,0:0:0:0:
248,192,162357,5,0,0:0:0:0:
344,192,162989,2,0,B|384:232|384:232|440:232,1,110,8|0,0:0|0:0,0:0:0:0:
508,164,164252,1,8,0:0:0:0:
508,68,164884,1,0,0:0:0:0:
432,8,165516,2,0,L|376:8,1,55
344,40,166147,2,8,L|288:40,1,55
260,80,166778,6,0,L|260:136,2,55,2|0|8,0:0|0:0|0:0,0:0:0:0:
232,40,167726,2,0,B|176:40,1,55,8|0,0:0|0:0,0:0:0:0:
80,40,168673,1,0,0:0:0:0:
80,136,169305,1,8,0:0:0:0:
140,212,169936,2,0,P|212:252|244:252,2,110,8|0|0,0:0|0:0|0:0,0:0:0:0:
140,164,171515,1,8,0:0:0:0:
140,116,171831,6,0,B|180:76|180:76|236:76,1,110,2|0,0:0|0:0,0:0:0:0:
332,76,173094,1,0,0:0:0:0:
332,172,173726,1,0,0:0:0:0:
428,172,174357,2,0,L|428:116,2,55,8|0|0,0:0|0:0|0:0,0:0:0:0:
428,268,175620,2,0,L|468:308,2,55,0|8|0,0:0|0:0|0:0,0:0:0:0:
380,268,176568,2,0,L|340:308,1,55,8|2,0:0|0:0,0:0:0:0:
244,308,177515,5,0,0:0:0:0:
148,308,178147,2,8,B|108:348|108:348|52:348,1,110
0,268,179410,2,0,L|0:156,1,110
0,60,180673,1,0,0:0:0:0:
48,60,180989,2,0,L|48:4,2,55,8|0|0,0:0|0:0|0:0,0:0:0:0:
96,60,181936,1,10,0:0:0:0:
144,60,182252,2,0,B|200:60,1,55
248,60,182884,6,8,P|280:68|304:84,1,55
324,120,183515,1,0,0:0:0:0:
324,168,183831,1,0,0:0:0:0:
276,168,184147,6,8,L|220:168,1,55
172,172,184778,1,0,0:0:0:0:
140,208,185094,1,0,0:0:0:0:
140,256,185410,6,8,P|172:264|188:280,1,55
208,324,186042,1,0,0:0:0:0:
256,324,186357,2,0,L|312:324,1,55,8|0,0:0|0:0,0:0:0:0:
344,360,186989,6,0,L|400:360,2,55,2|8|0,0:0|0:0|0:0,0:0:0:0:
344,312,187936,1,8,0:0:0:0:
344,264,188252,1,0,0:0:0:0:
248,264,188884,1,0,0:0:0:0:
152,264,189515,2,0,L|112:304,2,55,8|0|0,0:0|0:0|0:0,0:0:0:0:
88,192,190778,2,8,L|128:152,1,55
176,152,191410,2,0,L|232:152,1,55
280,152,192041,5,2,0:0:0:0:
376,152,192673,1,0,0:0:0:0:
452,212,193305,2,8,P|436:260|380:276,1,110,8|0,0:0|0:0,0:0:0:0:
288,276,194568,1,0,0:0:0:0:
212,336,195199,1,0,0:0:0:0:
116,336,195831,2,8,L|60:336,1,55
28,300,196463,2,0,L|28:244,1,55
28,196,197094,6,0,B|68:156|68:156|124:156,1,110,2|0,0:0|0:0,0:0:0:0:
196,220,198357,1,8,0:0:0:0:
292,220,198989,1,0,0:0:0:0:
388,220,199620,2,0,P|436:204|452:148,1,110
452,56,200884,2,8,L|396:56,1,55
348,56,201515,1,0,0:0:0:0:
300,56,201831,1,0,0:0:0:0:
