osu file format v14

[General]
AudioFilename: audio.mp3
AudioLeadIn: 0
PreviewTime: 74132
Countdown: 0
SampleSet: Soft
StackLeniency: 0.7
Mode: 3
LetterboxInBreaks: 0
SpecialStyle: 0
WidescreenStoryboard: 1

[Editor]
DistanceSpacing: 1.1
BeatDivisor: 4
GridSize: 8
TimelineZoom: 1.9

[Metadata]
Title:Shine Through
TitleUnicode:Shine Through
Artist:STREME REVERIE
ArtistUnicode:STREME REVERIE
Creator:Meowstic
Version:NM
Source:EZ2AC : ENDLESS CIRCULATION
Tags:EZ2DJ EZ2AC STREMEREVERIE KIEN Electronica
BeatmapID:1273059
BeatmapSetID:580617

[Difficulty]
HPDrainRate:6.5
CircleSize:4
OverallDifficulty:6.5
ApproachRate:5
SliderMultiplier:1.4
SliderTickRate:1

[Events]
//Background and Video events
0,0,"Shine_through(RGB)(noise_scale)(Level2).jpg",0,0
//Break Periods
//Storyboard Layer 0 (Background)
//Storyboard Layer 1 (Fail)
//Storyboard Layer 2 (Pass)
//Storyboard Layer 3 (Foreground)
//Storyboard Layer 4 (Overlay)
//Storyboard Sound Samples

[TimingPoints]
473,329.67032967033,4,2,0,5,1,0
32121,-100,4,2,0,5,0,1
37396,-100,4,2,0,5,0,0
74319,-100,4,2,0,5,0,1
84868,-100,4,2,0,5,0,0

[HitObjects]
320,192,473,5,0,0:0:0:0:
320,192,967,1,0,0:0:0:0:
192,192,1297,1,0,0:0:0:0:
448,192,1462,1,0,0:0:0:0:
64,192,1626,1,0,0:0:0:0:
320,192,1791,1,0,0:0:0:0:
192,192,1956,1,0,0:0:0:0:
192,192,2286,1,0,0:0:0:0:
448,192,2451,1,0,0:0:0:0:
320,192,2615,1,0,0:0:0:0:
192,192,2780,1,0,0:0:0:0:
64,192,2945,1,0,0:0:0:0:
192,192,3110,1,0,0:0:0:0:
192,192,3604,1,0,0:0:0:0:
448,192,3934,1,0,0:0:0:0:
64,192,4099,1,0,0:0:0:0:
448,192,4264,1,0,0:0:0:0:
320,192,4429,1,0,0:0:0:0:
192,192,4593,1,0,0:0:0:0:
192,192,4923,1,0,0:0:0:0:
320,192,5088,1,0,0:0:0:0:
448,192,5253,1,0,0:0:0:0:
320,192,5418,1,0,0:0:0:0:
192,192,5582,1,0,0:0:0:0:
64,192,5747,1,0,0:0:0:0:
64,192,6242,1,0,0:0:0:0:
320,192,6571,1,0,0:0:0:0:
192,192,6736,1,0,0:0:0:0:
320,192,6901,1,0,0:0:0:0:
448,192,7066,1,0,0:0:0:0:
192,192,7231,1,0,0:0:0:0:
192,192,7560,1,0,0:0:0:0:
448,192,7725,1,0,0:0:0:0:
320,192,7890,1,0,0:0:0:0:
192,192,8055,1,0,0:0:0:0:
64,192,8220,1,0,0:0:0:0:
192,192,8385,1,0,0:0:0:0:
192,192,8879,1,0,0:0:0:0:
448,192,9209,1,0,0:0:0:0:
64,192,9374,1,0,0:0:0:0:
448,192,9538,1,0,0:0:0:0:
320,192,9703,1,0,0:0:0:0:
64,192,9868,1,0,0:0:0:0:
320,192,10198,1,0,0:0:0:0:
448,192,10363,1,0,0:0:0:0:
320,192,10527,1,0,0:0:0:0:
192,192,10692,1,0,0:0:0:0:
64,192,10857,1,0,0:0:0:0:
192,192,11022,1,0,0:0:0:0:
448,192,11022,128,0,12341:0:0:0:0:
192,192,11516,1,0,0:0:0:0:
192,192,12011,1,0,0:0:0:0:
320,192,12341,1,0,0:0:0:0:
64,192,12341,128,0,13659:0:0:0:0:
320,192,12835,1,0,0:0:0:0:
320,192,13330,1,0,0:0:0:0:
320,192,13494,1,0,0:0:0:0:
448,192,13659,1,0,0:0:0:0:
192,192,13659,128,0,14978:0:0:0:0:
448,192,14154,1,0,0:0:0:0:
448,192,14648,1,0,0:0:0:0:
64,192,14978,1,0,0:0:0:0:
320,192,14978,128,0,16297:0:0:0:0:
64,192,15473,1,0,0:0:0:0:
64,192,15967,1,0,0:0:0:0:
64,192,16132,1,0,0:0:0:0:
192,192,16297,1,0,0:0:0:0:
448,192,16297,128,0,17615:0:0:0:0:
192,192,16791,1,0,0:0:0:0:
192,192,17286,1,0,0:0:0:0:
320,192,17615,1,0,0:0:0:0:
64,192,17615,128,0,18934:0:0:0:0:
320,192,18110,1,0,0:0:0:0:
320,192,18604,1,0,0:0:0:0:
320,192,18769,1,0,0:0:0:0:
192,192,18934,1,0,0:0:0:0:
448,192,18934,128,0,20253:0:0:0:0:
192,192,19429,1,0,0:0:0:0:
192,192,19923,1,0,0:0:0:0:
64,192,20253,1,0,0:0:0:0:
320,192,20253,128,0,21571:0:0:0:0:
64,192,20747,1,0,0:0:0:0:
64,192,21242,1,0,0:0:0:0:
64,192,21407,1,0,0:0:0:0:
192,192,21571,1,0,0:0:0:0:
448,192,21901,1,0,0:0:0:0:
192,192,22066,1,0,0:0:0:0:
320,192,22231,1,0,0:0:0:0:
64,192,22396,1,0,0:0:0:0:
64,192,22725,1,0,0:0:0:0:
320,192,23055,1,0,0:0:0:0:
448,192,23220,1,0,0:0:0:0:
448,192,23549,1,0,0:0:0:0:
192,192,23879,1,0,0:0:0:0:
64,192,24044,1,0,0:0:0:0:
320,192,24209,1,0,0:0:0:0:
192,192,24538,1,0,0:0:0:0:
320,192,24703,1,0,0:0:0:0:
192,192,24868,1,0,0:0:0:0:
64,192,25033,1,0,0:0:0:0:
192,192,25198,1,0,0:0:0:0:
448,192,25363,1,0,0:0:0:0:
192,192,25527,1,0,0:0:0:0:
64,192,25857,1,0,0:0:0:0:
192,192,26022,1,0,0:0:0:0:
448,192,26187,1,0,0:0:0:0:
320,192,26352,1,0,0:0:0:0:
192,192,26516,1,0,0:0:0:0:
64,192,26681,1,0,0:0:0:0:
192,192,26846,1,0,0:0:0:0:
320,192,27176,1,0,0:0:0:0:
192,192,27341,1,0,0:0:0:0:
320,192,27505,1,0,0:0:0:0:
448,192,27670,1,0,0:0:0:0:
448,192,28000,1,0,0:0:0:0:
192,192,28330,1,0,0:0:0:0:
64,192,28494,1,0,0:0:0:0:
64,192,28824,1,0,0:0:0:0:
192,192,29154,1,0,0:0:0:0:
320,192,29319,1,0,0:0:0:0:
448,192,29483,1,0,0:0:0:0:
192,192,29813,1,0,0:0:0:0:
64,192,29978,1,0,0:0:0:0:
320,192,30143,1,0,0:0:0:0:
448,192,30308,1,0,0:0:0:0:
320,192,30473,1,0,0:0:0:0:
192,192,30637,1,0,0:0:0:0:
320,192,30802,1,0,0:0:0:0:
320,192,31132,1,0,0:0:0:0:
192,192,31297,1,0,0:0:0:0:
448,192,31462,1,0,0:0:0:0:
320,192,31626,1,0,0:0:0:0:
192,192,31791,1,0,0:0:0:0:
64,192,31956,1,0,0:0:0:0:
192,192,32121,1,0,0:0:0:0:
448,192,32121,1,0,0:0:0:0:
320,192,32451,1,0,0:0:0:0:
192,192,32780,1,0,0:0:0:0:
192,192,33110,1,0,0:0:0:0:
448,192,33275,1,0,0:0:0:0:
64,192,33440,1,0,0:0:0:0:
64,192,33769,1,0,0:0:0:0:
320,192,33934,1,0,0:0:0:0:
192,192,34099,1,0,0:0:0:0:
192,192,34429,1,0,0:0:0:0:
448,192,34593,1,0,0:0:0:0:
320,192,34758,1,0,0:0:0:0:
192,192,35088,1,0,0:0:0:0:
320,192,35253,1,0,0:0:0:0:
448,192,35418,1,0,0:0:0:0:
320,192,35582,1,0,0:0:0:0:
192,192,35747,1,0,0:0:0:0:
64,192,35912,1,0,0:0:0:0:
448,192,36077,1,0,0:0:0:0:
448,192,36407,1,0,0:0:0:0:
64,192,36571,1,0,0:0:0:0:
320,192,36736,1,0,0:0:0:0:
192,192,36901,1,0,0:0:0:0:
448,192,37066,1,0,0:0:0:0:
320,192,37231,1,0,0:0:0:0:
64,192,37396,1,0,0:0:0:0:
320,192,37725,1,0,0:0:0:0:
192,192,38055,1,0,0:0:0:0:
192,192,38385,1,0,0:0:0:0:
320,192,38549,1,0,0:0:0:0:
64,192,38714,1,0,0:0:0:0:
64,192,39044,1,0,0:0:0:0:
320,192,39209,1,0,0:0:0:0:
192,192,39374,1,0,0:0:0:0:
192,192,39703,1,0,0:0:0:0:
448,192,39868,1,0,0:0:0:0:
320,192,40033,1,0,0:0:0:0:
320,192,40363,1,0,0:0:0:0:
192,192,40527,1,0,0:0:0:0:
448,192,40692,1,0,0:0:0:0:
320,192,40857,1,0,0:0:0:0:
192,192,41022,1,0,0:0:0:0:
64,192,41187,1,0,0:0:0:0:
448,192,41352,1,0,0:0:0:0:
448,192,41681,1,0,0:0:0:0:
64,192,41846,1,0,0:0:0:0:
320,192,42011,1,0,0:0:0:0:
192,192,42176,1,0,0:0:0:0:
448,192,42341,1,0,0:0:0:0:
320,192,42505,1,0,0:0:0:0:
64,192,42670,1,0,0:0:0:0:
320,192,43000,1,0,0:0:0:0:
192,192,43330,1,0,0:0:0:0:
192,192,43659,1,0,0:0:0:0:
320,192,43824,1,0,0:0:0:0:
64,192,43989,1,0,0:0:0:0:
64,192,44319,1,0,0:0:0:0:
448,192,44483,1,0,0:0:0:0:
192,192,44648,1,0,0:0:0:0:
192,192,44937,1,0,0:0:0:0:
448,192,45143,1,0,0:0:0:0:
320,192,45308,1,0,0:0:0:0:
320,192,45637,1,0,0:0:0:0:
192,192,45802,1,0,0:0:0:0:
448,192,45967,1,0,0:0:0:0:
320,192,46132,1,0,0:0:0:0:
192,192,46297,1,0,0:0:0:0:
64,192,46462,1,0,0:0:0:0:
448,192,46626,1,0,0:0:0:0:
448,192,46956,1,0,0:0:0:0:
64,192,47121,1,0,0:0:0:0:
320,192,47286,1,0,0:0:0:0:
192,192,47451,1,0,0:0:0:0:
448,192,47615,1,0,0:0:0:0:
320,192,47780,1,0,0:0:0:0:
64,192,47945,1,0,0:0:0:0:
192,192,48275,1,0,0:0:0:0:
320,192,48604,1,0,0:0:0:0:
320,192,48934,1,0,0:0:0:0:
192,192,49099,1,0,0:0:0:0:
64,192,49264,1,0,0:0:0:0:
64,192,49593,1,0,0:0:0:0:
448,192,49758,1,0,0:0:0:0:
192,192,49923,1,0,0:0:0:0:
192,192,50253,1,0,0:0:0:0:
320,192,50418,1,0,0:0:0:0:
448,192,50582,1,0,0:0:0:0:
448,192,50912,1,0,0:0:0:0:
192,192,51077,1,0,0:0:0:0:
448,192,51242,1,0,0:0:0:0:
320,192,51407,1,0,0:0:0:0:
192,192,51571,1,0,0:0:0:0:
64,192,51736,1,0,0:0:0:0:
320,192,51901,1,0,0:0:0:0:
320,192,52231,1,0,0:0:0:0:
64,192,52396,1,0,0:0:0:0:
448,192,52560,1,0,0:0:0:0:
320,192,52725,1,0,0:0:0:0:
192,192,52890,1,0,0:0:0:0:
64,192,52890,1,0,0:0:0:0:
64,192,53220,1,0,0:0:0:0:
448,192,53220,1,0,0:0:0:0:
320,192,53714,1,0,0:0:0:0:
192,192,54044,1,0,0:0:0:0:
320,192,54209,1,0,0:0:0:0:
64,192,54538,1,0,0:0:0:0:
320,192,55033,1,0,0:0:0:0:
320,192,55527,1,0,0:0:0:0:
192,192,55857,1,0,0:0:0:0:
448,192,56352,1,0,0:0:0:0:
448,192,56846,1,0,0:0:0:0:
320,192,57176,1,0,0:0:0:0:
192,192,57670,1,0,0:0:0:0:
64,192,58165,1,0,0:0:0:0:
192,192,58494,1,0,0:0:0:0:
192,192,58989,1,0,0:0:0:0:
320,192,59319,1,0,0:0:0:0:
192,192,59483,1,0,0:0:0:0:
64,192,59813,1,0,0:0:0:0:
320,192,60308,1,0,0:0:0:0:
320,192,60802,1,0,0:0:0:0:
192,192,61132,1,0,0:0:0:0:
448,192,61626,1,0,0:0:0:0:
448,192,62121,1,0,0:0:0:0:
320,192,62451,1,0,0:0:0:0:
192,192,62945,1,0,0:0:0:0:
64,192,63440,1,0,0:0:0:0:
320,192,63769,1,0,0:0:0:0:
448,192,63769,1,0,0:0:0:0:
192,192,64099,1,0,0:0:0:0:
64,192,64099,1,0,0:0:0:0:
448,192,64264,1,0,0:0:0:0:
192,192,64593,1,0,0:0:0:0:
64,192,64593,1,0,0:0:0:0:
192,192,64923,1,0,0:0:0:0:
192,192,65088,1,0,0:0:0:0:
320,192,65418,1,0,0:0:0:0:
448,192,65418,1,0,0:0:0:0:
192,192,65582,1,0,0:0:0:0:
320,192,65912,1,0,0:0:0:0:
448,192,65912,1,0,0:0:0:0:
64,192,66242,1,0,0:0:0:0:
64,192,66407,1,0,0:0:0:0:
192,192,66736,1,0,0:0:0:0:
320,192,66736,1,0,0:0:0:0:
448,192,66901,1,0,0:0:0:0:
320,192,67231,1,0,0:0:0:0:
192,192,67231,1,0,0:0:0:0:
64,192,67560,1,0,0:0:0:0:
64,192,67725,1,0,0:0:0:0:
192,192,68055,1,0,0:0:0:0:
320,192,68055,1,0,0:0:0:0:
448,192,68220,1,0,0:0:0:0:
192,192,68549,1,0,0:0:0:0:
320,192,68549,1,0,0:0:0:0:
448,192,68879,1,0,0:0:0:0:
448,192,69044,1,0,0:0:0:0:
448,192,69374,1,0,0:0:0:0:
64,192,69374,1,0,0:0:0:0:
448,192,69703,1,0,0:0:0:0:
64,192,69868,1,0,0:0:0:0:
448,192,70033,1,0,0:0:0:0:
448,192,70363,1,0,0:0:0:0:
448,192,70692,1,0,0:0:0:0:
64,192,70692,1,0,0:0:0:0:
448,192,71022,1,0,0:0:0:0:
64,192,71187,1,0,0:0:0:0:
448,192,71352,1,0,0:0:0:0:
448,192,71516,1,0,0:0:0:0:
192,192,71681,1,0,0:0:0:0:
192,192,71846,1,0,0:0:0:0:
320,192,72011,1,0,0:0:0:0:
192,192,72176,1,0,0:0:0:0:
192,192,72341,1,0,0:0:0:0:
320,192,72505,1,0,0:0:0:0:
192,192,72670,1,0,0:0:0:0:
192,192,72835,1,0,0:0:0:0:
64,192,73000,1,0,0:0:0:0:
448,192,73330,1,0,0:0:0:0:
64,192,73330,1,0,0:0:0:0:
320,192,73494,1,0,0:0:0:0:
192,192,73824,1,0,0:0:0:0:
448,192,73989,1,0,0:0:0:0:
64,192,73989,1,0,0:0:0:0:
192,192,74319,1,0,0:0:0:0:
320,192,74319,1,0,0:0:0:0:
64,192,74483,1,0,0:0:0:0:
192,192,74648,1,0,0:0:0:0:
320,192,74813,1,0,0:0:0:0:
448,192,75143,1,0,0:0:0:0:
192,192,75473,1,0,0:0:0:0:
320,192,75802,1,0,0:0:0:0:
192,192,75967,1,0,0:0:0:0:
64,192,76132,1,0,0:0:0:0:
320,192,76297,1,0,0:0:0:0:
448,192,76462,1,0,0:0:0:0:
192,192,76626,1,0,0:0:0:0:
320,192,76791,1,0,0:0:0:0:
64,192,76956,1,0,0:0:0:0:
320,192,77451,1,0,0:0:0:0:
192,192,77533,1,0,0:0:0:0:
64,192,77615,1,0,0:0:0:0:
448,192,77863,1,0,0:0:0:0:
320,192,78110,1,0,0:0:0:0:
64,192,78275,1,0,0:0:0:0:
192,192,78604,1,0,0:0:0:0:
64,192,78769,1,0,0:0:0:0:
320,192,78934,1,0,0:0:0:0:
192,192,79099,1,0,0:0:0:0:
448,192,79264,1,0,0:0:0:0:
320,192,79429,1,0,0:0:0:0:
448,192,79593,1,0,0:0:0:0:
320,192,79758,1,0,0:0:0:0:
192,192,79923,1,0,0:0:0:0:
64,192,80088,1,0,0:0:0:0:
320,192,80253,1,0,0:0:0:0:
192,192,80418,1,0,0:0:0:0:
320,192,80582,1,0,0:0:0:0:
448,192,80665,1,0,0:0:0:0:
64,192,80747,1,0,0:0:0:0:
192,192,80830,1,0,0:0:0:0:
320,192,80912,1,0,0:0:0:0:
192,192,81242,1,0,0:0:0:0:
448,192,81407,1,0,0:0:0:0:
320,192,81571,1,0,0:0:0:0:
448,192,81901,1,0,0:0:0:0:
192,192,82066,1,0,0:0:0:0:
320,192,82231,1,0,0:0:0:0:
64,192,82725,1,0,0:0:0:0:
320,192,82890,1,0,0:0:0:0:
448,192,83055,1,0,0:0:0:0:
192,192,83220,1,0,0:0:0:0:
320,192,83385,1,0,0:0:0:0:
64,192,83549,1,0,0:0:0:0:
448,192,83549,1,0,0:0:0:0:
64,192,83714,1,0,0:0:0:0:
448,192,83714,1,0,0:0:0:0:
448,192,84044,1,0,0:0:0:0:
64,192,84044,1,0,0:0:0:0:
64,192,84374,1,0,0:0:0:0:
448,192,84374,1,0,0:0:0:0:
192,192,84538,1,0,0:0:0:0:
320,192,84703,1,0,0:0:0:0:
64,192,84868,1,0,0:0:0:0:
448,192,84868,1,0,0:0:0:0:
320,192,85033,1,0,0:0:0:0:
448,192,85198,1,0,0:0:0:0:
64,192,85363,1,0,0:0:0:0:
192,192,85692,1,0,0:0:0:0:
448,192,86022,1,0,0:0:0:0:
320,192,86352,1,0,0:0:0:0:
192,192,86516,1,0,0:0:0:0:
64,192,86681,1,0,0:0:0:0:
448,192,86846,1,0,0:0:0:0:
320,192,87011,1,0,0:0:0:0:
192,192,87176,1,0,0:0:0:0:
64,192,87341,1,0,0:0:0:0:
448,192,87505,1,0,0:0:0:0:
64,192,87753,1,0,0:0:0:0:
192,192,88000,1,0,0:0:0:0:
448,192,88165,1,0,0:0:0:0:
192,192,88412,1,0,0:0:0:0:
320,192,88659,1,0,0:0:0:0:
448,192,88824,1,0,0:0:0:0:
64,192,88989,1,0,0:0:0:0:
320,192,89154,1,0,0:0:0:0:
192,192,89319,1,0,0:0:0:0:
320,192,89483,1,0,0:0:0:0:
448,192,89648,1,0,0:0:0:0:
192,192,89813,1,0,0:0:0:0:
320,192,89978,1,0,0:0:0:0:
64,192,90143,1,0,0:0:0:0:
448,192,90308,1,0,0:0:0:0:
64,192,90473,1,0,0:0:0:0:
448,192,90637,1,0,0:0:0:0:
192,192,90802,1,0,0:0:0:0:
320,192,90967,1,0,0:0:0:0:
192,192,91132,1,0,0:0:0:0:
320,192,91297,1,0,0:0:0:0:
448,192,91462,1,0,0:0:0:0:
448,192,91709,1,0,0:0:0:0:
192,192,91956,1,0,0:0:0:0:
320,192,92121,1,0,0:0:0:0:
320,192,92368,1,0,0:0:0:0:
64,192,92615,1,0,0:0:0:0:
64,192,93110,1,0,0:0:0:0:
448,192,93110,1,0,0:0:0:0:
448,192,93769,1,0,0:0:0:0:
64,192,93769,1,0,0:0:0:0:
64,192,94429,1,0,0:0:0:0:
320,192,94429,1,0,0:0:0:0:
192,192,95088,1,0,0:0:0:0:
448,192,95088,1,0,0:0:0:0:
320,192,95418,128,0,95912:0:0:0:0:
64,192,95912,128,0,96407:0:0:0:0:
320,192,96407,1,0,0:0:0:0:
192,192,96571,1,0,0:0:0:0:
320,192,96736,128,0,97231:0:0:0:0:
448,192,97231,128,0,97725:0:0:0:0:
192,192,97725,128,0,98055:0:0:0:0:
448,192,98055,1,0,0:0:0:0:
320,192,98220,1,0,0:0:0:0:
192,192,98385,1,0,0:0:0:0:
64,192,98549,1,0,0:0:0:0:
192,192,98714,128,0,99044:0:0:0:0:
320,192,99044,128,0,99374:0:0:0:0:
64,192,99374,128,0,99868:0:0:0:0:
192,192,99868,128,0,100363:0:0:0:0:
448,192,100363,128,0,100692:0:0:0:0:
192,192,100692,128,0,101187:0:0:0:0:
64,192,101187,128,0,101681:0:0:0:0:
448,192,101681,1,0,0:0:0:0:
320,192,101846,1,0,0:0:0:0:
192,192,102011,128,0,102505:0:0:0:0:
448,192,102505,128,0,103000:0:0:0:0:
320,192,103000,128,0,103330:0:0:0:0:
192,192,103330,128,0,103824:0:0:0:0:
64,192,103824,128,0,105967:0:0:0:0:
320,192,105967,1,0,0:0:0:0:
320,192,106297,1,0,0:0:0:0:
192,192,106462,1,0,0:0:0:0:
448,192,106626,1,0,0:0:0:0:
320,192,106791,1,0,0:0:0:0:
192,192,106956,1,0,0:0:0:0:
64,192,107121,1,0,0:0:0:0:
320,192,107286,128,0,107780:0:0:0:0:
448,192,107780,128,0,108275:0:0:0:0:
192,192,108275,128,0,108604:0:0:0:0:
64,192,108604,128,0,109099:0:0:0:0:
320,192,109099,128,0,109593:0:0:0:0:
448,192,109593,128,0,109923:0:0:0:0:
192,192,109923,128,0,110418:0:0:0:0:
64,192,110418,128,0,110912:0:0:0:0:
448,192,110912,128,0,111242:0:0:0:0:
192,192,111242,1,0,0:0:0:0:
192,192,111571,1,0,0:0:0:0:
64,192,111736,1,0,0:0:0:0:
448,192,111901,1,0,0:0:0:0:
320,192,112066,1,0,0:0:0:0:
192,192,112231,1,0,0:0:0:0:
64,192,112396,1,0,0:0:0:0:
320,192,112560,128,0,113055:0:0:0:0:
448,192,113055,128,0,113549:0:0:0:0:
320,192,113549,128,0,113879:0:0:0:0:
192,192,113879,128,0,115198:0:0:0:0:
64,192,115198,128,0,116187:0:0:0:0:
448,192,116187,1,0,0:0:0:0:
320,192,116516,1,0,0:0:0:0:
64,192,116516,1,0,0:0:0:0:
320,192,116846,1,0,0:0:0:0:
192,192,117011,1,0,0:0:0:0:
448,192,117176,1,0,0:0:0:0:
320,192,117341,1,0,0:0:0:0:
320,192,117670,1,0,0:0:0:0:
64,192,118000,1,0,0:0:0:0:
192,192,118165,1,0,0:0:0:0:
192,192,118494,1,0,0:0:0:0:
448,192,118824,1,0,0:0:0:0:
64,192,118989,1,0,0:0:0:0:
320,192,119154,1,0,0:0:0:0:
320,192,119483,1,0,0:0:0:0:
192,192,119648,1,0,0:0:0:0:
448,192,119813,1,0,0:0:0:0:
320,192,119978,1,0,0:0:0:0:
192,192,120143,1,0,0:0:0:0:
64,192,120308,1,0,0:0:0:0:
192,192,120473,1,0,0:0:0:0:
448,192,120473,1,0,0:0:0:0:
