osu file format v14

[General]
AudioFilename: 15B6.mp3
AudioLeadIn: 0
PreviewTime: -1
Countdown: 0
SampleSet: Normal
StackLeniency: 0.7
Mode: 3
LetterboxInBreaks: 0
SpecialStyle: 0
WidescreenStoryboard: 0

[Editor]
DistanceSpacing: 0.8
BeatDivisor: 2
GridSize: 32
TimelineZoom: 1

[Metadata]
Title:A Site De La Rue
TitleUnicode:A Site De La Rue
Artist:STREME REVERIE
ArtistUnicode:STREME REVERIE
Creator:Arnon
Version:Single 08
Source:Pump It Up: PRIME 2
Tags:
BeatmapID:1852931
BeatmapSetID:886366

[Difficulty]
HPDrainRate:5
CircleSize:5
OverallDifficulty:8
ApproachRate:5
SliderMultiplier:1.4
SliderTickRate:1

[Events]
//Background and Video events
0,0,"15B6-wide.png",0,0
Video,0,"15B6.mp4"
//Break Periods
2,8466,12227
//Storyboard Layer 0 (Background)
//Storyboard Layer 1 (Fail)
//Storyboard Layer 2 (Pass)
//Storyboard Layer 3 (Foreground)
//Storyboard Sound Samples

[TimingPoints]
1168,322.59798,4,1,0,0,1,0

[HitObjects]
255,192,6975,5,0,0:0:0:0:
255,192,7459,1,0,0:0:0:0:
255,192,7782,1,0,0:0:0:0:
255,192,8104,1,0,0:0:0:0:
255,192,8266,1,0,0:0:0:0:
255,192,13427,5,0,0:0:0:0:
153,192,13750,1,0,0:0:0:0:
357,192,13750,1,0,0:0:0:0:
153,192,14072,1,0,0:0:0:0:
255,192,14234,1,0,0:0:0:0:
153,192,14395,1,0,0:0:0:0:
255,192,14556,1,0,0:0:0:0:
255,192,14879,1,0,0:0:0:0:
153,192,15040,1,0,0:0:0:0:
153,192,15363,1,0,0:0:0:0:
357,192,15524,1,0,0:0:0:0:
255,192,15685,1,0,0:0:0:0:
459,192,15847,1,0,0:0:0:0:
51,192,16008,1,0,0:0:0:0:
51,192,16330,1,0,0:0:0:0:
459,192,16330,1,0,0:0:0:0:
459,192,16653,1,0,0:0:0:0:
255,192,16814,1,0,0:0:0:0:
459,192,16976,1,0,0:0:0:0:
255,192,17137,1,0,0:0:0:0:
255,192,17460,1,0,0:0:0:0:
459,192,17621,1,0,0:0:0:0:
459,192,17943,1,0,0:0:0:0:
51,192,18105,1,0,0:0:0:0:
255,192,18266,1,0,0:0:0:0:
153,192,18427,1,0,0:0:0:0:
357,192,18589,1,0,0:0:0:0:
153,192,18911,1,0,0:0:0:0:
357,192,18911,1,0,0:0:0:0:
357,192,19234,1,0,0:0:0:0:
255,192,19395,1,0,0:0:0:0:
357,192,19556,1,0,0:0:0:0:
255,192,19718,1,0,0:0:0:0:
255,192,20040,1,0,0:0:0:0:
459,192,20202,1,0,0:0:0:0:
459,192,20524,1,0,0:0:0:0:
51,192,20686,1,0,0:0:0:0:
255,192,20847,1,0,0:0:0:0:
153,192,21008,1,0,0:0:0:0:
357,192,21169,1,0,0:0:0:0:
255,192,21331,1,0,0:0:0:0:
357,192,21492,1,0,0:0:0:0:
255,192,21653,1,0,0:0:0:0:
459,192,21815,1,0,0:0:0:0:
255,192,21976,1,0,0:0:0:0:
459,192,22137,1,0,0:0:0:0:
255,192,22299,1,0,0:0:0:0:
357,192,22460,1,0,0:0:0:0:
153,192,22621,1,0,0:0:0:0:
255,192,22782,1,0,0:0:0:0:
51,192,22944,128,0,23428:0:0:0:0:
459,192,23105,128,0,23428:0:0:0:0:
459,192,23750,1,0,0:0:0:0:
459,192,24073,1,0,0:0:0:0:
459,192,24395,1,0,0:0:0:0:
459,192,24718,1,0,0:0:0:0:
51,192,25041,1,0,0:0:0:0:
51,192,25363,1,0,0:0:0:0:
51,192,25686,1,0,0:0:0:0:
51,192,26008,1,0,0:0:0:0:
357,192,26331,1,0,0:0:0:0:
357,192,26654,1,0,0:0:0:0:
357,192,26976,1,0,0:0:0:0:
357,192,27299,1,0,0:0:0:0:
255,192,27621,1,0,0:0:0:0:
153,192,27944,1,0,0:0:0:0:
357,192,27944,1,0,0:0:0:0:
153,192,28267,1,0,0:0:0:0:
255,192,28428,1,0,0:0:0:0:
153,192,28589,1,0,0:0:0:0:
255,192,28751,1,0,0:0:0:0:
51,192,28912,1,0,0:0:0:0:
51,192,29234,1,0,0:0:0:0:
51,192,29557,1,0,0:0:0:0:
51,192,29880,1,0,0:0:0:0:
459,192,30202,1,0,0:0:0:0:
459,192,30525,1,0,0:0:0:0:
459,192,30847,1,0,0:0:0:0:
459,192,31170,1,0,0:0:0:0:
153,192,31493,1,0,0:0:0:0:
153,192,31815,1,0,0:0:0:0:
153,192,32138,1,0,0:0:0:0:
153,192,32460,1,0,0:0:0:0:
357,192,32783,1,0,0:0:0:0:
255,192,32944,1,0,0:0:0:0:
357,192,33106,1,0,0:0:0:0:
153,192,33267,1,0,0:0:0:0:
255,192,33428,1,0,0:0:0:0:
51,192,33589,1,0,0:0:0:0:
459,192,33751,1,0,0:0:0:0:
255,192,33912,1,0,0:0:0:0:
357,192,34073,1,0,0:0:0:0:
255,192,34396,1,0,0:0:0:0:
357,192,34557,1,0,0:0:0:0:
255,192,34719,1,0,0:0:0:0:
357,192,34880,1,0,0:0:0:0:
255,192,35041,1,0,0:0:0:0:
357,192,35202,1,0,0:0:0:0:
153,192,35364,1,0,0:0:0:0:
255,192,35686,1,0,0:0:0:0:
153,192,35848,1,0,0:0:0:0:
255,192,36009,1,0,0:0:0:0:
153,192,36170,1,0,0:0:0:0:
255,192,36332,1,0,0:0:0:0:
153,192,36493,1,0,0:0:0:0:
459,192,36654,1,0,0:0:0:0:
255,192,36977,1,0,0:0:0:0:
459,192,37138,1,0,0:0:0:0:
255,192,37299,1,0,0:0:0:0:
459,192,37461,1,0,0:0:0:0:
255,192,37622,1,0,0:0:0:0:
459,192,37783,1,0,0:0:0:0:
51,192,37945,1,0,0:0:0:0:
51,192,38267,1,0,0:0:0:0:
459,192,38267,1,0,0:0:0:0:
51,192,38590,1,0,0:0:0:0:
255,192,38751,1,0,0:0:0:0:
153,192,38912,1,0,0:0:0:0:
357,192,39074,1,0,0:0:0:0:
255,192,39235,1,0,0:0:0:0:
459,192,39396,1,0,0:0:0:0:
255,192,39558,1,0,0:0:0:0:
459,192,39719,1,0,0:0:0:0:
255,192,39880,1,0,0:0:0:0:
459,192,40041,1,0,0:0:0:0:
255,192,40203,1,0,0:0:0:0:
459,192,40364,1,0,0:0:0:0:
51,192,40525,1,0,0:0:0:0:
255,192,40687,1,0,0:0:0:0:
51,192,40848,1,0,0:0:0:0:
255,192,41009,1,0,0:0:0:0:
51,192,41171,1,0,0:0:0:0:
255,192,41332,1,0,0:0:0:0:
51,192,41493,1,0,0:0:0:0:
255,192,41654,1,0,0:0:0:0:
153,192,41816,1,0,0:0:0:0:
357,192,41977,1,0,0:0:0:0:
153,192,42138,1,0,0:0:0:0:
357,192,42300,1,0,0:0:0:0:
153,192,42461,1,0,0:0:0:0:
357,192,42622,1,0,0:0:0:0:
153,192,42784,1,0,0:0:0:0:
357,192,42945,1,0,0:0:0:0:
255,192,43106,1,0,0:0:0:0:
459,192,43267,1,0,0:0:0:0:
51,192,43429,1,0,0:0:0:0:
255,192,43590,1,0,0:0:0:0:
51,192,43751,1,0,0:0:0:0:
459,192,43913,1,0,0:0:0:0:
51,192,44074,1,0,0:0:0:0:
459,192,44235,1,0,0:0:0:0:
255,192,44397,1,0,0:0:0:0:
459,192,44880,1,0,0:0:0:0:
459,192,45203,1,0,0:0:0:0:
459,192,45526,1,0,0:0:0:0:
255,192,45848,1,0,0:0:0:0:
459,192,46010,1,0,0:0:0:0:
255,192,46332,1,0,0:0:0:0:
459,192,46332,1,0,0:0:0:0:
255,192,46655,1,0,0:0:0:0:
459,192,46655,1,0,0:0:0:0:
51,192,47139,1,0,0:0:0:0:
255,192,47461,1,0,0:0:0:0:
51,192,47623,1,0,0:0:0:0:
51,192,47945,1,0,0:0:0:0:
255,192,47945,1,0,0:0:0:0:
357,192,48268,1,0,0:0:0:0:
255,192,48429,1,0,0:0:0:0:
357,192,48590,1,0,0:0:0:0:
255,192,48752,1,0,0:0:0:0:
459,192,48913,1,0,0:0:0:0:
255,192,49235,1,0,0:0:0:0:
459,192,49235,1,0,0:0:0:0:
255,192,49558,1,0,0:0:0:0:
357,192,50042,1,0,0:0:0:0:
357,192,50365,1,0,0:0:0:0:
357,192,50687,1,0,0:0:0:0:
255,192,51010,1,0,0:0:0:0:
357,192,51171,1,0,0:0:0:0:
255,192,51494,1,0,0:0:0:0:
357,192,51494,1,0,0:0:0:0:
255,192,51816,1,0,0:0:0:0:
357,192,51816,1,0,0:0:0:0:
153,192,52300,1,0,0:0:0:0:
255,192,52623,1,0,0:0:0:0:
153,192,52784,1,0,0:0:0:0:
357,192,52945,1,0,0:0:0:0:
153,192,53107,1,0,0:0:0:0:
357,192,53268,1,0,0:0:0:0:
255,192,53429,1,0,0:0:0:0:
357,192,53591,1,0,0:0:0:0:
153,192,53752,1,0,0:0:0:0:
255,192,53913,1,0,0:0:0:0:
51,192,54074,1,0,0:0:0:0:
255,192,54397,1,0,0:0:0:0:
153,192,54558,1,0,0:0:0:0:
357,192,54720,1,0,0:0:0:0:
51,192,54881,1,0,0:0:0:0:
357,192,55042,1,0,0:0:0:0:
51,192,55204,1,0,0:0:0:0:
357,192,55365,1,0,0:0:0:0:
51,192,55526,1,0,0:0:0:0:
357,192,55687,1,0,0:0:0:0:
51,192,55849,1,0,0:0:0:0:
357,192,56010,1,0,0:0:0:0:
51,192,56171,1,0,0:0:0:0:
357,192,56333,1,0,0:0:0:0:
51,192,56494,1,0,0:0:0:0:
357,192,56655,1,0,0:0:0:0:
51,192,56817,1,0,0:0:0:0:
357,192,56978,1,0,0:0:0:0:
51,192,57139,1,0,0:0:0:0:
459,192,57300,1,0,0:0:0:0:
153,192,57462,1,0,0:0:0:0:
459,192,57623,1,0,0:0:0:0:
153,192,57784,1,0,0:0:0:0:
459,192,57946,1,0,0:0:0:0:
153,192,58107,1,0,0:0:0:0:
459,192,58268,1,0,0:0:0:0:
153,192,58430,1,0,0:0:0:0:
459,192,58591,1,0,0:0:0:0:
153,192,58752,1,0,0:0:0:0:
459,192,58913,1,0,0:0:0:0:
153,192,59075,1,0,0:0:0:0:
459,192,59236,1,0,0:0:0:0:
153,192,59397,1,0,0:0:0:0:
459,192,59559,1,0,0:0:0:0:
153,192,59720,1,0,0:0:0:0:
459,192,59881,1,0,0:0:0:0:
255,192,60043,1,0,0:0:0:0:
459,192,60204,1,0,0:0:0:0:
255,192,60365,1,0,0:0:0:0:
357,192,60526,1,0,0:0:0:0:
255,192,60688,1,0,0:0:0:0:
357,192,60849,1,0,0:0:0:0:
255,192,61010,1,0,0:0:0:0:
357,192,61172,1,0,0:0:0:0:
153,192,61333,1,0,0:0:0:0:
357,192,61494,1,0,0:0:0:0:
153,192,61656,1,0,0:0:0:0:
255,192,61817,1,0,0:0:0:0:
153,192,61978,1,0,0:0:0:0:
255,192,62139,1,0,0:0:0:0:
153,192,62301,1,0,0:0:0:0:
255,192,62462,1,0,0:0:0:0:
51,192,62623,1,0,0:0:0:0:
459,192,62785,1,0,0:0:0:0:
51,192,62946,1,0,0:0:0:0:
255,192,63107,1,0,0:0:0:0:
51,192,63269,1,0,0:0:0:0:
459,192,63430,1,0,0:0:0:0:
255,192,63591,1,0,0:0:0:0:
357,192,63752,1,0,0:0:0:0:
153,192,63914,1,0,0:0:0:0:
255,192,64075,1,0,0:0:0:0:
51,192,64236,1,0,0:0:0:0:
459,192,64398,1,0,0:0:0:0:
51,192,64559,1,0,0:0:0:0:
459,192,64720,1,0,0:0:0:0:
51,192,64881,1,0,0:0:0:0:
357,192,65043,1,0,0:0:0:0:
255,192,65204,1,0,0:0:0:0:
459,192,65365,1,0,0:0:0:0:
255,192,65527,1,0,0:0:0:0:
357,192,65688,1,0,0:0:0:0:
153,192,65849,1,0,0:0:0:0:
255,192,66011,1,0,0:0:0:0:
51,192,66172,1,0,0:0:0:0:
459,192,66333,1,0,0:0:0:0:
255,192,66494,1,0,0:0:0:0:
357,192,66656,1,0,0:0:0:0:
255,192,66817,1,0,0:0:0:0:
459,192,66978,1,0,0:0:0:0:
51,192,67140,1,0,0:0:0:0:
255,192,67301,1,0,0:0:0:0:
153,192,67462,1,0,0:0:0:0:
357,192,67624,1,0,0:0:0:0:
255,192,67785,1,0,0:0:0:0:
459,192,67946,1,0,0:0:0:0:
255,192,68107,1,0,0:0:0:0:
357,192,68269,1,0,0:0:0:0:
153,192,68430,1,0,0:0:0:0:
255,192,68591,1,0,0:0:0:0:
51,192,68753,1,0,0:0:0:0:
459,192,68914,1,0,0:0:0:0:
255,192,69075,1,0,0:0:0:0:
459,192,69237,1,0,0:0:0:0:
51,192,69398,1,0,0:0:0:0:
459,192,69559,1,0,0:0:0:0:
255,192,69720,1,0,0:0:0:0:
357,192,69882,1,0,0:0:0:0:
153,192,70043,1,0,0:0:0:0:
255,192,70204,1,0,0:0:0:0:
51,192,70366,1,0,0:0:0:0:
255,192,70527,1,0,0:0:0:0:
153,192,70688,1,0,0:0:0:0:
357,192,70850,1,0,0:0:0:0:
255,192,71011,1,0,0:0:0:0:
459,192,71172,1,0,0:0:0:0:
51,192,71333,1,0,0:0:0:0:
255,192,71495,1,0,0:0:0:0:
153,192,71656,1,0,0:0:0:0:
255,192,71817,1,0,0:0:0:0:
51,192,71979,1,0,0:0:0:0:
459,192,72140,1,0,0:0:0:0:
255,192,72301,1,0,0:0:0:0:
357,192,72463,1,0,0:0:0:0:
153,192,72624,1,0,0:0:0:0:
255,192,72785,1,0,0:0:0:0:
51,192,72946,1,0,0:0:0:0:
255,192,73108,1,0,0:0:0:0:
153,192,73269,1,0,0:0:0:0:
357,192,73430,1,0,0:0:0:0:
255,192,73592,1,0,0:0:0:0:
459,192,73753,1,0,0:0:0:0:
51,192,73914,1,0,0:0:0:0:
255,192,74076,1,0,0:0:0:0:
153,192,74237,1,0,0:0:0:0:
357,192,74398,1,0,0:0:0:0:
255,192,74559,1,0,0:0:0:0:
357,192,74721,1,0,0:0:0:0:
153,192,74882,1,0,0:0:0:0:
255,192,75043,1,0,0:0:0:0:
51,192,75205,1,0,0:0:0:0:
459,192,75366,1,0,0:0:0:0:
255,192,75527,1,0,0:0:0:0:
459,192,75689,1,0,0:0:0:0:
153,192,75850,1,0,0:0:0:0:
459,192,76011,1,0,0:0:0:0:
255,192,76172,1,0,0:0:0:0:
357,192,76334,1,0,0:0:0:0:
153,192,76495,1,0,0:0:0:0:
255,192,76656,1,0,0:0:0:0:
51,192,76818,1,0,0:0:0:0:
357,192,76979,1,0,0:0:0:0:
51,192,77140,1,0,0:0:0:0:
255,192,77302,1,0,0:0:0:0:
51,192,77463,1,0,0:0:0:0:
459,192,77624,1,0,0:0:0:0:
255,192,77785,1,0,0:0:0:0:
357,192,77947,1,0,0:0:0:0:
51,192,78108,1,0,0:0:0:0:
357,192,78269,1,0,0:0:0:0:
255,192,78431,1,0,0:0:0:0:
357,192,78592,1,0,0:0:0:0:
51,192,78753,1,0,0:0:0:0:
255,192,78915,1,0,0:0:0:0:
153,192,79076,1,0,0:0:0:0:
459,192,79237,1,0,0:0:0:0:
255,192,79398,1,0,0:0:0:0:
459,192,79560,1,0,0:0:0:0:
153,192,79721,1,0,0:0:0:0:
459,192,79882,1,0,0:0:0:0:
255,192,80044,1,0,0:0:0:0:
357,192,80205,1,0,0:0:0:0:
153,192,80366,1,0,0:0:0:0:
255,192,80527,1,0,0:0:0:0:
51,192,80689,1,0,0:0:0:0:
255,192,80850,1,0,0:0:0:0:
51,192,81011,1,0,0:0:0:0:
255,192,81173,1,0,0:0:0:0:
51,192,81334,1,0,0:0:0:0:
255,192,81495,1,0,0:0:0:0:
51,192,81657,1,0,0:0:0:0:
459,192,81818,1,0,0:0:0:0:
255,192,81979,1,0,0:0:0:0:
459,192,82140,1,0,0:0:0:0:
255,192,82302,1,0,0:0:0:0:
459,192,82463,1,0,0:0:0:0:
255,192,82624,1,0,0:0:0:0:
459,192,82786,1,0,0:0:0:0:
255,192,82947,1,0,0:0:0:0:
357,192,83108,1,0,0:0:0:0:
153,192,83270,1,0,0:0:0:0:
459,192,83431,1,0,0:0:0:0:
51,192,83592,1,0,0:0:0:0:
357,192,83753,1,0,0:0:0:0:
153,192,83915,1,0,0:0:0:0:
459,192,84076,1,0,0:0:0:0:
51,192,84237,1,0,0:0:0:0:
255,192,84399,1,0,0:0:0:0:
153,192,84560,1,0,0:0:0:0:
357,192,84721,1,0,0:0:0:0:
255,192,84883,1,0,0:0:0:0:
459,192,85044,1,0,0:0:0:0:
153,192,85205,1,0,0:0:0:0:
459,192,85366,1,0,0:0:0:0:
153,192,85528,1,0,0:0:0:0:
255,192,85689,1,0,0:0:0:0:
51,192,85850,1,0,0:0:0:0:
51,192,86173,1,0,0:0:0:0:
51,192,86496,1,0,0:0:0:0:
51,192,86818,1,0,0:0:0:0:
51,192,87141,1,0,0:0:0:0:
51,192,87463,1,0,0:0:0:0:
51,192,87786,1,0,0:0:0:0:
51,192,88109,1,0,0:0:0:0:
51,192,88431,1,0,0:0:0:0:
51,192,88754,1,0,0:0:0:0:
51,192,89076,1,0,0:0:0:0:
255,192,89399,1,0,0:0:0:0:
51,192,89560,1,0,0:0:0:0:
459,192,89722,1,0,0:0:0:0:
459,192,90044,1,0,0:0:0:0:
255,192,90367,1,0,0:0:0:0:
459,192,90528,1,0,0:0:0:0:
51,192,90689,1,0,0:0:0:0:
255,192,90851,1,0,0:0:0:0:
153,192,91012,1,0,0:0:0:0:
153,192,91335,1,0,0:0:0:0:
153,192,91657,1,0,0:0:0:0:
153,192,91980,1,0,0:0:0:0:
153,192,92302,1,0,0:0:0:0:
153,192,92625,1,0,0:0:0:0:
153,192,92948,1,0,0:0:0:0:
255,192,93270,1,0,0:0:0:0:
153,192,93431,1,0,0:0:0:0:
357,192,93593,1,0,0:0:0:0:
357,192,93915,1,0,0:0:0:0:
357,192,94238,1,0,0:0:0:0:
153,192,94399,1,0,0:0:0:0:
255,192,94561,1,0,0:0:0:0:
51,192,94722,1,0,0:0:0:0:
459,192,94883,1,0,0:0:0:0:
153,192,95044,1,0,0:0:0:0:
357,192,95206,1,0,0:0:0:0:
51,192,95367,1,0,0:0:0:0:
459,192,95528,1,0,0:0:0:0:
153,192,95690,1,0,0:0:0:0:
357,192,95851,1,0,0:0:0:0:
255,192,96012,128,0,96577:0:0:0:0:
