osu file format v14

[General]
AudioFilename: 15B6.mp3
AudioLeadIn: 0
PreviewTime: -1
Countdown: 0
SampleSet: Normal
StackLeniency: 0.7
Mode: 3
LetterboxInBreaks: 0
SpecialStyle: 0
WidescreenStoryboard: 0

[Editor]
DistanceSpacing: 0.8
BeatDivisor: 2
GridSize: 32
TimelineZoom: 1

[Metadata]
Title:A Site De La Rue
TitleUnicode:A Site De La Rue
Artist:STREME REVERIE
ArtistUnicode:STREME REVERIE
Creator:Arnon
Version:Double 24
Source:Pump It Up: PRIME 2
Tags:
BeatmapID:1852929
BeatmapSetID:886366

[Difficulty]
HPDrainRate:5
CircleSize:10
OverallDifficulty:10
ApproachRate:5
SliderMultiplier:1.4
SliderTickRate:1

[Events]
//Background and Video events
0,0,"15B6-wide.png",0,0
Video,0,"15B6.mp4"
//Break Periods
//Storyboard Layer 0 (Background)
//Storyboard Layer 1 (Fail)
//Storyboard Layer 2 (Pass)
//Storyboard Layer 3 (Foreground)
//Storyboard Sound Samples

[TimingPoints]
1168,322.59798,4,1,0,0,1,0

[HitObjects]
229,192,3104,5,0,0:0:0:0:
280,192,3104,1,0,0:0:0:0:
382,192,3427,1,0,0:0:0:0:
280,192,3749,1,0,0:0:0:0:
484,192,3910,1,0,0:0:0:0:
280,192,4233,1,0,0:0:0:0:
484,192,4233,1,0,0:0:0:0:
484,192,4556,1,0,0:0:0:0:
382,192,4717,1,0,0:0:0:0:
484,192,5040,1,0,0:0:0:0:
280,192,5201,1,0,0:0:0:0:
382,192,5523,1,0,0:0:0:0:
229,192,5685,1,0,0:0:0:0:
280,192,5685,1,0,0:0:0:0:
127,192,6007,1,0,0:0:0:0:
229,192,6330,1,0,0:0:0:0:
25,192,6491,1,0,0:0:0:0:
25,192,6814,1,0,0:0:0:0:
229,192,6814,1,0,0:0:0:0:
25,192,6975,1,0,0:0:0:0:
127,192,6975,1,0,0:0:0:0:
229,192,7136,1,0,0:0:0:0:
127,192,7298,1,0,0:0:0:0:
229,192,7459,1,0,0:0:0:0:
280,192,7459,1,0,0:0:0:0:
178,192,7620,1,0,0:0:0:0:
280,192,7782,1,0,0:0:0:0:
382,192,7782,1,0,0:0:0:0:
127,192,7943,1,0,0:0:0:0:
280,192,8104,1,0,0:0:0:0:
229,192,8185,1,0,0:0:0:0:
229,192,8266,1,0,0:0:0:0:
280,192,8266,1,0,0:0:0:0:
382,192,8588,1,0,0:0:0:0:
280,192,8911,1,0,0:0:0:0:
484,192,9072,1,0,0:0:0:0:
280,192,9395,1,0,0:0:0:0:
484,192,9395,1,0,0:0:0:0:
484,192,9717,1,0,0:0:0:0:
382,192,9879,1,0,0:0:0:0:
484,192,10201,1,0,0:0:0:0:
280,192,10362,1,0,0:0:0:0:
382,192,10685,1,0,0:0:0:0:
229,192,10846,1,0,0:0:0:0:
280,192,10846,1,0,0:0:0:0:
127,192,11169,1,0,0:0:0:0:
229,192,11492,1,0,0:0:0:0:
25,192,11653,1,0,0:0:0:0:
25,192,11975,1,0,0:0:0:0:
229,192,11975,1,0,0:0:0:0:
25,192,12298,1,0,0:0:0:0:
127,192,12459,1,0,0:0:0:0:
25,192,12782,1,0,0:0:0:0:
229,192,12943,1,0,0:0:0:0:
127,192,13266,1,0,0:0:0:0:
229,192,13427,1,0,0:0:0:0:
280,192,13427,1,0,0:0:0:0:
382,192,13588,1,0,0:0:0:0:
280,192,13750,1,0,0:0:0:0:
484,192,13911,1,0,0:0:0:0:
382,192,14072,1,0,0:0:0:0:
484,192,14234,1,0,0:0:0:0:
280,192,14395,1,0,0:0:0:0:
484,192,14556,1,0,0:0:0:0:
382,192,14718,1,0,0:0:0:0:
280,192,14879,1,0,0:0:0:0:
331,192,15040,1,0,0:0:0:0:
382,192,15201,1,0,0:0:0:0:
280,192,15363,1,0,0:0:0:0:
331,192,15524,1,0,0:0:0:0:
178,192,15685,1,0,0:0:0:0:
229,192,15847,1,0,0:0:0:0:
127,192,16008,1,0,0:0:0:0:
229,192,16169,1,0,0:0:0:0:
25,192,16330,1,0,0:0:0:0:
127,192,16492,1,0,0:0:0:0:
25,192,16653,1,0,0:0:0:0:
229,192,16814,1,0,0:0:0:0:
25,192,16976,1,0,0:0:0:0:
127,192,17137,1,0,0:0:0:0:
229,192,17298,1,0,0:0:0:0:
178,192,17460,1,0,0:0:0:0:
127,192,17621,1,0,0:0:0:0:
229,192,17782,1,0,0:0:0:0:
178,192,17943,1,0,0:0:0:0:
331,192,18105,1,0,0:0:0:0:
280,192,18266,1,0,0:0:0:0:
382,192,18427,1,0,0:0:0:0:
331,192,18589,1,0,0:0:0:0:
433,192,18750,1,0,0:0:0:0:
382,192,18911,1,0,0:0:0:0:
433,192,19073,1,0,0:0:0:0:
331,192,19234,1,0,0:0:0:0:
382,192,19395,1,0,0:0:0:0:
331,192,19556,1,0,0:0:0:0:
433,192,19718,1,0,0:0:0:0:
382,192,19879,1,0,0:0:0:0:
331,192,20040,1,0,0:0:0:0:
280,192,20202,1,0,0:0:0:0:
382,192,20363,1,0,0:0:0:0:
484,192,20524,1,0,0:0:0:0:
433,192,20686,1,0,0:0:0:0:
382,192,20847,1,0,0:0:0:0:
484,192,21008,1,0,0:0:0:0:
433,192,21169,128,0,21331:0:0:0:0:
382,192,21331,1,0,0:0:0:0:
382,192,21492,128,0,21653:0:0:0:0:
331,192,21653,1,0,0:0:0:0:
331,192,21815,128,0,21976:0:0:0:0:
280,192,21976,1,0,0:0:0:0:
280,192,22137,128,0,22299:0:0:0:0:
229,192,22299,1,0,0:0:0:0:
229,192,22460,1,0,0:0:0:0:
280,192,22541,1,0,0:0:0:0:
127,192,22621,1,0,0:0:0:0:
382,192,22702,1,0,0:0:0:0:
229,192,22782,1,0,0:0:0:0:
280,192,22863,1,0,0:0:0:0:
178,192,22944,1,0,0:0:0:0:
331,192,23024,1,0,0:0:0:0:
127,192,23105,1,0,0:0:0:0:
229,192,23159,1,0,0:0:0:0:
280,192,23213,1,0,0:0:0:0:
127,192,23266,1,0,0:0:0:0:
229,192,23320,1,0,0:0:0:0:
280,192,23374,1,0,0:0:0:0:
127,192,23428,1,0,0:0:0:0:
229,192,23481,1,0,0:0:0:0:
280,192,23535,1,0,0:0:0:0:
127,192,23589,1,0,0:0:0:0:
229,192,23643,1,0,0:0:0:0:
280,192,23696,1,0,0:0:0:0:
127,192,23750,128,0,25041:0:0:0:0:
229,192,23750,1,0,0:0:0:0:
280,192,24073,1,0,0:0:0:0:
229,192,24234,1,0,0:0:0:0:
280,192,24395,1,0,0:0:0:0:
229,192,24557,1,0,0:0:0:0:
280,192,24718,1,0,0:0:0:0:
229,192,24879,1,0,0:0:0:0:
280,192,25041,1,0,0:0:0:0:
382,192,25041,128,0,26331:0:0:0:0:
229,192,25363,1,0,0:0:0:0:
280,192,25525,1,0,0:0:0:0:
229,192,25686,1,0,0:0:0:0:
280,192,25847,1,0,0:0:0:0:
229,192,26008,1,0,0:0:0:0:
280,192,26170,1,0,0:0:0:0:
127,192,26331,1,0,0:0:0:0:
178,192,26331,128,0,27621:0:0:0:0:
280,192,26654,1,0,0:0:0:0:
127,192,26815,1,0,0:0:0:0:
280,192,26976,1,0,0:0:0:0:
127,192,27138,1,0,0:0:0:0:
280,192,27299,1,0,0:0:0:0:
127,192,27460,1,0,0:0:0:0:
331,192,27621,128,0,28186:0:0:0:0:
382,192,27621,1,0,0:0:0:0:
229,192,27944,1,0,0:0:0:0:
382,192,28105,1,0,0:0:0:0:
280,192,28267,128,0,28347:0:0:0:0:
331,192,28428,128,0,28509:0:0:0:0:
178,192,28589,128,0,28670:0:0:0:0:
229,192,28751,128,0,28912:0:0:0:0:
127,192,28912,128,0,30202:0:0:0:0:
178,192,28912,1,0,0:0:0:0:
229,192,29234,1,0,0:0:0:0:
178,192,29396,1,0,0:0:0:0:
229,192,29557,1,0,0:0:0:0:
178,192,29718,1,0,0:0:0:0:
229,192,29880,1,0,0:0:0:0:
178,192,30041,1,0,0:0:0:0:
229,192,30202,1,0,0:0:0:0:
280,192,30202,128,0,31493:0:0:0:0:
127,192,30525,1,0,0:0:0:0:
229,192,30686,1,0,0:0:0:0:
127,192,30847,1,0,0:0:0:0:
229,192,31009,1,0,0:0:0:0:
127,192,31170,1,0,0:0:0:0:
229,192,31331,1,0,0:0:0:0:
178,192,31493,1,0,0:0:0:0:
331,192,31493,128,0,32783:0:0:0:0:
280,192,31815,1,0,0:0:0:0:
178,192,31976,1,0,0:0:0:0:
280,192,32138,1,0,0:0:0:0:
178,192,32299,1,0,0:0:0:0:
280,192,32460,1,0,0:0:0:0:
178,192,32622,1,0,0:0:0:0:
280,192,32783,1,0,0:0:0:0:
382,192,32783,128,0,33428:0:0:0:0:
331,192,32944,1,0,0:0:0:0:
280,192,33106,1,0,0:0:0:0:
178,192,33267,1,0,0:0:0:0:
127,192,33428,128,0,34073:0:0:0:0:
229,192,33428,1,0,0:0:0:0:
178,192,33589,1,0,0:0:0:0:
229,192,33751,1,0,0:0:0:0:
331,192,33912,1,0,0:0:0:0:
280,192,34073,1,0,0:0:0:0:
382,192,34073,128,0,35364:0:0:0:0:
331,192,34396,1,0,0:0:0:0:
280,192,34557,1,0,0:0:0:0:
178,192,34719,1,0,0:0:0:0:
280,192,34880,1,0,0:0:0:0:
229,192,35041,1,0,0:0:0:0:
280,192,35202,1,0,0:0:0:0:
127,192,35364,128,0,36654:0:0:0:0:
178,192,35364,1,0,0:0:0:0:
229,192,35686,1,0,0:0:0:0:
178,192,35848,1,0,0:0:0:0:
280,192,36009,1,0,0:0:0:0:
178,192,36170,1,0,0:0:0:0:
331,192,36332,1,0,0:0:0:0:
178,192,36493,1,0,0:0:0:0:
229,192,36654,1,0,0:0:0:0:
280,192,36654,128,0,37945:0:0:0:0:
178,192,36977,1,0,0:0:0:0:
229,192,37138,1,0,0:0:0:0:
331,192,37299,1,0,0:0:0:0:
229,192,37461,1,0,0:0:0:0:
178,192,37622,1,0,0:0:0:0:
229,192,37783,1,0,0:0:0:0:
127,192,37945,1,0,0:0:0:0:
229,192,37945,128,0,38509:0:0:0:0:
331,192,38267,1,0,0:0:0:0:
127,192,38428,1,0,0:0:0:0:
178,192,38590,128,0,38670:0:0:0:0:
229,192,38751,128,0,38832:0:0:0:0:
280,192,38912,128,0,38993:0:0:0:0:
331,192,39074,128,0,39154:0:0:0:0:
382,192,39235,1,0,0:0:0:0:
331,192,39316,1,0,0:0:0:0:
382,192,39396,1,0,0:0:0:0:
331,192,39477,1,0,0:0:0:0:
382,192,39558,1,0,0:0:0:0:
331,192,39638,1,0,0:0:0:0:
382,192,39719,1,0,0:0:0:0:
331,192,39800,1,0,0:0:0:0:
382,192,39880,1,0,0:0:0:0:
280,192,39961,1,0,0:0:0:0:
382,192,40041,1,0,0:0:0:0:
280,192,40122,1,0,0:0:0:0:
382,192,40203,1,0,0:0:0:0:
280,192,40283,1,0,0:0:0:0:
382,192,40364,1,0,0:0:0:0:
280,192,40445,1,0,0:0:0:0:
331,192,40525,1,0,0:0:0:0:
280,192,40606,1,0,0:0:0:0:
331,192,40687,1,0,0:0:0:0:
280,192,40767,1,0,0:0:0:0:
331,192,40848,1,0,0:0:0:0:
280,192,40929,1,0,0:0:0:0:
331,192,41009,1,0,0:0:0:0:
280,192,41090,1,0,0:0:0:0:
331,192,41171,1,0,0:0:0:0:
178,192,41251,1,0,0:0:0:0:
331,192,41332,1,0,0:0:0:0:
178,192,41412,1,0,0:0:0:0:
331,192,41493,1,0,0:0:0:0:
178,192,41574,1,0,0:0:0:0:
331,192,41654,1,0,0:0:0:0:
178,192,41735,1,0,0:0:0:0:
229,192,41816,1,0,0:0:0:0:
178,192,41896,1,0,0:0:0:0:
229,192,41977,1,0,0:0:0:0:
178,192,42058,1,0,0:0:0:0:
229,192,42138,1,0,0:0:0:0:
178,192,42219,1,0,0:0:0:0:
229,192,42300,1,0,0:0:0:0:
178,192,42380,1,0,0:0:0:0:
229,192,42461,1,0,0:0:0:0:
127,192,42542,1,0,0:0:0:0:
229,192,42622,1,0,0:0:0:0:
127,192,42703,1,0,0:0:0:0:
229,192,42784,1,0,0:0:0:0:
127,192,42864,1,0,0:0:0:0:
229,192,42945,1,0,0:0:0:0:
127,192,43025,1,0,0:0:0:0:
178,192,43106,1,0,0:0:0:0:
229,192,43187,1,0,0:0:0:0:
280,192,43267,1,0,0:0:0:0:
331,192,43348,1,0,0:0:0:0:
382,192,43429,1,0,0:0:0:0:
280,192,43509,1,0,0:0:0:0:
331,192,43590,1,0,0:0:0:0:
229,192,43671,1,0,0:0:0:0:
382,192,43751,1,0,0:0:0:0:
280,192,43805,1,0,0:0:0:0:
229,192,43859,1,0,0:0:0:0:
382,192,43913,1,0,0:0:0:0:
280,192,43966,1,0,0:0:0:0:
229,192,44020,1,0,0:0:0:0:
382,192,44074,1,0,0:0:0:0:
280,192,44128,1,0,0:0:0:0:
229,192,44181,1,0,0:0:0:0:
382,192,44235,1,0,0:0:0:0:
280,192,44289,1,0,0:0:0:0:
229,192,44343,1,0,0:0:0:0:
229,192,44397,1,0,0:0:0:0:
280,192,44397,1,0,0:0:0:0:
382,192,44397,1,0,0:0:0:0:
229,192,44880,1,0,0:0:0:0:
280,192,44880,1,0,0:0:0:0:
382,192,44880,1,0,0:0:0:0:
229,192,45203,1,0,0:0:0:0:
280,192,45203,1,0,0:0:0:0:
382,192,45203,1,0,0:0:0:0:
229,192,45526,1,0,0:0:0:0:
280,192,45526,1,0,0:0:0:0:
382,192,45526,1,0,0:0:0:0:
127,192,45848,1,0,0:0:0:0:
229,192,45848,1,0,0:0:0:0:
280,192,45848,1,0,0:0:0:0:
127,192,46010,1,0,0:0:0:0:
229,192,46010,1,0,0:0:0:0:
280,192,46010,1,0,0:0:0:0:
178,192,46332,1,0,0:0:0:0:
331,192,46332,1,0,0:0:0:0:
382,192,46332,1,0,0:0:0:0:
127,192,46655,1,0,0:0:0:0:
178,192,46655,1,0,0:0:0:0:
331,192,46655,1,0,0:0:0:0:
229,192,47139,1,0,0:0:0:0:
280,192,47139,1,0,0:0:0:0:
382,192,47139,1,0,0:0:0:0:
229,192,47461,1,0,0:0:0:0:
280,192,47461,1,0,0:0:0:0:
382,192,47461,1,0,0:0:0:0:
127,192,47623,1,0,0:0:0:0:
178,192,47623,1,0,0:0:0:0:
331,192,47623,1,0,0:0:0:0:
178,192,47945,1,0,0:0:0:0:
331,192,47945,1,0,0:0:0:0:
382,192,47945,1,0,0:0:0:0:
127,192,48268,1,0,0:0:0:0:
229,192,48268,1,0,0:0:0:0:
280,192,48348,1,0,0:0:0:0:
127,192,48429,1,0,0:0:0:0:
229,192,48429,1,0,0:0:0:0:
280,192,48510,1,0,0:0:0:0:
127,192,48590,1,0,0:0:0:0:
229,192,48590,1,0,0:0:0:0:
229,192,48752,1,0,0:0:0:0:
280,192,48752,1,0,0:0:0:0:
382,192,48752,1,0,0:0:0:0:
127,192,48913,1,0,0:0:0:0:
178,192,48913,1,0,0:0:0:0:
331,192,48913,1,0,0:0:0:0:
178,192,49235,1,0,0:0:0:0:
331,192,49235,1,0,0:0:0:0:
382,192,49235,1,0,0:0:0:0:
127,192,49558,1,0,0:0:0:0:
280,192,49558,1,0,0:0:0:0:
382,192,49558,1,0,0:0:0:0:
127,192,50042,1,0,0:0:0:0:
229,192,50042,1,0,0:0:0:0:
280,192,50042,1,0,0:0:0:0:
127,192,50365,1,0,0:0:0:0:
229,192,50365,1,0,0:0:0:0:
280,192,50365,1,0,0:0:0:0:
127,192,50687,1,0,0:0:0:0:
229,192,50687,1,0,0:0:0:0:
280,192,50687,1,0,0:0:0:0:
229,192,51010,1,0,0:0:0:0:
280,192,51010,1,0,0:0:0:0:
382,192,51010,1,0,0:0:0:0:
229,192,51171,1,0,0:0:0:0:
280,192,51171,1,0,0:0:0:0:
382,192,51171,1,0,0:0:0:0:
127,192,51494,1,0,0:0:0:0:
178,192,51494,1,0,0:0:0:0:
331,192,51494,1,0,0:0:0:0:
178,192,51816,1,0,0:0:0:0:
331,192,51816,1,0,0:0:0:0:
382,192,51816,1,0,0:0:0:0:
127,192,52300,1,0,0:0:0:0:
229,192,52300,1,0,0:0:0:0:
280,192,52300,1,0,0:0:0:0:
127,192,52623,1,0,0:0:0:0:
229,192,52623,1,0,0:0:0:0:
280,192,52623,1,0,0:0:0:0:
229,192,52784,1,0,0:0:0:0:
280,192,52784,1,0,0:0:0:0:
382,192,52784,1,0,0:0:0:0:
229,192,52945,1,0,0:0:0:0:
280,192,52945,1,0,0:0:0:0:
382,192,52945,1,0,0:0:0:0:
127,192,53107,1,0,0:0:0:0:
229,192,53107,1,0,0:0:0:0:
280,192,53107,1,0,0:0:0:0:
127,192,53268,1,0,0:0:0:0:
229,192,53268,1,0,0:0:0:0:
280,192,53268,1,0,0:0:0:0:
280,192,53429,1,0,0:0:0:0:
382,192,53429,1,0,0:0:0:0:
229,192,53510,1,0,0:0:0:0:
280,192,53591,1,0,0:0:0:0:
382,192,53591,1,0,0:0:0:0:
229,192,53671,1,0,0:0:0:0:
280,192,53752,1,0,0:0:0:0:
382,192,53752,1,0,0:0:0:0:
127,192,53913,1,0,0:0:0:0:
229,192,53913,1,0,0:0:0:0:
280,192,53913,1,0,0:0:0:0:
178,192,54074,1,0,0:0:0:0:
331,192,54074,1,0,0:0:0:0:
382,192,54074,1,0,0:0:0:0:
127,192,54397,1,0,0:0:0:0:
178,192,54397,1,0,0:0:0:0:
280,192,54478,1,0,0:0:0:0:
127,192,54558,1,0,0:0:0:0:
178,192,54558,1,0,0:0:0:0:
280,192,54639,1,0,0:0:0:0:
229,192,54720,1,0,0:0:0:0:
178,192,54881,1,0,0:0:0:0:
331,192,54881,1,0,0:0:0:0:
127,192,55042,1,0,0:0:0:0:
178,192,55204,1,0,0:0:0:0:
331,192,55204,1,0,0:0:0:0:
229,192,55365,1,0,0:0:0:0:
178,192,55526,1,0,0:0:0:0:
331,192,55526,1,0,0:0:0:0:
280,192,55687,1,0,0:0:0:0:
178,192,55849,1,0,0:0:0:0:
331,192,55849,1,0,0:0:0:0:
382,192,56010,1,0,0:0:0:0:
178,192,56171,1,0,0:0:0:0:
331,192,56171,1,0,0:0:0:0:
280,192,56333,1,0,0:0:0:0:
178,192,56494,1,0,0:0:0:0:
331,192,56494,1,0,0:0:0:0:
229,192,56655,1,0,0:0:0:0:
178,192,56817,1,0,0:0:0:0:
331,192,56817,1,0,0:0:0:0:
127,192,56978,1,0,0:0:0:0:
178,192,57139,1,0,0:0:0:0:
331,192,57139,1,0,0:0:0:0:
229,192,57300,1,0,0:0:0:0:
280,192,57462,1,0,0:0:0:0:
382,192,57462,1,0,0:0:0:0:
178,192,57623,1,0,0:0:0:0:
229,192,57784,1,0,0:0:0:0:
280,192,57784,1,0,0:0:0:0:
331,192,57946,1,0,0:0:0:0:
229,192,58107,1,0,0:0:0:0:
280,192,58107,1,0,0:0:0:0:
382,192,58268,1,0,0:0:0:0:
229,192,58430,1,0,0:0:0:0:
280,192,58430,1,0,0:0:0:0:
178,192,58591,1,0,0:0:0:0:
331,192,58591,1,0,0:0:0:0:
280,192,58752,1,0,0:0:0:0:
382,192,58752,1,0,0:0:0:0:
127,192,58913,1,0,0:0:0:0:
229,192,59075,1,0,0:0:0:0:
280,192,59075,1,0,0:0:0:0:
178,192,59236,1,0,0:0:0:0:
331,192,59397,1,0,0:0:0:0:
127,192,59559,1,0,0:0:0:0:
229,192,59559,1,0,0:0:0:0:
280,192,59720,1,0,0:0:0:0:
382,192,59720,1,0,0:0:0:0:
229,192,59881,1,0,0:0:0:0:
229,192,60043,1,0,0:0:0:0:
331,192,60043,1,0,0:0:0:0:
229,192,60204,1,0,0:0:0:0:
178,192,60365,1,0,0:0:0:0:
229,192,60365,1,0,0:0:0:0:
229,192,60526,1,0,0:0:0:0:
229,192,60688,1,0,0:0:0:0:
331,192,60688,1,0,0:0:0:0:
229,192,60849,1,0,0:0:0:0:
229,192,61010,1,0,0:0:0:0:
280,192,61010,1,0,0:0:0:0:
280,192,61172,1,0,0:0:0:0:
178,192,61333,1,0,0:0:0:0:
280,192,61333,1,0,0:0:0:0:
280,192,61494,1,0,0:0:0:0:
280,192,61656,1,0,0:0:0:0:
331,192,61656,1,0,0:0:0:0:
280,192,61817,1,0,0:0:0:0:
178,192,61978,1,0,0:0:0:0:
280,192,61978,1,0,0:0:0:0:
280,192,62139,1,0,0:0:0:0:
229,192,62301,1,0,0:0:0:0:
280,192,62301,1,0,0:0:0:0:
229,192,62462,1,0,0:0:0:0:
280,192,62543,1,0,0:0:0:0:
229,192,62623,1,0,0:0:0:0:
280,192,62704,1,0,0:0:0:0:
229,192,62785,1,0,0:0:0:0:
280,192,62865,1,0,0:0:0:0:
229,192,62946,1,0,0:0:0:0:
280,192,63027,1,0,0:0:0:0:
229,192,63107,1,0,0:0:0:0:
280,192,63188,1,0,0:0:0:0:
229,192,63269,1,0,0:0:0:0:
280,192,63349,1,0,0:0:0:0:
229,192,63430,1,0,0:0:0:0:
280,192,63510,1,0,0:0:0:0:
229,192,63591,1,0,0:0:0:0:
280,192,63672,1,0,0:0:0:0:
127,192,63752,1,0,0:0:0:0:
178,192,63833,1,0,0:0:0:0:
229,192,63914,1,0,0:0:0:0:
280,192,63994,1,0,0:0:0:0:
331,192,64075,1,0,0:0:0:0:
382,192,64156,1,0,0:0:0:0:
280,192,64236,1,0,0:0:0:0:
331,192,64317,1,0,0:0:0:0:
127,192,64398,1,0,0:0:0:0:
229,192,64451,1,0,0:0:0:0:
331,192,64505,1,0,0:0:0:0:
127,192,64559,1,0,0:0:0:0:
229,192,64613,1,0,0:0:0:0:
331,192,64666,1,0,0:0:0:0:
127,192,64720,1,0,0:0:0:0:
229,192,64774,1,0,0:0:0:0:
331,192,64828,1,0,0:0:0:0:
127,192,64881,1,0,0:0:0:0:
229,192,64935,1,0,0:0:0:0:
331,192,64989,1,0,0:0:0:0:
178,192,65043,1,0,0:0:0:0:
229,192,65123,1,0,0:0:0:0:
127,192,65204,1,0,0:0:0:0:
178,192,65285,1,0,0:0:0:0:
76,192,65365,1,0,0:0:0:0:
127,192,65446,1,0,0:0:0:0:
76,192,65527,1,0,0:0:0:0:
229,192,65607,1,0,0:0:0:0:
127,192,65688,1,0,0:0:0:0:
178,192,65769,1,0,0:0:0:0:
127,192,65849,1,0,0:0:0:0:
229,192,65930,1,0,0:0:0:0:
76,192,66011,1,0,0:0:0:0:
127,192,66091,1,0,0:0:0:0:
25,192,66172,1,0,0:0:0:0:
229,192,66253,1,0,0:0:0:0:
127,192,66333,1,0,0:0:0:0:
178,192,66414,1,0,0:0:0:0:
76,192,66494,1,0,0:0:0:0:
178,192,66575,1,0,0:0:0:0:
127,192,66656,1,0,0:0:0:0:
229,192,66736,1,0,0:0:0:0:
25,192,66817,1,0,0:0:0:0:
127,192,66898,1,0,0:0:0:0:
25,192,66978,1,0,0:0:0:0:
178,192,67059,1,0,0:0:0:0:
127,192,67140,1,0,0:0:0:0:
178,192,67220,1,0,0:0:0:0:
76,192,67301,1,0,0:0:0:0:
127,192,67382,1,0,0:0:0:0:
25,192,67462,1,0,0:0:0:0:
229,192,67543,1,0,0:0:0:0:
127,192,67624,1,0,0:0:0:0:
178,192,67704,1,0,0:0:0:0:
25,192,67785,1,0,0:0:0:0:
178,192,67866,1,0,0:0:0:0:
127,192,67946,1,0,0:0:0:0:
229,192,68027,1,0,0:0:0:0:
76,192,68107,1,0,0:0:0:0:
127,192,68188,1,0,0:0:0:0:
76,192,68269,1,0,0:0:0:0:
178,192,68349,1,0,0:0:0:0:
25,192,68430,1,0,0:0:0:0:
127,192,68511,1,0,0:0:0:0:
76,192,68591,1,0,0:0:0:0:
178,192,68672,1,0,0:0:0:0:
127,192,68753,1,0,0:0:0:0:
229,192,68833,1,0,0:0:0:0:
76,192,68914,1,0,0:0:0:0:
127,192,68995,1,0,0:0:0:0:
76,192,69075,1,0,0:0:0:0:
229,192,69156,1,0,0:0:0:0:
127,192,69237,1,0,0:0:0:0:
178,192,69317,1,0,0:0:0:0:
76,192,69398,1,0,0:0:0:0:
229,192,69479,1,0,0:0:0:0:
127,192,69559,1,0,0:0:0:0:
178,192,69640,1,0,0:0:0:0:
229,192,69720,1,0,0:0:0:0:
331,192,69801,1,0,0:0:0:0:
178,192,69882,1,0,0:0:0:0:
280,192,69962,1,0,0:0:0:0:
331,192,70043,1,0,0:0:0:0:
382,192,70124,1,0,0:0:0:0:
280,192,70204,1,0,0:0:0:0:
382,192,70285,1,0,0:0:0:0:
331,192,70366,1,0,0:0:0:0:
433,192,70446,1,0,0:0:0:0:
382,192,70527,1,0,0:0:0:0:
433,192,70608,1,0,0:0:0:0:
280,192,70688,1,0,0:0:0:0:
382,192,70769,1,0,0:0:0:0:
331,192,70850,1,0,0:0:0:0:
484,192,70930,1,0,0:0:0:0:
331,192,71011,1,0,0:0:0:0:
382,192,71092,1,0,0:0:0:0:
280,192,71172,1,0,0:0:0:0:
484,192,71253,1,0,0:0:0:0:
382,192,71333,1,0,0:0:0:0:
433,192,71414,1,0,0:0:0:0:
280,192,71495,1,0,0:0:0:0:
382,192,71575,1,0,0:0:0:0:
280,192,71656,1,0,0:0:0:0:
433,192,71737,1,0,0:0:0:0:
331,192,71817,1,0,0:0:0:0:
484,192,71898,1,0,0:0:0:0:
382,192,71979,1,0,0:0:0:0:
484,192,72059,1,0,0:0:0:0:
331,192,72140,1,0,0:0:0:0:
382,192,72221,1,0,0:0:0:0:
331,192,72301,1,0,0:0:0:0:
433,192,72382,1,0,0:0:0:0:
382,192,72463,1,0,0:0:0:0:
484,192,72543,1,0,0:0:0:0:
280,192,72624,1,0,0:0:0:0:
382,192,72704,1,0,0:0:0:0:
331,192,72785,1,0,0:0:0:0:
484,192,72866,1,0,0:0:0:0:
331,192,72946,1,0,0:0:0:0:
382,192,73027,1,0,0:0:0:0:
280,192,73108,1,0,0:0:0:0:
433,192,73188,1,0,0:0:0:0:
382,192,73269,1,0,0:0:0:0:
433,192,73350,1,0,0:0:0:0:
331,192,73430,1,0,0:0:0:0:
484,192,73511,1,0,0:0:0:0:
280,192,73592,1,0,0:0:0:0:
382,192,73672,1,0,0:0:0:0:
331,192,73753,1,0,0:0:0:0:
433,192,73834,1,0,0:0:0:0:
280,192,73914,1,0,0:0:0:0:
433,192,73995,1,0,0:0:0:0:
382,192,74076,1,0,0:0:0:0:
484,192,74156,1,0,0:0:0:0:
433,192,74237,1,0,0:0:0:0:
382,192,74317,1,0,0:0:0:0:
331,192,74398,1,0,0:0:0:0:
433,192,74479,1,0,0:0:0:0:
382,192,74559,1,0,0:0:0:0:
331,192,74640,1,0,0:0:0:0:
280,192,74721,1,0,0:0:0:0:
382,192,74801,1,0,0:0:0:0:
331,192,74882,1,0,0:0:0:0:
280,192,74963,1,0,0:0:0:0:
229,192,75043,1,0,0:0:0:0:
178,192,75124,1,0,0:0:0:0:
127,192,75205,1,0,0:0:0:0:
76,192,75285,1,0,0:0:0:0:
25,192,75366,1,0,0:0:0:0:
127,192,75447,1,0,0:0:0:0:
76,192,75527,1,0,0:0:0:0:
178,192,75608,1,0,0:0:0:0:
127,192,75689,1,0,0:0:0:0:
178,192,75769,1,0,0:0:0:0:
25,192,75850,1,0,0:0:0:0:
127,192,75930,1,0,0:0:0:0:
25,192,76011,1,0,0:0:0:0:
178,192,76092,1,0,0:0:0:0:
127,192,76172,1,0,0:0:0:0:
229,192,76253,1,0,0:0:0:0:
178,192,76334,1,0,0:0:0:0:
331,192,76414,1,0,0:0:0:0:
280,192,76495,1,0,0:0:0:0:
382,192,76576,1,0,0:0:0:0:
331,192,76656,1,0,0:0:0:0:
484,192,76737,1,0,0:0:0:0:
382,192,76818,1,0,0:0:0:0:
484,192,76898,1,0,0:0:0:0:
331,192,76979,1,0,0:0:0:0:
382,192,77060,1,0,0:0:0:0:
331,192,77140,1,0,0:0:0:0:
433,192,77221,1,0,0:0:0:0:
280,192,77302,1,0,0:0:0:0:
382,192,77382,1,0,0:0:0:0:
331,192,77463,1,0,0:0:0:0:
280,192,77543,1,0,0:0:0:0:
178,192,77624,1,0,0:0:0:0:
331,192,77705,1,0,0:0:0:0:
229,192,77785,1,0,0:0:0:0:
178,192,77866,1,0,0:0:0:0:
127,192,77947,1,0,0:0:0:0:
229,192,78027,1,0,0:0:0:0:
76,192,78108,1,0,0:0:0:0:
127,192,78189,1,0,0:0:0:0:
25,192,78269,1,0,0:0:0:0:
178,192,78350,1,0,0:0:0:0:
25,192,78431,1,0,0:0:0:0:
127,192,78511,1,0,0:0:0:0:
76,192,78592,1,0,0:0:0:0:
229,192,78673,1,0,0:0:0:0:
127,192,78753,1,0,0:0:0:0:
178,192,78834,1,0,0:0:0:0:
229,192,78915,1,0,0:0:0:0:
280,192,78995,1,0,0:0:0:0:
331,192,79076,1,0,0:0:0:0:
382,192,79156,1,0,0:0:0:0:
280,192,79237,1,0,0:0:0:0:
433,192,79318,1,0,0:0:0:0:
382,192,79398,1,0,0:0:0:0:
433,192,79479,1,0,0:0:0:0:
331,192,79560,1,0,0:0:0:0:
484,192,79640,1,0,0:0:0:0:
382,192,79721,1,0,0:0:0:0:
484,192,79802,1,0,0:0:0:0:
331,192,79882,1,0,0:0:0:0:
433,192,79963,1,0,0:0:0:0:
280,192,80044,1,0,0:0:0:0:
382,192,80124,1,0,0:0:0:0:
331,192,80205,1,0,0:0:0:0:
229,192,80286,1,0,0:0:0:0:
127,192,80366,1,0,0:0:0:0:
178,192,80447,1,0,0:0:0:0:
25,192,80527,1,0,0:0:0:0:
127,192,80608,1,0,0:0:0:0:
25,192,80689,1,0,0:0:0:0:
127,192,80769,1,0,0:0:0:0:
25,192,80850,1,0,0:0:0:0:
127,192,80931,1,0,0:0:0:0:
25,192,81011,1,0,0:0:0:0:
127,192,81092,1,0,0:0:0:0:
25,192,81173,1,0,0:0:0:0:
229,192,81253,1,0,0:0:0:0:
25,192,81334,1,0,0:0:0:0:
229,192,81415,1,0,0:0:0:0:
25,192,81495,1,0,0:0:0:0:
229,192,81576,1,0,0:0:0:0:
25,192,81657,1,0,0:0:0:0:
229,192,81737,1,0,0:0:0:0:
127,192,81818,1,0,0:0:0:0:
229,192,81899,1,0,0:0:0:0:
127,192,81979,1,0,0:0:0:0:
229,192,82060,1,0,0:0:0:0:
127,192,82140,1,0,0:0:0:0:
229,192,82221,1,0,0:0:0:0:
127,192,82302,1,0,0:0:0:0:
229,192,82382,1,0,0:0:0:0:
127,192,82463,1,0,0:0:0:0:
280,192,82544,1,0,0:0:0:0:
127,192,82624,1,0,0:0:0:0:
280,192,82705,1,0,0:0:0:0:
127,192,82786,1,0,0:0:0:0:
280,192,82866,1,0,0:0:0:0:
127,192,82947,1,0,0:0:0:0:
280,192,83028,1,0,0:0:0:0:
331,192,83108,1,0,0:0:0:0:
382,192,83189,1,0,0:0:0:0:
280,192,83270,1,0,0:0:0:0:
484,192,83350,1,0,0:0:0:0:
382,192,83431,1,0,0:0:0:0:
433,192,83512,1,0,0:0:0:0:
484,192,83592,1,0,0:0:0:0:
382,192,83673,1,0,0:0:0:0:
280,192,83753,1,0,0:0:0:0:
331,192,83834,1,0,0:0:0:0:
280,192,83915,1,0,0:0:0:0:
382,192,83995,1,0,0:0:0:0:
331,192,84076,1,0,0:0:0:0:
280,192,84157,1,0,0:0:0:0:
229,192,84237,1,0,0:0:0:0:
178,192,84318,1,0,0:0:0:0:
127,192,84399,1,0,0:0:0:0:
229,192,84479,1,0,0:0:0:0:
25,192,84560,1,0,0:0:0:0:
127,192,84641,1,0,0:0:0:0:
76,192,84721,1,0,0:0:0:0:
25,192,84802,1,0,0:0:0:0:
127,192,84883,1,0,0:0:0:0:
229,192,84963,1,0,0:0:0:0:
178,192,85044,1,0,0:0:0:0:
229,192,85098,1,0,0:0:0:0:
280,192,85151,1,0,0:0:0:0:
178,192,85205,1,0,0:0:0:0:
229,192,85259,1,0,0:0:0:0:
280,192,85313,1,0,0:0:0:0:
178,192,85366,1,0,0:0:0:0:
229,192,85420,1,0,0:0:0:0:
280,192,85474,1,0,0:0:0:0:
178,192,85528,1,0,0:0:0:0:
229,192,85582,1,0,0:0:0:0:
280,192,85635,1,0,0:0:0:0:
178,192,85689,1,0,0:0:0:0:
280,192,85850,1,0,0:0:0:0:
382,192,85850,1,0,0:0:0:0:
178,192,86012,1,0,0:0:0:0:
280,192,86173,1,0,0:0:0:0:
382,192,86173,1,0,0:0:0:0:
178,192,86334,1,0,0:0:0:0:
280,192,86496,1,0,0:0:0:0:
382,192,86496,1,0,0:0:0:0:
178,192,86657,1,0,0:0:0:0:
280,192,86818,1,0,0:0:0:0:
382,192,86818,1,0,0:0:0:0:
178,192,86979,1,0,0:0:0:0:
280,192,87141,1,0,0:0:0:0:
382,192,87141,1,0,0:0:0:0:
178,192,87302,1,0,0:0:0:0:
280,192,87463,1,0,0:0:0:0:
382,192,87463,1,0,0:0:0:0:
178,192,87625,1,0,0:0:0:0:
280,192,87786,1,0,0:0:0:0:
382,192,87786,1,0,0:0:0:0:
178,192,87947,1,0,0:0:0:0:
280,192,88109,1,0,0:0:0:0:
382,192,88109,1,0,0:0:0:0:
127,192,88270,1,0,0:0:0:0:
229,192,88431,1,0,0:0:0:0:
280,192,88431,1,0,0:0:0:0:
127,192,88592,1,0,0:0:0:0:
229,192,88754,1,0,0:0:0:0:
280,192,88754,1,0,0:0:0:0:
127,192,88915,1,0,0:0:0:0:
229,192,89076,1,0,0:0:0:0:
280,192,89076,1,0,0:0:0:0:
127,192,89238,1,0,0:0:0:0:
229,192,89399,1,0,0:0:0:0:
280,192,89399,1,0,0:0:0:0:
127,192,89560,1,0,0:0:0:0:
178,192,89560,1,0,0:0:0:0:
280,192,89722,1,0,0:0:0:0:
382,192,89722,1,0,0:0:0:0:
229,192,89883,1,0,0:0:0:0:
178,192,90044,1,0,0:0:0:0:
331,192,90044,1,0,0:0:0:0:
127,192,90205,1,0,0:0:0:0:
382,192,90367,1,0,0:0:0:0:
178,192,90528,1,0,0:0:0:0:
331,192,90528,1,0,0:0:0:0:
229,192,90689,1,0,0:0:0:0:
280,192,90689,1,0,0:0:0:0:
127,192,90851,128,0,93109:0:0:0:0:
229,192,91012,128,0,91173:0:0:0:0:
280,192,91335,128,0,91496:0:0:0:0:
382,192,91657,128,0,91818:0:0:0:0:
331,192,91980,128,0,92141:0:0:0:0:
178,192,92302,128,0,92464:0:0:0:0:
229,192,92625,128,0,92786:0:0:0:0:
280,192,92948,128,0,93109:0:0:0:0:
127,192,93270,1,0,0:0:0:0:
382,192,93431,128,0,94077:0:0:0:0:
331,192,93593,128,0,93754:0:0:0:0:
280,192,93915,128,0,94077:0:0:0:0:
280,192,94238,1,0,0:0:0:0:
382,192,94399,1,0,0:0:0:0:
229,192,94561,1,0,0:0:0:0:
280,192,94722,1,0,0:0:0:0:
127,192,94802,1,0,0:0:0:0:
229,192,94883,1,0,0:0:0:0:
25,192,94964,1,0,0:0:0:0:
229,192,95044,1,0,0:0:0:0:
127,192,95125,1,0,0:0:0:0:
280,192,95206,1,0,0:0:0:0:
229,192,95286,1,0,0:0:0:0:
382,192,95367,1,0,0:0:0:0:
280,192,95448,1,0,0:0:0:0:
484,192,95528,1,0,0:0:0:0:
280,192,95609,1,0,0:0:0:0:
382,192,95690,1,0,0:0:0:0:
229,192,95770,1,0,0:0:0:0:
280,192,95851,1,0,0:0:0:0:
127,192,95932,1,0,0:0:0:0:
229,192,96012,128,0,96496:0:0:0:0:
280,192,96012,128,0,96496:0:0:0:0:
