osu file format v14

[General]
AudioFilename: audio.mp3
AudioLeadIn: 0
PreviewTime: 8029
Countdown: 0
SampleSet: None
StackLeniency: 0.7
Mode: 0
LetterboxInBreaks: 0
WidescreenStoryboard: 1

[Editor]
DistanceSpacing: 1
BeatDivisor: 4
GridSize: 8
TimelineZoom: 1

[Metadata]
Title:Sobota feat. Kool Savas, Gural, Wall-e, Rytmus, Bigz, Matheo
TitleUnicode:Sobota feat. Kool Savas, Gural, Wall-e, Rytmus, Bigz, Matheo
Artist:STOPROCENT 2
ArtistUnicode:STOPROCENT 2
Creator:Rdzeniu
Version:AR9
Source:
Tags:
BeatmapID:1958447
BeatmapSetID:937531

[Difficulty]
HPDrainRate:6
CircleSize:4
OverallDifficulty:8
ApproachRate:9
SliderMultiplier:3.2
SliderTickRate:1

[Events]
//Background and Video events
0,0,"patriotyzm.jpg",0,0
//Break Periods
//Storyboard Layer 0 (Background)
//Storyboard Layer 1 (Fail)
//Storyboard Layer 2 (Pass)
//Storyboard Layer 3 (Foreground)
//Storyboard Sound Samples

[TimingPoints]
5929,599.999405940594,4,2,0,45,1,0
10128,-50,4,1,0,45,0,0
10728,-50,4,2,0,45,0,0
12528,-50,4,1,0,45,0,0
13128,-50,4,2,0,45,0,0
15528,-25,4,2,0,45,0,0
17328,-50,4,2,0,45,0,0
19728,-50,4,1,0,45,0,0
20328,-50,4,2,0,45,0,0
22128,-50,4,1,0,45,0,0
22728,-50,4,2,0,45,0,0
25128,-25,4,2,0,45,0,0
26928,-50,4,2,0,45,0,0

[HitObjects]
84,57,5928,5,8,0:0:0:0:
337,109,6378,1,8,0:0:0:0:
337,109,6528,1,0,0:0:0:0:
180,165,6828,2,0,L|263:176,1,80
388,196,7128,5,8,0:0:0:0:
297,283,7278,1,0,0:0:0:0:
424,273,7428,1,4,0:0:0:0:
231,243,7578,1,8,0:0:0:0:
462,348,7728,1,2,0:0:0:0:
487,139,7878,1,0,0:0:0:0:
462,348,8028,2,0,L|316:349,1,80
188,352,8328,5,4,0:0:0:0:
442,211,8478,1,0,0:0:0:0:
190,73,8628,1,0,0:0:0:0:
296,341,8778,1,0,0:0:0:0:
375,60,8928,5,8,0:0:0:0:
99,141,9078,1,0,0:0:0:0:
401,137,9228,1,0,0:0:0:0:
115,63,9378,1,0,0:0:0:0:
133,353,9528,5,0,0:0:0:0:
140,61,9678,1,0,0:0:0:0:
109,357,9828,1,0,0:0:0:0:
166,62,9978,1,0,0:0:0:0:
80,364,10128,2,0,L|44:190,1,160,8|0,0:0|0:0,0:0:0:0:
23,27,10428,2,0,P|39:106|130:153,1,160
497,123,10728,6,0,P|465:52|391:27,1,160,12|0,0:0|0:0,0:0:0:0:
208,278,11028,1,0,0:0:0:0:
469,250,11178,1,0,0:0:0:0:
315,35,11328,1,8,0:0:0:0:
307,334,11478,1,0,0:0:0:0:
155,96,11628,1,0,0:0:0:0:
454,88,11778,1,0,0:0:0:0:
196,330,11928,5,0,0:0:0:0:
214,30,12078,1,0,0:0:0:0:
491,164,12228,1,0,0:0:0:0:
125,265,12378,1,0,0:0:0:0:
494,243,12528,2,0,B|480:358|480:358|448:313,1,160
374,71,12828,2,0,B|348:35|348:35|334:150,1,160
65,348,13128,5,4,0:0:0:0:
399,339,13278,1,0,0:0:0:0:
114,73,13428,1,0,0:0:0:0:
448,82,13578,1,0,0:0:0:0:
141,357,13728,5,8,0:0:0:0:
202,28,13878,1,0,0:0:0:0:
472,226,14028,1,0,0:0:0:0:
65,36,14328,5,4,0:0:0:0:
399,45,14478,1,0,0:0:0:0:
114,311,14628,1,0,0:0:0:0:
448,302,14778,1,0,0:0:0:0:
40,226,14928,5,8,0:0:0:0:
310,28,15078,1,0,0:0:0:0:
371,357,15228,1,0,0:0:0:0:
157,31,15528,6,0,L|131:373,2,320,4|0|0,0:0|0:0|0:0,0:0:0:0:
438,197,15978,1,0,0:0:0:0:
355,31,16128,6,0,L|381:373,2,320,8|0|0,0:0|0:0|0:0,0:0:0:0:
74,197,16578,1,0,0:0:0:0:
443,47,16728,5,0,0:0:0:0:
80,63,16878,1,0,0:0:0:0:
277,344,17028,1,0,0:0:0:0:
354,30,17178,1,0,0:0:0:0:
40,131,17328,2,0,P|53:273|245:339,1,320,8|0,0:0|0:0,0:0:0:0:
470,249,17778,2,0,L|456:131,1,80
441,40,17928,5,4,0:0:0:0:
165,205,18078,1,0,0:0:0:0:
455,344,18228,1,0,0:0:0:0:
246,44,18378,1,0,0:0:0:0:
167,355,18528,5,8,0:0:0:0:
470,249,18678,1,0,0:0:0:0:
158,86,18828,1,0,0:0:0:0:
484,80,18978,1,0,0:0:0:0:
172,243,19128,5,0,0:0:0:0:
491,157,19278,1,0,0:0:0:0:
101,158,19428,1,0,0:0:0:0:
487,254,19578,1,0,0:0:0:0:
44,77,19728,2,0,P|111:57|191:135,1,160
415,334,20028,2,0,P|339:352|277:306,1,160
460,37,20328,5,4,0:0:0:0:
357,269,20478,1,0,0:0:0:0:
121,172,20628,1,0,0:0:0:0:
380,74,20778,1,0,0:0:0:0:
277,306,20928,5,8,0:0:0:0:
41,209,21078,1,0,0:0:0:0:
244,37,21228,1,0,0:0:0:0:
197,328,21378,1,0,0:0:0:0:
121,16,21528,5,0,0:0:0:0:
70,371,21678,1,0,0:0:0:0:
418,203,21828,1,0,0:0:0:0:
50,63,21978,1,0,0:0:0:0:
300,360,22128,2,0,L|305:185,1,160
493,375,22428,2,0,L|488:200,1,160
147,17,22728,5,4,0:0:0:0:
173,371,22878,1,0,0:0:0:0:
426,19,23028,1,0,0:0:0:0:
400,373,23178,1,0,0:0:0:0:
73,70,23328,1,8,0:0:0:0:
502,74,23478,1,0,0:0:0:0:
278,371,23628,1,0,0:0:0:0:
407,16,23928,5,0,0:0:0:0:
433,370,24078,1,0,0:0:0:0:
180,18,24228,1,0,0:0:0:0:
154,372,24378,1,0,0:0:0:0:
499,314,24528,5,8,0:0:0:0:
70,310,24678,1,0,0:0:0:0:
294,13,24828,1,0,0:0:0:0:
255,348,25128,6,0,P|179:182|56:124,1,320
257,348,25428,2,0,P|329:186|452:128,1,320
254,36,25728,6,0,P|194:178|56:251,1,320,8|0,0:0|0:0,0:0:0:0:
254,36,26028,2,0,P|310:182|448:255,1,320
170,29,26328,5,0,0:0:0:0:
257,349,26478,1,0,0:0:0:0:
342,29,26628,1,0,0:0:0:0:
28,191,26778,1,0,0:0:0:0:
477,191,26928,2,0,B|443:196|443:196|440:217|418:232|418:232|409:190|441:154,2,160
