osu file format v14

[General]
AudioFilename: audio.mp3
AudioLeadIn: 0
PreviewTime: 124551
Countdown: 0
SampleSet: None
StackLeniency: 0.7
Mode: 3
LetterboxInBreaks: 0
SpecialStyle: 0
WidescreenStoryboard: 0

[Editor]
Bookmarks: 15980,34372,35979,38837,50265,60265,61694,70265,73122,83122,84551,94551,95979,107408,111694,113122,117408,118837,130265,138837,140265,141694,153122,164551,175979,187408,198837,210265,239515,239765,242265,265122,287979,290122,292443,294407
DistanceSpacing: 1.5
BeatDivisor: 4
GridSize: 16
TimelineZoom: 3.899998

[Metadata]
Title:Heartbeat
TitleUnicode:Heartbeat
Artist:STOMACH BOOK
ArtistUnicode:STOMACH BOOK
Creator:dgame426
Version:So Sorry
Source:
Tags:STOMACH BOOK SOPHOMORE SLUMP CALLITHUMP
BeatmapID:4536954
BeatmapSetID:2153199

[Difficulty]
HPDrainRate:8.4
CircleSize:4
OverallDifficulty:9.3
ApproachRate:5
SliderMultiplier:1.4
SliderTickRate:1

[Events]
//Background and Video events
0,0,"ah.jpg",0,0
//Break Periods
//Storyboard Layer 0 (Background)
//Storyboard Layer 1 (Fail)
//Storyboard Layer 2 (Pass)
//Storyboard Layer 3 (Foreground)
//Storyboard Layer 4 (Overlay)
//Storyboard Sound Samples

[TimingPoints]
230,500,4,1,1,30,1,0
14730,-95.2380952380952,4,1,1,30,0,0
14855,-90.9090909090909,4,1,1,30,0,0
14980,-86.9565217391304,4,1,1,30,0,0
15105,-83.3333333333333,4,1,1,30,0,0
15230,-77.5193798449612,4,1,1,30,0,0
15355,-66.6666666666667,4,1,1,30,0,0
15980,357.142857142857,4,1,1,30,1,0
15980,-100,4,1,1,30,0,1
18658,-100,4,1,1,30,0,0
18837,-100,4,1,1,30,0,1
21604,-100,4,1,1,30,0,0
21694,-100,4,1,1,30,0,1
24372,-100,4,1,1,30,0,0
24551,-100,4,1,1,30,0,1
27051,-100,4,1,1,30,0,0
27408,-100,4,1,1,30,0,1
30087,-100,4,1,1,30,0,0
30265,-100,4,1,1,30,0,1
32944,-100,4,1,1,30,0,0
33122,-100,4,1,1,30,0,1
34372,-125,4,1,1,30,0,0
34372,-100,4,1,1,30,0,0
35979,-100,4,1,1,30,0,1
38837,-111.111111111111,4,1,1,30,0,0
50265,-105.263157894737,4,1,1,30,0,0
61694,-100,4,1,1,30,0,0
84551,-100,4,1,1,30,0,1
87229,-100,4,1,1,30,0,0
87408,-100,4,1,1,30,0,1
90176,-100,4,1,1,30,0,0
90265,-100,4,1,1,30,0,1
92944,-100,4,1,1,30,0,0
93122,-100,4,1,1,30,0,1
94551,-100,4,1,1,30,0,0
95979,-100,4,1,1,30,0,1
98658,-100,4,1,1,30,0,0
98837,-100,4,1,1,30,0,1
101515,-100,4,1,1,30,0,0
101694,-100,4,1,1,30,0,1
104372,-100,4,1,1,30,0,0
104551,-100,4,1,1,30,0,1
107408,-100,4,1,1,30,0,0
130265,-100,4,1,1,30,0,1
132765,-100,4,1,1,30,0,0
133122,-100,4,1,1,30,0,1
135622,-100,4,1,1,30,0,0
135979,-100,4,1,1,30,0,1
138837,-100,4,1,1,30,0,0
140265,-125,4,1,1,30,0,0
141694,-100,4,1,1,30,0,1
144372,-100,4,1,1,30,0,0
144551,-100,4,1,1,30,0,1
147229,-100,4,1,1,30,0,0
147408,-100,4,1,1,30,0,1
150087,-100,4,1,1,30,0,0
150265,-100,4,1,1,30,0,1
152765,-100,4,1,1,30,0,0
153122,-100,4,1,1,30,0,1
155622,-100,4,1,1,30,0,0
155979,-100,4,1,1,30,0,1
158479,-100,4,1,1,30,0,0
158837,-100,4,1,1,30,0,1
164551,-100,4,1,1,30,0,0
210265,500,4,1,1,30,1,0
210265,-100,4,1,1,30,0,0
242265,357.142857142857,4,1,1,30,1,0
242265,-100,4,1,1,30,0,1
244943,-100,4,1,1,30,0,0
245122,-100,4,1,1,30,0,1
247800,-100,4,1,1,30,0,0
247979,-100,4,1,1,30,0,1
250657,-100,4,1,1,30,0,0
250836,-100,4,1,1,30,0,1
252265,-100,4,1,1,30,0,0
253693,-100,4,1,1,30,0,1
256372,-100,4,1,1,30,0,0
256550,-100,4,1,1,30,0,1
259229,-100,4,1,1,30,0,0
259407,-100,4,1,1,30,0,1
262086,-100,4,1,1,30,0,0
262265,-100,4,1,1,30,0,1
264943,-100,4,1,1,30,0,0
265122,-100,4,1,1,30,0,1
267800,-100,4,1,1,30,0,0
267979,-100,4,1,1,30,0,1
270657,-100,4,1,1,30,0,0
270836,-100,4,1,1,30,0,1
273515,-100,4,1,1,30,0,0
273693,-100,4,1,1,30,0,1
276372,-100,4,1,1,30,0,0
276550,-100,4,1,1,30,0,1
279229,-100,4,1,1,30,0,0
279407,-100,4,1,1,30,0,1
282086,-100,4,1,1,30,0,0
282265,-100,4,1,1,30,0,1
284943,-100,4,1,1,30,0,0
285122,-100,4,1,1,30,0,1
287800,-100,4,1,1,30,0,0
287979,-100,4,1,1,30,0,1
288693,-100,4,1,1,30,0,0

[HitObjects]
320,192,11,5,2,0:0:0:0:
192,192,480,5,2,0:1:0:0:
320,192,980,1,2,0:1:0:0:
448,192,1230,1,2,0:1:0:0:
320,192,1480,1,2,0:1:0:0:
192,192,1730,1,2,0:1:0:0:
64,192,1730,1,2,0:1:0:0:
64,192,2730,1,2,0:1:0:0:
192,192,2980,1,2,0:1:0:0:
320,192,3230,1,2,0:1:0:0:
448,192,3480,1,2,0:1:0:0:
192,192,3730,1,2,0:1:0:0:
320,192,3980,1,2,0:1:0:0:
64,192,3980,1,2,0:1:0:0:
320,192,4480,1,2,0:1:0:0:
448,192,4980,1,2,0:1:0:0:
320,192,5230,1,2,0:1:0:0:
64,192,5480,1,2,0:1:0:0:
192,192,5730,1,2,0:1:0:0:
320,192,5730,1,2,0:1:0:0:
320,192,6230,1,2,0:1:0:0:
448,192,6480,1,2,0:1:0:0:
192,192,6730,1,2,0:1:0:0:
320,192,6980,1,2,0:1:0:0:
448,192,7230,1,2,0:1:0:0:
448,192,7480,1,2,0:1:0:0:
192,192,7480,1,2,0:1:0:0:
320,192,7730,1,2,0:0:0:0:
192,192,7980,1,2,0:0:0:0:
448,192,7980,1,2,0:0:0:0:
320,192,8480,1,2,0:0:0:0:
192,192,8730,1,2,0:0:0:0:
320,192,8730,1,2,0:0:0:0:
320,192,8980,1,2,0:0:0:0:
448,192,9230,1,2,0:0:0:0:
448,192,9480,1,2,0:0:0:0:
320,192,9730,1,2,0:0:0:0:
64,192,9730,1,2,0:0:0:0:
320,192,10730,1,2,0:0:0:0:
192,192,10980,1,2,0:0:0:0:
64,192,10980,1,2,0:0:0:0:
64,192,11480,1,2,0:0:0:0:
192,192,11730,1,2,0:0:0:0:
448,192,11980,1,2,0:0:0:0:
320,192,11980,1,2,0:0:0:0:
320,192,12480,1,2,0:0:0:0:
192,192,12730,1,2,0:0:0:0:
320,192,12980,1,2,0:0:0:0:
448,192,13230,1,2,0:0:0:0:
192,192,13730,1,2,0:0:0:0:
64,192,13730,1,2,0:0:0:0:
192,192,14230,1,2,0:0:0:0:
320,192,14480,1,2,0:0:0:0:
448,192,14730,1,2,0:0:0:0:
320,192,15230,1,2,0:0:0:0:
64,192,15355,1,0,0:0:0:0:
320,192,15417,1,0,0:0:0:0:
192,192,15480,1,0,0:0:0:0:
448,192,15542,1,0,0:0:0:0:
192,192,15605,1,0,0:0:0:0:
320,192,15667,1,0,0:0:0:0:
64,192,15730,1,0,0:0:0:0:
320,192,15792,1,0,0:0:0:0:
192,192,15855,1,0,0:0:0:0:
320,192,15917,1,0,0:0:0:0:
192,192,15980,1,12,0:0:0:0:
64,192,15980,1,6,0:0:0:0:
448,192,15980,1,6,0:0:0:0:
320,192,16069,1,0,0:0:0:0:
192,192,16158,1,8,0:0:0:0:
64,192,16158,1,10,0:0:0:0:
320,192,16247,1,0,0:0:0:0:
192,192,16337,1,2,0:0:0:0:
320,192,16337,1,0,0:0:0:0:
448,192,16426,1,0,0:0:0:0:
64,192,16515,1,8,0:0:0:0:
320,192,16515,1,8,0:0:0:0:
192,192,16605,1,0,0:0:0:0:
320,192,16694,1,2,0:0:0:0:
448,192,16694,1,2,0:0:0:0:
64,192,16783,1,0,0:0:0:0:
320,192,16872,1,10,0:0:0:0:
192,192,16872,1,10,0:0:0:0:
192,192,16962,1,0,0:0:0:0:
448,192,17051,1,2,0:0:0:0:
320,192,17051,1,2,0:0:0:0:
64,192,17140,1,0,0:0:0:0:
320,192,17230,1,10,0:0:0:0:
64,192,17230,1,10,0:0:0:0:
448,192,17319,1,0,0:0:0:0:
64,192,17408,1,0,0:0:0:0:
320,192,17497,1,0,0:0:0:0:
192,192,17587,1,8,0:0:0:0:
448,192,17587,1,8,0:0:0:0:
320,192,17676,1,0,0:0:0:0:
192,192,17765,1,0,0:0:0:0:
64,192,17855,1,0,0:0:0:0:
320,192,17944,1,10,0:0:0:0:
192,192,17944,1,10,0:0:0:0:
192,192,18033,1,0,0:0:0:0:
320,192,18122,1,2,0:0:0:0:
448,192,18122,1,2,0:0:0:0:
64,192,18212,1,0,0:0:0:0:
320,192,18301,1,10,0:0:0:0:
192,192,18301,1,10,0:0:0:0:
448,192,18390,1,0,0:0:0:0:
192,192,18480,1,2,0:0:0:0:
64,192,18480,1,2,0:0:0:0:
448,192,18569,1,0,0:0:0:0:
320,192,18658,1,10,0:0:0:0:
448,192,18658,1,10,0:0:0:0:
192,192,18747,1,0,0:0:0:0:
320,192,18837,1,12,0:0:0:0:
64,192,18837,1,6,0:0:0:0:
448,192,18837,1,6,0:0:0:0:
320,192,18926,1,0,0:0:0:0:
64,192,19015,1,8,0:0:0:0:
192,192,19015,1,8,0:0:0:0:
448,192,19105,1,0,0:0:0:0:
192,192,19194,1,2,0:0:0:0:
64,192,19194,1,2,0:0:0:0:
448,192,19283,1,0,0:0:0:0:
320,192,19372,1,8,0:0:0:0:
448,192,19372,1,8,0:0:0:0:
192,192,19462,1,0,0:0:0:0:
192,192,19551,1,2,0:0:0:0:
448,192,19551,1,2,0:0:0:0:
64,192,19640,1,0,0:0:0:0:
320,192,19730,1,10,0:0:0:0:
448,192,19730,1,10,0:0:0:0:
448,192,19819,1,0,0:0:0:0:
192,192,19908,1,2,0:0:0:0:
64,192,19908,1,2,0:0:0:0:
320,192,19997,1,0,0:0:0:0:
192,192,20087,1,10,0:0:0:0:
448,192,20087,1,10,0:0:0:0:
64,192,20176,1,0,0:0:0:0:
320,192,20265,1,0,0:0:0:0:
448,192,20355,1,0,0:0:0:0:
64,192,20444,1,10,0:0:0:0:
192,192,20444,1,10,0:0:0:0:
320,192,20533,1,0,0:0:0:0:
320,192,20622,1,2,0:0:0:0:
448,192,20622,1,2,0:0:0:0:
64,192,20712,1,0,0:0:0:0:
192,192,20801,1,10,0:0:0:0:
448,192,20801,1,10,0:0:0:0:
448,192,20890,1,0,0:0:0:0:
320,192,20980,1,2,0:0:0:0:
64,192,20980,1,2,0:0:0:0:
448,192,21069,1,2,0:0:0:0:
192,192,21158,1,10,0:0:0:0:
320,192,21158,1,10,0:0:0:0:
64,192,21247,1,0,0:0:0:0:
192,192,21337,1,10,0:0:0:0:
64,192,21337,1,10,0:0:0:0:
320,192,21426,1,8,0:0:0:0:
448,192,21426,1,8,0:0:0:0:
192,192,21515,1,10,0:0:0:0:
64,192,21515,1,10,0:0:0:0:
320,192,21604,1,8,0:0:0:0:
448,192,21604,1,8,0:0:0:0:
192,192,21694,1,4,0:0:0:0:
64,192,21694,1,10,0:0:0:0:
448,192,21694,1,14,0:0:0:0:
320,192,21694,1,4,0:0:0:0:
192,192,21783,1,0,0:0:0:0:
320,192,21872,1,8,0:0:0:0:
448,192,21872,1,8,0:0:0:0:
64,192,21962,1,0,0:0:0:0:
320,192,22051,1,2,0:0:0:0:
192,192,22051,1,2,0:0:0:0:
448,192,22140,1,0,0:0:0:0:
192,192,22229,1,8,0:0:0:0:
64,192,22229,1,8,0:0:0:0:
320,192,22319,1,0,0:0:0:0:
64,192,22408,1,2,0:0:0:0:
448,192,22408,1,2,0:0:0:0:
64,192,22497,1,0,0:0:0:0:
192,192,22587,1,10,0:0:0:0:
320,192,22587,1,10,0:0:0:0:
64,192,22676,1,0,0:0:0:0:
448,192,22765,1,2,0:0:0:0:
320,192,22765,1,2,0:0:0:0:
64,192,22854,1,0,0:0:0:0:
192,192,22944,1,10,0:0:0:0:
448,192,22944,1,10,0:0:0:0:
320,192,23033,1,0,0:0:0:0:
64,192,23122,1,0,0:0:0:0:
320,192,23212,1,0,0:0:0:0:
192,192,23301,1,8,0:0:0:0:
64,192,23301,1,8,0:0:0:0:
448,192,23390,1,0,0:0:0:0:
64,192,23479,1,0,0:0:0:0:
320,192,23569,1,0,0:0:0:0:
192,192,23658,1,10,0:0:0:0:
448,192,23658,1,10,0:0:0:0:
192,192,23747,1,0,0:0:0:0:
64,192,23837,1,2,0:0:0:0:
320,192,23837,1,2,0:0:0:0:
448,192,23926,1,0,0:0:0:0:
192,192,24015,1,8,0:0:0:0:
64,192,24015,1,8,0:0:0:0:
320,192,24104,1,0,0:0:0:0:
448,192,24194,1,2,0:0:0:0:
320,192,24194,1,2,0:0:0:0:
192,192,24283,1,0,0:0:0:0:
64,192,24372,1,10,0:0:0:0:
448,192,24372,1,10,0:0:0:0:
320,192,24462,1,0,0:0:0:0:
192,192,24551,1,12,0:0:0:0:
64,192,24551,1,6,0:0:0:0:
448,192,24551,1,6,0:0:0:0:
448,192,24640,1,0,0:0:0:0:
64,192,24729,1,8,0:0:0:0:
320,192,24729,1,8,0:0:0:0:
192,192,24819,1,0,0:0:0:0:
320,192,24908,1,2,0:0:0:0:
448,192,24908,1,2,0:0:0:0:
192,192,24997,1,0,0:0:0:0:
64,192,25087,1,10,0:0:0:0:
448,192,25087,1,10,0:0:0:0:
192,192,25176,1,0,0:0:0:0:
320,192,25265,1,2,0:0:0:0:
64,192,25265,1,2,0:0:0:0:
64,192,25354,1,0,0:0:0:0:
192,192,25444,1,10,0:0:0:0:
448,192,25444,1,10,0:0:0:0:
320,192,25533,1,0,0:0:0:0:
448,192,25622,1,0,0:0:0:0:
192,192,25712,1,0,0:0:0:0:
448,192,25801,1,10,0:0:0:0:
320,192,25801,1,10,0:0:0:0:
192,192,25890,1,0,0:0:0:0:
320,192,25979,1,0,0:0:0:0:
320,192,26069,1,0,0:0:0:0:
192,192,26158,1,0,0:0:0:0:
320,192,26247,1,0,0:0:0:0:
192,192,26337,1,8,0:0:0:0:
64,192,26337,1,8,0:0:0:0:
320,192,26426,1,0,0:0:0:0:
192,192,26515,1,0,0:0:0:0:
192,192,26604,1,0,0:0:0:0:
320,192,26694,1,8,0:0:0:0:
448,192,26694,1,8,0:0:0:0:
192,192,26783,1,0,0:0:0:0:
320,192,26872,1,2,0:0:0:0:
448,192,26962,1,0,0:0:0:0:
320,192,27006,1,2,0:0:0:0:
64,192,27051,1,2,0:0:0:0:
192,192,27051,1,2,0:0:0:0:
192,192,27140,1,0,0:0:0:0:
320,192,27229,1,2,0:0:0:0:
192,192,27319,1,0,0:0:0:0:
64,192,27408,1,6,0:0:0:0:
320,192,27408,1,4,0:0:0:0:
448,192,27408,1,6,0:0:0:0:
192,192,27408,1,8,0:0:0:0:
448,192,27497,1,0,0:0:0:0:
64,192,27587,1,8,0:0:0:0:
192,192,27587,1,8,0:0:0:0:
320,192,27676,1,0,0:0:0:0:
192,192,27765,1,2,0:0:0:0:
448,192,27765,128,2,27854:0:0:0:0:
320,192,27854,128,0,27944:0:0:0:0:
192,192,27944,1,8,0:0:0:0:
64,192,27944,128,8,28122:0:0:0:0:
448,192,28033,1,0,0:0:0:0:
320,192,28122,1,2,0:0:0:0:
448,192,28122,128,2,28301:0:0:0:0:
64,192,28212,1,0,0:0:0:0:
192,192,28301,1,10,0:0:0:0:
320,192,28301,128,10,28479:0:0:0:0:
448,192,28390,1,0,0:0:0:0:
192,192,28479,1,2,0:0:0:0:
64,192,28479,1,2,0:0:0:0:
192,192,28569,1,0,0:0:0:0:
448,192,28658,1,10,0:0:0:0:
64,192,28658,128,10,28837:0:0:0:0:
192,192,28747,1,0,0:0:0:0:
448,192,28837,1,0,0:0:0:0:
320,192,28926,1,0,0:0:0:0:
192,192,29015,128,10,29194:0:0:0:0:
448,192,29015,1,10,0:0:0:0:
64,192,29104,1,0,0:0:0:0:
320,192,29194,1,2,0:0:0:0:
64,192,29194,1,2,0:0:0:0:
448,192,29283,1,0,0:0:0:0:
320,192,29372,128,10,29551:0:0:0:0:
192,192,29372,1,10,0:0:0:0:
64,192,29462,1,0,0:0:0:0:
448,192,29551,1,2,0:0:0:0:
192,192,29551,1,2,0:0:0:0:
64,192,29640,1,0,0:0:0:0:
448,192,29729,128,10,29908:0:0:0:0:
320,192,29729,1,10,0:0:0:0:
64,192,29819,1,0,0:0:0:0:
192,192,29908,1,2,0:0:0:0:
64,192,29908,1,2,0:0:0:0:
320,192,29997,1,0,0:0:0:0:
192,192,30087,128,10,30265:0:0:0:0:
448,192,30087,1,10,0:0:0:0:
320,192,30176,1,0,0:0:0:0:
320,192,30265,1,12,0:0:0:0:
448,192,30265,1,6,0:0:0:0:
64,192,30265,1,6,0:0:0:0:
192,192,30354,1,0,0:0:0:0:
448,192,30444,1,8,0:0:0:0:
320,192,30444,1,8,0:0:0:0:
192,192,30533,1,0,0:0:0:0:
64,192,30622,128,2,30712:0:0:0:0:
320,192,30622,1,2,0:0:0:0:
192,192,30712,128,0,30801:0:0:0:0:
448,192,30801,128,10,30979:0:0:0:0:
320,192,30801,1,10,0:0:0:0:
192,192,30890,1,0,0:0:0:0:
64,192,30979,128,2,31158:0:0:0:0:
320,192,30979,1,2,0:0:0:0:
320,192,31069,1,0,0:0:0:0:
192,192,31158,128,10,31337:0:0:0:0:
448,192,31158,1,10,0:0:0:0:
64,192,31247,1,0,0:0:0:0:
320,192,31337,1,0,0:0:0:0:
320,192,31426,1,0,0:0:0:0:
448,192,31515,128,10,31694:0:0:0:0:
192,192,31515,1,10,0:0:0:0:
64,192,31604,1,0,0:0:0:0:
320,192,31694,1,0,0:0:0:0:
192,192,31783,1,0,0:0:0:0:
320,192,31872,128,10,32051:0:0:0:0:
448,192,31872,1,10,0:0:0:0:
192,192,31962,1,0,0:0:0:0:
448,192,32051,1,2,0:0:0:0:
64,192,32051,1,2,0:0:0:0:
320,192,32140,1,0,0:0:0:0:
192,192,32229,128,10,32408:0:0:0:0:
448,192,32229,1,10,0:0:0:0:
64,192,32319,1,0,0:0:0:0:
448,192,32408,1,2,0:0:0:0:
320,192,32408,1,2,0:0:0:0:
320,192,32497,1,2,0:0:0:0:
64,192,32587,128,10,32765:0:0:0:0:
192,192,32587,1,10,0:0:0:0:
320,192,32676,1,0,0:0:0:0:
448,192,32765,1,2,0:0:0:0:
192,192,32765,1,2,0:0:0:0:
192,192,32854,1,0,0:0:0:0:
320,192,32944,128,10,33122:0:0:0:0:
64,192,32944,1,10,0:0:0:0:
448,192,33033,1,0,0:0:0:0:
64,192,33122,1,6,0:0:0:0:
448,192,33122,1,6,0:0:0:0:
192,192,33122,1,4,0:0:0:0:
192,192,33212,1,0,0:0:0:0:
320,192,33301,1,8,0:0:0:0:
448,192,33301,1,8,0:0:0:0:
320,192,33390,1,0,0:0:0:0:
64,192,33479,128,0,33569:0:0:0:0:
320,192,33569,128,0,33658:0:0:0:0:
448,192,33658,128,10,33837:0:0:0:0:
192,192,33658,1,10,0:0:0:0:
64,192,33747,1,0,0:0:0:0:
192,192,33837,128,2,34015:0:0:0:0:
320,192,33837,1,2,0:0:0:0:
320,192,33926,1,0,0:0:0:0:
64,192,34015,128,10,34194:0:0:0:0:
448,192,34015,1,10,0:0:0:0:
320,192,34104,1,0,0:0:0:0:
192,192,34194,1,0,0:0:0:0:
192,192,34283,1,0,0:0:0:0:
448,192,34372,128,10,34551:0:0:0:0:
320,192,34372,1,10,0:0:0:0:
64,192,34729,128,2,34908:0:0:0:0:
320,192,34729,1,2,0:0:0:0:
192,192,35087,128,2,35265:0:0:0:0:
64,192,35087,1,2,0:0:0:0:
64,192,35444,128,2,35622:0:0:0:0:
448,192,35444,1,2,0:0:0:0:
448,192,35801,128,2,35935:0:0:0:0:
320,192,35801,1,2,0:0:0:0:
64,192,35979,1,6,0:0:0:0:
192,192,35979,1,4,0:0:0:0:
320,192,35979,1,8,0:0:0:0:
448,192,35979,1,6,0:0:0:0:
64,192,36069,1,0,0:0:0:0:
448,192,36158,1,8,0:0:0:0:
192,192,36158,1,8,0:0:0:0:
448,192,36247,1,0,0:0:0:0:
320,192,36337,1,2,0:0:0:0:
192,192,36337,1,2,0:0:0:0:
64,192,36426,1,0,0:0:0:0:
320,192,36515,1,8,0:0:0:0:
448,192,36515,128,8,36694:0:0:0:0:
192,192,36604,1,0,0:0:0:0:
320,192,36694,1,2,0:0:0:0:
64,192,36694,128,2,36872:0:0:0:0:
320,192,36783,1,0,0:0:0:0:
192,192,36872,1,10,0:0:0:0:
448,192,36872,128,10,37051:0:0:0:0:
320,192,36962,1,0,0:0:0:0:
192,192,37051,1,2,0:0:0:0:
64,192,37051,1,2,0:0:0:0:
64,192,37140,1,0,0:0:0:0:
448,192,37229,1,10,0:0:0:0:
320,192,37229,128,10,37408:0:0:0:0:
192,192,37319,1,0,0:0:0:0:
64,192,37408,1,0,0:0:0:0:
64,192,37497,1,0,0:0:0:0:
448,192,37587,1,8,0:0:0:0:
320,192,37587,128,8,37765:0:0:0:0:
192,192,37676,1,0,0:0:0:0:
448,192,37765,1,2,0:0:0:0:
192,192,37765,1,2,0:0:0:0:
64,192,37854,1,0,0:0:0:0:
320,192,37944,1,10,0:0:0:0:
64,192,37944,128,10,38122:0:0:0:0:
192,192,38033,1,0,0:0:0:0:
320,192,38122,1,0,0:0:0:0:
448,192,38212,1,0,0:0:0:0:
320,192,38301,1,8,0:0:0:0:
192,192,38301,128,8,38479:0:0:0:0:
64,192,38390,1,2,0:0:0:0:
448,192,38435,1,2,0:0:0:0:
64,192,38479,1,2,0:0:0:0:
320,192,38479,1,2,0:0:0:0:
192,192,38569,1,0,0:0:0:0:
64,192,38658,1,10,0:0:0:0:
320,192,38658,128,10,38837:0:0:0:0:
448,192,38747,1,0,0:0:0:0:
192,192,38837,1,4,0:0:0:0:
448,192,38837,1,4,0:0:0:0:
64,192,38837,1,4,0:0:0:0:
448,192,39194,1,8,0:0:0:0:
320,192,39194,1,8,0:0:0:0:
320,192,39462,1,0,0:0:0:0:
64,192,39551,1,0,0:0:0:0:
320,192,39729,1,8,0:0:0:0:
192,192,39729,1,8,0:0:0:0:
64,192,39908,1,0,0:0:0:0:
64,192,40087,1,0,0:0:0:0:
448,192,40265,1,0,0:0:0:0:
320,192,40444,1,0,0:0:0:0:
64,192,40622,1,8,0:0:0:0:
320,192,40622,1,8,0:0:0:0:
192,192,40801,1,0,0:0:0:0:
320,192,40890,1,0,0:0:0:0:
448,192,40979,1,0,0:0:0:0:
64,192,41158,1,0,0:0:0:0:
192,192,41337,1,8,0:0:0:0:
320,192,41337,1,8,0:0:0:0:
192,192,41694,1,0,0:0:0:0:
448,192,41872,1,0,0:0:0:0:
64,192,42051,1,8,0:0:0:0:
192,192,42051,1,8,0:0:0:0:
192,192,42229,1,0,0:0:0:0:
320,192,42319,1,0,0:0:0:0:
320,192,42408,1,0,0:0:0:0:
448,192,42587,1,8,0:0:0:0:
320,192,42587,1,8,0:0:0:0:
64,192,42765,1,0,0:0:0:0:
320,192,42944,1,0,0:0:0:0:
64,192,43122,1,0,0:0:0:0:
448,192,43301,1,0,0:0:0:0:
64,192,43479,1,8,0:0:0:0:
448,192,43479,1,8,0:0:0:0:
192,192,43658,1,0,0:0:0:0:
320,192,43747,1,0,0:0:0:0:
64,192,43837,1,0,0:0:0:0:
320,192,44015,1,0,0:0:0:0:
448,192,44194,1,8,0:0:0:0:
192,192,44194,1,8,0:0:0:0:
320,192,44372,1,8,0:0:0:0:
448,192,44372,1,8,0:0:0:0:
192,192,44462,1,8,0:0:0:0:
64,192,44462,1,8,0:0:0:0:
192,192,44551,1,12,0:0:0:0:
64,192,44551,1,14,0:0:0:0:
448,192,44551,1,6,0:0:0:0:
448,192,44729,1,0,0:0:0:0:
192,192,44908,1,8,0:0:0:0:
64,192,44908,1,8,0:0:0:0:
320,192,45087,1,0,0:0:0:0:
320,192,45176,1,0,0:0:0:0:
192,192,45265,1,0,0:0:0:0:
448,192,45444,1,8,0:0:0:0:
320,192,45444,1,8,0:0:0:0:
192,192,45622,1,0,0:0:0:0:
64,192,45801,1,0,0:0:0:0:
192,192,45979,1,0,0:0:0:0:
448,192,46158,1,0,0:0:0:0:
64,192,46337,1,8,0:0:0:0:
320,192,46337,1,8,0:0:0:0:
320,192,46515,1,0,0:0:0:0:
192,192,46604,1,0,0:0:0:0:
448,192,46694,1,0,0:0:0:0:
64,192,46872,1,0,0:0:0:0:
448,192,47051,1,8,0:0:0:0:
320,192,47051,1,8,0:0:0:0:
448,192,47229,1,8,0:0:0:0:
192,192,47229,1,8,0:0:0:0:
192,192,47319,1,8,0:0:0:0:
448,192,47319,1,8,0:0:0:0:
64,192,47408,1,0,0:0:0:0:
320,192,47587,1,0,0:0:0:0:
320,192,47765,1,8,0:0:0:0:
64,192,47765,1,8,0:0:0:0:
320,192,47944,1,0,0:0:0:0:
192,192,48033,1,0,0:0:0:0:
192,192,48122,1,0,0:0:0:0:
192,192,48301,1,8,0:0:0:0:
320,192,48301,1,8,0:0:0:0:
64,192,48479,1,8,0:0:0:0:
192,192,48479,1,8,0:0:0:0:
320,192,48569,1,8,0:0:0:0:
192,192,48569,1,8,0:0:0:0:
448,192,48658,1,0,0:0:0:0:
448,192,48837,1,0,0:0:0:0:
192,192,49015,1,0,0:0:0:0:
192,192,49194,1,8,0:0:0:0:
64,192,49194,1,8,0:0:0:0:
448,192,49372,1,0,0:0:0:0:
192,192,49462,1,0,0:0:0:0:
320,192,49551,1,0,0:0:0:0:
448,192,49729,1,10,0:0:0:0:
320,192,49729,1,10,0:0:0:0:
64,192,49819,1,8,0:0:0:0:
192,192,49819,1,8,0:0:0:0:
320,192,49908,1,10,0:0:0:0:
448,192,49908,1,10,0:0:0:0:
320,192,49997,1,8,0:0:0:0:
64,192,49997,1,8,0:0:0:0:
192,192,50087,1,10,0:0:0:0:
448,192,50087,1,10,0:0:0:0:
64,192,50176,1,8,0:0:0:0:
320,192,50176,1,8,0:0:0:0:
192,192,50265,1,12,0:0:0:0:
320,192,50265,1,14,0:0:0:0:
64,192,50265,128,6,50444:0:0:0:0:
448,192,50265,1,6,0:0:0:0:
320,192,50444,1,0,0:0:0:0:
64,192,50622,1,10,0:0:0:0:
320,192,50622,128,10,50801:0:0:0:0:
64,192,50801,1,0,0:0:0:0:
192,192,50801,1,0,0:0:0:0:
320,192,50979,1,2,0:0:0:0:
448,192,50979,128,2,51337:0:0:0:0:
64,192,51158,1,8,0:0:0:0:
192,192,51158,1,8,0:0:0:0:
192,192,51337,1,0,0:0:0:0:
320,192,51337,1,0,0:0:0:0:
448,192,51515,1,0,0:0:0:0:
320,192,51515,1,0,0:0:0:0:
192,192,51694,1,0,0:0:0:0:
64,192,51694,1,0,0:0:0:0:
320,192,51872,1,0,0:0:0:0:
448,192,51872,1,0,0:0:0:0:
192,192,52051,1,8,0:0:0:0:
448,192,52051,1,8,0:0:0:0:
448,192,52229,1,0,0:0:0:0:
64,192,52229,1,0,0:0:0:0:
192,192,52408,1,0,0:0:0:0:
64,192,52408,1,0,0:0:0:0:
448,192,52587,1,2,0:0:0:0:
320,192,52587,128,2,52676:0:0:0:0:
192,192,52676,128,0,52765:0:0:0:0:
320,192,52765,1,10,0:0:0:0:
64,192,52765,128,10,52944:0:0:0:0:
192,192,52944,128,2,53033:0:0:0:0:
448,192,52944,1,2,0:0:0:0:
320,192,53033,128,0,53122:0:0:0:0:
448,192,53122,128,2,53301:0:0:0:0:
64,192,53122,1,2,0:0:0:0:
320,192,53301,1,0,0:0:0:0:
64,192,53479,1,10,0:0:0:0:
192,192,53479,128,10,53658:0:0:0:0:
320,192,53658,1,0,0:0:0:0:
448,192,53658,1,0,0:0:0:0:
64,192,53837,128,2,54194:0:0:0:0:
320,192,53837,1,2,0:0:0:0:
192,192,54015,1,8,0:0:0:0:
448,192,54015,1,8,0:0:0:0:
320,192,54194,1,0,0:0:0:0:
448,192,54194,1,0,0:0:0:0:
192,192,54372,1,0,0:0:0:0:
64,192,54372,1,0,0:0:0:0:
192,192,54551,1,0,0:0:0:0:
448,192,54551,1,0,0:0:0:0:
320,192,54729,1,0,0:0:0:0:
64,192,54729,1,0,0:0:0:0:
192,192,54908,1,8,0:0:0:0:
320,192,54908,1,8,0:0:0:0:
448,192,55087,1,0,0:0:0:0:
320,192,55087,1,0,0:0:0:0:
64,192,55265,1,0,0:0:0:0:
192,192,55265,1,0,0:0:0:0:
320,192,55444,1,2,0:0:0:0:
192,192,55444,128,2,55533:0:0:0:0:
320,192,55533,128,0,55622:0:0:0:0:
64,192,55622,1,10,0:0:0:0:
448,192,55622,128,10,55801:0:0:0:0:
192,192,55801,1,10,0:0:0:0:
64,192,55801,128,10,55890:0:0:0:0:
448,192,55890,128,8,55979:0:0:0:0:
320,192,55890,1,8,0:0:0:0:
192,192,55979,1,12,0:0:0:0:
320,192,55979,1,6,0:0:0:0:
64,192,55979,128,6,56158:0:0:0:0:
320,192,56158,1,0,0:0:0:0:
192,192,56337,128,2,56515:0:0:0:0:
448,192,56337,1,2,0:0:0:0:
320,192,56515,1,0,0:0:0:0:
64,192,56515,1,0,0:0:0:0:
448,192,56694,128,2,57051:0:0:0:0:
64,192,56694,1,2,0:0:0:0:
192,192,56872,1,8,0:0:0:0:
320,192,56872,1,8,0:0:0:0:
192,192,57051,1,0,0:0:0:0:
64,192,57051,1,0,0:0:0:0:
448,192,57229,1,0,0:0:0:0:
320,192,57229,1,0,0:0:0:0:
192,192,57408,1,0,0:0:0:0:
64,192,57408,1,0,0:0:0:0:
64,192,57587,1,0,0:0:0:0:
320,192,57587,1,0,0:0:0:0:
192,192,57765,1,8,0:0:0:0:
448,192,57765,1,8,0:0:0:0:
448,192,57944,1,0,0:0:0:0:
192,192,57944,1,0,0:0:0:0:
64,192,58122,1,0,0:0:0:0:
448,192,58122,1,0,0:0:0:0:
320,192,58301,1,2,0:0:0:0:
192,192,58301,128,2,58390:0:0:0:0:
64,192,58390,128,0,58479:0:0:0:0:
320,192,58479,1,10,0:0:0:0:
192,192,58479,128,2,58658:0:0:0:0:
320,192,58658,128,2,58837:0:0:0:0:
448,192,58658,1,2,0:0:0:0:
448,192,58837,128,2,59015:0:0:0:0:
64,192,58837,1,2,0:0:0:0:
64,192,59015,1,0,0:0:0:0:
320,192,59194,128,8,59372:0:0:0:0:
192,192,59194,1,8,0:0:0:0:
448,192,59372,1,2,0:0:0:0:
64,192,59372,1,2,0:0:0:0:
64,192,59551,128,2,59908:0:0:0:0:
448,192,59551,1,2,0:0:0:0:
320,192,59729,1,8,0:0:0:0:
448,192,59729,1,8,0:0:0:0:
192,192,59908,128,2,60087:0:0:0:0:
320,192,59908,1,2,0:0:0:0:
448,192,60087,128,2,60801:0:0:0:0:
64,192,60087,1,2,0:0:0:0:
192,192,60265,1,0,0:0:0:0:
64,192,60265,1,0,0:0:0:0:
320,192,60444,1,0,0:0:0:0:
192,192,60444,1,0,0:0:0:0:
192,192,60622,1,0,0:0:0:0:
320,192,60622,1,0,0:0:0:0:
192,192,60801,1,0,0:0:0:0:
64,192,60801,1,0,0:0:0:0:
192,192,60890,1,0,0:0:0:0:
320,192,60979,1,8,0:0:0:0:
448,192,60979,1,8,0:0:0:0:
448,192,61069,1,0,0:0:0:0:
192,192,61158,1,0,0:0:0:0:
320,192,61247,1,0,0:0:0:0:
64,192,61337,1,8,0:0:0:0:
192,192,61337,1,8,0:0:0:0:
320,192,61426,1,8,0:0:0:0:
448,192,61426,1,8,0:0:0:0:
64,192,61515,1,8,0:0:0:0:
192,192,61515,1,8,0:0:0:0:
320,192,61604,1,8,0:0:0:0:
448,192,61604,1,8,0:0:0:0:
320,192,61694,1,12,0:0:0:0:
448,192,61694,1,6,0:0:0:0:
64,192,61694,128,6,61872:0:0:0:0:
192,192,61872,1,0,0:0:0:0:
448,192,61872,1,0,0:0:0:0:
320,192,62051,128,10,62229:0:0:0:0:
64,192,62051,1,10,0:0:0:0:
64,192,62229,1,0,0:0:0:0:
192,192,62229,1,0,0:0:0:0:
192,192,62408,128,2,62765:0:0:0:0:
320,192,62408,1,2,0:0:0:0:
320,192,62587,1,10,0:0:0:0:
448,192,62587,1,10,0:0:0:0:
64,192,62765,1,2,0:0:0:0:
448,192,62765,1,2,0:0:0:0:
192,192,62944,1,2,0:0:0:0:
320,192,62944,1,2,0:0:0:0:
64,192,63122,1,0,0:0:0:0:
448,192,63122,1,0,0:0:0:0:
192,192,63301,1,0,0:0:0:0:
64,192,63301,1,0,0:0:0:0:
192,192,63479,1,8,0:0:0:0:
448,192,63479,1,8,0:0:0:0:
320,192,63658,1,2,0:0:0:0:
448,192,63658,1,2,0:0:0:0:
64,192,63837,1,2,0:0:0:0:
320,192,63837,1,2,0:0:0:0:
192,192,64015,1,2,0:0:0:0:
64,192,64015,128,2,64104:0:0:0:0:
320,192,64104,128,0,64194:0:0:0:0:
448,192,64194,1,10,0:0:0:0:
192,192,64194,128,10,64372:0:0:0:0:
448,192,64372,128,0,64462:0:0:0:0:
192,192,64462,128,0,64551:0:0:0:0:
64,192,64551,128,2,64729:0:0:0:0:
320,192,64551,1,2,0:0:0:0:
448,192,64729,1,0,0:0:0:0:
320,192,64729,1,0,0:0:0:0:
320,192,64908,128,10,65087:0:0:0:0:
64,192,64908,1,2,0:0:0:0:
192,192,65087,1,0,0:0:0:0:
448,192,65087,1,0,0:0:0:0:
192,192,65265,128,2,65622:0:0:0:0:
448,192,65265,1,2,0:0:0:0:
64,192,65444,1,10,0:0:0:0:
320,192,65444,1,10,0:0:0:0:
320,192,65622,1,2,0:0:0:0:
448,192,65622,1,2,0:0:0:0:
192,192,65801,1,2,0:0:0:0:
64,192,65801,1,2,0:0:0:0:
192,192,65979,1,0,0:0:0:0:
320,192,65979,1,0,0:0:0:0:
448,192,66158,1,0,0:0:0:0:
64,192,66158,1,0,0:0:0:0:
192,192,66337,1,10,0:0:0:0:
448,192,66337,1,10,0:0:0:0:
192,192,66515,1,2,0:0:0:0:
320,192,66515,1,2,0:0:0:0:
448,192,66694,1,2,0:0:0:0:
64,192,66694,1,2,0:0:0:0:
320,192,66738,1,2,0:0:0:0:
192,192,66783,1,2,0:0:0:0:
448,192,66872,1,0,0:0:0:0:
320,192,66962,128,0,67051:0:0:0:0:
64,192,67051,1,10,0:0:0:0:
192,192,67051,128,10,67229:0:0:0:0:
320,192,67229,128,2,67319:0:0:0:0:
448,192,67229,1,2,0:0:0:0:
64,192,67319,128,8,67408:0:0:0:0:
192,192,67319,1,8,0:0:0:0:
192,192,67408,1,6,0:0:0:0:
448,192,67408,1,6,0:0:0:0:
320,192,67408,128,12,67587:0:0:0:0:
64,192,67587,1,0,0:0:0:0:
192,192,67765,128,10,67944:0:0:0:0:
448,192,67765,1,10,0:0:0:0:
320,192,67944,1,0,0:0:0:0:
448,192,67944,1,0,0:0:0:0:
448,192,68122,128,2,68479:0:0:0:0:
192,192,68122,1,2,0:0:0:0:
64,192,68301,1,10,0:0:0:0:
192,192,68301,1,10,0:0:0:0:
64,192,68479,1,2,0:0:0:0:
192,192,68479,1,2,0:0:0:0:
320,192,68658,1,2,0:0:0:0:
192,192,68658,1,2,0:0:0:0:
320,192,68837,1,0,0:0:0:0:
448,192,68837,1,0,0:0:0:0:
448,192,69015,1,0,0:0:0:0:
320,192,69015,1,0,0:0:0:0:
192,192,69194,1,8,0:0:0:0:
448,192,69194,1,8,0:0:0:0:
192,192,69372,1,2,0:0:0:0:
448,192,69372,1,2,0:0:0:0:
64,192,69551,1,2,0:0:0:0:
448,192,69551,1,2,0:0:0:0:
192,192,69729,128,0,69819:0:0:0:0:
448,192,69819,128,0,69908:0:0:0:0:
64,192,69908,1,10,0:0:0:0:
192,192,69908,128,10,70087:0:0:0:0:
320,192,70087,128,2,70265:0:0:0:0:
448,192,70087,1,2,0:0:0:0:
64,192,70265,128,10,70712:0:0:0:0:
192,192,70265,1,10,0:0:0:0:
448,192,70354,1,8,0:0:0:0:
320,192,70444,1,8,0:0:0:0:
192,192,70444,1,0,0:0:0:0:
448,192,70533,1,8,0:0:0:0:
192,192,70622,1,8,0:0:0:0:
320,192,70622,1,0,0:0:0:0:
192,192,70801,128,2,70979:0:0:0:0:
320,192,70801,1,10,0:0:0:0:
448,192,70890,1,8,0:0:0:0:
64,192,70979,128,2,71337:0:0:0:0:
320,192,70979,1,10,0:0:0:0:
448,192,71069,1,8,0:0:0:0:
192,192,71158,1,8,0:0:0:0:
320,192,71158,1,0,0:0:0:0:
320,192,71337,128,2,71515:0:0:0:0:
192,192,71337,1,2,0:0:0:0:
64,192,71426,1,8,0:0:0:0:
448,192,71515,128,2,72229:0:0:0:0:
192,192,71515,1,10,0:0:0:0:
320,192,71604,1,8,0:0:0:0:
192,192,71694,1,8,0:0:0:0:
64,192,71694,1,0,0:0:0:0:
64,192,71872,1,0,0:0:0:0:
192,192,71872,1,0,0:0:0:0:
192,192,72051,1,0,0:0:0:0:
320,192,72051,1,0,0:0:0:0:
192,192,72229,1,0,0:0:0:0:
320,192,72229,1,0,0:0:0:0:
320,192,72408,1,0,0:0:0:0:
448,192,72408,1,0,0:0:0:0:
64,192,72587,1,8,0:0:0:0:
192,192,72587,1,8,0:0:0:0:
192,192,72676,1,8,0:0:0:0:
64,192,72676,1,8,0:0:0:0:
320,192,72765,1,8,0:0:0:0:
448,192,72765,1,8,0:0:0:0:
64,192,72854,1,8,0:0:0:0:
192,192,72854,1,8,0:0:0:0:
320,192,72944,1,8,0:0:0:0:
448,192,72944,1,8,0:0:0:0:
448,192,73033,1,8,0:0:0:0:
320,192,73033,1,8,0:0:0:0:
64,192,73122,1,12,0:0:0:0:
448,192,73122,1,4,0:0:0:0:
192,192,73122,128,4,73301:0:0:0:0:
192,192,73479,1,0,0:0:0:0:
448,192,73569,1,0,0:0:0:0:
192,192,73658,1,0,0:0:0:0:
64,192,73747,1,0,0:0:0:0:
64,192,73837,1,8,0:0:0:0:
320,192,73837,1,8,0:0:0:0:
448,192,74015,1,0,0:0:0:0:
192,192,74015,1,0,0:0:0:0:
192,192,74194,1,0,0:0:0:0:
64,192,74194,1,0,0:0:0:0:
320,192,74372,1,0,0:0:0:0:
448,192,74372,1,0,0:0:0:0:
64,192,74551,1,0,0:0:0:0:
320,192,74551,1,0,0:0:0:0:
192,192,74729,1,0,0:0:0:0:
448,192,74908,1,0,0:0:0:0:
320,192,74908,1,0,0:0:0:0:
192,192,75087,1,0,0:0:0:0:
320,192,75265,1,12,0:0:0:0:
64,192,75265,1,12,0:0:0:0:
192,192,75265,1,4,0:0:0:0:
320,192,75444,1,0,0:0:0:0:
448,192,75444,1,0,0:0:0:0:
320,192,75801,1,0,0:0:0:0:
64,192,75801,1,0,0:0:0:0:
448,192,76158,1,0,0:0:0:0:
320,192,76158,1,0,0:0:0:0:
192,192,76337,1,0,0:0:0:0:
64,192,76337,1,0,0:0:0:0:
320,192,76426,1,0,0:0:0:0:
448,192,76515,1,0,0:0:0:0:
192,192,76694,1,0,0:0:0:0:
64,192,76694,1,0,0:0:0:0:
448,192,76872,1,0,0:0:0:0:
192,192,76872,1,0,0:0:0:0:
64,192,77051,1,0,0:0:0:0:
448,192,77051,1,0,0:0:0:0:
320,192,77229,1,0,0:0:0:0:
192,192,77229,1,0,0:0:0:0:
64,192,77408,1,0,0:0:0:0:
192,192,77408,1,0,0:0:0:0:
192,192,77587,1,0,0:0:0:0:
320,192,77765,1,0,0:0:0:0:
448,192,77765,1,0,0:0:0:0:
192,192,77944,1,0,0:0:0:0:
192,192,78122,1,8,0:0:0:0:
320,192,78122,1,8,0:0:0:0:
448,192,78301,1,4,0:0:0:0:
192,192,78301,1,4,0:0:0:0:
64,192,78301,1,4,0:0:0:0:
192,192,78479,1,8,0:0:0:0:
448,192,78479,1,8,0:0:0:0:
448,192,78658,1,4,0:0:0:0:
320,192,78658,1,4,0:0:0:0:
64,192,78658,1,4,0:0:0:0:
192,192,79015,1,0,0:0:0:0:
448,192,79194,1,0,0:0:0:0:
192,192,79194,1,0,0:0:0:0:
320,192,79283,1,0,0:0:0:0:
64,192,79372,1,0,0:0:0:0:
64,192,79551,1,8,0:0:0:0:
320,192,79551,1,8,0:0:0:0:
448,192,79729,1,0,0:0:0:0:
64,192,79908,1,0,0:0:0:0:
448,192,79908,1,0,0:0:0:0:
192,192,80087,1,0,0:0:0:0:
320,192,80265,1,0,0:0:0:0:
192,192,80265,1,0,0:0:0:0:
64,192,80444,1,0,0:0:0:0:
320,192,80622,1,0,0:0:0:0:
448,192,80622,1,0,0:0:0:0:
192,192,80801,1,0,0:0:0:0:
64,192,80979,1,8,0:0:0:0:
192,192,80979,1,8,0:0:0:0:
448,192,81158,1,0,0:0:0:0:
192,192,81337,1,0,0:0:0:0:
320,192,81337,1,0,0:0:0:0:
192,192,81515,1,0,0:0:0:0:
320,192,81694,1,0,0:0:0:0:
448,192,81694,1,0,0:0:0:0:
64,192,81872,1,0,0:0:0:0:
448,192,82051,1,0,0:0:0:0:
192,192,82051,1,0,0:0:0:0:
192,192,82229,1,0,0:0:0:0:
64,192,82408,1,12,0:0:0:0:
320,192,82408,1,12,0:0:0:0:
192,192,82408,1,4,0:0:0:0:
448,192,82587,1,0,0:0:0:0:
320,192,82765,1,0,0:0:0:0:
192,192,82765,1,0,0:0:0:0:
64,192,82944,1,0,0:0:0:0:
64,192,83122,1,12,0:0:0:0:
448,192,83122,1,12,0:0:0:0:
448,192,83479,1,12,0:0:0:0:
64,192,83479,1,12,0:0:0:0:
64,192,83837,1,12,0:0:0:0:
448,192,83837,1,12,0:0:0:0:
448,192,84194,1,12,0:0:0:0:
64,192,84194,1,12,0:0:0:0:
192,192,84551,1,6,0:0:0:0:
320,192,84551,1,12,0:0:0:0:
64,192,84551,1,4,0:0:0:0:
448,192,84551,128,4,84729:0:0:0:0:
192,192,84640,1,0,0:0:0:0:
64,192,84729,1,8,0:0:0:0:
320,192,84729,1,8,0:0:0:0:
448,192,84819,1,0,0:0:0:0:
64,192,84908,128,2,85087:0:0:0:0:
192,192,84908,1,2,0:0:0:0:
320,192,84997,1,0,0:0:0:0:
448,192,85087,1,8,0:0:0:0:
192,192,85087,1,8,0:0:0:0:
64,192,85176,1,0,0:0:0:0:
320,192,85265,1,2,0:0:0:0:
448,192,85265,1,2,0:0:0:0:
192,192,85354,1,0,0:0:0:0:
64,192,85444,1,10,0:0:0:0:
320,192,85444,1,10,0:0:0:0:
448,192,85533,1,0,0:0:0:0:
192,192,85622,1,2,0:0:0:0:
64,192,85622,128,2,85801:0:0:0:0:
448,192,85712,1,0,0:0:0:0:
192,192,85801,1,10,0:0:0:0:
320,192,85801,1,10,0:0:0:0:
448,192,85890,1,0,0:0:0:0:
320,192,85979,128,0,86158:0:0:0:0:
64,192,85979,1,0,0:0:0:0:
448,192,86069,1,0,0:0:0:0:
192,192,86158,1,8,0:0:0:0:
64,192,86158,1,8,0:0:0:0:
64,192,86247,1,0,0:0:0:0:
448,192,86337,128,0,86515:0:0:0:0:
320,192,86426,1,0,0:0:0:0:
64,192,86515,1,10,0:0:0:0:
192,192,86515,1,10,0:0:0:0:
64,192,86604,1,0,0:0:0:0:
448,192,86694,1,2,0:0:0:0:
320,192,86694,1,2,0:0:0:0:
448,192,86783,1,0,0:0:0:0:
192,192,86872,1,10,0:0:0:0:
64,192,86872,1,10,0:0:0:0:
320,192,86962,1,0,0:0:0:0:
192,192,87051,1,2,0:0:0:0:
448,192,87051,128,2,87229:0:0:0:0:
64,192,87140,1,0,0:0:0:0:
192,192,87229,1,8,0:0:0:0:
64,192,87229,1,8,0:0:0:0:
320,192,87319,1,0,0:0:0:0:
448,192,87408,1,6,0:0:0:0:
192,192,87408,1,12,0:0:0:0:
64,192,87408,128,6,87587:0:0:0:0:
320,192,87497,1,0,0:0:0:0:
192,192,87587,1,8,0:0:0:0:
448,192,87587,1,8,0:0:0:0:
192,192,87676,1,0,0:0:0:0:
320,192,87765,128,2,87944:0:0:0:0:
448,192,87765,1,2,0:0:0:0:
64,192,87854,1,0,0:0:0:0:
192,192,87944,1,8,0:0:0:0:
448,192,87944,1,8,0:0:0:0:
64,192,88033,1,0,0:0:0:0:
320,192,88122,1,2,0:0:0:0:
448,192,88122,1,2,0:0:0:0:
192,192,88212,1,0,0:0:0:0:
448,192,88301,1,10,0:0:0:0:
64,192,88301,1,10,0:0:0:0:
448,192,88390,1,0,0:0:0:0:
320,192,88479,128,2,88658:0:0:0:0:
192,192,88479,1,2,0:0:0:0:
448,192,88569,1,0,0:0:0:0:
64,192,88658,1,10,0:0:0:0:
192,192,88658,1,10,0:0:0:0:
448,192,88747,1,0,0:0:0:0:
192,192,88837,128,0,89015:0:0:0:0:
64,192,88926,1,0,0:0:0:0:
448,192,89015,1,8,0:0:0:0:
320,192,89015,1,8,0:0:0:0:
192,192,89104,1,0,0:0:0:0:
64,192,89194,128,2,89372:0:0:0:0:
320,192,89194,1,2,0:0:0:0:
192,192,89283,1,0,0:0:0:0:
320,192,89372,1,10,0:0:0:0:
448,192,89372,1,10,0:0:0:0:
64,192,89462,1,0,0:0:0:0:
192,192,89551,128,2,89729:0:0:0:0:
448,192,89551,1,2,0:0:0:0:
320,192,89640,1,2,0:0:0:0:
64,192,89685,1,2,0:0:0:0:
448,192,89729,1,10,0:0:0:0:
320,192,89729,1,10,0:0:0:0:
64,192,89819,1,0,0:0:0:0:
448,192,89908,128,8,90042:0:0:0:0:
320,192,89908,1,8,0:0:0:0:
64,192,89997,1,8,0:0:0:0:
192,192,89997,1,8,0:0:0:0:
320,192,90087,1,8,0:0:0:0:
448,192,90087,1,8,0:0:0:0:
192,192,90176,1,8,0:0:0:0:
64,192,90176,1,8,0:0:0:0:
64,192,90265,128,6,90444:0:0:0:0:
448,192,90265,1,4,0:0:0:0:
320,192,90265,1,6,0:0:0:0:
448,192,90354,1,0,0:0:0:0:
192,192,90444,1,8,0:0:0:0:
320,192,90444,1,8,0:0:0:0:
64,192,90533,1,0,0:0:0:0:
448,192,90622,128,2,90801:0:0:0:0:
192,192,90622,1,2,0:0:0:0:
320,192,90712,1,0,0:0:0:0:
192,192,90801,1,8,0:0:0:0:
64,192,90801,1,8,0:0:0:0:
320,192,90890,1,0,0:0:0:0:
192,192,90979,1,2,0:0:0:0:
64,192,90979,1,2,0:0:0:0:
448,192,91069,1,0,0:0:0:0:
320,192,91158,1,10,0:0:0:0:
448,192,91158,1,10,0:0:0:0:
64,192,91247,1,0,0:0:0:0:
320,192,91337,128,2,91515:0:0:0:0:
192,192,91337,1,2,0:0:0:0:
448,192,91426,1,0,0:0:0:0:
64,192,91515,1,10,0:0:0:0:
192,192,91515,1,10,0:0:0:0:
320,192,91604,1,0,0:0:0:0:
192,192,91694,128,0,91872:0:0:0:0:
64,192,91783,1,0,0:0:0:0:
320,192,91872,1,8,0:0:0:0:
448,192,91872,1,8,0:0:0:0:
192,192,91962,1,0,0:0:0:0:
448,192,92051,128,0,92229:0:0:0:0:
192,192,92140,1,0,0:0:0:0:
320,192,92229,1,10,0:0:0:0:
64,192,92229,1,10,0:0:0:0:
192,192,92319,1,0,0:0:0:0:
320,192,92408,1,2,0:0:0:0:
448,192,92408,1,2,0:0:0:0:
448,192,92497,1,0,0:0:0:0:
64,192,92587,1,8,0:0:0:0:
192,192,92587,1,8,0:0:0:0:
320,192,92676,1,0,0:0:0:0:
64,192,92765,128,2,92944:0:0:0:0:
448,192,92765,1,2,0:0:0:0:
320,192,92854,1,0,0:0:0:0:
320,192,92944,1,10,0:0:0:0:
192,192,92944,1,10,0:0:0:0:
448,192,93033,1,0,0:0:0:0:
320,192,93122,128,6,93301:0:0:0:0:
64,192,93122,1,6,0:0:0:0:
192,192,93122,1,4,0:0:0:0:
64,192,93212,1,0,0:0:0:0:
192,192,93301,1,8,0:0:0:0:
448,192,93301,1,8,0:0:0:0:
320,192,93390,1,0,0:0:0:0:
192,192,93479,128,2,93658:0:0:0:0:
64,192,93479,1,2,0:0:0:0:
448,192,93569,1,0,0:0:0:0:
320,192,93658,1,2,0:0:0:0:
448,192,93658,1,2,0:0:0:0:
64,192,93747,1,0,0:0:0:0:
192,192,93837,1,2,0:0:0:0:
448,192,93837,1,2,0:0:0:0:
320,192,93926,1,0,0:0:0:0:
64,192,94015,1,10,0:0:0:0:
192,192,94015,1,10,0:0:0:0:
320,192,94104,1,0,0:0:0:0:
448,192,94194,1,0,0:0:0:0:
320,192,94283,1,0,0:0:0:0:
64,192,94372,1,10,0:0:0:0:
448,192,94372,1,10,0:0:0:0:
64,192,94551,1,8,0:0:0:0:
192,192,94551,1,8,0:0:0:0:
192,192,94640,1,8,0:0:0:0:
64,192,94640,1,8,0:0:0:0:
320,192,94729,1,0,0:0:0:0:
448,192,94819,1,0,0:0:0:0:
320,192,94908,1,0,0:0:0:0:
64,192,95087,1,8,0:0:0:0:
320,192,95087,1,8,0:0:0:0:
192,192,95176,1,8,0:0:0:0:
448,192,95176,1,8,0:0:0:0:
64,192,95265,1,0,0:0:0:0:
192,192,95354,1,0,0:0:0:0:
320,192,95444,1,6,0:0:0:0:
448,192,95444,1,6,0:0:0:0:
192,192,95533,1,2,0:0:0:0:
320,192,95578,1,2,0:0:0:0:
192,192,95622,1,10,0:0:0:0:
64,192,95622,1,10,0:0:0:0:
320,192,95712,1,8,0:0:0:0:
448,192,95712,1,8,0:0:0:0:
64,192,95801,1,10,0:0:0:0:
192,192,95801,1,10,0:0:0:0:
320,192,95890,1,8,0:0:0:0:
448,192,95890,1,8,0:0:0:0:
192,192,95979,1,12,0:0:0:0:
448,192,95979,1,6,0:0:0:0:
320,192,95979,1,4,0:0:0:0:
64,192,95979,128,0,96158:0:0:0:0:
192,192,96069,1,8,0:0:0:0:
320,192,96158,1,8,0:0:0:0:
448,192,96158,1,8,0:0:0:0:
64,192,96247,1,8,0:0:0:0:
320,192,96337,128,2,96426:0:0:0:0:
192,192,96337,1,2,0:0:0:0:
448,192,96426,128,8,96515:0:0:0:0:
64,192,96515,128,8,96694:0:0:0:0:
320,192,96515,1,8,0:0:0:0:
192,192,96604,1,8,0:0:0:0:
320,192,96694,128,2,96872:0:0:0:0:
448,192,96694,1,2,0:0:0:0:
64,192,96783,1,8,0:0:0:0:
448,192,96872,128,10,97051:0:0:0:0:
192,192,96872,1,10,0:0:0:0:
64,192,96962,1,8,0:0:0:0:
192,192,97051,128,2,97229:0:0:0:0:
320,192,97051,1,2,0:0:0:0:
448,192,97140,1,8,0:0:0:0:
64,192,97229,128,10,97408:0:0:0:0:
320,192,97229,1,10,0:0:0:0:
192,192,97319,1,8,0:0:0:0:
448,192,97408,128,0,97587:0:0:0:0:
192,192,97497,1,8,0:0:0:0:
64,192,97587,128,10,97765:0:0:0:0:
320,192,97587,1,10,0:0:0:0:
192,192,97676,1,8,0:0:0:0:
448,192,97765,128,0,97944:0:0:0:0:
192,192,97854,1,8,0:0:0:0:
320,192,97944,128,10,98122:0:0:0:0:
64,192,97944,1,10,0:0:0:0:
64,192,98033,1,8,0:0:0:0:
192,192,98122,1,2,0:0:0:0:
448,192,98122,1,2,0:0:0:0:
64,192,98212,1,8,0:0:0:0:
448,192,98301,128,10,98479:0:0:0:0:
192,192,98301,1,10,0:0:0:0:
320,192,98390,1,8,0:0:0:0:
192,192,98479,128,2,98658:0:0:0:0:
64,192,98479,1,0,0:0:0:0:
320,192,98569,1,8,0:0:0:0:
448,192,98658,128,10,98837:0:0:0:0:
64,192,98658,1,10,0:0:0:0:
192,192,98747,1,8,0:0:0:0:
64,192,98837,128,6,99015:0:0:0:0:
192,192,98837,1,4,0:0:0:0:
320,192,98837,1,6,0:0:0:0:
448,192,98926,1,8,0:0:0:0:
320,192,99015,1,8,0:0:0:0:
192,192,99015,1,8,0:0:0:0:
448,192,99104,1,8,0:0:0:0:
192,192,99194,128,2,99283:0:0:0:0:
320,192,99194,1,2,0:0:0:0:
64,192,99283,128,8,99372:0:0:0:0:
320,192,99372,128,10,99551:0:0:0:0:
448,192,99372,1,10,0:0:0:0:
192,192,99462,1,8,0:0:0:0:
448,192,99551,128,2,99729:0:0:0:0:
64,192,99551,1,2,0:0:0:0:
192,192,99640,1,0,0:0:0:0:
320,192,99729,128,10,99908:0:0:0:0:
64,192,99729,1,10,0:0:0:0:
448,192,99819,1,0,0:0:0:0:
192,192,99908,128,0,100087:0:0:0:0:
64,192,99997,1,0,0:0:0:0:
320,192,100087,128,10,100265:0:0:0:0:
448,192,100087,1,10,0:0:0:0:
192,192,100176,1,0,0:0:0:0:
64,192,100265,128,0,100444:0:0:0:0:
320,192,100354,1,0,0:0:0:0:
448,192,100444,128,8,100622:0:0:0:0:
192,192,100444,1,8,0:0:0:0:
64,192,100533,1,0,0:0:0:0:
320,192,100622,1,2,0:0:0:0:
192,192,100622,128,2,100801:0:0:0:0:
64,192,100712,1,0,0:0:0:0:
320,192,100801,128,10,100979:0:0:0:0:
448,192,100801,1,10,0:0:0:0:
192,192,100890,1,0,0:0:0:0:
448,192,100979,128,2,101158:0:0:0:0:
64,192,100979,1,2,0:0:0:0:
192,192,101024,1,2,0:0:0:0:
320,192,101069,1,2,0:0:0:0:
192,192,101158,128,8,101337:0:0:0:0:
64,192,101158,1,8,0:0:0:0:
64,192,101247,1,0,0:0:0:0:
320,192,101337,128,2,101515:0:0:0:0:
448,192,101337,1,2,0:0:0:0:
448,192,101426,1,0,0:0:0:0:
192,192,101515,128,10,101694:0:0:0:0:
64,192,101515,1,10,0:0:0:0:
64,192,101694,128,6,101872:0:0:0:0:
320,192,101694,1,4,0:0:0:0:
448,192,101694,1,6,0:0:0:0:
192,192,101783,1,0,0:0:0:0:
448,192,101872,1,8,0:0:0:0:
320,192,101872,1,8,0:0:0:0:
192,192,101962,1,0,0:0:0:0:
320,192,102051,128,0,102140:0:0:0:0:
192,192,102140,128,0,102229:0:0:0:0:
64,192,102229,128,10,102408:0:0:0:0:
448,192,102229,1,10,0:0:0:0:
448,192,102319,1,0,0:0:0:0:
320,192,102408,128,2,102587:0:0:0:0:
192,192,102408,1,2,0:0:0:0:
64,192,102497,1,0,0:0:0:0:
448,192,102587,128,10,102765:0:0:0:0:
192,192,102587,1,10,0:0:0:0:
320,192,102676,1,0,0:0:0:0:
64,192,102765,128,0,102944:0:0:0:0:
448,192,102854,1,0,0:0:0:0:
192,192,102944,128,10,103122:0:0:0:0:
320,192,102944,1,10,0:0:0:0:
448,192,103033,1,0,0:0:0:0:
320,192,103122,128,0,103301:0:0:0:0:
192,192,103212,1,0,0:0:0:0:
448,192,103301,128,10,103479:0:0:0:0:
64,192,103301,1,10,0:0:0:0:
320,192,103390,1,0,0:0:0:0:
192,192,103479,128,0,103658:0:0:0:0:
64,192,103569,1,0,0:0:0:0:
320,192,103658,128,10,103837:0:0:0:0:
448,192,103658,1,10,0:0:0:0:
192,192,103747,1,0,0:0:0:0:
64,192,103837,1,0,0:0:0:0:
448,192,103926,1,0,0:0:0:0:
192,192,104015,128,10,104194:0:0:0:0:
320,192,104015,1,10,0:0:0:0:
448,192,104104,1,0,0:0:0:0:
64,192,104194,128,0,104372:0:0:0:0:
192,192,104283,1,0,0:0:0:0:
448,192,104372,128,10,104551:0:0:0:0:
320,192,104372,1,10,0:0:0:0:
192,192,104462,1,0,0:0:0:0:
192,192,104551,128,4,104729:0:0:0:0:
320,192,104551,1,6,0:0:0:0:
64,192,104551,1,6,0:0:0:0:
448,192,104640,1,0,0:0:0:0:
320,192,104729,1,8,0:0:0:0:
64,192,104729,1,8,0:0:0:0:
192,192,104819,1,0,0:0:0:0:
320,192,104908,128,2,105087:0:0:0:0:
448,192,104908,1,2,0:0:0:0:
192,192,104997,1,0,0:0:0:0:
64,192,105087,1,10,0:0:0:0:
448,192,105087,128,10,105265:0:0:0:0:
64,192,105176,1,0,0:0:0:0:
320,192,105265,1,2,0:0:0:0:
192,192,105265,128,2,105444:0:0:0:0:
64,192,105354,1,0,0:0:0:0:
448,192,105444,1,10,0:0:0:0:
320,192,105444,128,10,105622:0:0:0:0:
448,192,105533,1,0,0:0:0:0:
192,192,105622,1,2,0:0:0:0:
64,192,105622,1,2,0:0:0:0:
192,192,105712,1,0,0:0:0:0:
64,192,105801,1,10,0:0:0:0:
320,192,105801,128,10,105979:0:0:0:0:
192,192,105890,1,0,0:0:0:0:
448,192,105979,1,0,0:0:0:0:
320,192,106069,1,0,0:0:0:0:
448,192,106158,128,8,106337:0:0:0:0:
192,192,106158,1,8,0:0:0:0:
64,192,106247,1,0,0:0:0:0:
320,192,106337,1,2,0:0:0:0:
192,192,106337,1,2,0:0:0:0:
64,192,106426,1,0,0:0:0:0:
320,192,106515,128,10,106694:0:0:0:0:
448,192,106515,1,10,0:0:0:0:
192,192,106694,1,8,0:0:0:0:
64,192,106694,1,8,0:0:0:0:
320,192,106783,1,8,0:0:0:0:
448,192,106783,1,8,0:0:0:0:
192,192,106872,1,10,0:0:0:0:
64,192,106872,1,10,0:0:0:0:
448,192,106962,1,8,0:0:0:0:
192,192,106962,1,8,0:0:0:0:
320,192,107051,1,10,0:0:0:0:
64,192,107051,1,10,0:0:0:0:
192,192,107140,1,8,0:0:0:0:
448,192,107140,1,8,0:0:0:0:
320,192,107229,1,10,0:0:0:0:
448,192,107229,1,10,0:0:0:0:
192,192,107319,1,8,0:0:0:0:
64,192,107319,1,8,0:0:0:0:
448,192,107408,1,0,0:0:0:0:
192,192,107765,1,0,0:0:0:0:
448,192,107854,1,0,0:0:0:0:
192,192,107944,1,0,0:0:0:0:
448,192,108033,1,0,0:0:0:0:
320,192,108122,1,0,0:0:0:0:
64,192,108301,1,0,0:0:0:0:
192,192,108479,1,0,0:0:0:0:
192,192,108569,1,0,0:0:0:0:
448,192,108658,1,0,0:0:0:0:
320,192,109015,1,0,0:0:0:0:
448,192,109194,1,0,0:0:0:0:
64,192,109372,1,0,0:0:0:0:
320,192,109462,1,0,0:0:0:0:
320,192,109551,1,0,0:0:0:0:
192,192,109640,1,0,0:0:0:0:
448,192,109729,1,0,0:0:0:0:
320,192,109908,1,0,0:0:0:0:
192,192,110087,1,0,0:0:0:0:
320,192,110176,1,0,0:0:0:0:
64,192,110265,1,0,0:0:0:0:
64,192,110622,1,0,0:0:0:0:
192,192,110801,1,0,0:0:0:0:
320,192,110890,1,0,0:0:0:0:
192,192,110979,1,0,0:0:0:0:
64,192,111069,1,0,0:0:0:0:
320,192,111158,1,0,0:0:0:0:
320,192,111247,1,0,0:0:0:0:
192,192,111337,1,0,0:0:0:0:
64,192,111515,1,0,0:0:0:0:
64,192,111694,1,0,0:0:0:0:
192,192,111694,1,0,0:0:0:0:
448,192,111783,1,0,0:0:0:0:
320,192,111783,1,0,0:0:0:0:
192,192,111872,1,0,0:0:0:0:
64,192,111872,1,0,0:0:0:0:
320,192,111962,1,0,0:0:0:0:
448,192,111962,1,0,0:0:0:0:
192,192,112051,1,0,0:0:0:0:
64,192,112051,1,0,0:0:0:0:
320,192,112140,1,0,0:0:0:0:
448,192,112140,1,0,0:0:0:0:
64,192,112229,1,0,0:0:0:0:
192,192,112229,1,0,0:0:0:0:
448,192,112319,1,8,0:0:0:0:
320,192,112319,1,8,0:0:0:0:
192,192,112408,1,8,0:0:0:0:
64,192,112408,1,8,0:0:0:0:
320,192,112497,1,8,0:0:0:0:
448,192,112497,1,8,0:0:0:0:
320,192,112587,1,8,0:0:0:0:
448,192,112587,1,8,0:0:0:0:
192,192,112676,1,8,0:0:0:0:
64,192,112676,1,8,0:0:0:0:
320,192,112765,1,8,0:0:0:0:
448,192,112765,1,8,0:0:0:0:
320,192,112854,1,8,0:0:0:0:
448,192,112854,1,8,0:0:0:0:
64,192,112944,1,8,0:0:0:0:
192,192,112944,1,8,0:0:0:0:
64,192,113033,1,8,0:0:0:0:
192,192,113033,1,8,0:0:0:0:
192,192,113122,1,4,0:0:0:0:
320,192,113122,1,12,0:0:0:0:
448,192,113122,1,12,0:0:0:0:
192,192,113301,1,0,0:0:0:0:
64,192,113479,1,8,0:0:0:0:
320,192,113479,1,8,0:0:0:0:
320,192,113658,1,0,0:0:0:0:
448,192,113837,1,0,0:0:0:0:
192,192,114015,1,8,0:0:0:0:
320,192,114015,1,8,0:0:0:0:
64,192,114194,1,0,0:0:0:0:
192,192,114372,1,0,0:0:0:0:
320,192,114551,1,0,0:0:0:0:
192,192,114729,1,0,0:0:0:0:
320,192,114908,1,8,0:0:0:0:
448,192,114908,1,8,0:0:0:0:
320,192,115087,1,0,0:0:0:0:
192,192,115265,1,0,0:0:0:0:
448,192,115444,1,0,0:0:0:0:
192,192,115622,1,8,0:0:0:0:
64,192,115622,1,8,0:0:0:0:
320,192,115801,1,0,0:0:0:0:
192,192,115979,1,0,0:0:0:0:
64,192,116158,1,0,0:0:0:0:
320,192,116247,1,0,0:0:0:0:
64,192,116337,1,8,0:0:0:0:
448,192,116337,1,8,0:0:0:0:
192,192,116426,1,0,0:0:0:0:
320,192,116515,1,0,0:0:0:0:
192,192,116694,1,0,0:0:0:0:
192,192,116872,1,8,0:0:0:0:
448,192,116872,1,8,0:0:0:0:
320,192,117051,1,0,0:0:0:0:
448,192,117229,1,0,0:0:0:0:
64,192,117408,1,8,0:0:0:0:
192,192,117408,1,8,0:0:0:0:
320,192,117587,1,0,0:0:0:0:
448,192,117765,1,0,0:0:0:0:
320,192,117854,1,0,0:0:0:0:
320,192,117944,1,0,0:0:0:0:
192,192,118033,1,0,0:0:0:0:
192,192,118122,1,0,0:0:0:0:
448,192,118167,1,0,0:0:0:0:
320,192,118212,1,0,0:0:0:0:
64,192,118301,1,0,0:0:0:0:
192,192,118390,1,0,0:0:0:0:
64,192,118435,1,0,0:0:0:0:
320,192,118479,1,8,0:0:0:0:
448,192,118479,1,8,0:0:0:0:
320,192,118569,1,8,0:0:0:0:
448,192,118569,1,8,0:0:0:0:
64,192,118658,1,8,0:0:0:0:
192,192,118658,1,8,0:0:0:0:
320,192,118747,1,8,0:0:0:0:
448,192,118747,1,8,0:0:0:0:
192,192,118837,1,4,0:0:0:0:
64,192,118837,1,14,0:0:0:0:
448,192,118837,1,14,0:0:0:0:
320,192,119015,1,0,0:0:0:0:
192,192,119194,1,10,0:0:0:0:
64,192,119194,128,10,119372:0:0:0:0:
192,192,119372,128,0,119551:0:0:0:0:
320,192,119551,1,2,0:0:0:0:
448,192,119551,128,2,119729:0:0:0:0:
192,192,119729,1,2,0:0:0:0:
320,192,119729,128,2,119908:0:0:0:0:
192,192,119908,1,10,0:0:0:0:
64,192,119908,128,10,120087:0:0:0:0:
192,192,120087,1,2,0:0:0:0:
448,192,120087,128,2,120265:0:0:0:0:
64,192,120265,128,0,120444:0:0:0:0:
320,192,120444,128,0,120622:0:0:0:0:
192,192,120622,1,8,0:0:0:0:
64,192,120622,128,8,120801:0:0:0:0:
192,192,120801,1,2,0:0:0:0:
448,192,120801,128,2,120979:0:0:0:0:
320,192,120979,1,2,0:0:0:0:
64,192,120979,128,2,121158:0:0:0:0:
192,192,121158,1,2,0:0:0:0:
320,192,121158,1,2,0:0:0:0:
192,192,121337,1,10,0:0:0:0:
320,192,121337,128,10,121515:0:0:0:0:
192,192,121515,1,2,0:0:0:0:
64,192,121515,1,2,0:0:0:0:
320,192,121694,1,6,0:0:0:0:
448,192,121694,1,6,0:0:0:0:
64,192,121694,1,4,0:0:0:0:
448,192,121872,1,6,0:0:0:0:
448,192,122051,1,14,0:0:0:0:
320,192,122051,128,10,122229:0:0:0:0:
448,192,122229,1,6,0:0:0:0:
192,192,122229,128,2,122408:0:0:0:0:
448,192,122408,1,6,0:0:0:0:
64,192,122408,128,2,122587:0:0:0:0:
448,192,122587,1,6,0:0:0:0:
320,192,122587,128,2,122765:0:0:0:0:
448,192,122765,1,14,0:0:0:0:
64,192,122765,128,10,122944:0:0:0:0:
448,192,122944,1,6,0:0:0:0:
192,192,122944,128,2,123122:0:0:0:0:
448,192,123122,1,4,0:0:0:0:
320,192,123122,128,0,123301:0:0:0:0:
448,192,123301,1,6,0:0:0:0:
192,192,123301,128,2,123479:0:0:0:0:
448,192,123479,1,14,0:0:0:0:
64,192,123479,128,10,123658:0:0:0:0:
448,192,123658,1,6,0:0:0:0:
320,192,123658,128,2,123837:0:0:0:0:
448,192,123837,1,6,0:0:0:0:
64,192,123837,128,2,124104:0:0:0:0:
320,192,123926,1,2,0:0:0:0:
192,192,123971,1,2,0:0:0:0:
448,192,124015,1,6,0:0:0:0:
320,192,124015,1,2,0:0:0:0:
448,192,124194,1,14,0:0:0:0:
64,192,124194,128,10,124462:0:0:0:0:
448,192,124372,1,6,0:0:0:0:
192,192,124372,1,2,0:0:0:0:
192,192,124551,1,4,0:0:0:0:
64,192,124551,1,6,0:0:0:0:
448,192,124551,1,4,0:0:0:0:
320,192,124551,1,6,0:0:0:0:
192,192,124729,1,0,0:0:0:0:
192,192,124908,1,10,0:0:0:0:
64,192,124908,128,10,125087:0:0:0:0:
448,192,125087,128,0,125265:0:0:0:0:
320,192,125265,1,2,0:0:0:0:
64,192,125265,128,2,125444:0:0:0:0:
192,192,125444,128,2,125622:0:0:0:0:
320,192,125444,1,2,0:0:0:0:
448,192,125622,1,10,0:0:0:0:
320,192,125622,128,10,125801:0:0:0:0:
448,192,125801,1,2,0:0:0:0:
192,192,125801,128,2,125979:0:0:0:0:
64,192,125979,128,0,126158:0:0:0:0:
320,192,126158,128,0,126337:0:0:0:0:
192,192,126337,1,8,0:0:0:0:
64,192,126337,128,8,126515:0:0:0:0:
192,192,126515,1,2,0:0:0:0:
448,192,126515,128,2,126694:0:0:0:0:
192,192,126694,1,2,0:0:0:0:
320,192,126694,128,2,126962:0:0:0:0:
448,192,126872,1,0,0:0:0:0:
192,192,127051,1,10,0:0:0:0:
64,192,127051,128,10,127319:0:0:0:0:
320,192,127229,1,2,0:0:0:0:
192,192,127229,1,2,0:0:0:0:
448,192,127408,1,6,0:0:0:0:
64,192,127408,1,6,0:0:0:0:
192,192,127408,1,4,0:0:0:0:
64,192,127587,1,4,0:0:0:0:
64,192,127765,1,14,0:0:0:0:
192,192,127765,128,10,127944:0:0:0:0:
64,192,127944,1,6,0:0:0:0:
320,192,127944,128,2,128122:0:0:0:0:
64,192,128122,1,6,0:0:0:0:
448,192,128122,128,2,128301:0:0:0:0:
320,192,128301,1,2,0:0:0:0:
64,192,128301,1,6,0:0:0:0:
64,192,128479,1,12,0:0:0:0:
320,192,128479,128,8,128658:0:0:0:0:
64,192,128658,1,6,0:0:0:0:
192,192,128658,128,2,128837:0:0:0:0:
448,192,128837,1,0,0:0:0:0:
64,192,128837,128,4,129015:0:0:0:0:
448,192,129015,128,0,129194:0:0:0:0:
192,192,129194,1,10,0:0:0:0:
64,192,129194,128,10,129372:0:0:0:0:
192,192,129372,1,2,0:0:0:0:
320,192,129372,128,0,129551:0:0:0:0:
448,192,129551,1,8,0:0:0:0:
64,192,129551,128,8,129819:0:0:0:0:
448,192,129729,128,0,129908:0:0:0:0:
192,192,129908,128,8,130176:0:0:0:0:
320,192,129908,1,8,0:0:0:0:
320,192,130087,128,0,130265:0:0:0:0:
64,192,130087,1,0,0:0:0:0:
64,192,130265,1,6,0:0:0:0:
192,192,130265,1,6,0:0:0:0:
448,192,130265,128,4,130444:0:0:0:0:
64,192,130444,1,0,0:0:0:0:
448,192,130622,1,10,0:0:0:0:
64,192,130622,128,10,130801:0:0:0:0:
192,192,130622,1,0,0:0:0:0:
320,192,130801,1,0,0:0:0:0:
448,192,130801,128,0,130979:0:0:0:0:
64,192,130979,128,2,131158:0:0:0:0:
320,192,130979,1,2,0:0:0:0:
192,192,130979,1,2,0:0:0:0:
320,192,131158,1,2,0:0:0:0:
448,192,131158,128,2,131337:0:0:0:0:
192,192,131337,1,10,0:0:0:0:
64,192,131337,128,10,131515:0:0:0:0:
320,192,131515,1,2,0:0:0:0:
448,192,131515,128,2,131694:0:0:0:0:
320,192,131694,1,0,0:0:0:0:
64,192,131694,128,0,131872:0:0:0:0:
192,192,131872,128,8,132051:0:0:0:0:
448,192,131872,1,8,0:0:0:0:
320,192,132051,1,8,0:0:0:0:
448,192,132051,128,8,132229:0:0:0:0:
64,192,132229,1,2,0:0:0:0:
320,192,132229,128,2,132408:0:0:0:0:
192,192,132408,1,2,0:0:0:0:
64,192,132408,128,2,132676:0:0:0:0:
448,192,132587,1,2,0:0:0:0:
192,192,132587,1,2,0:0:0:0:
448,192,132765,1,10,0:0:0:0:
320,192,132765,128,10,133033:0:0:0:0:
192,192,132944,1,2,0:0:0:0:
64,192,132944,1,2,0:0:0:0:
192,192,133122,1,2,0:0:0:0:
448,192,133122,1,2,0:0:0:0:
320,192,133122,1,0,0:0:0:0:
192,192,133301,1,0,0:0:0:0:
320,192,133479,1,0,0:0:0:0:
448,192,133479,1,10,0:0:0:0:
64,192,133479,128,10,133658:0:0:0:0:
448,192,133658,128,0,133837:0:0:0:0:
192,192,133658,1,0,0:0:0:0:
192,192,133837,1,2,0:0:0:0:
64,192,133837,1,2,0:0:0:0:
320,192,133837,128,2,134015:0:0:0:0:
192,192,134015,1,2,0:0:0:0:
64,192,134015,128,2,134194:0:0:0:0:
192,192,134194,1,10,0:0:0:0:
448,192,134194,128,10,134372:0:0:0:0:
192,192,134372,1,2,0:0:0:0:
320,192,134372,128,2,134551:0:0:0:0:
64,192,134551,128,0,134729:0:0:0:0:
448,192,134551,1,0,0:0:0:0:
448,192,134729,128,0,134908:0:0:0:0:
320,192,134729,1,0,0:0:0:0:
192,192,134908,1,10,0:0:0:0:
64,192,134908,128,10,135087:0:0:0:0:
192,192,135087,1,2,0:0:0:0:
448,192,135087,128,2,135265:0:0:0:0:
320,192,135265,1,2,0:0:0:0:
64,192,135265,128,2,135533:0:0:0:0:
192,192,135354,1,2,0:0:0:0:
320,192,135399,1,2,0:0:0:0:
448,192,135444,1,2,0:0:0:0:
320,192,135622,1,10,0:0:0:0:
64,192,135622,128,10,135890:0:0:0:0:
320,192,135801,1,2,0:0:0:0:
448,192,135801,1,2,0:0:0:0:
64,192,135979,1,6,0:0:0:0:
320,192,135979,1,6,0:0:0:0:
192,192,135979,1,4,0:0:0:0:
320,192,136158,1,0,0:0:0:0:
320,192,136337,1,0,0:0:0:0:
448,192,136337,1,2,0:0:0:0:
64,192,136337,128,2,136515:0:0:0:0:
320,192,136515,128,0,136694:0:0:0:0:
192,192,136694,1,2,0:0:0:0:
448,192,136694,128,2,137051:0:0:0:0:
64,192,136694,128,2,136872:0:0:0:0:
320,192,136872,1,2,0:0:0:0:
192,192,136872,128,0,137051:0:0:0:0:
64,192,137051,1,2,0:0:0:0:
320,192,137051,128,2,137229:0:0:0:0:
448,192,137229,1,2,0:0:0:0:
64,192,137229,128,2,137408:0:0:0:0:
448,192,137408,128,0,137587:0:0:0:0:
192,192,137408,1,0,0:0:0:0:
64,192,137587,128,0,137765:0:0:0:0:
320,192,137587,1,0,0:0:0:0:
320,192,137765,1,8,0:0:0:0:
448,192,137765,128,8,137944:0:0:0:0:
64,192,137944,1,2,0:0:0:0:
320,192,137944,128,2,138122:0:0:0:0:
64,192,138122,1,2,0:0:0:0:
192,192,138122,128,2,138390:0:0:0:0:
448,192,138301,1,0,0:0:0:0:
192,192,138479,1,2,0:0:0:0:
64,192,138479,128,2,138747:0:0:0:0:
320,192,138658,1,2,0:0:0:0:
448,192,138658,128,2,138837:0:0:0:0:
320,192,138837,1,10,0:0:0:0:
192,192,138837,1,10,0:0:0:0:
448,192,139015,1,8,0:0:0:0:
320,192,139015,128,8,139194:0:0:0:0:
448,192,139194,128,8,139372:0:0:0:0:
192,192,139194,1,8,0:0:0:0:
320,192,139372,1,8,0:0:0:0:
64,192,139372,128,8,139551:0:0:0:0:
192,192,139551,1,8,0:0:0:0:
320,192,139551,128,8,139819:0:0:0:0:
192,192,139729,1,8,0:0:0:0:
64,192,139729,1,8,0:0:0:0:
64,192,139908,1,8,0:0:0:0:
192,192,139908,128,8,140176:0:0:0:0:
320,192,140087,1,8,0:0:0:0:
448,192,140087,1,8,0:0:0:0:
64,192,140265,128,0,140354:0:0:0:0:
448,192,140265,128,2,140399:0:0:0:0:
448,192,140622,128,0,140756:0:0:0:0:
64,192,140622,128,2,140801:0:0:0:0:
64,192,140979,128,0,141158:0:0:0:0:
448,192,140979,128,2,141203:0:0:0:0:
448,192,141337,128,0,141560:0:0:0:0:
64,192,141337,128,2,141604:0:0:0:0:
320,192,141694,1,4,0:0:0:0:
64,192,141694,1,6,0:0:0:0:
448,192,141694,1,6,0:0:0:0:
192,192,141694,128,4,141872:0:0:0:0:
448,192,141783,1,0,0:0:0:0:
320,192,141872,1,8,0:0:0:0:
64,192,141872,1,8,0:0:0:0:
192,192,141962,1,0,0:0:0:0:
448,192,142051,1,6,0:0:0:0:
320,192,142051,128,6,142229:0:0:0:0:
64,192,142140,1,0,0:0:0:0:
192,192,142229,1,8,0:0:0:0:
64,192,142229,1,8,0:0:0:0:
320,192,142319,1,0,0:0:0:0:
192,192,142408,1,2,0:0:0:0:
448,192,142408,1,2,0:0:0:0:
448,192,142497,1,0,0:0:0:0:
320,192,142587,1,10,0:0:0:0:
64,192,142587,1,10,0:0:0:0:
192,192,142676,1,0,0:0:0:0:
64,192,142765,1,6,0:0:0:0:
320,192,142765,128,6,142944:0:0:0:0:
448,192,142854,1,0,0:0:0:0:
192,192,142944,1,10,0:0:0:0:
64,192,142944,1,10,0:0:0:0:
320,192,143033,1,0,0:0:0:0:
64,192,143122,128,0,143301:0:0:0:0:
448,192,143212,1,0,0:0:0:0:
320,192,143301,1,8,0:0:0:0:
192,192,143301,1,8,0:0:0:0:
64,192,143390,1,0,0:0:0:0:
192,192,143479,128,4,143658:0:0:0:0:
448,192,143479,1,4,0:0:0:0:
320,192,143569,1,0,0:0:0:0:
64,192,143658,1,10,0:0:0:0:
448,192,143658,1,10,0:0:0:0:
192,192,143747,1,0,0:0:0:0:
320,192,143837,1,2,0:0:0:0:
448,192,143837,1,2,0:0:0:0:
448,192,143926,1,0,0:0:0:0:
64,192,144015,1,10,0:0:0:0:
320,192,144015,1,10,0:0:0:0:
192,192,144104,1,0,0:0:0:0:
320,192,144194,1,6,0:0:0:0:
448,192,144194,128,6,144372:0:0:0:0:
192,192,144283,1,0,0:0:0:0:
320,192,144372,1,10,0:0:0:0:
192,192,144372,1,10,0:0:0:0:
64,192,144462,1,0,0:0:0:0:
320,192,144551,1,6,0:0:0:0:
448,192,144551,1,6,0:0:0:0:
192,192,144551,128,4,144729:0:0:0:0:
64,192,144640,1,0,0:0:0:0:
320,192,144729,1,8,0:0:0:0:
448,192,144729,1,8,0:0:0:0:
192,192,144819,1,0,0:0:0:0:
64,192,144908,1,6,0:0:0:0:
320,192,144908,128,6,145087:0:0:0:0:
448,192,144997,1,0,0:0:0:0:
64,192,145087,1,8,0:0:0:0:
192,192,145087,1,8,0:0:0:0:
192,192,145176,1,0,0:0:0:0:
64,192,145265,1,2,0:0:0:0:
320,192,145265,1,2,0:0:0:0:
448,192,145354,1,0,0:0:0:0:
192,192,145444,1,10,0:0:0:0:
448,192,145444,1,10,0:0:0:0:
64,192,145533,1,0,0:0:0:0:
448,192,145622,1,6,0:0:0:0:
320,192,145622,128,6,145801:0:0:0:0:
64,192,145712,1,0,0:0:0:0:
448,192,145801,1,10,0:0:0:0:
192,192,145801,1,10,0:0:0:0:
320,192,145890,1,0,0:0:0:0:
64,192,145979,128,4,146158:0:0:0:0:
192,192,145979,1,4,0:0:0:0:
320,192,146069,1,0,0:0:0:0:
192,192,146158,1,8,0:0:0:0:
320,192,146158,1,8,0:0:0:0:
64,192,146247,1,0,0:0:0:0:
320,192,146337,1,6,0:0:0:0:
448,192,146337,128,6,146515:0:0:0:0:
192,192,146426,1,0,0:0:0:0:
64,192,146515,1,10,0:0:0:0:
320,192,146515,1,10,0:0:0:0:
320,192,146604,1,0,0:0:0:0:
192,192,146694,1,6,0:0:0:0:
448,192,146694,128,6,146872:0:0:0:0:
64,192,146783,1,2,0:0:0:0:
320,192,146828,1,2,0:0:0:0:
192,192,146872,1,10,0:0:0:0:
64,192,146872,1,10,0:0:0:0:
320,192,146962,1,0,0:0:0:0:
64,192,147051,1,6,0:0:0:0:
448,192,147051,128,6,147229:0:0:0:0:
320,192,147140,1,0,0:0:0:0:
64,192,147229,1,10,0:0:0:0:
192,192,147229,1,10,0:0:0:0:
448,192,147319,1,0,0:0:0:0:
192,192,147408,1,4,0:0:0:0:
448,192,147408,1,6,0:0:0:0:
64,192,147408,1,6,0:0:0:0:
320,192,147408,128,4,147587:0:0:0:0:
64,192,147497,1,0,0:0:0:0:
192,192,147587,1,8,0:0:0:0:
448,192,147587,1,8,0:0:0:0:
320,192,147676,1,0,0:0:0:0:
64,192,147765,1,6,0:0:0:0:
192,192,147765,128,6,147944:0:0:0:0:
448,192,147854,1,0,0:0:0:0:
320,192,147944,1,10,0:0:0:0:
448,192,147944,1,10,0:0:0:0:
192,192,148033,1,0,0:0:0:0:
320,192,148122,1,2,0:0:0:0:
64,192,148122,1,2,0:0:0:0:
64,192,148212,1,0,0:0:0:0:
192,192,148301,1,10,0:0:0:0:
448,192,148301,1,10,0:0:0:0:
320,192,148390,1,0,0:0:0:0:
448,192,148479,1,6,0:0:0:0:
192,192,148479,128,6,148658:0:0:0:0:
64,192,148569,1,0,0:0:0:0:
320,192,148658,1,10,0:0:0:0:
448,192,148658,1,10,0:0:0:0:
192,192,148747,1,0,0:0:0:0:
448,192,148837,128,0,149015:0:0:0:0:
64,192,148926,1,0,0:0:0:0:
192,192,149015,1,8,0:0:0:0:
320,192,149015,1,8,0:0:0:0:
448,192,149104,1,0,0:0:0:0:
320,192,149194,128,4,149372:0:0:0:0:
64,192,149194,1,4,0:0:0:0:
192,192,149283,1,0,0:0:0:0:
448,192,149372,1,10,0:0:0:0:
64,192,149372,1,10,0:0:0:0:
320,192,149462,1,0,0:0:0:0:
192,192,149551,1,2,0:0:0:0:
64,192,149551,1,2,0:0:0:0:
448,192,149640,1,0,0:0:0:0:
448,192,149729,1,8,0:0:0:0:
192,192,149729,1,8,0:0:0:0:
320,192,149819,1,0,0:0:0:0:
192,192,149908,1,6,0:0:0:0:
64,192,149908,128,6,150087:0:0:0:0:
448,192,149997,1,0,0:0:0:0:
320,192,150087,1,10,0:0:0:0:
192,192,150087,1,10,0:0:0:0:
64,192,150176,1,0,0:0:0:0:
192,192,150265,1,6,0:0:0:0:
64,192,150265,1,6,0:0:0:0:
320,192,150265,128,4,150444:0:0:0:0:
448,192,150354,1,0,0:0:0:0:
192,192,150444,1,8,0:0:0:0:
64,192,150444,1,8,0:0:0:0:
320,192,150533,1,0,0:0:0:0:
448,192,150622,1,6,0:0:0:0:
192,192,150622,128,6,150801:0:0:0:0:
64,192,150712,1,0,0:0:0:0:
448,192,150801,1,10,0:0:0:0:
320,192,150801,1,10,0:0:0:0:
320,192,150890,1,0,0:0:0:0:
448,192,150979,1,2,0:0:0:0:
192,192,150979,1,2,0:0:0:0:
64,192,151069,1,0,0:0:0:0:
320,192,151158,1,10,0:0:0:0:
192,192,151158,1,10,0:0:0:0:
448,192,151247,1,0,0:0:0:0:
64,192,151337,1,4,0:0:0:0:
192,192,151337,1,4,0:0:0:0:
320,192,151426,1,0,0:0:0:0:
192,192,151515,1,10,0:0:0:0:
320,192,151515,1,10,0:0:0:0:
64,192,151604,1,0,0:0:0:0:
448,192,151694,1,8,0:0:0:0:
192,192,151694,1,8,0:0:0:0:
448,192,151783,1,0,0:0:0:0:
64,192,151872,1,2,0:0:0:0:
192,192,151872,1,2,0:0:0:0:
64,192,151962,1,0,0:0:0:0:
448,192,152051,1,8,0:0:0:0:
320,192,152051,1,8,0:0:0:0:
64,192,152140,1,0,0:0:0:0:
448,192,152229,1,2,0:0:0:0:
320,192,152229,1,2,0:0:0:0:
448,192,152319,1,0,0:0:0:0:
192,192,152408,1,8,0:0:0:0:
64,192,152408,1,8,0:0:0:0:
64,192,152497,1,0,0:0:0:0:
320,192,152587,1,10,0:0:0:0:
192,192,152587,1,10,0:0:0:0:
448,192,152676,1,2,0:0:0:0:
320,192,152721,1,2,0:0:0:0:
64,192,152765,1,10,0:0:0:0:
192,192,152765,1,10,0:0:0:0:
64,192,152854,1,0,0:0:0:0:
320,192,152944,1,2,0:0:0:0:
448,192,152944,1,2,0:0:0:0:
448,192,153033,1,0,0:0:0:0:
192,192,153122,1,6,0:0:0:0:
64,192,153122,128,6,153301:0:0:0:0:
320,192,153122,1,6,0:0:0:0:
320,192,153212,1,0,0:0:0:0:
448,192,153301,1,8,0:0:0:0:
192,192,153301,1,8,0:0:0:0:
448,192,153390,1,0,0:0:0:0:
64,192,153479,1,6,0:0:0:0:
320,192,153479,128,6,153658:0:0:0:0:
448,192,153569,1,0,0:0:0:0:
192,192,153658,128,8,153837:0:0:0:0:
64,192,153658,1,8,0:0:0:0:
448,192,153747,1,0,0:0:0:0:
320,192,153837,1,2,0:0:0:0:
448,192,153837,128,2,154015:0:0:0:0:
64,192,153926,1,0,0:0:0:0:
192,192,154015,1,10,0:0:0:0:
64,192,154015,128,10,154194:0:0:0:0:
320,192,154104,1,0,0:0:0:0:
192,192,154194,1,6,0:0:0:0:
448,192,154194,128,6,154372:0:0:0:0:
64,192,154283,1,0,0:0:0:0:
192,192,154372,1,10,0:0:0:0:
320,192,154372,128,10,154551:0:0:0:0:
448,192,154462,1,0,0:0:0:0:
192,192,154551,1,2,0:0:0:0:
64,192,154551,128,2,154729:0:0:0:0:
320,192,154640,1,0,0:0:0:0:
320,192,154729,1,10,0:0:0:0:
448,192,154729,128,10,154908:0:0:0:0:
192,192,154819,1,0,0:0:0:0:
64,192,154908,1,6,0:0:0:0:
320,192,154908,128,6,155087:0:0:0:0:
448,192,154997,1,0,0:0:0:0:
64,192,155087,1,10,0:0:0:0:
192,192,155087,128,10,155265:0:0:0:0:
448,192,155176,1,0,0:0:0:0:
320,192,155265,1,2,0:0:0:0:
64,192,155265,1,2,0:0:0:0:
320,192,155354,1,0,0:0:0:0:
64,192,155444,1,10,0:0:0:0:
192,192,155444,128,10,155622:0:0:0:0:
320,192,155533,1,0,0:0:0:0:
320,192,155622,1,6,0:0:0:0:
448,192,155622,128,6,155801:0:0:0:0:
192,192,155712,1,0,0:0:0:0:
320,192,155801,1,10,0:0:0:0:
64,192,155801,128,10,155979:0:0:0:0:
192,192,155890,1,0,0:0:0:0:
448,192,155979,1,2,0:0:0:0:
320,192,155979,128,2,156158:0:0:0:0:
192,192,156069,1,0,0:0:0:0:
64,192,156158,1,8,0:0:0:0:
448,192,156158,1,8,0:0:0:0:
320,192,156247,1,0,0:0:0:0:
192,192,156337,1,6,0:0:0:0:
64,192,156337,128,6,156515:0:0:0:0:
448,192,156426,1,0,0:0:0:0:
320,192,156515,1,10,0:0:0:0:
448,192,156515,128,10,156694:0:0:0:0:
192,192,156604,1,0,0:0:0:0:
64,192,156694,1,2,0:0:0:0:
320,192,156694,128,2,156872:0:0:0:0:
448,192,156783,1,0,0:0:0:0:
64,192,156872,1,10,0:0:0:0:
192,192,156872,128,10,157051:0:0:0:0:
320,192,156962,1,0,0:0:0:0:
64,192,157051,128,4,157229:0:0:0:0:
448,192,157051,1,4,0:0:0:0:
448,192,157140,1,0,0:0:0:0:
192,192,157229,1,10,0:0:0:0:
320,192,157229,128,10,157408:0:0:0:0:
448,192,157319,1,0,0:0:0:0:
192,192,157408,128,0,157587:0:0:0:0:
64,192,157497,1,0,0:0:0:0:
320,192,157587,1,10,0:0:0:0:
448,192,157587,128,10,157765:0:0:0:0:
64,192,157676,1,0,0:0:0:0:
320,192,157765,1,6,0:0:0:0:
192,192,157765,128,6,157944:0:0:0:0:
448,192,157854,1,0,0:0:0:0:
320,192,157944,1,10,0:0:0:0:
64,192,157944,128,10,158122:0:0:0:0:
192,192,158033,1,0,0:0:0:0:
320,192,158122,1,6,0:0:0:0:
448,192,158122,128,6,158301:0:0:0:0:
192,192,158212,1,2,0:0:0:0:
64,192,158256,1,2,0:0:0:0:
320,192,158301,1,10,0:0:0:0:
192,192,158301,1,10,0:0:0:0:
320,192,158390,1,0,0:0:0:0:
64,192,158479,1,6,0:0:0:0:
192,192,158479,128,6,158658:0:0:0:0:
448,192,158569,1,0,0:0:0:0:
448,192,158658,1,10,0:0:0:0:
320,192,158658,1,10,0:0:0:0:
192,192,158747,1,0,0:0:0:0:
448,192,158837,128,6,159015:0:0:0:0:
192,192,158837,1,4,0:0:0:0:
64,192,158837,1,6,0:0:0:0:
320,192,158926,1,0,0:0:0:0:
64,192,159015,1,8,0:0:0:0:
192,192,159015,1,8,0:0:0:0:
320,192,159104,1,0,0:0:0:0:
192,192,159194,128,6,159372:0:0:0:0:
64,192,159194,1,6,0:0:0:0:
448,192,159372,128,10,159551:0:0:0:0:
64,192,159372,1,10,0:0:0:0:
64,192,159462,1,0,0:0:0:0:
192,192,159551,128,2,159729:0:0:0:0:
320,192,159551,1,2,0:0:0:0:
448,192,159640,1,0,0:0:0:0:
64,192,159729,128,10,159908:0:0:0:0:
320,192,159729,1,10,0:0:0:0:
192,192,159819,1,0,0:0:0:0:
448,192,159908,128,4,160087:0:0:0:0:
320,192,159908,1,4,0:0:0:0:
64,192,159997,1,0,0:0:0:0:
320,192,160087,128,10,160265:0:0:0:0:
192,192,160087,1,10,0:0:0:0:
64,192,160176,1,0,0:0:0:0:
192,192,160265,128,0,160444:0:0:0:0:
320,192,160354,1,0,0:0:0:0:
64,192,160444,128,10,160622:0:0:0:0:
448,192,160444,1,10,0:0:0:0:
448,192,160533,1,0,0:0:0:0:
320,192,160622,128,4,160801:0:0:0:0:
192,192,160622,1,4,0:0:0:0:
448,192,160712,1,0,0:0:0:0:
192,192,160801,128,10,160979:0:0:0:0:
64,192,160801,1,10,0:0:0:0:
320,192,160890,1,0,0:0:0:0:
448,192,160979,1,0,0:0:0:0:
64,192,161069,1,0,0:0:0:0:
320,192,161158,128,10,161337:0:0:0:0:
192,192,161158,1,10,0:0:0:0:
64,192,161247,1,0,0:0:0:0:
448,192,161337,128,4,161515:0:0:0:0:
64,192,161337,1,4,0:0:0:0:
320,192,161426,1,0,0:0:0:0:
64,192,161515,128,10,161694:0:0:0:0:
192,192,161515,1,10,0:0:0:0:
320,192,161604,1,0,0:0:0:0:
320,192,161694,128,4,161872:0:0:0:0:
192,192,161694,1,6,0:0:0:0:
448,192,161694,1,6,0:0:0:0:
64,192,161783,1,0,0:0:0:0:
192,192,161872,1,8,0:0:0:0:
448,192,161872,1,8,0:0:0:0:
320,192,161962,1,0,0:0:0:0:
192,192,162051,128,6,162229:0:0:0:0:
64,192,162051,1,6,0:0:0:0:
320,192,162140,1,0,0:0:0:0:
448,192,162229,1,10,0:0:0:0:
64,192,162229,128,10,162408:0:0:0:0:
448,192,162319,1,0,0:0:0:0:
192,192,162408,1,6,0:0:0:0:
320,192,162408,128,6,162587:0:0:0:0:
448,192,162497,1,0,0:0:0:0:
64,192,162587,1,10,0:0:0:0:
192,192,162587,128,10,162765:0:0:0:0:
320,192,162676,1,0,0:0:0:0:
320,192,162765,1,6,0:0:0:0:
448,192,162765,1,6,0:0:0:0:
320,192,162854,1,0,0:0:0:0:
448,192,162944,1,10,0:0:0:0:
192,192,162944,128,10,163122:0:0:0:0:
320,192,163033,1,0,0:0:0:0:
64,192,163122,1,0,0:0:0:0:
192,192,163212,1,0,0:0:0:0:
64,192,163301,128,8,163479:0:0:0:0:
320,192,163301,1,8,0:0:0:0:
448,192,163390,1,0,0:0:0:0:
192,192,163479,1,2,0:0:0:0:
320,192,163479,1,2,0:0:0:0:
448,192,163569,1,0,0:0:0:0:
192,192,163658,128,10,163837:0:0:0:0:
64,192,163658,1,10,0:0:0:0:
320,192,163837,1,8,0:0:0:0:
448,192,163837,1,8,0:0:0:0:
192,192,163926,1,8,0:0:0:0:
64,192,163926,1,8,0:0:0:0:
320,192,164015,1,10,0:0:0:0:
448,192,164015,1,10,0:0:0:0:
64,192,164104,1,10,0:0:0:0:
192,192,164104,1,10,0:0:0:0:
320,192,164149,1,10,0:0:0:0:
192,192,164194,1,10,0:0:0:0:
448,192,164194,1,10,0:0:0:0:
320,192,164283,1,8,0:0:0:0:
64,192,164283,1,8,0:0:0:0:
192,192,164372,1,10,0:0:0:0:
64,192,164372,1,10,0:0:0:0:
320,192,164462,1,8,0:0:0:0:
448,192,164462,1,8,0:0:0:0:
64,192,164551,1,6,0:0:0:0:
192,192,164551,1,4,0:0:0:0:
448,192,164551,1,6,0:0:0:0:
320,192,164551,128,6,164819:0:0:0:0:
192,192,164908,1,0,0:0:0:0:
64,192,164908,1,0,0:0:0:0:
192,192,165265,1,8,0:0:0:0:
448,192,165265,1,8,0:0:0:0:
192,192,165622,128,0,165801:0:0:0:0:
320,192,165801,1,8,0:0:0:0:
448,192,165801,128,8,165979:0:0:0:0:
192,192,165890,1,8,0:0:0:0:
64,192,165890,1,8,0:0:0:0:
64,192,165979,1,0,0:0:0:0:
320,192,165979,1,0,0:0:0:0:
192,192,166158,1,0,0:0:0:0:
64,192,166158,1,0,0:0:0:0:
320,192,166337,1,4,0:0:0:0:
448,192,166337,1,4,0:0:0:0:
320,192,166694,1,8,0:0:0:0:
192,192,166694,1,8,0:0:0:0:
320,192,167051,1,4,0:0:0:0:
64,192,167051,128,4,167229:0:0:0:0:
192,192,167229,1,8,0:0:0:0:
448,192,167229,1,8,0:0:0:0:
192,192,167319,1,8,0:0:0:0:
448,192,167319,1,8,0:0:0:0:
320,192,167408,1,0,0:0:0:0:
64,192,167408,1,0,0:0:0:0:
448,192,167765,1,4,0:0:0:0:
320,192,167765,128,4,167944:0:0:0:0:
320,192,168122,1,8,0:0:0:0:
64,192,168122,1,8,0:0:0:0:
192,192,168479,1,4,0:0:0:0:
320,192,168479,128,4,168658:0:0:0:0:
192,192,168658,1,8,0:0:0:0:
64,192,168658,128,8,168837:0:0:0:0:
448,192,168747,1,8,0:0:0:0:
320,192,168747,1,8,0:0:0:0:
192,192,168837,1,0,0:0:0:0:
448,192,168837,1,0,0:0:0:0:
192,192,169015,1,0,0:0:0:0:
320,192,169015,1,0,0:0:0:0:
320,192,169194,1,4,0:0:0:0:
448,192,169194,1,4,0:0:0:0:
192,192,169551,1,8,0:0:0:0:
448,192,169551,1,8,0:0:0:0:
64,192,169908,1,4,0:0:0:0:
320,192,169908,1,4,0:0:0:0:
320,192,170087,1,8,0:0:0:0:
192,192,170087,1,8,0:0:0:0:
192,192,170176,1,8,0:0:0:0:
320,192,170176,1,8,0:0:0:0:
64,192,170265,1,0,0:0:0:0:
448,192,170265,1,0,0:0:0:0:
192,192,170622,1,4,0:0:0:0:
64,192,170622,1,4,0:0:0:0:
320,192,170979,1,8,0:0:0:0:
448,192,170979,1,8,0:0:0:0:
320,192,171337,1,4,0:0:0:0:
192,192,171337,1,4,0:0:0:0:
320,192,171515,1,8,0:0:0:0:
448,192,171515,1,8,0:0:0:0:
192,192,171604,1,8,0:0:0:0:
64,192,171604,1,8,0:0:0:0:
320,192,171694,1,0,0:0:0:0:
64,192,171694,1,0,0:0:0:0:
192,192,171872,1,0,0:0:0:0:
448,192,171872,1,0,0:0:0:0:
320,192,172051,1,4,0:0:0:0:
192,192,172051,1,4,0:0:0:0:
64,192,172408,1,8,0:0:0:0:
320,192,172408,1,8,0:0:0:0:
192,192,172587,1,0,0:0:0:0:
64,192,172765,1,4,0:0:0:0:
448,192,172765,1,4,0:0:0:0:
192,192,172944,1,8,0:0:0:0:
448,192,172944,1,8,0:0:0:0:
320,192,173033,1,8,0:0:0:0:
192,192,173033,1,8,0:0:0:0:
64,192,173122,1,0,0:0:0:0:
320,192,173122,1,0,0:0:0:0:
448,192,173479,1,4,0:0:0:0:
320,192,173479,1,4,0:0:0:0:
192,192,173837,1,8,0:0:0:0:
320,192,173837,1,8,0:0:0:0:
448,192,174015,1,0,0:0:0:0:
320,192,174194,1,4,0:0:0:0:
64,192,174194,1,4,0:0:0:0:
64,192,174372,1,8,0:0:0:0:
192,192,174372,1,8,0:0:0:0:
192,192,174462,1,8,0:0:0:0:
64,192,174462,1,8,0:0:0:0:
320,192,174551,1,0,0:0:0:0:
448,192,174551,1,0,0:0:0:0:
192,192,174729,1,0,0:0:0:0:
448,192,174729,1,0,0:0:0:0:
320,192,174908,1,0,0:0:0:0:
64,192,174908,1,0,0:0:0:0:
192,192,175087,1,8,0:0:0:0:
64,192,175087,1,8,0:0:0:0:
320,192,175265,1,0,0:0:0:0:
448,192,175265,1,0,0:0:0:0:
192,192,175444,1,0,0:0:0:0:
320,192,175444,1,0,0:0:0:0:
448,192,175622,1,8,0:0:0:0:
192,192,175622,1,8,0:0:0:0:
192,192,175801,1,8,0:0:0:0:
64,192,175801,1,8,0:0:0:0:
64,192,175979,1,6,0:0:0:0:
192,192,175979,128,6,176158:0:0:0:0:
448,192,175979,128,6,176158:0:0:0:0:
320,192,176247,1,0,0:0:0:0:
192,192,176337,1,4,0:0:0:0:
448,192,176337,1,4,0:0:0:0:
320,192,176426,1,0,0:0:0:0:
192,192,176515,1,0,0:0:0:0:
320,192,176604,1,0,0:0:0:0:
192,192,176694,1,8,0:0:0:0:
64,192,176694,1,8,0:0:0:0:
320,192,176783,1,0,0:0:0:0:
192,192,176872,1,0,0:0:0:0:
320,192,176962,1,0,0:0:0:0:
448,192,177051,1,4,0:0:0:0:
64,192,177051,1,4,0:0:0:0:
192,192,177140,1,0,0:0:0:0:
448,192,177229,1,8,0:0:0:0:
320,192,177229,1,8,0:0:0:0:
192,192,177319,1,8,0:0:0:0:
320,192,177319,1,8,0:0:0:0:
448,192,177408,1,4,0:0:0:0:
64,192,177408,1,4,0:0:0:0:
192,192,177497,1,0,0:0:0:0:
448,192,177587,1,0,0:0:0:0:
320,192,177587,1,0,0:0:0:0:
192,192,177676,1,0,0:0:0:0:
64,192,177765,1,4,0:0:0:0:
448,192,177765,1,4,0:0:0:0:
320,192,177854,1,0,0:0:0:0:
64,192,177944,1,0,0:0:0:0:
320,192,178033,1,0,0:0:0:0:
64,192,178122,1,8,0:0:0:0:
192,192,178122,1,8,0:0:0:0:
320,192,178212,1,0,0:0:0:0:
64,192,178301,1,0,0:0:0:0:
320,192,178390,1,0,0:0:0:0:
64,192,178479,1,4,0:0:0:0:
192,192,178479,1,4,0:0:0:0:
320,192,178569,1,0,0:0:0:0:
64,192,178658,1,8,0:0:0:0:
448,192,178658,1,8,0:0:0:0:
320,192,178747,1,8,0:0:0:0:
448,192,178747,1,8,0:0:0:0:
192,192,178837,1,4,0:0:0:0:
64,192,178837,1,4,0:0:0:0:
320,192,178926,1,0,0:0:0:0:
192,192,179015,1,0,0:0:0:0:
320,192,179104,1,0,0:0:0:0:
192,192,179194,1,4,0:0:0:0:
448,192,179194,1,4,0:0:0:0:
192,192,179283,1,0,0:0:0:0:
320,192,179372,1,0,0:0:0:0:
192,192,179462,1,0,0:0:0:0:
320,192,179551,1,8,0:0:0:0:
64,192,179551,1,8,0:0:0:0:
192,192,179640,1,0,0:0:0:0:
320,192,179729,1,0,0:0:0:0:
192,192,179819,1,0,0:0:0:0:
320,192,179908,1,4,0:0:0:0:
448,192,179908,1,4,0:0:0:0:
192,192,179997,1,0,0:0:0:0:
64,192,180087,1,8,0:0:0:0:
448,192,180087,1,8,0:0:0:0:
192,192,180176,1,8,0:0:0:0:
320,192,180176,1,8,0:0:0:0:
448,192,180265,1,4,0:0:0:0:
320,192,180265,1,4,0:0:0:0:
192,192,180354,1,0,0:0:0:0:
448,192,180444,1,0,0:0:0:0:
320,192,180444,1,0,0:0:0:0:
192,192,180533,1,0,0:0:0:0:
448,192,180622,1,4,0:0:0:0:
192,192,180622,1,4,0:0:0:0:
64,192,180712,1,0,0:0:0:0:
320,192,180801,1,0,0:0:0:0:
64,192,180890,1,0,0:0:0:0:
320,192,180979,1,12,0:0:0:0:
192,192,180979,1,12,0:0:0:0:
64,192,181069,1,0,0:0:0:0:
320,192,181158,1,0,0:0:0:0:
64,192,181247,1,0,0:0:0:0:
320,192,181337,1,4,0:0:0:0:
448,192,181337,1,4,0:0:0:0:
64,192,181426,1,0,0:0:0:0:
320,192,181515,1,8,0:0:0:0:
192,192,181515,1,8,0:0:0:0:
64,192,181604,1,8,0:0:0:0:
320,192,181604,1,8,0:0:0:0:
448,192,181694,1,4,0:0:0:0:
192,192,181694,128,4,181962:0:0:0:0:
320,192,181872,1,0,0:0:0:0:
192,192,182051,1,4,0:0:0:0:
64,192,182051,1,4,0:0:0:0:
320,192,182229,128,0,182319:0:0:0:0:
192,192,182319,128,0,182676:0:0:0:0:
448,192,182408,1,12,0:0:0:0:
320,192,182408,1,12,0:0:0:0:
448,192,182587,1,0,0:0:0:0:
192,192,182765,128,4,183390:0:0:0:0:
320,192,182765,1,4,0:0:0:0:
64,192,182944,1,8,0:0:0:0:
448,192,182944,1,8,0:0:0:0:
320,192,183033,1,8,0:0:0:0:
448,192,183033,1,8,0:0:0:0:
64,192,183122,1,4,0:0:0:0:
320,192,183122,1,4,0:0:0:0:
320,192,183301,1,0,0:0:0:0:
64,192,183301,1,0,0:0:0:0:
320,192,183479,1,4,0:0:0:0:
448,192,183479,1,4,0:0:0:0:
192,192,183658,1,0,0:0:0:0:
64,192,183837,128,4,184015:0:0:0:0:
320,192,183837,1,4,0:0:0:0:
320,192,184015,128,0,184194:0:0:0:0:
448,192,184194,128,4,184372:0:0:0:0:
192,192,184194,1,4,0:0:0:0:
192,192,184372,1,8,0:0:0:0:
64,192,184372,1,8,0:0:0:0:
320,192,184462,1,8,0:0:0:0:
448,192,184462,1,8,0:0:0:0:
192,192,184551,128,4,184729:0:0:0:0:
448,192,184551,1,4,0:0:0:0:
448,192,184729,128,0,184997:0:0:0:0:
320,192,184908,1,4,0:0:0:0:
192,192,184908,1,4,0:0:0:0:
192,192,185087,128,0,185265:0:0:0:0:
448,192,185265,128,12,185533:0:0:0:0:
64,192,185265,1,12,0:0:0:0:
192,192,185444,1,0,0:0:0:0:
192,192,185622,128,4,185712:0:0:0:0:
320,192,185712,128,4,186158:0:0:0:0:
192,192,185801,1,8,0:0:0:0:
64,192,185801,1,8,0:0:0:0:
448,192,185890,1,8,0:0:0:0:
192,192,185890,1,8,0:0:0:0:
64,192,185979,1,4,0:0:0:0:
448,192,185979,1,4,0:0:0:0:
192,192,186158,1,0,0:0:0:0:
64,192,186158,1,0,0:0:0:0:
320,192,186337,1,4,0:0:0:0:
448,192,186337,1,4,0:0:0:0:
192,192,186515,1,0,0:0:0:0:
64,192,186694,1,12,0:0:0:0:
320,192,186694,1,12,0:0:0:0:
192,192,187051,1,4,0:0:0:0:
320,192,187051,1,4,0:0:0:0:
448,192,187229,1,8,0:0:0:0:
320,192,187229,1,8,0:0:0:0:
320,192,187319,1,8,0:0:0:0:
448,192,187319,1,8,0:0:0:0:
64,192,187408,1,4,0:0:0:0:
192,192,187408,1,4,0:0:0:0:
64,192,187765,1,4,0:0:0:0:
320,192,187765,128,4,187854:0:0:0:0:
192,192,187944,128,0,188033:0:0:0:0:
320,192,188122,1,12,0:0:0:0:
192,192,188122,128,12,188212:0:0:0:0:
320,192,188301,128,0,188390:0:0:0:0:
320,192,188479,1,4,0:0:0:0:
448,192,188479,1,4,0:0:0:0:
192,192,188658,1,8,0:0:0:0:
320,192,188658,128,8,188747:0:0:0:0:
64,192,188747,1,8,0:0:0:0:
192,192,188747,1,8,0:0:0:0:
320,192,188837,1,4,0:0:0:0:
448,192,188837,1,4,0:0:0:0:
192,192,189015,1,0,0:0:0:0:
448,192,189015,128,0,189104:0:0:0:0:
192,192,189194,1,4,0:0:0:0:
64,192,189194,1,4,0:0:0:0:
64,192,189372,128,0,189462:0:0:0:0:
192,192,189551,1,12,0:0:0:0:
448,192,189551,1,12,0:0:0:0:
192,192,189729,128,0,189819:0:0:0:0:
192,192,189908,1,4,0:0:0:0:
320,192,189908,1,4,0:0:0:0:
64,192,190087,1,8,0:0:0:0:
448,192,190087,128,8,190176:0:0:0:0:
320,192,190176,1,8,0:0:0:0:
192,192,190176,1,8,0:0:0:0:
192,192,190265,1,4,0:0:0:0:
64,192,190265,1,4,0:0:0:0:
192,192,190622,1,4,0:0:0:0:
448,192,190622,128,4,190712:0:0:0:0:
320,192,190801,128,0,190890:0:0:0:0:
448,192,190979,1,12,0:0:0:0:
320,192,190979,128,12,191069:0:0:0:0:
192,192,191158,128,0,191247:0:0:0:0:
192,192,191337,1,4,0:0:0:0:
320,192,191337,1,4,0:0:0:0:
448,192,191515,1,8,0:0:0:0:
320,192,191515,128,8,191604:0:0:0:0:
448,192,191604,1,8,0:0:0:0:
192,192,191604,1,8,0:0:0:0:
192,192,191694,1,4,0:0:0:0:
64,192,191694,1,4,0:0:0:0:
192,192,191872,128,0,191962:0:0:0:0:
320,192,192051,1,4,0:0:0:0:
192,192,192051,1,4,0:0:0:0:
64,192,192229,128,0,192319:0:0:0:0:
192,192,192408,1,12,0:0:0:0:
448,192,192408,1,12,0:0:0:0:
192,192,192587,128,0,192676:0:0:0:0:
320,192,192765,1,4,0:0:0:0:
448,192,192765,1,4,0:0:0:0:
320,192,192944,1,8,0:0:0:0:
192,192,192944,128,8,193033:0:0:0:0:
64,192,193033,1,8,0:0:0:0:
448,192,193033,1,8,0:0:0:0:
320,192,193122,1,4,0:0:0:0:
64,192,193122,1,4,0:0:0:0:
192,192,193301,1,0,0:0:0:0:
192,192,193479,1,4,0:0:0:0:
448,192,193479,128,4,193569:0:0:0:0:
320,192,193658,128,0,193747:0:0:0:0:
320,192,193837,1,12,0:0:0:0:
448,192,193837,128,12,193926:0:0:0:0:
448,192,194015,128,0,194104:0:0:0:0:
192,192,194194,1,4,0:0:0:0:
64,192,194194,1,4,0:0:0:0:
448,192,194372,1,8,0:0:0:0:
320,192,194372,128,8,194462:0:0:0:0:
192,192,194462,1,8,0:0:0:0:
64,192,194462,1,8,0:0:0:0:
320,192,194551,1,4,0:0:0:0:
448,192,194551,1,4,0:0:0:0:
192,192,194729,128,0,194819:0:0:0:0:
192,192,194908,1,4,0:0:0:0:
448,192,194908,1,4,0:0:0:0:
320,192,195087,128,0,195176:0:0:0:0:
192,192,195265,1,12,0:0:0:0:
64,192,195265,1,12,0:0:0:0:
320,192,195444,128,0,195533:0:0:0:0:
192,192,195622,1,4,0:0:0:0:
64,192,195622,1,4,0:0:0:0:
192,192,195801,1,8,0:0:0:0:
64,192,195801,128,8,195890:0:0:0:0:
320,192,195890,1,8,0:0:0:0:
192,192,195890,1,8,0:0:0:0:
320,192,195979,1,4,0:0:0:0:
448,192,195979,1,4,0:0:0:0:
320,192,196337,1,4,0:0:0:0:
192,192,196337,128,4,196426:0:0:0:0:
448,192,196515,128,0,196604:0:0:0:0:
192,192,196694,1,12,0:0:0:0:
448,192,196694,128,12,196783:0:0:0:0:
320,192,196872,128,0,196962:0:0:0:0:
192,192,197051,1,4,0:0:0:0:
320,192,197051,1,4,0:0:0:0:
192,192,197229,1,8,0:0:0:0:
64,192,197229,128,8,197319:0:0:0:0:
320,192,197319,1,8,0:0:0:0:
192,192,197319,1,8,0:0:0:0:
64,192,197408,1,4,0:0:0:0:
448,192,197408,1,4,0:0:0:0:
320,192,197587,1,0,0:0:0:0:
192,192,197587,128,0,197765:0:0:0:0:
320,192,197765,1,0,0:0:0:0:
448,192,197765,1,0,0:0:0:0:
192,192,197944,1,0,0:0:0:0:
64,192,197944,128,0,198122:0:0:0:0:
320,192,198122,1,0,0:0:0:0:
192,192,198122,1,0,0:0:0:0:
64,192,198301,1,8,0:0:0:0:
192,192,198301,128,8,198479:0:0:0:0:
320,192,198390,1,8,0:0:0:0:
448,192,198390,1,8,0:0:0:0:
448,192,198479,1,4,0:0:0:0:
320,192,198658,128,4,198837:0:0:0:0:
64,192,198837,1,6,0:0:0:0:
192,192,198837,1,6,0:0:0:0:
448,192,198837,1,6,0:0:0:0:
320,192,199194,1,4,0:0:0:0:
448,192,199194,1,4,0:0:0:0:
192,192,199372,1,0,0:0:0:0:
192,192,199551,1,0,0:0:0:0:
64,192,199551,1,0,0:0:0:0:
192,192,199729,1,0,0:0:0:0:
448,192,199908,1,4,0:0:0:0:
320,192,199908,1,4,0:0:0:0:
448,192,199997,1,0,0:0:0:0:
320,192,200087,1,8,0:0:0:0:
192,192,200087,1,8,0:0:0:0:
64,192,200176,1,8,0:0:0:0:
192,192,200176,1,8,0:0:0:0:
192,192,200265,1,0,0:0:0:0:
64,192,200265,1,0,0:0:0:0:
320,192,200444,1,0,0:0:0:0:
192,192,200622,1,4,0:0:0:0:
448,192,200622,1,4,0:0:0:0:
320,192,200801,1,0,0:0:0:0:
320,192,200890,1,0,0:0:0:0:
192,192,200979,1,8,0:0:0:0:
64,192,200979,1,8,0:0:0:0:
192,192,201158,1,0,0:0:0:0:
320,192,201247,1,0,0:0:0:0:
192,192,201337,1,4,0:0:0:0:
64,192,201337,1,4,0:0:0:0:
448,192,201426,1,0,0:0:0:0:
320,192,201515,1,8,0:0:0:0:
192,192,201515,1,8,0:0:0:0:
64,192,201604,1,8,0:0:0:0:
192,192,201604,1,8,0:0:0:0:
320,192,201694,1,0,0:0:0:0:
448,192,201694,1,0,0:0:0:0:
64,192,202051,1,4,0:0:0:0:
192,192,202051,1,4,0:0:0:0:
320,192,202229,1,0,0:0:0:0:
192,192,202319,1,0,0:0:0:0:
192,192,202408,1,8,0:0:0:0:
320,192,202408,1,8,0:0:0:0:
320,192,202497,1,0,0:0:0:0:
448,192,202587,1,0,0:0:0:0:
320,192,202765,1,4,0:0:0:0:
64,192,202765,1,4,0:0:0:0:
192,192,202944,1,8,0:0:0:0:
448,192,202944,1,8,0:0:0:0:
320,192,203033,1,8,0:0:0:0:
64,192,203033,1,8,0:0:0:0:
192,192,203122,1,0,0:0:0:0:
320,192,203122,1,0,0:0:0:0:
320,192,203301,1,0,0:0:0:0:
192,192,203479,1,4,0:0:0:0:
64,192,203479,1,4,0:0:0:0:
64,192,203658,1,0,0:0:0:0:
192,192,203837,1,8,0:0:0:0:
320,192,203837,1,8,0:0:0:0:
448,192,203926,1,8,0:0:0:0:
64,192,203926,1,8,0:0:0:0:
320,192,204015,1,0,0:0:0:0:
192,192,204194,1,4,0:0:0:0:
320,192,204194,1,4,0:0:0:0:
192,192,204372,1,8,0:0:0:0:
64,192,204372,1,8,0:0:0:0:
320,192,204462,1,8,0:0:0:0:
448,192,204462,1,8,0:0:0:0:
320,192,204551,1,6,0:0:0:0:
448,192,204551,1,6,0:0:0:0:
64,192,204551,1,4,0:0:0:0:
320,192,204908,1,4,0:0:0:0:
64,192,204908,1,4,0:0:0:0:
192,192,205087,1,0,0:0:0:0:
320,192,205265,1,8,0:0:0:0:
192,192,205265,1,8,0:0:0:0:
64,192,205354,1,0,0:0:0:0:
320,192,205444,1,0,0:0:0:0:
448,192,205533,1,0,0:0:0:0:
192,192,205622,1,4,0:0:0:0:
64,192,205622,1,4,0:0:0:0:
320,192,205712,1,0,0:0:0:0:
192,192,205801,1,8,0:0:0:0:
448,192,205801,1,8,0:0:0:0:
320,192,205890,1,8,0:0:0:0:
64,192,205890,1,8,0:0:0:0:
192,192,205979,1,0,0:0:0:0:
64,192,205979,1,0,0:0:0:0:
448,192,206158,1,0,0:0:0:0:
192,192,206337,1,4,0:0:0:0:
448,192,206337,1,4,0:0:0:0:
320,192,206694,1,8,0:0:0:0:
448,192,206694,1,8,0:0:0:0:
192,192,207051,1,4,0:0:0:0:
64,192,207051,1,4,0:0:0:0:
320,192,207229,1,8,0:0:0:0:
192,192,207229,1,8,0:0:0:0:
192,192,207319,1,8,0:0:0:0:
448,192,207319,1,8,0:0:0:0:
448,192,207408,1,0,0:0:0:0:
64,192,207408,1,0,0:0:0:0:
192,192,207587,1,0,0:0:0:0:
64,192,207765,1,4,0:0:0:0:
320,192,207765,1,4,0:0:0:0:
448,192,207944,1,0,0:0:0:0:
192,192,208122,1,8,0:0:0:0:
320,192,208122,1,8,0:0:0:0:
448,192,208479,1,4,0:0:0:0:
192,192,208479,1,4,0:0:0:0:
320,192,208658,1,8,0:0:0:0:
192,192,208658,1,8,0:0:0:0:
64,192,208837,1,0,0:0:0:0:
192,192,209015,1,4,0:0:0:0:
448,192,209015,1,4,0:0:0:0:
320,192,209194,1,4,0:0:0:0:
192,192,209194,1,4,0:0:0:0:
64,192,209372,1,4,0:0:0:0:
192,192,209372,1,4,0:0:0:0:
64,192,209551,1,4,0:0:0:0:
320,192,209551,1,4,0:0:0:0:
192,192,209729,1,4,0:0:0:0:
448,192,209729,1,4,0:0:0:0:
64,192,209908,1,4,0:0:0:0:
448,192,209908,1,4,0:0:0:0:
448,192,210087,1,4,0:0:0:0:
320,192,210087,1,4,0:0:0:0:
192,192,210265,5,2,0:0:0:0:
320,192,210390,128,4,210640:0:0:0:0:
320,192,210765,5,2,0:1:0:0:
192,192,210827,128,4,211077:0:0:0:0:
192,192,211265,1,2,0:1:0:0:
64,192,211515,1,2,0:1:0:0:
192,192,211765,1,2,0:1:0:0:
64,192,211765,128,4,212015:0:0:0:0:
320,192,212015,1,2,0:1:0:0:
448,192,212015,1,2,0:1:0:0:
320,192,212265,128,4,212515:0:0:0:0:
192,192,212827,128,4,213077:0:0:0:0:
448,192,213015,1,2,0:1:0:0:
320,192,213265,1,2,0:1:0:0:
192,192,213515,1,2,0:1:0:0:
64,192,213765,1,2,0:1:0:0:
448,192,213765,128,4,214015:0:0:0:0:
320,192,214015,1,2,0:1:0:0:
448,192,214265,1,2,0:1:0:0:
192,192,214265,1,2,0:1:0:0:
64,192,214265,128,4,214515:0:0:0:0:
192,192,214765,1,2,0:1:0:0:
320,192,214765,128,4,215015:0:0:0:0:
64,192,215265,1,2,0:1:0:0:
192,192,215515,1,2,0:1:0:0:
448,192,215765,1,2,0:1:0:0:
64,192,215765,128,4,216140:0:0:0:0:
320,192,216015,1,2,0:1:0:0:
192,192,216015,1,2,0:1:0:0:
320,192,216265,128,4,216515:0:0:0:0:
192,192,216515,1,2,0:1:0:0:
64,192,216765,1,2,0:1:0:0:
448,192,216765,128,4,217015:0:0:0:0:
320,192,217015,1,2,0:1:0:0:
192,192,217265,1,2,0:1:0:0:
320,192,217265,128,4,217640:0:0:0:0:
64,192,217515,1,2,0:1:0:0:
320,192,217765,1,2,0:1:0:0:
64,192,217765,1,2,0:0:0:0:
448,192,217765,128,4,218015:0:0:0:0:
192,192,218015,1,2,0:0:0:0:
320,192,218265,1,2,0:0:0:0:
64,192,218265,1,2,0:0:0:0:
192,192,218265,128,4,218515:0:0:0:0:
192,192,218765,1,2,0:0:0:0:
64,192,218765,128,4,219015:0:0:0:0:
320,192,219015,1,2,0:0:0:0:
192,192,219015,1,2,0:0:0:0:
192,192,219265,1,2,0:0:0:0:
64,192,219515,1,2,0:0:0:0:
64,192,219765,1,2,0:0:0:0:
320,192,219765,128,4,220015:0:0:0:0:
192,192,220015,1,2,0:0:0:0:
448,192,220015,1,2,0:0:0:0:
448,192,220265,128,4,220515:0:0:0:0:
64,192,220765,128,4,221015:0:0:0:0:
192,192,221015,1,2,0:0:0:0:
320,192,221265,1,2,0:0:0:0:
448,192,221265,1,2,0:0:0:0:
448,192,221765,1,2,0:0:0:0:
192,192,221765,128,4,222015:0:0:0:0:
320,192,222015,1,2,0:0:0:0:
192,192,222265,1,2,0:0:0:0:
64,192,222265,1,2,0:0:0:0:
448,192,222265,128,4,222515:0:0:0:0:
192,192,222765,1,2,0:0:0:0:
64,192,222765,128,4,223015:0:0:0:0:
320,192,223015,1,2,0:0:0:0:
192,192,223265,1,2,0:0:0:0:
64,192,223515,1,2,0:0:0:0:
320,192,224015,1,2,0:0:0:0:
448,192,224015,1,2,0:0:0:0:
320,192,224515,1,2,0:0:0:0:
192,192,224765,1,2,0:0:0:0:
64,192,225015,1,2,0:0:0:0:
192,192,225515,1,2,0:0:0:0:
448,192,225765,1,2,0:0:0:0:
320,192,226015,1,2,0:0:0:0:
192,192,226265,1,2,0:0:0:0:
320,192,226265,1,2,0:0:0:0:
192,192,226765,1,2,0:0:0:0:
64,192,227265,1,2,0:0:0:0:
320,192,227515,1,2,0:0:0:0:
192,192,227765,1,2,0:0:0:0:
448,192,228015,1,2,0:0:0:0:
192,192,229015,1,2,0:0:0:0:
448,192,229265,1,2,0:0:0:0:
320,192,229515,1,2,0:0:0:0:
64,192,229765,1,2,0:0:0:0:
320,192,230015,1,2,0:0:0:0:
64,192,230265,1,2,0:0:0:0:
320,192,230265,1,2,0:0:0:0:
192,192,230765,1,2,0:0:0:0:
192,192,231265,1,2,0:0:0:0:
448,192,231515,1,2,0:0:0:0:
192,192,231765,1,2,0:0:0:0:
448,192,232015,1,2,0:0:0:0:
320,192,232015,1,2,0:0:0:0:
64,192,232515,1,2,0:0:0:0:
320,192,232765,1,2,0:0:0:0:
192,192,233015,1,2,0:0:0:0:
448,192,233265,1,2,0:0:0:0:
320,192,233515,1,2,0:0:0:0:
192,192,233765,1,2,0:0:0:0:
64,192,233765,1,2,0:0:0:0:
64,192,234015,1,2,0:0:0:0:
192,192,234265,1,2,0:0:0:0:
448,192,234265,1,2,0:0:0:0:
192,192,234765,1,2,0:0:0:0:
320,192,235015,1,2,0:0:0:0:
64,192,235015,1,2,0:0:0:0:
320,192,235265,1,2,0:0:0:0:
192,192,235515,1,2,0:0:0:0:
320,192,235765,1,2,0:0:0:0:
64,192,236015,1,2,0:0:0:0:
192,192,236015,1,2,0:0:0:0:
320,192,237015,1,2,0:0:0:0:
448,192,237265,1,2,0:0:0:0:
320,192,237265,1,2,0:0:0:0:
192,192,237765,1,2,0:0:0:0:
64,192,238015,1,2,0:0:0:0:
192,192,238265,1,2,0:0:0:0:
448,192,238265,1,2,0:0:0:0:
320,192,238765,1,2,0:0:0:0:
448,192,239015,1,2,0:0:0:0:
320,192,239265,1,2,0:0:0:0:
64,192,239515,1,2,0:0:0:0:
192,192,239546,1,0,0:0:0:0:
320,192,239577,128,0,239640:0:0:0:0:
192,192,239765,128,0,240015:0:0:0:0:
448,192,240015,1,2,0:0:0:0:
320,192,240015,1,2,0:0:0:0:
192,192,240140,1,0,0:0:0:0:
448,192,240265,128,0,240515:0:0:0:0:
320,192,240765,128,0,241077:0:0:0:0:
192,192,241265,128,0,241640:0:0:0:0:
64,192,241765,128,0,242202:0:0:0:0:
64,192,242265,1,6,0:0:0:0:
192,192,242265,1,4,0:0:0:0:
448,192,242265,1,6,0:0:0:0:
320,192,242265,128,6,242443:0:0:0:0:
448,192,242354,1,0,0:0:0:0:
192,192,242443,1,8,0:0:0:0:
64,192,242443,1,8,0:0:0:0:
192,192,242532,1,0,0:0:0:0:
448,192,242622,1,6,0:0:0:0:
320,192,242622,128,6,242800:0:0:0:0:
192,192,242711,1,0,0:0:0:0:
448,192,242800,1,8,0:0:0:0:
64,192,242800,1,8,0:0:0:0:
448,192,242890,1,0,0:0:0:0:
64,192,242979,1,2,0:0:0:0:
320,192,242979,1,2,0:0:0:0:
192,192,243068,1,0,0:0:0:0:
448,192,243157,1,10,0:0:0:0:
320,192,243157,1,10,0:0:0:0:
64,192,243247,1,0,0:0:0:0:
192,192,243336,1,6,0:0:0:0:
64,192,243336,128,6,243515:0:0:0:0:
448,192,243425,1,0,0:0:0:0:
320,192,243515,1,10,0:0:0:0:
448,192,243515,1,10,0:0:0:0:
192,192,243604,1,0,0:0:0:0:
448,192,243693,128,0,243872:0:0:0:0:
64,192,243782,1,0,0:0:0:0:
320,192,243872,1,8,0:0:0:0:
192,192,243872,1,8,0:0:0:0:
64,192,243961,1,0,0:0:0:0:
192,192,244050,128,4,244229:0:0:0:0:
320,192,244050,1,4,0:0:0:0:
320,192,244140,1,0,0:0:0:0:
64,192,244229,1,10,0:0:0:0:
448,192,244229,1,10,0:0:0:0:
192,192,244318,1,0,0:0:0:0:
320,192,244407,1,2,0:0:0:0:
64,192,244407,1,2,0:0:0:0:
64,192,244497,1,0,0:0:0:0:
192,192,244586,1,10,0:0:0:0:
320,192,244586,1,10,0:0:0:0:
448,192,244675,1,0,0:0:0:0:
320,192,244765,1,6,0:0:0:0:
448,192,244765,128,6,244943:0:0:0:0:
192,192,244854,1,0,0:0:0:0:
192,192,244943,1,10,0:0:0:0:
64,192,244943,1,10,0:0:0:0:
320,192,245032,1,0,0:0:0:0:
448,192,245122,1,6,0:0:0:0:
320,192,245122,1,4,0:0:0:0:
64,192,245122,1,6,0:0:0:0:
192,192,245122,128,6,245300:0:0:0:0:
64,192,245211,1,0,0:0:0:0:
320,192,245300,1,8,0:0:0:0:
448,192,245300,1,8,0:0:0:0:
320,192,245390,1,0,0:0:0:0:
64,192,245479,1,6,0:0:0:0:
192,192,245479,128,6,245657:0:0:0:0:
448,192,245568,1,0,0:0:0:0:
448,192,245657,1,8,0:0:0:0:
320,192,245657,1,8,0:0:0:0:
64,192,245747,1,0,0:0:0:0:
192,192,245836,1,2,0:0:0:0:
448,192,245836,1,2,0:0:0:0:
320,192,245925,1,0,0:0:0:0:
320,192,246015,1,10,0:0:0:0:
192,192,246015,1,10,0:0:0:0:
448,192,246104,1,0,0:0:0:0:
320,192,246193,128,6,246372:0:0:0:0:
64,192,246193,1,6,0:0:0:0:
64,192,246282,1,0,0:0:0:0:
192,192,246372,1,10,0:0:0:0:
448,192,246372,1,10,0:0:0:0:
320,192,246461,1,0,0:0:0:0:
448,192,246550,128,4,246729:0:0:0:0:
192,192,246550,1,4,0:0:0:0:
64,192,246640,1,0,0:0:0:0:
320,192,246729,1,2,0:0:0:0:
192,192,246729,1,2,0:0:0:0:
448,192,246818,1,0,0:0:0:0:
320,192,246907,128,6,247086:0:0:0:0:
64,192,246907,1,6,0:0:0:0:
448,192,246997,1,0,0:0:0:0:
192,192,247086,1,10,0:0:0:0:
64,192,247086,1,10,0:0:0:0:
320,192,247175,1,0,0:0:0:0:
64,192,247265,128,14,247443:0:0:0:0:
448,192,247265,1,14,0:0:0:0:
320,192,247354,1,2,0:0:0:0:
448,192,247398,1,2,0:0:0:0:
320,192,247443,1,10,0:0:0:0:
192,192,247443,1,10,0:0:0:0:
64,192,247532,1,0,0:0:0:0:
448,192,247622,128,14,247800:0:0:0:0:
320,192,247622,1,14,0:0:0:0:
192,192,247711,1,8,0:0:0:0:
64,192,247711,1,8,0:0:0:0:
320,192,247800,1,10,0:0:0:0:
64,192,247800,1,10,0:0:0:0:
192,192,247890,1,8,0:0:0:0:
448,192,247890,1,8,0:0:0:0:
448,192,247979,1,4,0:0:0:0:
320,192,247979,1,6,0:0:0:0:
64,192,247979,1,6,0:0:0:0:
192,192,247979,128,6,248157:0:0:0:0:
64,192,248068,1,0,0:0:0:0:
320,192,248157,1,8,0:0:0:0:
448,192,248157,1,8,0:0:0:0:
448,192,248247,1,0,0:0:0:0:
320,192,248336,1,6,0:0:0:0:
64,192,248336,128,6,248515:0:0:0:0:
192,192,248425,1,0,0:0:0:0:
448,192,248515,1,8,0:0:0:0:
320,192,248515,1,8,0:0:0:0:
64,192,248604,1,0,0:0:0:0:
320,192,248693,1,2,0:0:0:0:
192,192,248693,1,2,0:0:0:0:
192,192,248782,1,0,0:0:0:0:
448,192,248872,1,10,0:0:0:0:
320,192,248872,1,10,0:0:0:0:
64,192,248961,1,0,0:0:0:0:
320,192,249050,128,6,249229:0:0:0:0:
192,192,249050,1,6,0:0:0:0:
448,192,249140,1,0,0:0:0:0:
192,192,249229,1,10,0:0:0:0:
64,192,249229,1,10,0:0:0:0:
320,192,249318,1,0,0:0:0:0:
192,192,249407,128,0,249586:0:0:0:0:
448,192,249497,1,0,0:0:0:0:
448,192,249586,1,8,0:0:0:0:
320,192,249586,1,8,0:0:0:0:
192,192,249675,1,0,0:0:0:0:
448,192,249765,128,4,249943:0:0:0:0:
64,192,249765,1,4,0:0:0:0:
320,192,249854,1,0,0:0:0:0:
192,192,249943,1,10,0:0:0:0:
64,192,249943,1,10,0:0:0:0:
192,192,250032,1,0,0:0:0:0:
320,192,250122,1,2,0:0:0:0:
448,192,250122,1,2,0:0:0:0:
192,192,250211,1,0,0:0:0:0:
448,192,250300,1,8,0:0:0:0:
320,192,250300,1,8,0:0:0:0:
64,192,250390,1,0,0:0:0:0:
320,192,250479,128,6,250657:0:0:0:0:
64,192,250479,1,6,0:0:0:0:
192,192,250568,1,0,0:0:0:0:
448,192,250657,1,10,0:0:0:0:
64,192,250657,1,10,0:0:0:0:
320,192,250747,1,0,0:0:0:0:
320,192,250836,1,6,0:0:0:0:
192,192,250836,1,4,0:0:0:0:
64,192,250836,1,6,0:0:0:0:
448,192,250836,128,6,251015:0:0:0:0:
320,192,250925,1,0,0:0:0:0:
64,192,251015,1,8,0:0:0:0:
192,192,251015,1,8,0:0:0:0:
448,192,251104,1,0,0:0:0:0:
192,192,251193,128,6,251372:0:0:0:0:
320,192,251193,1,6,0:0:0:0:
64,192,251282,1,0,0:0:0:0:
448,192,251372,1,10,0:0:0:0:
320,192,251372,1,10,0:0:0:0:
64,192,251461,1,0,0:0:0:0:
192,192,251550,1,2,0:0:0:0:
64,192,251550,1,2,0:0:0:0:
320,192,251640,1,0,0:0:0:0:
448,192,251729,1,10,0:0:0:0:
192,192,251729,1,10,0:0:0:0:
448,192,251818,1,0,0:0:0:0:
192,192,251907,1,4,0:0:0:0:
64,192,251907,1,4,0:0:0:0:
320,192,251997,1,0,0:0:0:0:
192,192,252086,1,10,0:0:0:0:
64,192,252086,1,10,0:0:0:0:
192,192,252265,1,8,0:0:0:0:
320,192,252265,1,8,0:0:0:0:
320,192,252354,1,8,0:0:0:0:
192,192,252354,1,8,0:0:0:0:
448,192,252443,1,10,0:0:0:0:
64,192,252443,1,10,0:0:0:0:
320,192,252622,1,0,0:0:0:0:
192,192,252622,1,0,0:0:0:0:
192,192,252800,1,10,0:0:0:0:
64,192,252800,1,10,0:0:0:0:
64,192,252890,1,8,0:0:0:0:
320,192,252890,1,8,0:0:0:0:
448,192,252979,1,0,0:0:0:0:
192,192,253157,1,10,0:0:0:0:
448,192,253157,1,10,0:0:0:0:
64,192,253247,1,2,0:0:0:0:
192,192,253291,1,2,0:0:0:0:
448,192,253336,1,10,0:0:0:0:
320,192,253336,1,10,0:0:0:0:
320,192,253425,1,8,0:0:0:0:
448,192,253425,1,8,0:0:0:0:
192,192,253515,1,10,0:0:0:0:
64,192,253515,1,10,0:0:0:0:
64,192,253604,1,8,0:0:0:0:
192,192,253604,1,8,0:0:0:0:
64,192,253693,1,4,0:0:0:0:
192,192,253693,1,6,0:0:0:0:
320,192,253693,1,14,0:0:0:0:
448,192,253693,128,14,253872:0:0:0:0:
320,192,253782,1,0,0:0:0:0:
192,192,253872,1,8,0:0:0:0:
64,192,253872,1,8,0:0:0:0:
64,192,253961,1,0,0:0:0:0:
192,192,254050,128,6,254229:0:0:0:0:
448,192,254050,1,6,0:0:0:0:
64,192,254140,1,0,0:0:0:0:
320,192,254229,1,8,0:0:0:0:
448,192,254229,1,8,0:0:0:0:
320,192,254318,1,0,0:0:0:0:
192,192,254407,1,2,0:0:0:0:
448,192,254407,1,2,0:0:0:0:
64,192,254497,1,0,0:0:0:0:
320,192,254586,1,10,0:0:0:0:
192,192,254586,1,10,0:0:0:0:
448,192,254675,1,0,0:0:0:0:
192,192,254765,128,6,254943:0:0:0:0:
64,192,254765,1,6,0:0:0:0:
448,192,254854,1,0,0:0:0:0:
448,192,254943,1,10,0:0:0:0:
64,192,254943,1,10,0:0:0:0:
192,192,255032,1,0,0:0:0:0:
320,192,255122,128,0,255300:0:0:0:0:
448,192,255211,1,0,0:0:0:0:
192,192,255300,1,10,0:0:0:0:
64,192,255300,1,10,0:0:0:0:
192,192,255390,1,0,0:0:0:0:
64,192,255479,128,4,255657:0:0:0:0:
320,192,255479,1,4,0:0:0:0:
448,192,255568,1,0,0:0:0:0:
320,192,255657,1,10,0:0:0:0:
448,192,255657,1,10,0:0:0:0:
64,192,255747,1,0,0:0:0:0:
448,192,255836,1,2,0:0:0:0:
192,192,255836,1,2,0:0:0:0:
448,192,255925,1,0,0:0:0:0:
320,192,256015,1,10,0:0:0:0:
64,192,256015,1,10,0:0:0:0:
192,192,256104,1,0,0:0:0:0:
64,192,256193,128,6,256372:0:0:0:0:
448,192,256193,1,6,0:0:0:0:
192,192,256282,1,0,0:0:0:0:
320,192,256372,1,10,0:0:0:0:
448,192,256372,1,10,0:0:0:0:
64,192,256461,1,0,0:0:0:0:
320,192,256550,1,6,0:0:0:0:
448,192,256550,1,6,0:0:0:0:
64,192,256550,1,6,0:0:0:0:
192,192,256550,128,4,256729:0:0:0:0:
448,192,256640,1,0,0:0:0:0:
64,192,256729,1,8,0:0:0:0:
320,192,256729,1,8,0:0:0:0:
64,192,256818,1,0,0:0:0:0:
448,192,256907,128,6,257086:0:0:0:0:
192,192,256907,1,6,0:0:0:0:
320,192,256997,1,0,0:0:0:0:
64,192,257086,1,10,0:0:0:0:
192,192,257086,1,10,0:0:0:0:
192,192,257175,1,0,0:0:0:0:
320,192,257265,1,2,0:0:0:0:
448,192,257265,1,2,0:0:0:0:
192,192,257354,1,0,0:0:0:0:
64,192,257443,1,10,0:0:0:0:
448,192,257443,1,10,0:0:0:0:
320,192,257532,1,0,0:0:0:0:
320,192,257622,128,4,257800:0:0:0:0:
192,192,257622,1,4,0:0:0:0:
64,192,257711,1,0,0:0:0:0:
64,192,257800,1,10,0:0:0:0:
448,192,257800,1,10,0:0:0:0:
320,192,257890,1,0,0:0:0:0:
192,192,257979,128,0,258157:0:0:0:0:
64,192,258068,1,0,0:0:0:0:
320,192,258157,1,10,0:0:0:0:
448,192,258157,1,10,0:0:0:0:
192,192,258247,1,0,0:0:0:0:
448,192,258336,128,6,258515:0:0:0:0:
192,192,258336,1,6,0:0:0:0:
320,192,258425,1,0,0:0:0:0:
64,192,258515,1,10,0:0:0:0:
192,192,258515,1,10,0:0:0:0:
448,192,258604,1,0,0:0:0:0:
320,192,258693,128,6,258872:0:0:0:0:
64,192,258693,1,6,0:0:0:0:
192,192,258782,1,2,0:0:0:0:
448,192,258827,1,2,0:0:0:0:
64,192,258872,1,10,0:0:0:0:
192,192,258872,1,10,0:0:0:0:
64,192,258961,1,0,0:0:0:0:
192,192,259050,128,6,259229:0:0:0:0:
320,192,259050,1,6,0:0:0:0:
448,192,259140,1,0,0:0:0:0:
320,192,259229,1,10,0:0:0:0:
448,192,259229,1,10,0:0:0:0:
64,192,259318,1,0,0:0:0:0:
320,192,259407,1,4,0:0:0:0:
192,192,259407,1,6,0:0:0:0:
64,192,259407,1,6,0:0:0:0:
448,192,259407,128,6,259586:0:0:0:0:
320,192,259497,1,0,0:0:0:0:
192,192,259586,1,8,0:0:0:0:
64,192,259586,1,8,0:0:0:0:
448,192,259675,1,0,0:0:0:0:
192,192,259765,1,6,0:0:0:0:
64,192,259765,128,6,259943:0:0:0:0:
320,192,259854,1,0,0:0:0:0:
192,192,259943,1,10,0:0:0:0:
448,192,259943,1,10,0:0:0:0:
64,192,260032,1,0,0:0:0:0:
192,192,260122,1,2,0:0:0:0:
448,192,260122,1,2,0:0:0:0:
448,192,260211,1,0,0:0:0:0:
320,192,260300,1,10,0:0:0:0:
192,192,260300,1,10,0:0:0:0:
192,192,260390,1,0,0:0:0:0:
64,192,260479,128,4,260657:0:0:0:0:
320,192,260479,1,4,0:0:0:0:
448,192,260568,1,0,0:0:0:0:
192,192,260657,1,10,0:0:0:0:
320,192,260657,1,10,0:0:0:0:
64,192,260747,1,0,0:0:0:0:
192,192,260836,128,0,261015:0:0:0:0:
448,192,260836,1,0,0:0:0:0:
320,192,260925,1,0,0:0:0:0:
448,192,261015,128,10,261193:0:0:0:0:
64,192,261015,1,10,0:0:0:0:
192,192,261104,1,0,0:0:0:0:
64,192,261193,128,4,261372:0:0:0:0:
320,192,261193,1,4,0:0:0:0:
448,192,261282,1,0,0:0:0:0:
320,192,261372,128,10,261550:0:0:0:0:
192,192,261372,1,10,0:0:0:0:
64,192,261461,1,0,0:0:0:0:
192,192,261550,1,0,0:0:0:0:
448,192,261550,1,0,0:0:0:0:
448,192,261640,1,0,0:0:0:0:
192,192,261729,128,10,261907:0:0:0:0:
320,192,261729,1,10,0:0:0:0:
64,192,261818,1,0,0:0:0:0:
320,192,261907,128,4,262086:0:0:0:0:
64,192,261907,1,4,0:0:0:0:
448,192,261997,1,0,0:0:0:0:
64,192,262086,128,10,262265:0:0:0:0:
192,192,262086,1,10,0:0:0:0:
320,192,262175,1,0,0:0:0:0:
320,192,262265,1,4,0:0:0:0:
448,192,262265,1,6,0:0:0:0:
192,192,262265,128,6,262443:0:0:0:0:
64,192,262354,1,0,0:0:0:0:
320,192,262443,1,8,0:0:0:0:
448,192,262443,1,8,0:0:0:0:
192,192,262532,1,0,0:0:0:0:
448,192,262622,128,6,262800:0:0:0:0:
64,192,262622,1,6,0:0:0:0:
320,192,262711,1,0,0:0:0:0:
192,192,262800,1,8,0:0:0:0:
320,192,262800,1,8,0:0:0:0:
64,192,262890,1,0,0:0:0:0:
448,192,262979,1,6,0:0:0:0:
192,192,262979,1,6,0:0:0:0:
320,192,263068,1,0,0:0:0:0:
192,192,263157,1,10,0:0:0:0:
64,192,263157,1,10,0:0:0:0:
192,192,263247,1,0,0:0:0:0:
320,192,263336,1,6,0:0:0:0:
448,192,263336,1,6,0:0:0:0:
64,192,263425,1,0,0:0:0:0:
64,192,263515,1,10,0:0:0:0:
320,192,263515,1,10,0:0:0:0:
448,192,263604,1,0,0:0:0:0:
192,192,263693,1,0,0:0:0:0:
448,192,263782,1,0,0:0:0:0:
192,192,263872,1,8,0:0:0:0:
320,192,263872,1,8,0:0:0:0:
192,192,263961,1,0,0:0:0:0:
320,192,264050,1,2,0:0:0:0:
64,192,264050,1,2,0:0:0:0:
64,192,264140,1,0,0:0:0:0:
448,192,264229,1,10,0:0:0:0:
320,192,264229,1,10,0:0:0:0:
320,192,264318,1,0,0:0:0:0:
192,192,264407,1,8,0:0:0:0:
64,192,264407,1,8,0:0:0:0:
320,192,264497,1,8,0:0:0:0:
448,192,264497,1,8,0:0:0:0:
320,192,264586,1,10,0:0:0:0:
448,192,264586,1,10,0:0:0:0:
320,192,264675,1,10,0:0:0:0:
64,192,264675,1,8,0:0:0:0:
448,192,264720,1,2,0:0:0:0:
192,192,264765,1,10,0:0:0:0:
64,192,264765,1,10,0:0:0:0:
320,192,264854,1,8,0:0:0:0:
448,192,264854,1,8,0:0:0:0:
320,192,264943,1,10,0:0:0:0:
448,192,264943,1,10,0:0:0:0:
64,192,265032,1,8,0:0:0:0:
192,192,265032,1,8,0:0:0:0:
448,192,265122,1,6,0:0:0:0:
192,192,265122,1,6,0:0:0:0:
64,192,265122,1,6,0:0:0:0:
320,192,265122,128,4,265479:0:0:0:0:
448,192,265211,1,0,0:0:0:0:
192,192,265300,1,8,0:0:0:0:
64,192,265300,1,8,0:0:0:0:
192,192,265390,1,0,0:0:0:0:
64,192,265479,1,6,0:0:0:0:
448,192,265479,1,6,0:0:0:0:
448,192,265568,1,0,0:0:0:0:
320,192,265657,1,8,0:0:0:0:
192,192,265657,1,8,0:0:0:0:
64,192,265747,1,0,0:0:0:0:
192,192,265836,128,2,266193:0:0:0:0:
448,192,265836,1,2,0:0:0:0:
64,192,265925,1,0,0:0:0:0:
320,192,266015,1,10,0:0:0:0:
448,192,266015,1,10,0:0:0:0:
448,192,266104,1,0,0:0:0:0:
320,192,266193,1,6,0:0:0:0:
64,192,266193,1,6,0:0:0:0:
320,192,266282,1,0,0:0:0:0:
192,192,266372,1,10,0:0:0:0:
64,192,266372,1,10,0:0:0:0:
64,192,266461,1,0,0:0:0:0:
448,192,266550,128,0,266907:0:0:0:0:
192,192,266640,1,0,0:0:0:0:
320,192,266729,1,8,0:0:0:0:
64,192,266729,1,8,0:0:0:0:
320,192,266818,1,0,0:0:0:0:
192,192,266907,1,4,0:0:0:0:
64,192,266907,1,4,0:0:0:0:
64,192,266997,1,0,0:0:0:0:
320,192,267086,1,10,0:0:0:0:
448,192,267086,1,10,0:0:0:0:
448,192,267175,1,0,0:0:0:0:
192,192,267265,128,2,267622:0:0:0:0:
64,192,267265,1,2,0:0:0:0:
448,192,267354,1,0,0:0:0:0:
320,192,267443,1,10,0:0:0:0:
448,192,267443,1,10,0:0:0:0:
64,192,267532,1,0,0:0:0:0:
320,192,267622,1,6,0:0:0:0:
448,192,267622,1,6,0:0:0:0:
64,192,267711,1,0,0:0:0:0:
320,192,267800,1,10,0:0:0:0:
192,192,267800,1,10,0:0:0:0:
192,192,267890,1,0,0:0:0:0:
320,192,267979,128,6,268336:0:0:0:0:
64,192,267979,1,4,0:0:0:0:
448,192,267979,1,6,0:0:0:0:
192,192,268068,1,0,0:0:0:0:
448,192,268157,1,8,0:0:0:0:
64,192,268157,1,8,0:0:0:0:
448,192,268247,1,0,0:0:0:0:
192,192,268336,1,6,0:0:0:0:
64,192,268336,1,6,0:0:0:0:
320,192,268425,1,0,0:0:0:0:
448,192,268515,1,8,0:0:0:0:
192,192,268515,1,8,0:0:0:0:
192,192,268604,1,0,0:0:0:0:
64,192,268693,128,2,269050:0:0:0:0:
320,192,268693,1,2,0:0:0:0:
192,192,268782,1,0,0:0:0:0:
448,192,268872,1,2,0:0:0:0:
320,192,268872,1,2,0:0:0:0:
448,192,268961,1,0,0:0:0:0:
320,192,269050,1,6,0:0:0:0:
192,192,269050,1,6,0:0:0:0:
448,192,269140,1,0,0:0:0:0:
64,192,269229,1,10,0:0:0:0:
320,192,269229,1,10,0:0:0:0:
64,192,269318,1,0,0:0:0:0:
320,192,269407,128,4,269765:0:0:0:0:
192,192,269407,1,4,0:0:0:0:
64,192,269586,1,10,0:0:0:0:
192,192,269586,1,10,0:0:0:0:
64,192,269675,1,0,0:0:0:0:
448,192,269765,1,6,0:0:0:0:
192,192,269765,1,6,0:0:0:0:
448,192,269854,1,0,0:0:0:0:
320,192,269943,1,10,0:0:0:0:
64,192,269943,1,10,0:0:0:0:
192,192,270032,1,0,0:0:0:0:
448,192,270122,128,14,270479:0:0:0:0:
320,192,270122,1,14,0:0:0:0:
64,192,270211,1,2,0:0:0:0:
320,192,270256,1,2,0:0:0:0:
192,192,270300,1,10,0:0:0:0:
64,192,270300,1,10,0:0:0:0:
320,192,270390,1,0,0:0:0:0:
64,192,270479,1,14,0:0:0:0:
192,192,270479,1,14,0:0:0:0:
192,192,270568,1,8,0:0:0:0:
64,192,270568,1,8,0:0:0:0:
320,192,270657,1,10,0:0:0:0:
448,192,270657,1,10,0:0:0:0:
192,192,270747,1,8,0:0:0:0:
64,192,270747,1,8,0:0:0:0:
448,192,270836,128,4,271193:0:0:0:0:
320,192,270836,1,6,0:0:0:0:
64,192,270836,1,6,0:0:0:0:
192,192,270925,1,0,0:0:0:0:
64,192,271015,1,8,0:0:0:0:
192,192,271015,1,8,0:0:0:0:
320,192,271104,1,0,0:0:0:0:
64,192,271193,1,6,0:0:0:0:
320,192,271193,1,6,0:0:0:0:
64,192,271282,1,0,0:0:0:0:
448,192,271372,1,10,0:0:0:0:
320,192,271372,1,10,0:0:0:0:
192,192,271461,1,0,0:0:0:0:
64,192,271550,128,2,271907:0:0:0:0:
448,192,271550,1,2,0:0:0:0:
192,192,271640,1,0,0:0:0:0:
320,192,271729,1,10,0:0:0:0:
448,192,271729,1,10,0:0:0:0:
448,192,271818,1,0,0:0:0:0:
192,192,271907,1,6,0:0:0:0:
320,192,271907,1,6,0:0:0:0:
320,192,271997,1,0,0:0:0:0:
192,192,272086,1,10,0:0:0:0:
64,192,272086,1,10,0:0:0:0:
448,192,272131,1,0,0:0:0:0:
192,192,272265,128,0,272622:0:0:0:0:
64,192,272354,1,0,0:0:0:0:
320,192,272443,1,8,0:0:0:0:
448,192,272443,1,8,0:0:0:0:
448,192,272532,1,0,0:0:0:0:
320,192,272622,1,4,0:0:0:0:
64,192,272622,1,4,0:0:0:0:
192,192,272711,1,0,0:0:0:0:
64,192,272800,1,8,0:0:0:0:
448,192,272800,1,8,0:0:0:0:
448,192,272890,1,0,0:0:0:0:
320,192,272979,128,2,273336:0:0:0:0:
64,192,272979,1,2,0:0:0:0:
448,192,273068,1,0,0:0:0:0:
192,192,273157,1,10,0:0:0:0:
64,192,273157,1,10,0:0:0:0:
64,192,273247,1,0,0:0:0:0:
448,192,273336,1,6,0:0:0:0:
192,192,273336,1,6,0:0:0:0:
448,192,273425,1,0,0:0:0:0:
192,192,273515,1,10,0:0:0:0:
320,192,273515,1,10,0:0:0:0:
64,192,273604,1,0,0:0:0:0:
64,192,273693,1,4,0:0:0:0:
448,192,273693,1,6,0:0:0:0:
192,192,273693,128,6,274050:0:0:0:0:
448,192,273782,1,0,0:0:0:0:
320,192,273872,1,8,0:0:0:0:
64,192,273872,1,8,0:0:0:0:
64,192,273961,1,0,0:0:0:0:
320,192,274050,1,2,0:0:0:0:
448,192,274050,1,2,0:0:0:0:
320,192,274140,1,0,0:0:0:0:
192,192,274229,1,10,0:0:0:0:
448,192,274229,1,10,0:0:0:0:
64,192,274318,1,0,0:0:0:0:
64,192,274407,128,2,274765:0:0:0:0:
320,192,274407,1,2,0:0:0:0:
448,192,274497,1,0,0:0:0:0:
192,192,274586,1,10,0:0:0:0:
320,192,274586,1,10,0:0:0:0:
192,192,274675,1,0,0:0:0:0:
320,192,274765,1,0,0:0:0:0:
448,192,274765,1,0,0:0:0:0:
192,192,274854,1,0,0:0:0:0:
64,192,274943,128,10,275122:0:0:0:0:
320,192,274943,1,10,0:0:0:0:
192,192,275032,1,0,0:0:0:0:
448,192,275122,1,8,0:0:0:0:
320,192,275122,1,8,0:0:0:0:
192,192,275211,1,8,0:0:0:0:
64,192,275211,1,8,0:0:0:0:
320,192,275300,128,2,275479:0:0:0:0:
448,192,275300,1,2,0:0:0:0:
192,192,275390,1,0,0:0:0:0:
64,192,275390,1,0,0:0:0:0:
64,192,275479,128,4,275657:0:0:0:0:
192,192,275479,1,4,0:0:0:0:
448,192,275568,1,0,0:0:0:0:
448,192,275657,128,10,275836:0:0:0:0:
320,192,275657,1,10,0:0:0:0:
192,192,275747,1,8,0:0:0:0:
64,192,275747,1,8,0:0:0:0:
192,192,275836,128,8,276015:0:0:0:0:
64,192,275836,1,8,0:0:0:0:
320,192,275925,1,0,0:0:0:0:
320,192,276015,128,2,276193:0:0:0:0:
448,192,276015,1,2,0:0:0:0:
64,192,276104,1,2,0:0:0:0:
192,192,276148,1,2,0:0:0:0:
64,192,276193,1,10,0:0:0:0:
448,192,276193,1,10,0:0:0:0:
192,192,276282,1,8,0:0:0:0:
320,192,276282,1,8,0:0:0:0:
64,192,276372,1,8,0:0:0:0:
320,192,276372,1,8,0:0:0:0:
448,192,276461,1,8,0:0:0:0:
192,192,276461,1,8,0:0:0:0:
320,192,276550,1,6,0:0:0:0:
448,192,276550,1,6,0:0:0:0:
192,192,276550,1,4,0:0:0:0:
64,192,276550,128,6,276907:0:0:0:0:
320,192,276640,1,0,0:0:0:0:
448,192,276729,1,8,0:0:0:0:
192,192,276729,1,8,0:0:0:0:
192,192,276818,1,0,0:0:0:0:
320,192,276907,1,6,0:0:0:0:
448,192,276907,1,6,0:0:0:0:
64,192,276997,1,0,0:0:0:0:
192,192,277086,1,8,0:0:0:0:
448,192,277086,1,8,0:0:0:0:
320,192,277175,1,0,0:0:0:0:
448,192,277265,128,2,277622:0:0:0:0:
64,192,277265,1,2,0:0:0:0:
320,192,277354,1,0,0:0:0:0:
192,192,277443,1,10,0:0:0:0:
64,192,277443,1,10,0:0:0:0:
192,192,277532,1,0,0:0:0:0:
320,192,277622,1,6,0:0:0:0:
64,192,277622,1,6,0:0:0:0:
192,192,277711,1,0,0:0:0:0:
320,192,277800,1,10,0:0:0:0:
448,192,277800,1,10,0:0:0:0:
448,192,277890,1,0,0:0:0:0:
64,192,277979,128,0,278336:0:0:0:0:
192,192,278068,1,0,0:0:0:0:
320,192,278157,1,10,0:0:0:0:
448,192,278157,1,10,0:0:0:0:
320,192,278247,1,0,0:0:0:0:
192,192,278336,1,4,0:0:0:0:
448,192,278336,1,4,0:0:0:0:
448,192,278425,1,0,0:0:0:0:
320,192,278515,1,10,0:0:0:0:
64,192,278515,1,10,0:0:0:0:
448,192,278604,1,0,0:0:0:0:
192,192,278693,128,2,279050:0:0:0:0:
64,192,278693,1,2,0:0:0:0:
64,192,278782,1,0,0:0:0:0:
320,192,278872,1,10,0:0:0:0:
448,192,278872,1,10,0:0:0:0:
64,192,278961,1,0,0:0:0:0:
320,192,279050,1,6,0:0:0:0:
448,192,279050,1,6,0:0:0:0:
448,192,279140,1,0,0:0:0:0:
320,192,279229,1,10,0:0:0:0:
64,192,279229,1,10,0:0:0:0:
320,192,279318,1,0,0:0:0:0:
448,192,279407,128,6,279765:0:0:0:0:
64,192,279407,1,6,0:0:0:0:
192,192,279407,1,4,0:0:0:0:
192,192,279497,1,0,0:0:0:0:
320,192,279586,1,8,0:0:0:0:
64,192,279586,1,8,0:0:0:0:
320,192,279675,1,0,0:0:0:0:
192,192,279765,1,6,0:0:0:0:
64,192,279765,1,6,0:0:0:0:
448,192,279854,1,0,0:0:0:0:
192,192,279943,1,10,0:0:0:0:
320,192,279943,1,10,0:0:0:0:
192,192,280032,1,0,0:0:0:0:
64,192,280122,128,2,280479:0:0:0:0:
448,192,280122,1,2,0:0:0:0:
448,192,280211,1,0,0:0:0:0:
320,192,280300,1,10,0:0:0:0:
192,192,280300,1,10,0:0:0:0:
448,192,280390,1,0,0:0:0:0:
320,192,280479,1,4,0:0:0:0:
192,192,280479,1,4,0:0:0:0:
64,192,280568,1,0,0:0:0:0:
320,192,280657,1,10,0:0:0:0:
192,192,280657,1,10,0:0:0:0:
192,192,280747,1,0,0:0:0:0:
64,192,280836,1,2,0:0:0:0:
320,192,280836,128,2,281193:0:0:0:0:
448,192,280925,1,0,0:0:0:0:
192,192,281015,1,8,0:0:0:0:
64,192,281015,1,8,0:0:0:0:
64,192,281104,1,0,0:0:0:0:
192,192,281193,1,6,0:0:0:0:
448,192,281193,1,6,0:0:0:0:
448,192,281282,1,0,0:0:0:0:
192,192,281372,1,10,0:0:0:0:
64,192,281372,1,10,0:0:0:0:
320,192,281461,1,0,0:0:0:0:
448,192,281550,128,6,281907:0:0:0:0:
64,192,281550,1,6,0:0:0:0:
320,192,281640,1,0,0:0:0:0:
192,192,281684,1,0,0:0:0:0:
320,192,281729,1,10,0:0:0:0:
64,192,281729,1,10,0:0:0:0:
64,192,281818,1,0,0:0:0:0:
192,192,281907,1,6,0:0:0:0:
320,192,281907,1,6,0:0:0:0:
192,192,281997,1,0,0:0:0:0:
320,192,282086,1,2,0:0:0:0:
448,192,282086,1,2,0:0:0:0:
320,192,282175,1,0,0:0:0:0:
192,192,282265,128,4,282622:0:0:0:0:
448,192,282265,1,6,0:0:0:0:
64,192,282265,1,6,0:0:0:0:
320,192,282354,1,0,0:0:0:0:
448,192,282443,1,8,0:0:0:0:
64,192,282443,1,8,0:0:0:0:
320,192,282532,1,0,0:0:0:0:
64,192,282622,1,6,0:0:0:0:
320,192,282622,1,6,0:0:0:0:
192,192,282711,1,0,0:0:0:0:
448,192,282800,1,10,0:0:0:0:
64,192,282800,1,10,0:0:0:0:
448,192,282890,1,0,0:0:0:0:
320,192,282979,128,2,283336:0:0:0:0:
64,192,282979,1,2,0:0:0:0:
64,192,283068,1,0,0:0:0:0:
192,192,283157,1,10,0:0:0:0:
448,192,283157,1,10,0:0:0:0:
64,192,283247,1,0,0:0:0:0:
448,192,283336,1,4,0:0:0:0:
192,192,283336,1,4,0:0:0:0:
192,192,283425,1,0,0:0:0:0:
320,192,283515,1,10,0:0:0:0:
448,192,283515,1,10,0:0:0:0:
64,192,283604,1,0,0:0:0:0:
320,192,283693,128,0,284050:0:0:0:0:
448,192,283782,1,0,0:0:0:0:
192,192,283872,1,10,0:0:0:0:
64,192,283872,1,10,0:0:0:0:
448,192,283961,1,0,0:0:0:0:
192,192,284050,1,4,0:0:0:0:
64,192,284050,1,4,0:0:0:0:
320,192,284140,1,0,0:0:0:0:
192,192,284229,1,10,0:0:0:0:
64,192,284229,1,10,0:0:0:0:
448,192,284318,1,0,0:0:0:0:
192,192,284407,128,0,284765:0:0:0:0:
64,192,284497,1,0,0:0:0:0:
320,192,284586,1,10,0:0:0:0:
448,192,284586,1,10,0:0:0:0:
448,192,284675,1,0,0:0:0:0:
320,192,284765,1,4,0:0:0:0:
64,192,284765,1,4,0:0:0:0:
192,192,284854,1,0,0:0:0:0:
64,192,284943,1,10,0:0:0:0:
448,192,284943,1,10,0:0:0:0:
320,192,285032,1,0,0:0:0:0:
448,192,285122,128,6,285479:0:0:0:0:
192,192,285122,1,6,0:0:0:0:
320,192,285122,1,4,0:0:0:0:
64,192,285211,1,0,0:0:0:0:
192,192,285300,1,8,0:0:0:0:
320,192,285300,1,8,0:0:0:0:
320,192,285390,1,0,0:0:0:0:
192,192,285479,1,6,0:0:0:0:
64,192,285479,1,6,0:0:0:0:
448,192,285568,1,0,0:0:0:0:
320,192,285657,1,8,0:0:0:0:
64,192,285657,1,8,0:0:0:0:
192,192,285747,1,0,0:0:0:0:
64,192,285836,128,0,286193:0:0:0:0:
448,192,285836,1,0,0:0:0:0:
192,192,285925,1,0,0:0:0:0:
320,192,286015,1,8,0:0:0:0:
448,192,286015,1,8,0:0:0:0:
192,192,286104,1,0,0:0:0:0:
320,192,286193,1,6,0:0:0:0:
448,192,286193,1,6,0:0:0:0:
448,192,286282,1,0,0:0:0:0:
320,192,286372,128,10,286550:0:0:0:0:
64,192,286372,1,10,0:0:0:0:
192,192,286461,1,0,0:0:0:0:
64,192,286550,1,4,0:0:0:0:
448,192,286640,1,0,0:0:0:0:
192,192,286729,128,8,286907:0:0:0:0:
320,192,286729,1,8,0:0:0:0:
64,192,286818,1,0,0:0:0:0:
448,192,286907,128,0,287086:0:0:0:0:
320,192,286997,1,0,0:0:0:0:
192,192,287086,128,8,287265:0:0:0:0:
64,192,287086,1,8,0:0:0:0:
448,192,287265,128,8,287443:0:0:0:0:
320,192,287265,1,8,0:0:0:0:
192,192,287354,1,8,0:0:0:0:
64,192,287354,1,8,0:0:0:0:
192,192,287443,128,10,287622:0:0:0:0:
64,192,287443,1,10,0:0:0:0:
320,192,287532,1,10,0:0:0:0:
448,192,287532,1,8,0:0:0:0:
64,192,287577,1,2,0:0:0:0:
320,192,287622,128,10,287800:0:0:0:0:
448,192,287622,1,10,0:0:0:0:
192,192,287711,1,8,0:0:0:0:
64,192,287711,1,8,0:0:0:0:
192,192,287800,128,10,287979:0:0:0:0:
64,192,287800,1,10,0:0:0:0:
320,192,287890,1,8,0:0:0:0:
448,192,287890,1,8,0:0:0:0:
64,192,287979,1,6,0:0:0:0:
448,192,287979,128,6,289050:0:0:0:0:
320,192,287979,128,6,289050:0:0:0:0:
320,192,290166,128,0,290300:0:0:0:0:
192,192,290390,128,0,290568:0:0:0:0:
64,192,290657,128,0,290791:0:0:0:0:
192,192,290970,128,0,291059:0:0:0:0:
64,192,291193,128,0,291282:0:0:0:0:
192,192,291282,128,0,291372:0:0:0:0:
320,192,291461,128,0,291550:0:0:0:0:
320,192,291684,128,0,291818:0:0:0:0:
192,192,291907,128,0,292041:0:0:0:0:
64,192,292220,128,0,292488:0:0:0:0:
448,192,292465,128,0,292644:0:0:0:0:
