osu file format v14

[General]
AudioFilename: audio.ogg
AudioLeadIn: 0
PreviewTime: 56615
Countdown: 0
SampleSet: Soft
StackLeniency: 0.7
Mode: 0
LetterboxInBreaks: 0
WidescreenStoryboard: 1

[Editor]
DistanceSpacing: 1
BeatDivisor: 4
GridSize: 32
TimelineZoom: 2

[Metadata]
Title:PEACEKEEPER (TV Size)
TitleUnicode:PEACEKEEPER (TV Size)
Artist:STEREO DIVE FOUNDATION
ArtistUnicode:STEREO DIVE FOUNDATION
Creator:dkblaze
Version:Normal
Source:転生したらスライムだった件 第3期
Tags:Tensei Shitara Slime Datta Ken 転スラ TenSura That Time I Got Reincarnated as a Slime 3rd 3 third season R·O·N RON japanese english rock jrock j-rock pop jpop j-pop anime op opening
BeatmapID:4568606
BeatmapSetID:2165456

[Difficulty]
HPDrainRate:4
CircleSize:3.8
OverallDifficulty:4
ApproachRate:6
SliderMultiplier:0.999999999999999
SliderTickRate:1

[Events]
//Background and Video events
0,0,"BG.jpg",0,0
Video,-315,"video.avi"
//Break Periods
2,18490,25640
2,37690,45440
//Storyboard Layer 0 (Background)
//Storyboard Layer 1 (Fail)
//Storyboard Layer 2 (Pass)
//Storyboard Layer 3 (Foreground)
//Storyboard Layer 4 (Overlay)
//Storyboard Sound Samples

[TimingPoints]
290,300,4,2,2,60,1,0
290,-100,4,2,2,60,0,0
7490,-100,4,2,2,40,0,0
8690,-100,4,2,2,75,0,0
18290,-100,4,2,2,65,0,0
27740,-100,4,2,2,75,0,0
37490,-100,4,2,2,60,0,0
47090,-100,4,2,2,75,0,0
56690,-100,4,2,2,85,0,1
75890,-100,4,2,2,80,0,0
89090,-100,4,2,2,5,0,0

[Colours]
Combo1 : 58,162,237
Combo2 : 155,244,244

[HitObjects]
323,248,8690,6,0,P|307:200|309:150,1,99.9999999999999,6|10,3:2|0:0,0:0:0:0:
243,75,9290,2,0,B|252:54|252:54|250:19,2,50,2|0|10,3:2|3:0|0:0,0:0:0:0:
201,102,9740,2,0,P|161:86|103:83,1,99.9999999999999,2|0,3:2|3:0,0:0:0:0:
69,46,10190,1,10,0:0:0:0:
2,121,10490,2,0,P|7:155|8:178,1,50,2|2,3:2|3:2,0:0:0:0:
41,207,10790,2,0,P|65:209|88:200,1,50,10|0,0:0|0:0,0:0:0:0:
130,172,11090,6,0,P|183:188|239:185,1,99.9999999999999,2|10,3:2|0:0,0:0:0:0:
307,246,11690,2,0,B|300:270|300:270|303:294,2,50,2|0|10,3:2|3:0|0:0,0:0:0:0:
338,206,12140,2,0,P|378:187|445:195,1,99.9999999999999,2|0,3:2|3:0,0:0:0:0:
472,220,12590,1,10,0:0:0:0:
505,314,12890,2,0,P|504:338|493:361,1,50,2|2,3:2|3:2,0:0:0:0:
448,381,13190,1,14,0:0:0:0:
357,337,13490,6,0,B|282:343|323:352|251:361,1,99.9999999999999,6|10,3:2|0:0,0:0:0:0:
170,314,14090,2,0,P|147:305|106:300,2,50,2|0|10,3:2|3:0|0:0,0:0:0:0:
216,294,14540,2,0,P|216:252|201:190,1,99.9999999999999,2|0,3:2|3:0,0:0:0:0:
197,146,14990,1,10,0:0:0:0:
255,64,15290,2,0,P|279:71|305:76,1,50,2|2,3:2|3:2,0:0:0:0:
345,103,15590,2,0,P|369:96|395:91,1,50,10|0,0:0|0:0,0:0:0:0:
428,54,15890,6,0,P|474:83|479:139,1,99.9999999999999,2|10,3:2|0:2,0:0:0:0:
456,221,16490,2,0,B|468:245|468:245|468:272,2,50,2|2|10,0:0|3:2|0:0,0:0:0:0:
407,208,16940,2,0,P|361:221|298:221,1,99.9999999999999,2|0,3:2|3:0,0:0:0:0:
260,211,17390,1,10,0:0:0:0:
168,251,17690,2,0,P|159:231|160:200,1,50,8|4,3:2|0:3,0:0:0:0:
186,161,17990,2,0,P|180:132|177:106,1,50,8|4,0:3|0:3,0:0:0:0:
143,75,18290,1,4,3:2:0:0:
184,256,26690,6,0,P|188:209|196:144,1,99.9999999999999,2|0,0:0|0:0,0:0:0:0:
267,87,27290,2,0,B|297:89|297:89|322:77,2,50,8|8|8,3:3|0:0|0:0,0:0:0:0:
245,41,27740,2,0,P|199:22|149:25,1,99.9999999999999,4|0,3:2|3:0,0:0:0:0:
106,50,28190,1,10,0:0:0:0:
54,135,28490,1,2,3:2:0:0:
54,135,28640,2,0,P|33:128|-1:125,2,50,2|2|8,3:2|0:0|0:0,0:0:0:0:
84,175,29090,6,0,B|69:224|69:224|75:274,1,99.9999999999999,2|10,0:0|0:0,0:0:0:0:
46,313,29540,1,2,0:0:0:0:
123,376,29840,2,0,P|155:369|178:365,1,50,2|8,3:2|0:0,0:0:0:0:
220,378,30140,2,0,B|210:309|224:354|212:270,1,99.9999999999999,6|0,3:2|3:0,0:0:0:0:
249,243,30590,2,0,P|303:242|347:276,1,99.9999999999999,10|2,0:0|3:2,0:0:0:0:
380,357,31190,2,0,P|407:348|431:346,1,50,2|10,0:0|0:0,0:0:0:0:
473,368,31490,6,0,B|482:321|482:321|463:270,1,99.9999999999999,2|8,0:0|0:0,0:0:0:0:
489,229,31940,1,2,0:0:0:0:
399,184,32240,2,0,P|380:192|347:194,1,50,2|8,3:2|0:0,0:0:0:0:
302,180,32540,2,0,P|280:142|278:81,1,99.9999999999999,6|0,3:2|3:0,0:0:0:0:
296,40,32990,1,10,0:0:0:0:
296,40,33140,1,2,0:0:0:0:
443,12,33590,5,2,0:0:0:0:
443,12,33740,2,0,P|472:57|470:115,1,99.9999999999999,10|0,0:0|3:0,0:0:0:0:
442,141,34190,1,10,0:0:0:0:
442,141,34340,1,2,0:0:0:0:
350,100,34640,2,0,P|329:107|284:113,1,50,2|8,3:2|0:0,0:0:0:0:
263,144,34940,6,0,P|215:136|156:132,1,99.9999999999999,6|2,3:2|3:2,0:0:0:0:
140,88,35390,1,10,0:0:0:0:
43,60,35690,2,0,P|36:38|33:5,2,50,0|2|0,3:0|3:2|0:0,0:0:0:0:
15,102,36140,2,0,B|1:158|1:158|8:210,1,99.9999999999999,8|0,0:0|3:0,0:0:0:0:
46,230,36590,5,14,0:0:0:0:
135,185,36890,1,10,0:3:0:0:
226,225,37190,1,14,3:2:0:0:
315,180,37490,1,6,3:2:0:0:
309,242,46490,6,0,P|359:248|405:231,1,99.9999999999999,2|0,0:0|0:0,0:0:0:0:
432,189,46940,1,2,0:0:0:0:
432,189,47090,2,0,B|416:150|416:150|420:93,1,99.9999999999999,12|0,3:2|3:0,0:0:0:0:
387,54,47540,1,14,0:0:0:0:
299,5,47840,2,0,P|272:14|234:14,1,50,10|12,0:0|3:2,0:0:0:0:
217,53,48140,2,0,B|226:131|212:95|224:169,1,99.9999999999999,10|8,0:0|0:0,0:0:0:0:
262,181,48590,1,2,3:2:0:0:
315,265,48890,1,2,3:2:0:0:
266,352,49190,2,0,P|241:345|214:341,1,50,4|10,3:2|0:0,0:0:0:0:
175,368,49490,6,0,B|133:350|133:350|79:362,1,99.9999999999999,6|0,3:2|3:0,0:0:0:0:
47,324,49940,2,0,P|27:325|-4:314,2,50,14|2|8,0:0|3:2|0:0,0:0:0:0:
81,229,50540,1,10,0:0:0:0:
180,218,50840,1,10,0:0:0:0:
251,287,51140,2,0,B|321:271|288:288|367:275,1,99.9999999999999,14|10,0:0|0:0,0:0:0:0:
419,205,51740,1,10,0:0:0:0:
419,205,51890,1,2,0:0:0:0:
283,57,52490,6,0,P|180:51|115:115,1,200
245,266,53690,1,2,0:0:0:0:
322,202,53990,1,10,0:0:0:0:
403,260,54290,6,0,B|422:308|422:308|416:358,1,99.9999999999999,14|2,0:0|3:2,0:0:0:0:
372,380,54740,2,0,P|346:371|307:367,1,50,10|0,3:3|3:0,0:0:0:0:
290,330,55040,1,2,3:2:0:0:
198,369,55340,1,2,3:2:0:0:
198,369,55490,2,0,P|179:331|185:267,1,99.9999999999999,8|8,3:2|3:2,0:0:0:0:
250,201,56090,2,0,B|277:208|277:208|310:206,2,50,2|0|0,0:0|0:0|0:0,0:0:0:0:
169,141,56690,6,0,P|175:85|180:28,1,99.9999999999999,6|8,3:2|0:0,0:0:0:0:
215,7,57140,1,2,0:0:0:0:
289,73,57440,2,0,P|290:104|298:129,2,50,2|10|2,3:2|0:0|0:0,0:0:0:0:
326,40,57890,2,0,B|367:22|367:22|423:30,1,99.9999999999999,2|10,3:2|0:0,0:0:0:0:
453,68,58340,2,0,P|446:99|444:126,1,50,2|0,0:0|0:0,0:0:0:0:
479,152,58640,1,2,3:2:0:0:
411,225,58940,6,0,P|420:251|421:278,2,50,2|2|0,0:0|3:2|3:0,0:0:0:0:
365,204,59390,2,0,P|314:213|266:217,1,99.9999999999999,10|2,0:0|0:0,0:0:0:0:
227,184,59840,2,0,B|205:175|205:175|174:179,2,50,2|10|0,3:2|0:0|0:0,0:0:0:0:
260,146,60290,2,0,P|257:101|248:37,1,99.9999999999999,2|8,3:2|0:0,0:0:0:0:
212,12,60740,1,2,3:2:0:0:
121,54,61040,1,2,3:2:0:0:
25,25,61340,5,2,0:0:0:0:
25,25,61490,2,0,P|18:80|38:129,1,99.9999999999999,6|8,3:2|0:0,0:0:0:0:
71,153,61940,1,2,0:0:0:0:
71,153,62090,1,2,0:0:0:0:
148,215,62390,2,0,P|175:207|213:201,1,50,8|2,0:0|0:0,0:0:0:0:
242,222,62690,2,0,B|261:273|261:273|254:324,1,99.9999999999999,2|8,3:2|0:0,0:0:0:0:
242,369,63140,1,2,0:0:0:0:
242,369,63290,2,0,P|188:375|132:356,1,99.9999999999999,2|8,0:0|0:0,0:0:0:0:
58,311,63890,5,2,3:2:0:0:
85,214,64190,1,10,0:0:0:0:
30,129,64490,1,2,0:0:0:0:
91,50,64790,1,10,0:0:0:0:
177,100,65090,2,0,P|203:91|234:87,1,50,14|0,0:0|3:0,0:0:0:0:
263,54,65390,2,0,P|289:63|320:67,1,50,12|0,0:0|3:0,0:0:0:0:
357,47,65690,2,0,B|367:26|367:26|367:-7,2,50,8|4|12,3:3|0:3|0:0,0:0:0:0:
429,116,66290,6,0,P|435:167|437:226,1,99.9999999999999,6|10,3:2|0:0,0:0:0:0:
347,264,66890,2,0,L|285:254,1,50,10|2,0:0|3:2,0:0:0:0:
254,230,67190,2,0,P|254:195|261:170,1,50,10|0,0:0|3:0,0:0:0:0:
232,137,67490,2,0,P|190:122|124:124,1,99.9999999999999,10|8,0:0|0:0,0:0:0:0:
93,149,67940,1,2,3:2:0:0:
48,238,68240,2,0,B|28:231|28:231|0:231,2,50,2|8|2,3:2|0:0|3:2,0:0:0:0:
79,276,68690,6,0,P|76:302|73:329,1,50,14|2,0:0|3:2,0:0:0:0:
112,356,68990,2,0,P|142:358|169:346,1,50,10|0,0:0|3:0,0:0:0:0:
201,323,69290,2,0,P|197:279|191:209,1,99.9999999999999,10|8,0:0|0:0,0:0:0:0:
256,146,69890,1,10,0:0:0:0:
239,51,70190,1,8,0:0:0:0:
239,51,70340,2,0,P|210:51|180:42,1,50,2|8,3:2|0:0,0:0:0:0:
145,69,70640,2,0,P|106:52|47:56,1,99.9999999999999,2|2,3:2|3:2,0:0:0:0:
0,45,71090,6,0,B|10:128|-4:87|6:168,1,99.9999999999999,14|8,0:0|0:0,0:0:0:0:
6,198,71540,1,2,3:2:0:0:
6,198,71690,1,10,0:0:0:0:
100,232,71990,2,0,P|129:224|164:221,1,50,8|2,0:0|3:2,0:0:0:0:
182,184,72290,2,0,P|240:192|287:173,1,99.9999999999999,14|8,0:0|0:0,0:0:0:0:
308,140,72740,1,2,3:2:0:0:
308,140,72890,2,0,P|355:131|411:140,1,99.9999999999999,10|8,0:0|0:0,0:0:0:0:
482,203,73490,5,14,0:0:0:0:
502,300,73790,1,14,0:0:0:0:
424,363,74090,1,14,0:0:0:0:
329,329,74390,1,14,0:0:0:0:
238,371,74690,2,0,P|230:346|227:316,1,50,14|0,0:0|3:0,0:0:0:0:
183,296,74990,2,0,P|188:264|190:228,1,50,12|0,0:0|3:0,0:0:0:0:
228,215,75290,2,0,B|258:216|258:216|285:204,2,50,10|8|12,0:0|3:3|0:3,0:0:0:0:
186,124,75890,6,0,P|131:120|87:151,1,99.9999999999999,6|0,3:2|3:0,0:0:0:0:
48,231,76490,2,0,P|25:224|-5:220,2,50,8|0|0,0:0|3:0|0:0,0:0:0:0:
147,236,77090,2,0,B|139:350|132:278|125:391,2,150,2|2|2,3:2|3:2|0:0,0:0:0:0:
200,151,78290,6,0,P|194:126|193:93,2,50,6|0|2,3:2|0:0|3:2,0:0:0:0:
284,204,78890,2,0,B|328:183|328:183|384:195,1,99.9999999999999,10|2,0:0|0:0,0:0:0:0:
422,167,79340,1,10,0:0:0:0:
422,167,79490,2,0,P|424:225|432:270,1,99.9999999999999,2|0,3:2|3:0,0:0:0:0:
464,360,80090,2,0,P|489:364|514:372,2,50,8|2|8,0:0|3:2|0:0,0:0:0:0:
367,332,80690,6,0,P|321:343|265:343,1,99.9999999999999,6|0,3:2|3:0,0:0:0:0:
168,335,81290,2,0,B|160:364|160:364|162:395,2,50,8|0|0,0:0|3:0|0:0,0:0:0:0:
140,238,81890,2,0,P|86:210|-8:220,2,150,2|2|2,3:2|3:2|0:0,0:0:0:0:
216,173,83090,2,0,P|215:147|208:111,2,50,6|8|14,3:2|0:0|3:2,0:0:0:0:
304,219,83690,2,0,P|329:211|359:206,1,50,14|0,0:0|3:0,0:0:0:0:
381,166,83990,2,0,P|376:136|373:110,1,50,10|6,0:3|0:3,0:0:0:0:
392,69,84290,6,0,P|446:64|494:93,1,99.9999999999999,10|8,0:0|0:0,0:0:0:0:
502,131,84740,1,2,3:2:0:0:
459,221,85040,2,0,B|469:297|453:256|466:327,1,99.9999999999999,2|10,3:2|0:0,0:0:0:0:
480,368,85490,1,6,3:2:0:0:
256,192,85640,12,0,89090,0:0:0:0:
