osu file format v14

[General]
AudioFilename: audio.ogg
AudioLeadIn: 0
PreviewTime: 56615
Countdown: 0
SampleSet: Soft
StackLeniency: 0.7
Mode: 0
LetterboxInBreaks: 0
WidescreenStoryboard: 1

[Editor]
DistanceSpacing: 1.1
BeatDivisor: 4
GridSize: 32
TimelineZoom: 2

[Metadata]
Title:PEACEKEEPER (TV Size)
TitleUnicode:PEACEKEEPER (TV Size)
Artist:STEREO DIVE FOUNDATION
ArtistUnicode:STEREO DIVE FOUNDATION
Creator:dkblaze
Version:Insane
Source:転生したらスライムだった件 第3期
Tags:Tensei Shitara Slime Datta Ken 転スラ TenSura That Time I Got Reincarnated as a Slime 3rd 3 third season R·O·N RON japanese english rock jrock j-rock pop jpop j-pop anime op opening
BeatmapID:4569226
BeatmapSetID:2165456

[Difficulty]
HPDrainRate:5
CircleSize:3.8
OverallDifficulty:8
ApproachRate:9
SliderMultiplier:1.4
SliderTickRate:1

[Events]
//Background and Video events
0,0,"BG.jpg",0,0
Video,-315,"video.avi"
//Break Periods
2,37690,45890
2,52090,53240
//Storyboard Layer 0 (Background)
//Storyboard Layer 1 (Fail)
//Storyboard Layer 2 (Pass)
//Storyboard Layer 3 (Foreground)
//Storyboard Layer 4 (Overlay)
//Storyboard Sound Samples

[TimingPoints]
290,300,4,2,2,60,1,0
290,-100,4,2,2,60,0,0
7490,-100,4,2,2,40,0,0
8690,-100,4,2,2,75,0,0
18290,-166.666666666667,4,2,2,65,0,0
20540,-100,4,2,2,65,0,0
20840,-166.666666666667,4,2,2,65,0,0
22940,-100,4,2,2,65,0,0
23240,-166.666666666667,4,2,2,65,0,0
25340,-100,4,2,2,65,0,0
25640,-166.666666666667,4,2,2,65,0,0
27740,-125,4,2,2,75,0,0
37490,-125,4,2,2,60,0,0
47090,-100,4,2,2,75,0,0
53990,-166.666666666667,4,2,2,75,0,0
54290,-100,4,2,2,75,0,0
56090,-166.666666666667,4,2,2,75,0,0
56690,-100,4,2,2,85,0,1
65990,-83.3333333333333,4,2,2,85,0,1
66290,-100,4,2,2,85,0,1
75890,-125,4,2,2,80,0,0
89090,-100,4,2,2,5,0,0

[Colours]
Combo1 : 58,162,237
Combo2 : 155,244,244

[HitObjects]
216,322,8690,6,0,P|222:289|225:249,1,70,6|0,3:2|0:0,0:0:0:0:
334,138,8990,2,0,P|328:178|328:213,1,70,10|0,0:0|0:0,0:0:0:0:
401,306,9290,1,2,3:2:0:0:
494,278,9440,1,0,3:0:0:0:
494,278,9590,1,10,0:0:0:0:
460,372,9740,6,0,B|447:279|466:336|450:212,1,140,2|0,3:2|3:0,0:0:0:0:
327,207,10190,2,0,P|292:208|257:221,1,70,10|0,0:0|0:0,0:0:0:0:
176,134,10490,1,2,3:2:0:0:
86,177,10640,1,2,3:2:0:0:
160,229,10790,1,10,0:0:0:0:
160,229,10940,1,0,0:0:0:0:
69,272,11090,6,0,P|75:241|78:199,1,70,2|0,3:2|0:0,0:0:0:0:
203,315,11390,2,0,P|195:356|194:386,1,70,10|0,0:0|0:0,0:0:0:0:
323,184,11690,2,0,B|358:179|358:179|392:192,2,70,2|0|10,3:2|3:0|0:0,0:0:0:0:
138,96,12140,6,0,P|79:124|2:114,1,140,2|0,3:2|3:0,0:0:0:0:
186,175,12590,2,0,P|184:214|178:252,1,70,10|0,0:0|0:0,0:0:0:0:
284,96,12890,1,2,3:2:0:0:
380,127,13040,1,2,3:2:0:0:
360,30,13190,1,14,0:0:0:0:
449,61,13340,1,2,0:0:0:0:
263,106,13490,6,0,P|269:75|270:36,1,70,6|0,3:2|0:0,0:0:0:0:
391,225,13790,2,0,P|359:212|316:203,1,70,10|0,0:0|0:0,0:0:0:0:
180,257,14090,1,2,3:2:0:0:
251,333,14240,1,0,3:0:0:0:
251,333,14390,1,10,0:0:0:0:
121,359,14540,6,0,P|181:326|250:332,1,140,2|0,3:2|3:0,0:0:0:0:
301,251,14990,2,0,B|286:221|286:221|290:184,1,70,10|0,0:0|0:0,0:0:0:0:
399,261,15290,1,2,3:2:0:0:
473,208,15440,1,2,3:2:0:0:
483,305,15590,1,10,0:0:0:0:
483,305,15740,1,0,0:0:0:0:
377,167,15890,6,0,P|386:205|387:239,1,70,2|0,3:2|3:0,0:0:0:0:
157,384,16190,2,0,P|161:344|164:306,1,70,10|0,0:2|0:0,0:0:0:0:
296,217,16490,2,0,B|263:205|263:205|229:210,2,70,2|2|10,0:0|3:2|0:0,0:0:0:0:
12,176,16940,6,0,P|77:185|144:151,1,140,2|0,3:2|3:0,0:0:0:0:
160,46,17390,1,10,0:0:0:0:
251,136,17540,1,0,3:0:0:0:
251,136,17615,1,0,3:0:0:0:
251,136,17690,2,0,P|245:108|239:82,1,35,8|8,3:2|0:0,0:0:0:0:
352,0,17840,2,0,P|346:17|345:41,1,35,4|4,0:3|0:3,0:0:0:0:
364,81,17990,2,0,P|380:75|406:70,1,35,8|8,0:3|0:3,0:0:0:0:
420,50,18140,2,0,P|438:57|462:60,1,35,4|4,0:3|0:3,0:0:0:0:
489,97,18290,5,4,3:2:0:0:
334,206,18590,1,2,0:0:0:0:
400,278,18890,2,0,P|423:282|443:293,2,41.9999987182618,2|0|0,0:1|0:0|0:0,0:0:0:0:
340,377,19490,5,2,3:2:0:0:
337,362,19640,1,0,3:0:0:0:
334,347,19790,1,0,3:0:0:0:
331,333,19940,1,0,3:0:0:0:
183,253,20090,5,10,0:0:0:0:
322,194,20240,1,6,3:2:0:0:
224,313,20540,6,0,P|219:248|209:160,1,140,6|0,3:2|0:0,0:0:0:0:
108,343,20990,2,0,B|102:362|102:362|105:384,2,41.9999987182618,2|0|2,3:2|3:0|0:1,0:0:0:0:
210,173,21590,2,0,P|186:182|155:185,1,41.9999987182618,2|2,3:2|3:2,0:0:0:0:
0,91,21890,5,2,3:2:0:0:
85,39,22040,1,8,0:0:0:0:
85,39,22115,1,8,0:0:0:0:
85,39,22190,1,8,0:0:0:0:
152,107,22340,5,2,3:2:0:0:
265,19,22640,1,2,3:2:0:0:
419,139,22940,6,0,B|410:47|427:110|415:-13,1,140,2|0,3:2|0:0,0:0:0:0:
343,186,23390,2,0,P|350:209|353:228,1,41.9999987182618,2|0,3:2|3:0,0:0:0:0:
506,110,23690,1,2,0:1:0:0:
506,110,24290,6,0,L|474:105,3,20.9999993591309,2|0|2|0,3:2|3:0|3:2|3:0,0:0:0:0:
447,126,24590,2,0,L|415:121,3,20.9999993591309,0|0|2|0,3:0|3:0|3:2|3:0,0:0:0:0:
373,62,24890,5,10,0:0:0:0:
328,195,25040,2,0,B|326:173|326:173|335:142,1,41.9999987182618,4|0,3:2|0:0,0:0:0:0:
167,0,25340,6,0,B|176:102|161:41|172:146,1,140,6|0,3:2|0:0,0:0:0:0:
71,190,25790,2,0,P|52:182|18:183,1,41.9999987182618,2|2,3:2|3:2,0:0:0:0:
142,251,26090,2,0,P|163:247|190:244,1,41.9999987182618,2|0,0:1|0:0,0:0:0:0:
39,341,26390,1,2,0:0:0:0:
39,341,26690,6,0,P|104:337|167:371,1,125.999996154785,2|2,0:0|3:2,0:0:0:0:
231,290,27290,1,8,3:3:0:0:
249,313,27365,1,8,0:0:0:0:
276,323,27440,1,8,0:0:0:0:
305,321,27515,1,8,0:0:0:0:
331,308,27590,1,8,0:0:0:0:
432,382,27740,6,0,P|423:327|418:264,1,112,4|0,3:2|3:0,0:0:0:0:
359,99,28190,2,0,P|366:73|367:30,2,56,10|0|2,0:0|0:0|3:2,0:0:0:0:
429,186,28640,1,2,3:2:0:0:
429,186,28790,2,0,P|458:178|497:177,1,56,2|8,0:0|0:0,0:0:0:0:
303,163,29090,6,0,B|313:196|313:196|311:226,1,56,2|0,0:0|3:0,0:0:0:0:
171,312,29390,1,10,0:0:0:0:
219,384,29540,2,0,P|216:354|209:313,1,56,2|0,0:0|3:0,0:0:0:0:
56,169,29840,1,2,3:2:0:0:
56,169,29990,1,8,0:0:0:0:
1,265,30140,6,0,P|57:272|117:243,1,112,6|0,3:2|3:0,0:0:0:0:
196,159,30590,2,0,P|194:136|187:95,1,56,10|0,0:0|0:0,0:0:0:0:
252,44,30890,1,2,3:2:0:0:
252,44,31040,1,2,3:2:0:0:
317,109,31190,5,2,0:0:0:0:
413,62,31340,1,10,0:0:0:0:
346,5,31490,6,0,B|333:62|333:62|340:116,1,112,2|8,0:0|0:0,0:0:0:0:
234,193,31940,2,0,P|252:188|289:184,1,56,2|0,0:0|3:0,0:0:0:0:
432,243,32240,2,0,P|443:274|444:302,1,56,2|8,3:2|0:0,0:0:0:0:
511,195,32540,6,0,P|458:198|404:175,1,112,6|0,3:2|3:0,0:0:0:0:
312,261,32990,1,10,0:0:0:0:
228,218,33140,1,2,0:0:0:0:
259,132,33290,2,0,B|269:166|269:166|268:196,1,56,0|0,3:0|3:0,0:0:0:0:
314,60,33590,1,2,0:0:0:0:
137,176,33740,6,0,P|86:182|30:147,1,112,10|0,0:0|3:0,0:0:0:0:
161,92,34190,1,10,0:0:0:0:
161,92,34340,2,0,P|156:60|148:30,1,56,2|0,0:0|3:0,0:0:0:0:
291,98,34640,1,2,3:2:0:0:
389,70,34790,1,8,0:0:0:0:
323,0,34940,6,0,P|319:36|316:67,1,56,6|0,3:2|0:0,0:0:0:0:
168,195,35240,1,2,3:2:0:0:
265,282,35390,2,0,P|297:287|321:304,1,56,10|0,0:0|0:0,0:0:0:0:
442,144,35690,5,0,3:0:0:0:
504,204,35840,1,2,3:2:0:0:
466,235,36140,6,0,P|464:185|480:112,1,112,8|0,0:0|3:0,0:0:0:0:
380,279,36590,1,14,0:0:0:0:
322,216,36740,2,0,P|324:196|327:175,1,28,4|4,0:3|0:3,0:0:0:0:
192,105,36890,1,10,0:3:0:0:
192,105,36965,1,8,0:3:0:0:
192,105,37040,2,0,P|197:132|199:155,1,28,4|4,0:3|0:3,0:0:0:0:
93,290,37190,6,0,P|51:294|10:276,1,84,14|0,3:2|0:0,0:0:0:0:
0,267,37490,1,6,3:2:0:0:
313,261,46490,6,0,B|303:175|319:229|309:125,1,112,2|0,0:0|0:0,0:0:0:0:
311,149,46940,1,2,0:0:0:0:
220,201,47090,6,0,P|189:190|147:190,1,70,12|10,3:2|0:0,0:0:0:0:
138,198,47315,1,8,0:0:0:0:
138,198,47390,1,0,3:0:0:0:
0,126,47540,1,14,0:0:0:0:
132,39,47690,1,0,3:0:0:0:
145,49,47765,1,0,0:0:0:0:
158,59,47840,2,0,P|179:53|210:49,2,35,10|8|12,0:0|0:0|3:2,0:0:0:0:
300,11,48140,1,10,0:0:0:0:
300,11,48215,1,8,0:0:0:0:
300,11,48290,6,0,P|305:52|306:83,1,70,4|8,3:2|0:0,0:0:0:0:
339,111,48515,1,8,0:0:0:0:
339,111,48590,2,0,P|341:150|345:183,1,70,2|12,3:2|0:0,0:0:0:0:
444,121,48890,1,2,3:2:0:0:
512,203,49040,1,8,0:0:0:0:
512,203,49115,1,8,0:0:0:0:
512,203,49190,1,4,3:2:0:0:
416,242,49340,1,10,0:0:0:0:
344,180,49490,6,0,P|310:192|269:194,1,70,6|10,3:2|0:0,0:0:0:0:
263,197,49715,1,8,0:0:0:0:
263,197,49790,1,0,3:0:0:0:
332,284,49940,1,14,0:0:0:0:
208,384,50090,2,0,B|214:365|214:365|213:347,3,35,2|0|8|0,3:2|0:0|0:0|0:0,0:0:0:0:
180,328,50390,2,0,P|153:330|101:341,1,70,12|10,3:2|0:0,0:0:0:0:
263,197,50690,6,0,P|261:164|249:122,1,70,12|10,3:2|0:0,0:0:0:0:
246,117,50915,1,8,0:0:0:0:
246,117,50990,1,8,3:2:0:0:
353,276,51140,2,0,P|398:283|427:300,1,70,14|0,0:0|3:0,0:0:0:0:
512,200,51440,5,10,0:0:0:0:
495,205,51515,1,8,0:0:0:0:
478,208,51590,1,4,3:2:0:0:
461,206,51665,1,8,0:0:0:0:
444,200,51740,1,10,0:0:0:0:
430,190,51815,1,8,0:0:0:0:
418,177,51890,1,2,0:0:0:0:
203,143,53840,5,0,3:0:0:0:
312,9,53990,2,0,P|307:42|307:74,1,62.9999980773926,10|0,0:0|0:0,0:0:0:0:
304,92,54290,6,0,P|337:79|379:82,1,70,14|0,0:0|3:0,0:0:0:0:
479,158,54590,1,2,3:2:0:0:
335,349,54740,2,0,P|333:316|325:272,1,70,10|0,3:3|3:0,0:0:0:0:
186,319,55040,1,2,3:2:0:0:
107,277,55190,1,8,0:3:0:0:
54,347,55340,1,2,3:2:0:0:
208,221,55490,5,8,3:2:0:0:
13,159,55790,5,8,3:2:0:0:
12,158,56090,6,0,P|74:166|128:135,1,125.999996154785,2|0,0:0|0:0,0:0:0:0:
214,290,56690,6,0,P|215:262|206:216,1,70,6|0,3:2|3:0,0:0:0:0:
362,130,56990,1,8,0:0:0:0:
430,200,57140,2,0,P|468:212|509:211,1,70,2|0,0:0|0:0,0:0:0:0:
309,339,57440,1,2,3:2:0:0:
374,270,57590,1,10,0:0:0:0:
454,316,57740,1,2,0:0:0:0:
342,384,57890,6,0,P|332:323|324:242,1,140,2|10,3:2|0:0,0:0:0:0:
177,158,58340,2,0,P|147:155|102:135,1,70,2|0,0:0|0:0,0:0:0:0:
0,293,58640,2,0,P|33:277|70:274,1,70,2|8,3:2|0:0,0:0:0:0:
181,363,58940,5,2,0:0:0:0:
249,269,59090,1,2,3:2:0:0:
355,312,59240,1,0,3:0:0:0:
249,186,59390,2,0,P|241:230|240:264,1,70,10|0,0:0|0:0,0:0:0:0:
327,148,59690,5,2,0:0:0:0:
159,47,59840,1,2,3:2:0:0:
251,14,59990,1,10,0:0:0:0:
251,14,60140,1,0,0:0:0:0:
148,135,60290,6,0,P|79:139|21:102,1,140,2|8,3:2|0:0,0:0:0:0:
251,14,60740,2,0,P|283:23|323:26,1,70,2|0,3:2|0:0,0:0:0:0:
444,185,61040,2,0,P|476:176|516:173,1,70,2|8,3:2|0:0,0:0:0:0:
419,79,61340,1,2,0:0:0:0:
326,261,61490,6,0,B|313:168|328:223|314:107,1,140,6|8,3:2|0:0,0:0:0:0:
225,198,61940,1,2,0:0:0:0:
329,110,62090,2,0,P|293:107|254:99,1,70,2|0,0:0|3:0,0:0:0:0:
98,258,62390,1,8,0:0:0:0:
184,320,62540,1,2,0:0:0:0:
81,364,62690,6,0,P|86:307|65:221,1,140,2|8,3:2|0:0,0:0:0:0:
166,118,63140,1,2,0:0:0:0:
335,229,63290,2,0,P|366:215|404:213,1,70,2|0,0:0|3:0,0:0:0:0:
262,175,63590,1,8,0:0:0:0:
176,229,63740,1,2,0:0:0:0:
314,316,63890,5,2,3:2:0:0:
314,316,64040,1,0,3:0:0:0:
226,383,64190,2,0,P|215:355|214:306,1,70,10|0,0:0|0:0,0:0:0:0:
351,142,64490,5,2,0:0:0:0:
351,142,64640,1,0,3:0:0:0:
494,239,64790,2,0,P|458:238|413:225,1,70,10|0,0:0|3:0,0:0:0:0:
168,71,65090,6,0,P|173:36|175:-5,1,70,14|0,0:0|3:0,0:0:0:0:
351,142,65390,2,0,P|346:107|344:66,1,70,12|0,0:0|3:0,0:0:0:0:
368,46,65615,1,0,3:0:0:0:
364,38,65690,2,0,B|359:20|359:20|368:-3,3,35,8|8|4|4,3:3|0:3|0:3|0:3,0:0:0:0:
505,171,65990,6,0,P|468:187|419:183,1,83.9999974365235,12|0,0:0|0:0,0:0:0:0:
170,301,66290,6,0,P|178:343|180:377,1,70,6|2,3:2|0:0,0:0:0:0:
340,210,66590,2,0,P|341:177|351:136,1,70,10|2,0:0|3:2,0:0:0:0:
455,358,66890,5,10,0:0:0:0:
385,294,67040,1,2,3:2:0:0:
300,345,67190,2,0,P|344:338|378:319,1,70,10|0,0:0|3:0,0:0:0:0:
171,207,67490,6,0,L|86:193,1,70,10|0,0:0|3:0,0:0:0:0:
235,153,67790,1,8,0:0:0:0:
89,281,67940,6,0,L|4:267,1,70,2|8,3:2|0:0,0:0:0:0:
176,384,68240,2,0,P|189:351|193:317,1,70,2|8,3:2|0:0,0:0:0:0:
61,150,68540,5,2,3:2:0:0:
144,184,68690,1,14,0:0:0:0:
33,171,68840,5,2,3:2:0:0:
131,77,68990,2,0,B|135:43|135:43|123:1,1,70,10|0,0:0|3:0,0:0:0:0:
305,132,69290,1,10,0:0:0:0:
251,189,69440,5,2,3:2:0:0:
276,59,69590,1,8,0:0:0:0:
379,141,69740,1,2,3:2:0:0:
250,77,69890,6,0,P|214:85|165:89,1,70,10|0,0:0|3:0,0:0:0:0:
335,236,70190,1,8,0:0:0:0:
279,369,70340,2,0,P|279:335|270:288,1,70,2|8,3:2|0:0,0:0:0:0:
445,191,70640,2,0,P|481:205|517:207,1,70,2|12,3:2|0:0,0:0:0:0:
413,270,70940,1,2,3:2:0:0:
329,96,71090,6,0,B|341:200|322:149|334:235,1,140,14|8,0:0|0:0,0:0:0:0:
119,147,71540,1,2,3:2:0:0:
27,263,71690,2,0,P|60:247|107:240,1,70,10|0,0:0|3:0,0:0:0:0:
314,330,71990,1,8,0:0:0:0:
248,179,72140,1,2,3:2:0:0:
248,179,72215,1,0,3:0:0:0:
248,179,72290,6,0,P|179:183|114:141,1,140,14|8,0:0|0:0,0:0:0:0:
207,71,72740,1,2,3:2:0:0:
119,147,72890,2,0,P|127:189|129:231,1,70,10|0,0:0|3:0,0:0:0:0:
251,331,73190,1,8,0:0:0:0:
402,240,73340,1,2,3:2:0:0:
402,240,73415,1,0,3:0:0:0:
402,240,73490,6,0,P|437:234|481:228,1,70,14|0,0:0|3:0,0:0:0:0:
99,139,73790,2,0,P|63:144|20:151,1,70,14|0,0:0|3:0,0:0:0:0:
323,25,74090,6,0,P|324:59|333:93,1,70,14|0,0:0|3:0,0:0:0:0:
187,350,74390,2,0,P|185:315|176:281,1,70,14|0,0:0|3:0,0:0:0:0:
225,113,74690,5,14,0:0:0:0:
411,199,74840,1,0,3:0:0:0:
411,199,74915,1,0,3:0:0:0:
411,199,74990,2,0,P|394:203|376:205,1,35,12|0,0:0|0:0,0:0:0:0:
301,287,75140,1,0,3:0:0:0:
301,287,75215,1,0,3:0:0:0:
301,287,75290,2,0,P|309:311|311:336,3,35,10|0|8|8,0:0|0:0|3:3|0:3,0:0:0:0:
280,367,75590,5,12,0:3:0:0:
257,336,75665,1,4,0:3:0:0:
220,322,75740,1,8,0:3:0:0:
180,328,75815,1,8,0:3:0:0:
149,354,75890,6,0,B|150:275|157:316|157:221,1,112,6|0,3:2|3:0,0:0:0:0:
156,242,76340,1,0,3:0:0:0:
44,191,76490,1,8,0:0:0:0:
149,123,76640,1,0,3:0:0:0:
149,123,76940,5,8,0:0:0:0:
149,123,77015,1,8,0:0:0:0:
149,123,77090,1,2,3:2:0:0:
213,191,77240,2,0,P|207:224|206:261,1,56,8|0,0:0|0:0,0:0:0:0:
370,129,77540,1,2,3:2:0:0:
293,75,77690,5,8,0:0:0:0:
339,149,77840,2,0,P|334:96|348:27,1,112,0|8,3:0|0:0,0:0:0:0:
261,196,78290,5,6,3:2:0:0:
261,196,78440,1,0,0:0:0:0:
387,299,78590,2,0,P|427:306|463:325,1,56,2|0,3:2|3:0,0:0:0:0:
511,182,78890,2,0,P|461:206|406:201,1,112,10|2,0:0|0:0,0:0:0:0:
406,201,79340,1,10,0:0:0:0:
332,123,79490,6,0,P|334:94|339:56,1,56,2|8,3:2|0:0,0:0:0:0:
177,0,79790,1,0,3:0:0:0:
177,0,79940,2,0,P|184:35|186:68,1,56,2|8,3:2|0:0,0:0:0:0:
10,147,80240,1,2,3:2:0:0:
117,196,80390,2,0,P|149:186|182:187,1,56,8|0,0:0|0:0,0:0:0:0:
34,112,80690,6,0,P|30:181|21:242,1,112,6|0,3:2|3:0,0:0:0:0:
25,224,81140,1,0,3:0:0:0:
141,281,81290,1,8,0:0:0:0:
44,346,81440,1,0,3:0:0:0:
44,346,81740,5,8,0:0:0:0:
44,346,81815,1,8,0:0:0:0:
44,346,81890,1,2,3:2:0:0:
117,257,82040,2,0,B|119:228|119:228|109:196,1,56,8|0,0:0|3:0,0:0:0:0:
229,347,82340,1,2,3:2:0:0:
316,289,82490,5,8,0:0:0:0:
255,375,82640,2,0,P|257:341|270:242,1,112,0|8,3:0|0:0,0:0:0:0:
379,71,83090,6,0,P|385:40|384:3,1,56,6|8,3:2|0:0,0:0:0:0:
116,162,83390,2,0,P|112:134|107:106,1,56,14|0,3:2|3:0,0:0:0:0:
388,245,83690,2,0,P|450:250|502:227,1,112,14|10,0:0|0:3,0:0:0:0:
495,231,84140,1,6,0:3:0:0:
328,352,84290,6,0,P|333:370|336:390,2,28,10|8|8,0:0|0:0|0:0,0:0:0:0:
181,235,84590,1,8,0:0:0:0:
63,326,84740,2,0,P|96:317|138:315,1,56,2|0,3:2|0:0,0:0:0:0:
328,151,85040,1,2,3:2:0:0:
202,73,85340,5,10,0:0:0:0:
202,73,85490,1,6,3:2:0:0:
256,192,85565,12,0,89090,0:0:0:0:
