osu file format v14

[General]
AudioFilename: audio.ogg
AudioLeadIn: 0
PreviewTime: 56615
Countdown: 0
SampleSet: Soft
StackLeniency: 0.7
Mode: 0
LetterboxInBreaks: 0
WidescreenStoryboard: 1

[Editor]
DistanceSpacing: 0.9
BeatDivisor: 4
GridSize: 32
TimelineZoom: 2

[Metadata]
Title:PEACEKEEPER (TV Size)
TitleUnicode:PEACEKEEPER (TV Size)
Artist:STEREO DIVE FOUNDATION
ArtistUnicode:STEREO DIVE FOUNDATION
Creator:dkblaze
Version:Expert
Source:転生したらスライムだった件 第3期
Tags:Tensei Shitara Slime Datta Ken 転スラ TenSura That Time I Got Reincarnated as a Slime 3rd 3 third season R·O·N RON japanese english rock jrock j-rock pop jpop j-pop anime op opening
BeatmapID:4569329
BeatmapSetID:2165456

[Difficulty]
HPDrainRate:5.5
CircleSize:3.8
OverallDifficulty:9
ApproachRate:9.2
SliderMultiplier:1.5
SliderTickRate:1

[Events]
//Background and Video events
0,0,"BG.jpg",0,0
Video,-315,"video.avi"
//Break Periods
2,37690,45920
2,52090,53270
//Storyboard Layer 0 (Background)
//Storyboard Layer 1 (Fail)
//Storyboard Layer 2 (Pass)
//Storyboard Layer 3 (Foreground)
//Storyboard Layer 4 (Overlay)
//Storyboard Sound Samples

[TimingPoints]
290,300,4,2,2,60,1,0
290,-100,4,2,2,60,0,0
7490,-100,4,2,2,40,0,0
8690,-100,4,2,2,75,0,0
18290,-100,4,2,2,65,0,0
22940,-166.666666666667,4,2,2,65,0,0
23240,-100,4,2,2,65,0,0
25340,-125,4,2,2,65,0,0
27590,-100,4,2,2,65,0,0
27740,-100,4,2,2,75,0,0
28190,-125,4,2,2,75,0,0
36140,-100,4,2,2,75,0,0
37490,-100,4,2,2,60,0,0
46490,-250,4,2,2,60,0,0
47090,-100,4,2,2,75,0,0
53840,-100,4,2,2,75,0,0
54290,-125,4,2,2,75,0,0
56090,-250,4,2,2,75,0,0
56690,-100,4,2,2,85,0,1
75890,-100,4,2,2,80,0,0
76190,-125,4,2,2,80,0,0
89090,-125,4,2,2,5,0,0

[Colours]
Combo1 : 58,162,237
Combo2 : 155,244,244

[HitObjects]
202,110,8690,6,0,P|207:75|206:23,1,75,6|0,3:2|0:0,0:0:0:0:
330,249,8990,2,0,P|326:293|327:334,1,75,10|0,0:0|0:0,0:0:0:0:
170,200,9290,5,2,3:2:0:0:
100,267,9440,1,0,3:0:0:0:
12,238,9590,1,10,0:0:0:0:
176,324,9740,1,2,3:2:0:0:
176,324,10040,5,0,3:0:0:0:
62,378,10190,2,0,P|68:343|69:298,1,75,10|0,0:0|0:0,0:0:0:0:
194,159,10490,5,2,3:2:0:0:
263,211,10640,1,2,3:2:0:0:
339,167,10790,1,10,0:0:0:0:
408,219,10940,1,0,0:0:0:0:
300,53,11090,6,0,P|308:96|308:134,1,75,2|0,3:2|0:0,0:0:0:0:
437,303,11390,2,0,P|477:286|519:286,1,75,10|0,0:0|0:0,0:0:0:0:
310,334,11690,5,2,3:2:0:0:
208,234,11840,1,0,3:0:0:0:
295,304,11990,1,10,0:0:0:0:
191,383,12140,6,0,P|197:326|210:211,1,150,2|0,3:2|3:0,0:0:0:0:
339,110,12590,1,10,0:0:0:0:
339,110,12740,1,0,0:0:0:0:
295,188,12890,5,2,3:2:0:0:
261,66,13040,1,2,3:2:0:0:
383,32,13190,1,14,0:0:0:0:
417,154,13340,1,2,0:0:0:0:
191,46,13490,6,0,P|228:66|263:65,1,75,6|0,3:2|0:0,0:0:0:0:
113,145,13790,2,0,P|55:145|5:178,1,112.5,10|0,0:0|0:0,0:0:0:0:
9,172,14090,5,2,3:2:0:0:
131,261,14240,1,0,3:0:0:0:
0,320,14390,1,10,0:0:0:0:
55,252,14540,6,0,B|161:268|97:278|205:300,1,150,2|0,3:2|3:0,0:0:0:0:
321,123,14990,2,0,B|334:161|334:161|330:199,1,75,10|0,0:0|0:0,0:0:0:0:
450,378,15290,5,2,3:2:0:0:
407,254,15440,1,2,3:2:0:0:
369,324,15590,5,10,0:0:0:0:
479,182,15740,1,0,0:0:0:0:
277,265,15890,1,2,3:2:0:0:
277,265,16190,6,0,P|273:226|264:169,1,75,10|0,0:2|0:0,0:0:0:0:
108,381,16490,5,2,0:0:0:0:
21,278,16640,1,2,3:2:0:0:
163,143,16790,1,10,0:0:0:0:
88,354,16940,6,0,P|97:282|101:194,1,150,2|0,3:2|3:0,0:0:0:0:
314,101,17390,1,10,0:0:0:0:
192,29,17540,1,0,3:0:0:0:
192,29,17615,1,0,3:0:0:0:
192,29,17690,2,0,P|198:55|200:77,1,37.5,8|8,3:2|0:0,0:0:0:0:
119,182,17840,5,4,0:3:0:0:
100,186,17915,1,4,0:3:0:0:
82,187,17990,1,8,0:3:0:0:
63,184,18065,1,8,0:3:0:0:
46,177,18140,1,4,0:3:0:0:
31,166,18215,1,4,0:3:0:0:
18,152,18290,1,4,3:2:0:0:
192,29,18890,5,2,0:1:0:0:
310,126,19490,5,2,3:2:0:0:
328,121,19640,1,0,3:0:0:0:
346,116,19790,1,0,3:0:0:0:
364,111,19940,1,0,3:0:0:0:
168,269,20090,5,10,0:0:0:0:
326,353,20240,1,6,3:2:0:0:
290,384,20540,6,0,B|280:270|299:344|288:223,1,150,6|0,3:2|0:0,0:0:0:0:
213,182,20990,1,2,3:2:0:0:
213,182,21140,1,0,3:0:0:0:
328,83,21290,1,2,0:1:0:0:
328,83,21590,5,2,3:2:0:0:
243,44,21740,1,2,3:2:0:0:
179,100,21890,5,2,3:2:0:0:
342,0,22040,1,8,0:0:0:0:
342,0,22115,1,8,0:0:0:0:
342,0,22190,1,8,0:0:0:0:
378,240,22340,5,2,3:2:0:0:
378,240,22640,5,2,3:2:0:0:
132,186,22940,6,0,P|90:189|41:168,1,89.9999972534181,2|0,3:2|0:0,0:0:0:0:
46,172,23390,1,2,3:2:0:0:
46,172,23540,1,0,3:0:0:0:
112,92,23690,1,2,0:1:0:0:
112,92,24290,5,2,3:2:0:0:
122,95,24365,1,0,3:0:0:0:
133,96,24440,1,2,3:2:0:0:
145,96,24515,1,0,3:0:0:0:
156,94,24590,1,0,3:0:0:0:
167,91,24665,1,0,3:0:0:0:
177,87,24740,1,2,3:2:0:0:
186,81,24815,1,0,3:0:0:0:
195,74,24890,6,0,P|193:55|188:27,1,37.5,10|0,0:0|0:0,0:0:0:0:
314,207,25040,2,0,B|303:246|303:246|308:287,1,75,4|0,3:2|0:0,0:0:0:0:
489,158,25340,6,0,P|426:162|372:133,1,120,6|0,3:2|0:0,0:0:0:0:
376,137,25790,1,2,3:2:0:0:
376,137,25940,1,2,3:2:0:0:
447,73,26090,1,2,0:1:0:0:
255,152,26390,5,2,0:0:0:0:
255,152,26690,5,2,0:0:0:0:
314,69,26840,2,0,P|321:44|321:6,1,60,2|0,0:0|0:0,0:0:0:0:
169,187,27140,1,2,3:2:0:0:
307,279,27290,5,8,3:3:0:0:
337,295,27365,1,8,0:0:0:0:
374,297,27440,1,8,0:0:0:0:
410,281,27515,1,8,0:0:0:0:
430,255,27590,2,0,P|422:232|419:203,1,37.5,8|0,0:0|0:0,0:0:0:0:
336,111,27740,6,0,B|242:124|299:133|191:149,1,150,4|0,3:2|3:0,0:0:0:0:
190,323,28190,2,0,B|201:355|201:355|200:390,1,60,10|0,0:0|0:0,0:0:0:0:
97,283,28490,1,2,3:2:0:0:
155,225,28640,1,2,3:2:0:0:
35,341,28790,2,0,P|46:310|52:256,1,60,2|8,0:0|0:0,0:0:0:0:
171,140,29090,6,0,P|207:149|245:157,1,60,2|0,0:0|3:0,0:0:0:0:
108,67,29390,1,10,0:0:0:0:
13,208,29540,2,0,P|49:200|84:187,1,60,2|0,0:0|3:0,0:0:0:0:
111,0,29840,2,0,P|100:35|103:72,1,60,2|8,3:2|0:0,0:0:0:0:
229,154,30140,6,0,P|289:128|358:135,1,120,6|0,3:2|3:0,0:0:0:0:
421,227,30590,5,10,0:0:0:0:
412,209,30740,1,0,0:0:0:0:
342,301,30890,5,2,3:2:0:0:
347,282,31040,1,2,3:2:0:0:
404,374,31190,5,2,0:0:0:0:
260,286,31340,1,10,0:0:0:0:
412,209,31490,2,0,P|444:220|488:221,1,60,2|0,0:0|3:0,0:0:0:0:
345,135,31790,1,8,0:0:0:0:
176,228,31940,6,0,P|175:198|170:161,1,60,2|0,0:0|3:0,0:0:0:0:
320,33,32240,2,0,P|321:63|326:100,1,60,2|8,3:2|0:0,0:0:0:0:
33,157,32540,6,0,P|91:151|151:175,1,120,6|0,3:2|3:0,0:0:0:0:
244,112,32990,1,10,0:0:0:0:
96,288,33140,2,0,P|64:289|30:302,1,60,2|0,0:0|3:0,0:0:0:0:
315,384,33440,1,0,3:0:0:0:
213,338,33590,1,2,0:0:0:0:
315,234,33740,6,0,P|305:299|300:364,1,120,10|0,0:0|3:0,0:0:0:0:
418,247,34190,1,10,0:0:0:0:
495,383,34340,2,0,P|487:347|485:321,1,60,2|0,0:0|3:0,0:0:0:0:
463,102,34640,1,2,3:2:0:0:
463,102,34790,1,8,0:0:0:0:
496,205,34940,6,0,P|440:208|385:175,1,120,6|2,3:2|3:2,0:0:0:0:
197,307,35390,2,0,P|190:342|186:376,1,60,10|0,0:0|0:0,0:0:0:0:
53,160,35690,5,0,3:0:0:0:
156,217,35840,1,2,3:2:0:0:
156,217,36140,6,0,P|79:214|15:253,1,150,8|0,0:0|3:0,0:0:0:0:
262,154,36590,1,14,0:0:0:0:
345,278,36740,5,4,0:3:0:0:
365,287,36815,1,4,0:3:0:0:
387,291,36890,1,10,0:3:0:0:
409,291,36965,1,8,0:3:0:0:
431,285,37040,1,4,0:3:0:0:
451,274,37115,1,4,0:3:0:0:
468,259,37190,1,14,3:2:0:0:
304,126,37490,5,6,3:2:0:0:
315,248,46490,6,0,P|365:253|403:234,1,90,2|2,0:0|0:0,0:0:0:0:
205,150,47090,6,0,L|153:141,1,37.5,12|0,3:2|0:0,0:0:0:0:
112,61,47240,1,10,0:0:0:0:
112,61,47315,1,8,0:0:0:0:
112,61,47390,2,0,P|113:42|118:17,1,37.5,0|0,3:0|0:0,0:0:0:0:
29,106,47540,2,0,P|34:131|37:154,1,37.5,14|0,0:0|0:0,0:0:0:0:
0,228,47690,1,0,3:0:0:0:
15,257,47765,1,8,0:0:0:0:
45,271,47840,1,10,0:0:0:0:
80,270,47915,1,8,0:0:0:0:
108,251,47990,2,0,P|137:260|169:265,1,37.5,12|0,3:2|0:0,0:0:0:0:
306,363,48140,1,10,0:0:0:0:
306,363,48215,1,8,0:0:0:0:
306,363,48290,6,0,P|304:336|313:278,1,75,4|8,3:2|0:0,0:0:0:0:
206,147,48590,1,2,3:2:0:0:
328,266,48740,2,0,P|342:261|380:256,1,37.5,12|0,0:0|0:0,0:0:0:0:
485,332,48890,2,0,P|475:310|470:288,3,37.5,2|0|8|8,3:2|0:0|0:0|0:0,0:0:0:0:
394,224,49190,1,4,3:2:0:0:
397,204,49265,1,8,0:0:0:0:
400,184,49340,1,10,0:0:0:0:
403,164,49415,1,8,0:0:0:0:
406,144,49490,6,0,P|401:122|398:90,3,37.5,6|0|10|8,3:2|0:0|0:0|0:0,0:0:0:0:
317,1,49790,2,0,P|314:18|312:38,1,37.5,0|0,3:0|0:0,0:0:0:0:
168,181,49940,2,0,P|186:178|207:170,3,37.5,14|0|2|0,0:0|0:0|3:2|0:0,0:0:0:0:
292,260,50240,2,0,P|270:254|249:250,1,37.5,8|0,0:0|0:0,0:0:0:0:
160,329,50390,2,0,P|168:356|169:377,1,37.5,12|0,3:2|0:0,0:0:0:0:
14,220,50540,1,10,0:0:0:0:
14,220,50615,1,8,0:0:0:0:
14,220,50690,6,0,P|26:185|25:132,1,75,12|10,3:2|0:0,0:0:0:0:
160,133,50990,1,8,3:2:0:0:
292,260,51140,2,0,P|275:253|244:248,1,37.5,14|0,0:0|0:0,0:0:0:0:
322,68,51290,2,0,P|341:61|365:47,1,37.5,0|8,3:0|0:0,0:0:0:0:
496,208,51440,5,10,0:0:0:0:
479,216,51515,1,8,0:0:0:0:
460,219,51590,1,4,3:2:0:0:
442,219,51665,1,8,0:0:0:0:
424,213,51740,1,10,0:0:0:0:
408,204,51815,1,8,0:0:0:0:
394,191,51890,1,2,0:0:0:0:
305,236,53840,5,0,3:0:0:0:
131,185,53990,2,0,P|99:194|52:195,1,75,10|0,0:0|0:0,0:0:0:0:
336,136,54290,6,0,P|318:78|323:19,1,120,14|2,0:0|3:2,0:0:0:0:
417,224,54740,2,0,P|446:217|478:215,1,60,10|0,3:3|3:0,0:0:0:0:
283,377,55040,5,2,3:2:0:0:
340,312,55190,1,8,0:3:0:0:
420,345,55340,1,2,3:2:0:0:
142,217,55490,5,8,3:2:0:0:
341,83,55790,5,8,3:2:0:0:
319,63,56090,6,0,P|324:103|330:162,1,90,2|0,0:0|0:0,0:0:0:0:
107,24,56690,5,6,3:2:0:0:
41,194,56840,1,0,3:0:0:0:
215,155,56990,1,8,0:0:0:0:
97,113,57140,2,0,P|56:108|15:90,1,75,2|0,0:0|0:0,0:0:0:0:
181,257,57440,1,2,3:2:0:0:
52,384,57590,2,0,B|56:351|56:351|41:311,1,75,10|2,0:0|0:0,0:0:0:0:
181,257,57890,6,0,P|241:288|326:279,1,150,2|10,3:2|0:0,0:0:0:0:
474,168,58340,2,0,P|465:134|464:82,1,75,2|0,0:0|0:0,0:0:0:0:
321,281,58640,2,0,P|331:321|331:356,1,75,2|8,3:2|0:0,0:0:0:0:
275,133,58940,5,2,0:0:0:0:
391,214,59090,1,2,3:2:0:0:
254,158,59240,5,0,3:0:0:0:
391,76,59390,2,0,P|428:91|474:93,1,75,10|0,0:0|0:0,0:0:0:0:
324,13,59690,1,2,0:0:0:0:
137,192,59840,5,2,3:2:0:0:
167,39,59990,2,0,P|177:84|178:122,1,75,10|0,0:0|0:0,0:0:0:0:
323,383,60290,6,0,B|313:286|330:349|315:221,1,150,2|8,3:2|0:0,0:0:0:0:
128,317,60740,2,0,P|101:305|51:299,1,75,2|0,3:2|0:0,0:0:0:0:
0,117,61040,1,2,3:2:0:0:
137,192,61190,2,0,P|181:182|222:179,1,75,8|2,0:0|0:0,0:0:0:0:
455,263,61490,6,0,P|392:270|315:232,1,150,6|8,3:2|0:0,0:0:0:0:
397,175,61940,1,2,0:0:0:0:
409,85,62090,2,0,P|419:124|420:162,1,75,2|0,0:0|3:0,0:0:0:0:
221,38,62390,1,8,0:0:0:0:
238,14,62690,6,0,B|243:126|228:71|238:170,1,150,2|8,3:2|0:0,0:0:0:0:
147,262,63140,1,2,0:0:0:0:
237,163,63290,2,0,P|280:172|339:171,1,75,2|0,0:0|3:0,0:0:0:0:
203,360,63590,1,8,0:0:0:0:
73,199,63740,1,2,0:0:0:0:
242,264,63890,6,0,P|205:267|151:279,1,75,2|0,3:2|3:0,0:0:0:0:
0,196,64190,2,0,P|37:190|72:179,1,75,10|0,0:0|0:0,0:0:0:0:
201,94,64490,1,2,0:0:0:0:
201,94,64640,1,0,3:0:0:0:
63,0,64790,2,0,P|49:36|49:74,1,75,10|0,0:0|3:0,0:0:0:0:
157,205,65090,5,14,0:0:0:0:
277,135,65240,1,0,3:0:0:0:
140,183,65390,5,12,0:0:0:0:
305,250,65540,1,0,3:0:0:0:
186,383,65690,5,8,3:3:0:0:
190,368,65765,1,8,0:3:0:0:
194,354,65840,1,4,0:3:0:0:
198,340,65915,1,4,0:3:0:0:
202,325,65990,2,0,B|191:240|206:294|195:203,1,112.5,12|0,0:0|0:0,0:0:0:0:
204,193,66290,6,0,P|168:203|119:202,1,75,6|2,3:2|0:0,0:0:0:0:
289,89,66590,1,10,0:0:0:0:
409,238,66740,1,2,3:2:0:0:
430,134,66890,5,10,0:0:0:0:
324,177,67040,1,2,3:2:0:0:
419,311,67190,2,0,P|410:273|410:222,1,75,10|0,0:0|3:0,0:0:0:0:
179,5,67490,6,0,P|176:47|177:88,1,75,10|0,0:0|3:0,0:0:0:0:
198,244,67790,1,8,0:0:0:0:
0,188,67940,2,0,P|43:187|82:169,1,75,2|8,3:2|0:0,0:0:0:0:
342,304,68240,2,0,P|392:306|430:319,1,75,2|8,3:2|0:0,0:0:0:0:
382,122,68540,1,2,3:2:0:0:
512,183,68690,1,14,0:0:0:0:
416,216,68840,5,2,3:2:0:0:
478,82,68990,2,0,P|468:52|465:2,1,75,10|0,0:0|3:0,0:0:0:0:
306,167,69290,1,10,0:0:0:0:
183,93,69440,5,2,3:2:0:0:
332,145,69590,1,8,0:0:0:0:
216,236,69740,1,2,3:2:0:0:
171,19,69890,6,0,P|182:64|180:109,1,75,10|0,0:0|3:0,0:0:0:0:
0,226,70190,1,8,0:0:0:0:
123,151,70340,2,0,P|84:147|39:130,1,75,2|8,3:2|0:0,0:0:0:0:
163,305,70640,5,2,3:2:0:0:
24,345,70790,1,12,0:0:0:0:
93,231,70940,1,2,3:2:0:0:
123,384,71090,6,0,B|105:288|124:342|107:231,1,150,14|8,0:0|0:0,0:0:0:0:
210,290,71540,1,2,3:2:0:0:
310,191,71690,2,0,P|310:153|316:116,1,75,10|0,0:0|3:0,0:0:0:0:
375,281,71990,1,8,0:0:0:0:
512,246,72140,1,2,3:2:0:0:
512,246,72215,1,0,3:0:0:0:
512,246,72290,6,0,P|438:242|375:281,1,150,14|8,0:0|0:0,0:0:0:0:
462,332,72740,1,2,3:2:0:0:
317,208,72890,2,0,P|287:217|227:220,1,75,10|0,0:0|3:0,0:0:0:0:
365,129,73190,1,8,0:0:0:0:
172,12,73340,1,2,3:2:0:0:
172,12,73415,1,0,3:0:0:0:
172,12,73490,6,0,B|183:52|183:52|180:90,1,75,14|0,0:0|3:0,0:0:0:0:
63,222,73790,5,14,0:0:0:0:
172,205,73940,1,0,3:0:0:0:
34,205,74090,5,14,0:0:0:0:
207,228,74240,1,0,3:0:0:0:
0,284,74390,5,14,0:0:0:0:
252,152,74540,1,0,3:0:0:0:
61,82,74690,5,14,0:0:0:0:
193,337,74840,1,0,3:0:0:0:
193,337,74915,1,0,3:0:0:0:
193,337,74990,1,12,0:0:0:0:
130,208,75140,6,0,P|153:204|173:199,1,37.5,0|0,3:0|3:0,0:0:0:0:
327,260,75290,1,10,0:0:0:0:
339,246,75365,1,0,0:0:0:0:
354,235,75440,1,8,3:3:0:0:
371,227,75515,1,8,0:3:0:0:
389,222,75590,1,12,0:3:0:0:
408,221,75665,1,4,0:3:0:0:
427,224,75740,1,8,0:3:0:0:
444,230,75815,1,8,0:3:0:0:
461,239,75890,6,0,B|449:141|465:191|453:85,1,150,6|0,3:2|3:0,0:0:0:0:
453,89,76340,1,0,3:0:0:0:
375,33,76490,1,8,0:0:0:0:
356,132,76640,1,0,3:0:0:0:
356,132,76940,5,8,0:0:0:0:
356,132,77015,1,8,0:0:0:0:
356,132,77090,1,2,3:2:0:0:
181,58,77240,2,0,P|190:24|192:-12,1,60,8|0,0:0|0:0,0:0:0:0:
62,126,77540,1,2,3:2:0:0:
137,193,77690,5,8,0:0:0:0:
86,87,77840,2,0,P|102:141|106:207,1,120,0|8,3:0|0:0,0:0:0:0:
254,292,78290,6,0,P|304:266|374:269,1,120,6|2,3:2|3:2,0:0:0:0:
366,266,78740,1,0,3:0:0:0:
424,340,78890,5,10,0:0:0:0:
512,305,79040,1,0,3:0:0:0:
456,360,79490,5,2,3:2:0:0:
402,175,79640,2,0,P|394:216|393:251,1,60,8|0,0:0|3:0,0:0:0:0:
304,152,79940,1,2,3:2:0:0:
383,36,80090,5,8,0:0:0:0:
497,121,80240,1,2,3:2:0:0:
401,78,80390,2,0,P|432:90|476:89,1,60,8|0,0:0|0:0,0:0:0:0:
271,15,80690,6,0,B|286:109|268:59|283:158,1,120,6|0,3:2|3:0,0:0:0:0:
279,134,81140,1,0,3:0:0:0:
176,226,81290,1,8,0:0:0:0:
139,104,81440,1,0,3:0:0:0:
139,104,81740,5,8,0:0:0:0:
139,104,81815,1,8,0:0:0:0:
139,104,81890,1,2,3:2:0:0:
57,176,82040,2,0,P|34:167|-9:163,1,60,8|0,0:0|3:0,0:0:0:0:
221,89,82340,1,2,3:2:0:0:
118,10,82490,5,8,0:0:0:0:
170,160,82640,2,0,P|165:100|154:23,1,120,0|8,3:0|0:0,0:0:0:0:
293,184,83090,5,6,3:2:0:0:
410,47,83240,1,8,0:0:0:0:
310,208,83390,2,0,P|304:241|303:273,1,60,14|0,3:2|3:0,0:0:0:0:
248,117,83690,5,14,0:0:0:0:
456,263,83840,1,0,3:0:0:0:
494,191,83990,5,10,0:3:0:0:
378,281,84140,1,6,0:3:0:0:
504,332,84290,6,0,P|499:309|497:283,2,30,10|8|8,0:0|0:0|0:0,0:0:0:0:
383,169,84590,1,8,0:0:0:0:
293,325,84740,1,2,3:2:0:0:
182,204,85040,5,2,3:2:0:0:
100,307,85340,5,10,0:0:0:0:
28,265,85490,1,6,3:2:0:0:
256,192,85565,12,0,89090,0:0:0:0:
