osu file format v14

[General]
AudioFilename: audio.ogg
AudioLeadIn: 0
PreviewTime: 56750
Countdown: 0
SampleSet: Soft
StackLeniency: 0.7
Mode: 0
LetterboxInBreaks: 0
WidescreenStoryboard: 1

[Editor]
DistanceSpacing: 1.5
BeatDivisor: 4
GridSize: 4
TimelineZoom: 1.9

[Metadata]
Title:PEACEKEEPER (TV Size)
TitleUnicode:PEACEKEEPER (TV Size)
Artist:STEREO DIVE FOUNDATION
ArtistUnicode:STEREO DIVE FOUNDATION
Creator:Andrea
Version:Insane
Source:転生したらスライムだった件 第3期
Tags:osuplayer111 midorijeon Male Vocals That Time I Got Reincarnated As A Tensei Shitara Slime Datta Ken 3rd Third Season Tensura Anime Japanese Opening OP Rock JRock J-Rock Iida Ryuta 飯田龍太 English 転スラ R·O·N RON r.o.n
BeatmapID:4569671
BeatmapSetID:2166051

[Difficulty]
HPDrainRate:5
CircleSize:3.5
OverallDifficulty:8
ApproachRate:9
SliderMultiplier:1.6
SliderTickRate:1

[Events]
//Background and Video events
Video,0,"Video.mp4"
0,0,"BG.jpg",0,0
//Break Periods
//Storyboard Layer 0 (Background)
//Storyboard Layer 1 (Fail)
//Storyboard Layer 2 (Pass)
//Storyboard Layer 3 (Foreground)
//Storyboard Layer 4 (Overlay)
//Storyboard Sound Samples

[TimingPoints]
500,300,4,2,2,60,1,0
500,-125,4,2,2,60,0,0
7700,-125,4,2,2,50,0,0
8000,-125,4,2,2,55,0,0
8450,-125,4,2,2,60,0,0
8600,-125,4,2,2,65,0,0
8825,-125,4,2,2,5,0,0
8900,300,4,2,2,75,1,0
9200,-100,4,2,10,75,0,0
9275,-100,4,2,2,75,0,0
9500,-100,4,2,10,75,0,0
9575,-100,4,2,2,75,0,0
9800,-100,4,2,10,75,0,0
9875,-100,4,2,2,75,0,0
10100,-100,4,2,10,75,0,0
10175,-100,4,2,2,75,0,0
10400,-100,4,2,10,75,0,0
10475,-100,4,2,2,75,0,0
10700,-100,4,2,10,75,0,0
10775,-100,4,2,2,75,0,0
11000,-100,4,2,10,75,0,0
11075,-100,4,2,2,75,0,0
11300,-100,4,2,10,75,0,0
11375,-100,4,2,2,75,0,0
11600,-100,4,2,10,75,0,0
11675,-100,4,2,2,75,0,0
11900,-100,4,2,10,75,0,0
11975,-100,4,2,2,75,0,0
12200,-100,4,2,10,75,0,0
12275,-100,4,2,2,75,0,0
12500,-100,4,2,10,75,0,0
12575,-100,4,2,2,75,0,0
12800,-100,4,2,10,75,0,0
12875,-100,4,2,2,75,0,0
13100,-100,4,2,10,75,0,0
13175,-100,4,2,2,75,0,0
13400,-100,4,2,3,75,0,0
13700,-100,4,2,2,75,0,0
14000,-100,4,2,10,75,0,0
14075,-100,4,2,2,75,0,0
14300,-100,4,2,10,75,0,0
14375,-100,4,2,2,75,0,0
14600,-100,4,2,10,75,0,0
14675,-100,4,2,2,75,0,0
14900,-100,4,2,10,75,0,0
14975,-100,4,2,2,75,0,0
15200,-100,4,2,10,75,0,0
15275,-100,4,2,2,75,0,0
15500,-100,4,2,10,75,0,0
15575,-100,4,2,2,75,0,0
15800,-100,4,2,10,75,0,0
15875,-100,4,2,2,75,0,0
16100,-100,4,2,10,75,0,0
16175,-100,4,2,2,75,0,0
16400,-100,4,2,10,75,0,0
16475,-100,4,2,2,75,0,0
16700,-100,4,2,11,75,0,0
16775,-100,4,2,2,75,0,0
17000,-100,4,2,10,75,0,0
17075,-100,4,2,2,75,0,0
17300,-100,4,2,10,75,0,0
17375,-100,4,2,2,75,0,0
17600,-100,4,2,10,75,0,0
17675,-100,4,2,2,75,0,0
18200,-100,4,2,3,75,0,0
18350,-100,4,2,4,75,0,0
18500,-125,4,2,4,70,0,0
18800,-125,4,2,2,60,0,0
19100,-125,4,2,14,60,0,0
20300,-83.3333333333333,4,2,14,60,0,0
20450,-83.3333333333333,4,2,5,70,0,0
20900,-125,4,2,5,70,0,0
21200,-125,4,2,2,60,0,0
21500,-125,4,2,14,60,0,0
22100,-83.3333333333333,4,2,2,70,0,0
22550,-83.3333333333333,4,2,3,70,0,0
23150,-83.3333333333333,4,2,4,70,0,0
23300,-125,4,2,4,70,0,0
23600,-125,4,2,2,60,0,0
23900,-125,4,2,14,60,0,0
25100,-83.3333333333333,4,2,14,60,0,0
25250,-83.3333333333333,4,2,5,70,0,0
25700,-125,4,2,5,70,0,0
26000,-125,4,2,2,60,0,0
26300,-125,4,2,14,60,0,0
27350,-125,4,2,2,65,0,0
27500,-100,4,2,2,65,0,0
27950,-100,4,2,2,70,0,0
28400,-100,4,2,8,70,0,0
28475,-100,4,2,2,70,0,0
28700,-100,4,2,8,70,0,0
28775,-100,4,2,2,70,0,0
29000,-100,4,2,9,70,0,0
29075,-100,4,2,2,70,0,0
29300,-100,4,2,9,70,0,0
29375,-100,4,2,2,70,0,0
29600,-100,4,2,8,70,0,0
29675,-100,4,2,2,70,0,0
29900,-100,4,2,8,70,0,0
29975,-100,4,2,2,70,0,0
30200,-100,4,2,8,70,0,0
30275,-100,4,2,2,70,0,0
30350,-100,4,2,12,70,0,0
30425,-100,4,2,2,70,0,0
30800,-100,4,2,8,70,0,0
30875,-100,4,2,2,70,0,0
31100,-100,4,2,8,70,0,0
31175,-100,4,2,2,70,0,0
31400,-100,4,2,9,70,0,0
31475,-100,4,2,2,70,0,0
31700,-100,4,2,9,70,0,0
31775,-100,4,2,2,70,0,0
32000,-100,4,2,8,70,0,0
32075,-100,4,2,2,70,0,0
32300,-100,4,2,8,70,0,0
32375,-100,4,2,2,70,0,0
32600,-100,4,2,8,70,0,0
32675,-100,4,2,2,70,0,0
32750,-100,4,2,12,70,0,0
32825,-100,4,2,2,70,0,0
33200,-100,4,2,8,70,0,0
33275,-100,4,2,2,70,0,0
33500,-100,4,2,8,70,0,0
33575,-100,4,2,2,70,0,0
33800,-100,4,2,9,70,0,0
33875,-100,4,2,2,70,0,0
34100,-100,4,2,8,70,0,0
34175,-100,4,2,2,70,0,0
34400,-100,4,2,8,70,0,0
34475,-100,4,2,2,70,0,0
34700,-100,4,2,8,70,0,0
34775,-100,4,2,2,70,0,0
35000,-100,4,2,8,70,0,0
35075,-100,4,2,2,70,0,0
35150,-100,4,2,12,70,0,0
35225,-100,4,2,2,70,0,0
35600,-100,4,2,8,70,0,0
35675,-100,4,2,2,70,0,0
35900,-100,4,2,8,70,0,0
35975,-100,4,2,2,70,0,0
36200,-100,4,2,8,70,0,0
36275,-100,4,2,2,70,0,0
36500,-100,4,2,8,70,0,0
36575,-100,4,2,2,70,0,0
36800,-100,4,2,6,70,0,0
36875,-100,4,2,2,70,0,0
37400,-100,4,2,6,70,0,0
37475,-100,4,2,2,70,0,0
37625,-100,4,2,2,5,0,0
37700,-200,4,2,2,60,0,0
47300,-100,4,2,2,65,0,0
52100,-125,4,2,2,50,0,0
54050,-125,4,2,2,60,0,0
54425,-125,4,2,2,5,0,0
54500,-100,4,2,3,75,0,0
54950,-100,4,2,2,75,0,0
55400,-100,4,2,3,75,0,0
56300,-125,4,2,3,75,0,0
56825,-125,4,2,3,5,0,0
56900,-90.9090909090909,4,2,1,80,0,1
56975,-90.9090909090909,4,2,2,80,0,1
57200,-90.9090909090909,4,2,6,80,0,1
57275,-90.9090909090909,4,2,2,80,0,1
57500,-90.9090909090909,4,2,7,80,0,1
57575,-90.9090909090909,4,2,2,80,0,1
57800,-90.9090909090909,4,2,6,80,0,1
57875,-90.9090909090909,4,2,2,80,0,1
58100,-90.9090909090909,4,2,6,80,0,1
58175,-90.9090909090909,4,2,2,80,0,1
58400,-90.9090909090909,4,2,6,80,0,1
58475,-90.9090909090909,4,2,2,80,0,1
58700,-90.9090909090909,4,2,6,80,0,1
58775,-90.9090909090909,4,2,2,80,0,1
59000,-90.9090909090909,4,2,6,80,0,1
59075,-90.9090909090909,4,2,2,80,0,1
59300,-90.9090909090909,4,2,6,80,0,1
59375,-90.9090909090909,4,2,2,80,0,1
59600,-90.9090909090909,4,2,6,80,0,1
59675,-90.9090909090909,4,2,2,80,0,1
59900,-90.9090909090909,4,2,7,80,0,1
59975,-90.9090909090909,4,2,2,80,0,1
60200,-90.9090909090909,4,2,6,80,0,1
60275,-90.9090909090909,4,2,2,80,0,1
60500,-90.9090909090909,4,2,6,80,0,1
60575,-90.9090909090909,4,2,2,80,0,1
60800,-90.9090909090909,4,2,6,80,0,1
60875,-90.9090909090909,4,2,2,80,0,1
61100,-90.9090909090909,4,2,6,80,0,1
61175,-90.9090909090909,4,2,2,80,0,1
61700,-90.9090909090909,4,2,3,80,0,1
62000,-90.9090909090909,4,2,6,80,0,1
62075,-90.9090909090909,4,2,2,80,0,1
62300,-90.9090909090909,4,2,7,80,0,1
62375,-90.9090909090909,4,2,2,80,0,1
62600,-90.9090909090909,4,2,6,80,0,1
62675,-90.9090909090909,4,2,2,80,0,1
62900,-90.9090909090909,4,2,6,80,0,1
62975,-90.9090909090909,4,2,2,80,0,1
63200,-90.9090909090909,4,2,6,80,0,1
63275,-90.9090909090909,4,2,2,80,0,1
63500,-90.9090909090909,4,2,7,80,0,1
63575,-90.9090909090909,4,2,2,80,0,1
63800,-90.9090909090909,4,2,6,80,0,1
63875,-90.9090909090909,4,2,2,80,0,1
64100,-90.9090909090909,4,2,6,80,0,1
64175,-90.9090909090909,4,2,2,80,0,1
64400,-90.9090909090909,4,2,6,80,0,1
64475,-90.9090909090909,4,2,2,80,0,1
64700,-90.9090909090909,4,2,7,80,0,1
64775,-90.9090909090909,4,2,2,80,0,1
65000,-90.9090909090909,4,2,6,80,0,1
65075,-90.9090909090909,4,2,2,80,0,1
65600,-90.9090909090909,4,2,3,80,0,1
65900,-90.9090909090909,4,2,2,80,0,1
66200,-90.9090909090909,4,2,3,80,0,1
66500,-90.9090909090909,4,2,2,80,0,1
66800,-90.9090909090909,4,2,6,80,0,1
66875,-90.9090909090909,4,2,2,80,0,1
67100,-90.9090909090909,4,2,6,80,0,1
67175,-90.9090909090909,4,2,2,80,0,1
67400,-90.9090909090909,4,2,6,80,0,1
67475,-90.9090909090909,4,2,2,80,0,1
67700,-90.9090909090909,4,2,6,80,0,1
67775,-90.9090909090909,4,2,2,80,0,1
68000,-90.9090909090909,4,2,6,80,0,1
68075,-90.9090909090909,4,2,2,80,0,1
68300,-90.9090909090909,4,2,6,80,0,1
68375,-90.9090909090909,4,2,2,80,0,1
68600,-90.9090909090909,4,2,6,80,0,1
68675,-90.9090909090909,4,2,2,80,0,1
69200,-90.9090909090909,4,2,6,80,0,1
69275,-90.9090909090909,4,2,2,80,0,1
69500,-90.9090909090909,4,2,6,80,0,1
69575,-90.9090909090909,4,2,2,80,0,1
69800,-90.9090909090909,4,2,6,80,0,1
69875,-90.9090909090909,4,2,2,80,0,1
70100,-90.9090909090909,4,2,6,80,0,1
70175,-90.9090909090909,4,2,2,80,0,1
70400,-90.9090909090909,4,2,6,80,0,1
70475,-90.9090909090909,4,2,2,80,0,1
70700,-90.9090909090909,4,2,6,80,0,1
70775,-90.9090909090909,4,2,2,80,0,1
71300,-90.9090909090909,4,2,3,80,0,1
71600,-90.9090909090909,4,2,6,80,0,1
71675,-90.9090909090909,4,2,2,80,0,1
71900,-90.9090909090909,4,2,6,80,0,1
71975,-90.9090909090909,4,2,2,80,0,1
72200,-90.9090909090909,4,2,6,80,0,1
72275,-90.9090909090909,4,2,2,80,0,1
72800,-90.9090909090909,4,2,6,80,0,1
72875,-90.9090909090909,4,2,2,80,0,1
73100,-90.9090909090909,4,2,6,80,0,1
73175,-90.9090909090909,4,2,2,80,0,1
73400,-90.9090909090909,4,2,6,80,0,1
73475,-90.9090909090909,4,2,2,80,0,1
73700,-90.9090909090909,4,2,3,80,0,1
74000,-90.9090909090909,4,2,6,80,0,1
74075,-90.9090909090909,4,2,2,80,0,1
74300,-90.9090909090909,4,2,3,80,0,1
74600,-90.9090909090909,4,2,6,80,0,1
74675,-90.9090909090909,4,2,2,80,0,1
74900,-90.9090909090909,4,2,6,80,0,1
74975,-90.9090909090909,4,2,2,80,0,1
75200,-90.9090909090909,4,2,6,80,0,1
75275,-90.9090909090909,4,2,2,80,0,1
75800,-90.9090909090909,4,2,3,80,0,1
75950,-90.9090909090909,4,2,4,80,0,1
76100,-100,4,2,3,70,0,0
76400,-100,4,2,6,70,0,0
76475,-100,4,2,2,70,0,0
76700,-100,4,2,6,70,0,0
76775,-100,4,2,2,70,0,0
77000,-100,4,2,6,70,0,0
77075,-100,4,2,2,70,0,0
77300,-100,4,2,6,70,0,0
77375,-100,4,2,2,70,0,0
77600,-100,4,2,6,70,0,0
77675,-100,4,2,2,70,0,0
77900,-100,4,2,6,70,0,0
77975,-100,4,2,2,70,0,0
78200,-100,4,2,7,70,0,0
78275,-100,4,2,2,70,0,0
78500,-100,4,2,6,70,0,0
78575,-100,4,2,2,70,0,0
78800,-100,4,2,6,70,0,0
78875,-100,4,2,2,70,0,0
79100,-100,4,2,6,70,0,0
79175,-100,4,2,2,70,0,0
79400,-100,4,2,7,70,0,0
79475,-100,4,2,2,70,0,0
79700,-100,4,2,6,70,0,0
79775,-100,4,2,2,70,0,0
80000,-100,4,2,6,70,0,0
80075,-100,4,2,2,70,0,0
80300,-100,4,2,6,70,0,0
80375,-100,4,2,2,70,0,0
80600,-100,4,2,3,70,0,0
80825,-100,4,2,3,5,0,0
80900,-100,4,2,2,70,0,0
81200,-100,4,2,6,70,0,0
81275,-100,4,2,2,70,0,0
81500,-100,4,2,6,70,0,0
81575,-100,4,2,2,70,0,0
81800,-100,4,2,6,70,0,0
81875,-100,4,2,2,70,0,0
82100,-100,4,2,6,70,0,0
82175,-100,4,2,2,70,0,0
82400,-100,4,2,6,70,0,0
82475,-100,4,2,2,70,0,0
82700,-100,4,2,6,70,0,0
82775,-100,4,2,2,70,0,0
83000,-100,4,2,7,70,0,0
83075,-100,4,2,2,70,0,0
83300,-100,4,2,6,70,0,0
83375,-100,4,2,2,70,0,0
83450,-100,4,2,3,70,0,0
83900,-100,4,2,2,70,0,0
84050,-100,4,2,3,70,0,0
84950,-100,4,2,12,70,0,0
85025,-100,4,2,2,70,0,0
85250,-100,4,2,12,70,0,0
85325,-100,4,2,2,70,0,0
85700,-100,4,2,1,70,0,0
85775,-100,4,2,1,50,0,0
86900,-100,4,2,1,40,0,0
88100,-100,4,2,1,30,0,0
88700,-100,4,2,1,20,0,0
89000,-100,4,2,1,10,0,0
89300,-100,4,2,1,5,0,0

[Colours]
Combo1 : 255,128,128
Combo2 : 128,255,255
Combo3 : 255,255,128
Combo4 : 128,191,255

[HitObjects]
468,96,500,6,0,P|412:76|356:108,1,128,2|2,3:2|0:0,0:0:0:0:
428,176,950,1,2,0:0:0:0:
344,220,1100,2,0,L|217:198,1,128,2|2,0:0|0:0,0:0:0:0:
124,184,1550,1,0,0:0:0:0:
48,112,1700,6,0,P|20:144|24:232,1,128,2|2,0:0|0:0,0:0:0:0:
80,304,2150,2,0,L|206:281,1,128,2|2,0:0|0:0,0:0:0:0:
300,264,2600,2,0,L|313:189,1,64,0|2,0:0|0:0,0:0:0:0:
256,104,2900,6,0,P|308:72|392:84,1,128,2|2,3:2|0:0,0:0:0:0:
468,96,3350,1,0,0:0:0:0:
408,168,3500,2,0,L|419:230,1,64,2|0,0:0|0:0,0:0:0:0:
372,336,3800,2,0,L|328:332,3,32,2|2|2|2,0:0|0:0|0:0|0:0,0:0:0:0:
300,352,4100,6,0,B|263:345|263:345|229:355|229:355|174:345,1,128,2|2,0:0|0:0,0:0:0:0:
72,328,4550,1,0,0:0:0:0:
144,256,4700,2,0,P|158:194|135:136,1,128,2|2,0:0|0:0,0:0:0:0:
52,88,5150,1,2,0:0:0:0:
160,16,5300,6,0,L|286:38,1,128,0|2,3:2|0:0,0:0:0:0:
380,52,5750,1,0,0:0:0:0:
456,116,5900,2,0,P|400:146|338:138,1,128,2|2,0:0|0:0,0:0:0:0:
252,120,6350,1,2,0:0:0:0:
316,244,6500,1,2,3:2:0:0:
316,244,7100,2,0,P|257:268|196:253,1,128,2|2,0:0|0:0,0:0:0:0:
92,68,7700,5,0,3:2:0:0:
28,280,8000,1,0,1:2:0:0:
60,176,8150,2,0,L|16:168,4,32,0|0|0|0|0,1:2|1:2|1:2|1:2|3:2,0:0:0:0:
164,192,8600,2,0,P|206:170|254:169,1,96,8|0,0:0|0:0,0:0:0:0:
292,180,8900,6,0,L|323:361,1,160,14|10,0:1|0:0,0:0:0:0:
428,368,9350,1,0,0:0:0:0:
408,260,9500,1,10,0:1:0:0:
319,337,9650,1,10,0:1:0:0:
496,296,9800,1,8,0:0:0:0:
447,172,9950,6,0,B|389:182|389:182|350:168|350:168|291:179,1,160,10|8,0:1|0:1,0:0:0:0:
208,120,10400,2,0,P|180:192|224:260,1,160,10|10,0:0|0:1,0:0:0:0:
264,360,10850,1,10,0:1:0:0:
220,257,11000,1,8,0:0:0:0:
124,360,11150,1,2,0:0:0:0:
76,244,11300,6,0,P|18:185|32:111,1,160,10|10,0:1|0:0,0:0:0:0:
116,24,11750,1,0,0:0:0:0:
30,114,11900,1,10,0:1:0:0:
16,8,12050,1,10,0:1:0:0:
132,124,12200,1,8,0:0:0:0:
116,24,12350,6,0,P|168:36|236:120,1,160,10|8,0:1|0:1,0:0:0:0:
268,224,12800,1,10,0:0:0:0:
344,144,12950,1,2,0:0:0:0:
234,114,13100,1,10,0:1:0:0:
272,244,13250,1,10,0:1:0:0:
364,132,13400,1,14,0:0:0:0:
412,252,13550,5,0,1:2:0:0:
412,252,13625,1,0,1:2:0:0:
412,252,13700,2,0,P|388:308|288:336,1,160,14|10,0:1|0:0,0:0:0:0:
264,220,14150,1,0,0:0:0:0:
200,304,14300,1,10,0:1:0:0:
299,338,14450,1,10,0:1:0:0:
172,296,14600,1,8,0:0:0:0:
280,200,14750,6,0,P|320:156|304:44,1,160,10|8,0:1|0:1,0:0:0:0:
200,36,15200,2,0,P|160:80|176:192,1,160,10|10,0:0|0:1,0:0:0:0:
208,276,15650,1,10,0:1:0:0:
164,175,15800,1,8,0:0:0:0:
80,256,15950,1,2,0:0:0:0:
193,352,16100,6,0,P|209:310|205:266,1,80,10|8,0:1|0:1,0:0:0:0:
80,256,16400,2,0,P|63:297|67:341,1,80,10|0,0:0|0:0,0:0:0:0:
164,175,16700,1,2,0:0:0:0:
207,275,16850,1,10,0:1:0:0:
288,188,17000,1,8,0:0:0:0:
164,175,17150,2,0,L|136:17,1,160,10|8,0:1|0:1,0:0:0:0:
248,8,17600,1,10,0:0:0:0:
268,108,17750,5,8,0:1:0:0:
268,108,17825,1,8,0:1:0:0:
268,108,17900,2,0,L|276:148,3,40,10|8|10|8,0:0|0:0|0:3|0:3,0:0:0:0:
288,188,18200,2,0,L|296:228,3,40,10|8|10|8,0:3|0:3|0:3|0:3,0:0:0:0:
312,272,18500,6,0,B|367:262|367:262|397:273|397:273|456:262,1,128,14|2,0:1|0:0,0:0:0:0:
496,204,18950,1,2,3:2:0:0:
424,152,19100,2,0,L|413:88,1,64,10|2,0:0|0:0,0:0:0:0:
396,4,19400,1,2,0:0:0:0:
396,4,19550,1,0,0:0:0:0:
328,68,19700,2,0,P|296:62|268:46,1,64,2|2,3:2|3:2,0:0:0:0:
188,12,20000,1,2,3:2:0:0:
188,12,20150,1,0,3:2:0:0:
172,96,20300,5,10,0:0:0:0:
76,36,20450,1,14,0:1:0:0:
48,144,20600,1,2,0:0:0:0:
172,96,20750,2,0,P|186:140|170:185,1,95.9999970703126,14|0,0:1|3:2,0:0:0:0:
170,185,21200,6,0,L|233:196,1,64,2|2,0:0|3:2,0:0:0:0:
316,204,21500,1,10,0:0:0:0:
316,204,21650,1,2,0:0:0:0:
264,276,21800,2,0,L|253:339,1,64,2|2,3:2|3:2,0:0:0:0:
348,364,22100,5,14,0:1:0:0:
420,272,22250,1,8,0:0:0:0:
504,356,22400,1,10,0:0:0:0:
420,272,22550,2,0,P|440:220|424:168,1,95.9999970703126,14|0,0:1|0:0,0:0:0:0:
328,113,22850,2,0,P|308:165|324:217,1,95.9999970703126,14|0,0:1|0:0,0:0:0:0:
432,64,23150,1,14,0:1:0:0:
432,64,23600,6,0,P|436:32|428:1,1,64,2|2,3:2|3:2,0:0:0:0:
352,40,23900,1,10,0:0:0:0:
352,40,24050,1,0,0:0:0:0:
280,84,24200,1,2,0:0:0:0:
212,40,24350,5,2,0:0:0:0:
212,40,24425,1,2,0:0:0:0:
212,40,24500,2,0,L|172:36,3,32,2|0|0|0,3:2|3:2|3:2|3:2,0:0:0:0:
144,64,24800,2,0,L|104:60,3,32,2|0|2|0,3:2|3:2|3:2|3:2,0:0:0:0:
72,56,25100,5,10,0:0:0:0:
16,156,25250,1,14,0:1:0:0:
128,168,25400,1,0,0:0:0:0:
100,268,25550,2,0,P|80:320|84:372,1,95.9999970703126,14|0,0:1|0:0,0:0:0:0:
81,359,26000,6,0,L|151:346,1,64,2|2,3:2|3:2,0:0:0:0:
228,328,26300,1,10,0:0:0:0:
228,328,26450,1,2,0:0:0:0:
176,248,26600,2,0,P|216:244|244:220,1,64,2|0,0:0|0:0,0:0:0:0:
296,172,26900,1,2,0:0:0:0:
176,160,27050,6,0,P|100:160|52:108,1,128,2|10,0:0|0:1,0:0:0:0:
128,24,27500,2,0,L|172:32,3,40,10|8|10|8,0:0|0:0|0:0|0:0,0:0:0:0:
220,48,27800,1,10,0:0:0:0:
220,48,27875,1,8,0:0:0:0:
220,48,27950,6,0,P|280:24|352:76,1,160,14|8,0:1|0:1,0:0:0:0:
400,168,28400,1,10,0:0:0:0:
452,80,28550,1,2,0:0:0:0:
388,192,28700,2,0,P|340:192|308:168,1,80,10|8,0:1|0:1,0:0:0:0:
220,120,29000,1,2,0:0:0:0:
220,120,29150,1,8,0:0:0:0:
120,92,29300,6,0,B|80:136|80:136|92:235,1,160,2|10,0:0|0:0,0:0:0:0:
192,272,29750,2,0,L|209:366,1,80,2|8,0:0|0:1,0:0:0:0:
296,292,30050,1,10,0:1:0:0:
272,188,30200,1,8,0:0:0:0:
360,220,30350,6,0,P|420:196|436:88,1,160,10|8,0:1|0:1,0:0:0:0:
360,36,30800,1,10,0:0:0:0:
360,36,30950,1,2,0:0:0:0:
257,109,31100,2,0,L|274:203,1,80,10|8,0:1|0:1,0:0:0:0:
304,284,31400,1,2,0:0:0:0:
200,260,31550,1,10,0:0:0:0:
324,292,31700,2,0,P|356:314|395:324,1,80,2|8,0:0|0:1,0:0:0:0:
488,264,32000,1,10,0:0:0:0:
392,212,32150,6,0,B|400:152|400:152|384:116|384:116|395:57,1,160,2|10,0:0|0:1,0:0:0:0:
296,8,32600,1,8,0:0:0:0:
228,104,32750,2,0,P|151:94|98:150,1,160,10|10,0:1|0:1,0:0:0:0:
88,256,33200,1,8,0:0:0:0:
196,192,33350,2,0,P|228:232|232:280,1,80,2|8,0:0|0:1,0:0:0:0:
212,356,33650,1,8,0:1:0:0:
212,356,33800,1,2,0:0:0:0:
312,336,33950,6,0,L|390:321,1,80,10|2,0:0|0:3,0:0:0:0:
484,296,34250,1,8,0:1:0:0:
412,232,34400,1,10,0:0:0:0:
412,232,34550,2,0,P|360:168|384:80,1,160,2|10,0:0|0:1,0:0:0:0:
416,12,35000,1,8,0:0:0:0:
288,0,35150,6,0,L|271:88,1,80,10|0,0:1|0:0,0:0:0:0:
248,176,35450,1,10,0:1:0:0:
176,92,35600,2,0,P|105:56|27:65,1,160,10|8,0:0|0:1,0:0:0:0:
88,160,36050,1,10,0:1:0:0:
88,160,36200,1,2,0:3:0:0:
0,236,36350,6,0,P|70:271|148:262,1,160,10|8,0:0|0:1,0:0:0:0:
292,232,36800,1,10,0:0:0:0:
212,152,36950,2,0,L|204:112,3,40,8|8|10|8,0:1|0:1|0:3|0:3,0:0:0:0:
196,72,37250,1,8,0:1:0:0:
196,72,37325,1,8,0:1:0:0:
196,72,37400,2,0,P|244:40|308:48,1,120,10|0,0:0|0:0,0:0:0:0:
336,68,37700,6,0,L|368:244,2,160,14|2|2,3:1|0:0|0:0,0:0:0:0:
256,192,39500,1,2,0:0:0:0:
256,192,39650,1,2,0:0:0:0:
256,192,39800,1,2,0:0:0:0:
176,68,40100,6,0,L|144:244,2,160,2|2|2,3:2|0:0|0:0,0:0:0:0:
256,280,41900,1,2,0:0:0:0:
256,280,42050,1,2,0:0:0:0:
256,280,42200,1,2,0:0:0:0:
348,136,42500,6,0,P|440:136|484:88,2,160,2|2|2,3:2|0:0|0:0,0:0:0:0:
256,368,44300,1,2,0:0:0:0:
256,368,44450,1,2,0:0:0:0:
256,368,44600,1,2,0:0:0:0:
164,136,44900,6,0,P|72:136|28:88,2,160,2|2|2,3:2|0:0|0:0,0:0:0:0:
256,256,46700,2,0,P|312:256|340:236,1,80,2|0,0:0|0:0,0:0:0:0:
416,184,47150,1,2,0:0:0:0:
410,63,47300,6,0,L|370:71,5,40,8|0|2|0|8|0,1:2|1:2|1:2|1:2|1:1|1:2,0:0:0:0:
336,92,47750,2,0,L|296:84,5,40,10|0|8|0|2|0,1:2|1:2|1:1|1:2|1:2|1:2,0:0:0:0:
256,80,48200,5,8,1:2:0:0:
213,70,48275,1,0,1:2:0:0:
169,78,48350,1,2,1:2:0:0:
132,104,48425,1,0,1:2:0:0:
108,141,48500,2,0,L|65:134,5,40,8|0|2|0|10|0,1:2|1:2|1:2|1:2|1:1|1:2,0:0:0:0:
40,164,48950,2,0,L|33:207,5,40,8|0|10|0|0|0,1:2|1:2|1:1|1:2|1:2|1:2,0:0:0:0:
64,232,49400,5,8,1:2:0:0:
92,259,49475,1,0,1:2:0:0:
129,273,49550,1,2,1:2:0:0:
169,272,49625,1,0,1:2:0:0:
204,254,49700,2,0,L|211:297,5,40,10|0|2|0|10|0,1:2|1:2|1:2|1:2|1:1|1:2,0:0:0:0:
244,312,50150,2,0,L|236:351,5,40,8|0|10|0|2|0,1:2|1:2|1:1|1:2|1:2|1:2,0:0:0:0:
272,368,50600,5,8,1:2:0:0:
316,368,50675,1,0,1:2:0:0:
357,349,50750,1,2,1:2:0:0:
383,313,50825,1,0,1:2:0:0:
391,269,50900,2,0,L|360:236,5,40,8|0|2|0|8|0,1:2|1:2|1:2|1:2|1:1|1:2,0:0:0:0:
324,240,51350,5,10,1:2:0:0:
280,232,51425,1,0,1:2:0:0:
247,202,51500,1,8,1:1:0:0:
233,160,51575,1,0,1:2:0:0:
232,116,51650,2,0,L|192:116,5,40,2|8|8|8|10|8,1:2|1:2|0:0|0:0|0:0|0:0,0:0:0:0:
148,116,52100,5,2,3:2:0:0:
256,20,52700,1,2,0:0:0:0:
364,116,53300,1,2,0:0:0:0:
344,240,53900,5,2,0:0:0:0:
256,152,54050,1,8,0:1:0:0:
224,292,54200,2,0,L|117:273,1,96,10|0,0:0|0:0,0:0:0:0:
88,272,54500,6,0,P|80:228|100:184,1,80,14|8,0:0|0:1,0:0:0:0:
144,112,54800,1,10,0:1:0:0:
256,152,54950,2,0,L|338:137,1,80,10|8,0:3|0:1,0:0:0:0:
424,124,55250,1,10,0:1:0:0:
500,192,55400,1,8,0:3:0:0:
492,72,55550,1,10,0:1:0:0:
416,208,55700,1,10,0:0:0:0:
192,40,56000,1,10,0:0:0:0:
192,40,56300,5,2,0:0:0:0:
144,112,56450,1,0,3:2:0:0:
100,188,56600,2,0,P|140:208|216:204,1,96,0|0,1:2|0:0,0:0:0:0:
232,204,56900,5,14,0:1:0:0:
324,140,57050,1,10,0:1:0:0:
324,140,57125,1,0,1:0:0:0:
324,140,57200,2,0,L|341:239,1,88.000002685547,10|0,0:0|0:0,0:0:0:0:
364,352,57500,1,2,0:0:0:0:
436,272,57650,1,10,0:1:0:0:
272,300,57800,2,0,P|229:291|192:267,1,88.000002685547,10|0,0:0|0:0,0:0:0:0:
96,200,58100,5,10,0:1:0:0:
72,332,58250,1,8,0:1:0:0:
192,267,58400,1,10,0:0:0:0:
20,241,58550,2,0,P|11:198|20:156,1,88.000002685547,2|2,0:0|0:3,0:0:0:0:
72,24,58850,1,10,0:1:0:0:
180,144,59000,6,0,L|286:163,1,88.000002685547,8|2,0:0|0:0,0:0:0:0:
308,168,59225,1,2,0:0:0:0:
308,168,59300,1,10,0:1:0:0:
360,268,59450,1,10,0:1:0:0:
428,176,59600,2,0,P|480:168|524:192,1,88.000002685547,10|0,0:0|0:0,0:0:0:0:
472,280,59900,1,2,0:0:0:0:
360,268,60050,1,10,0:1:0:0:
443,89,60200,2,0,L|427:175,1,88.000002685547,10|0,0:0|0:0,0:0:0:0:
360,268,60500,5,10,0:1:0:0:
308,168,60650,1,8,0:1:0:0:
236,264,60800,1,10,0:0:0:0:
360,88,60950,2,0,P|265:81|200:167,1,176.000005371094,10|10,0:1|0:1,0:0:0:0:
132,260,61400,1,12,0:0:0:0:
64,92,61550,5,2,0:0:0:0:
64,92,61625,1,2,0:0:0:0:
64,92,61700,2,0,L|45:198,1,88.000002685547,14|8,0:1|0:1,0:0:0:0:
20,304,62000,1,8,0:0:0:0:
132,260,62150,1,2,0:0:0:0:
172,368,62300,2,0,P|220:376|256:356,1,88.000002685547,2|8,0:0|0:1,0:0:0:0:
348,212,62600,2,0,L|333:298,1,88.000002685547,8|2,0:0|0:0,0:0:0:0:
260,208,62900,5,10,0:1:0:0:
356,124,63050,1,8,0:1:0:0:
432,224,63200,1,8,0:0:0:0:
382,42,63350,1,2,0:0:0:0:
382,42,63500,2,0,P|358:86|358:134,1,88.000002685547,2|8,0:0|0:1,0:0:0:0:
432,224,63800,1,8,0:0:0:0:
468,104,63950,1,2,0:0:0:0:
328,216,64100,6,0,L|221:197,1,88.000002685547,10|8,0:1|0:1,0:0:0:0:
148,76,64400,2,0,L|254:94,1,88.000002685547,10|0,0:0|0:0,0:0:0:0:
128,188,64700,1,2,0:0:0:0:
241,200,64850,1,8,0:1:0:0:
269,14,65000,2,0,P|237:58|237:102,1,88.000002685547,10|8,0:0|0:1,0:0:0:0:
312,280,65300,5,14,0:0:0:0:
376,144,65450,1,8,0:1:0:0:
448,272,65600,1,14,0:0:0:0:
288,180,65750,1,10,0:1:0:0:
288,180,65825,1,8,0:1:0:0:
288,180,65900,1,10,0:3:0:0:
456,104,66050,5,10,0:1:0:0:
456,104,66125,1,8,0:1:0:0:
456,104,66200,2,0,L|445:61,3,44.0000013427735,12|0|0|0,0:0|1:0|1:0|1:0,0:0:0:0:
416,36,66500,6,0,P|377:15|333:14,1,88.000002685547,14|2,0:1|0:0,0:0:0:0:
272,104,66800,1,10,0:0:0:0:
220,0,66950,1,8,0:1:0:0:
160,88,67100,2,0,P|116:108|96:148,1,88.000002685547,10|10,0:0|0:1,0:0:0:0:
68,260,67400,1,10,0:0:0:0:
8,160,67550,1,10,0:1:0:0:
64,280,67700,6,0,L|48:366,1,88.000002685547,10|8,0:0|0:1,0:0:0:0:
164,344,68000,1,10,0:0:0:0:
180,228,68150,2,0,P|224:232|264:256,1,88.000002685547,10|8,0:1|0:0,0:0:0:0:
352,332,68450,2,0,L|368:237,1,88.000002685547,10|8,0:1|0:0,0:0:0:0:
348,128,68750,5,10,0:1:0:0:
348,128,68825,1,0,1:0:0:0:
348,128,68900,2,0,P|396:148|448:140,1,88.000002685547,14|10,0:0|0:1,0:0:0:0:
408,36,69200,1,10,0:0:0:0:
292,24,69350,1,8,0:1:0:0:
232,120,69500,2,0,P|240:164|224:204,1,88.000002685547,10|10,0:0|0:1,0:0:0:0:
128,268,69800,1,10,0:0:0:0:
40,192,69950,1,10,0:1:0:0:
128,116,70100,6,0,L|143:29,1,88.000002685547,10|8,0:0|0:1,0:0:0:0:
24,76,70400,1,10,0:0:0:0:
40,192,70550,2,0,P|36:240|56:272,1,88.000002685547,10|8,0:1|0:0,0:0:0:0:
136,356,70850,1,10,0:1:0:0:
232,296,71000,1,12,0:0:0:0:
168,200,71150,5,10,0:1:0:0:
168,200,71225,1,0,1:0:0:0:
168,200,71300,2,0,P|212:200|256:180,1,88.000002685547,14|8,0:0|0:1,0:0:0:0:
360,152,71600,1,8,0:0:0:0:
364,268,71750,1,10,0:1:0:0:
464,208,71900,2,0,L|479:121,1,88.000002685547,10|8,0:0|0:1,0:0:0:0:
412,28,72200,5,8,0:0:0:0:
304,68,72350,1,10,0:1:0:0:
304,68,72425,1,8,0:1:0:0:
304,68,72500,2,0,L|218:52,1,88.000002685547,14|8,0:0|0:1,0:0:0:0:
100,32,72800,5,8,0:0:0:0:
140,140,72950,1,10,0:1:0:0:
32,176,73100,2,0,P|12:216|12:260,1,88.000002685547,10|8,0:0|0:1,0:0:0:0:
80,352,73400,1,8,0:0:0:0:
160,272,73550,5,10,0:1:0:0:
160,272,73625,1,8,0:1:0:0:
160,272,73700,2,0,L|258:290,1,88.000002685547,14|8,0:0|0:1,0:0:0:0:
340,216,74000,1,10,0:0:0:0:
400,312,74150,1,8,0:1:0:0:
480,232,74300,2,0,P|500:192|492:144,1,88.000002685547,14|8,0:0|0:1,0:0:0:0:
428,56,74600,1,10,0:0:0:0:
324,104,74750,1,8,0:1:0:0:
340,216,74900,6,0,L|323:310,1,88.000002685547,10|8,0:0|0:1,0:0:0:0:
320,344,75125,1,8,0:1:0:0:
320,344,75200,1,8,0:0:0:0:
216,380,75350,1,8,0:1:0:0:
216,380,75425,1,8,0:1:0:0:
216,380,75500,2,0,L|161:370,3,44.0000013427735,10|8|8|8,0:0|0:0|0:3|0:3,0:0:0:0:
152,340,75800,2,0,L|97:330,3,44.0000013427735,8|8|8|8,0:3|0:3|0:3|0:3,0:0:0:0:
92,296,76100,6,0,P|99:218|53:154,1,160,14|10,0:1|0:1,0:0:0:0:
0,56,76550,1,10,0:1:0:0:
116,40,76700,2,0,L|273:67,1,160,10|2,0:0|0:3,0:0:0:0:
384,84,77150,1,0,3:2:0:0:
384,84,77225,1,0,3:2:0:0:
384,84,77300,1,10,0:1:0:0:
468,20,77450,1,8,0:0:0:0:
508,116,77600,1,8,0:1:0:0:
424,180,77750,1,10,0:1:0:0:
384,84,77900,6,0,P|348:136|248:136,1,160,8|2,0:0|0:0,0:0:0:0:
180,96,78350,1,8,0:0:0:0:
152,272,78500,2,0,L|168:177,1,80,10|2,0:1|0:0,0:0:0:0:
96,140,78800,1,10,0:1:0:0:
96,140,78950,1,8,0:1:0:0:
180,96,79100,2,0,P|220:76|268:80,1,80,10|10,0:0|0:1,0:0:0:0:
352,96,79400,1,2,0:0:0:0:
332,196,79550,5,2,3:2:0:0:
332,196,79625,1,0,3:2:0:0:
332,196,79700,2,0,L|420:211,1,80,10|8,0:1|0:0,0:0:0:0:
508,224,80000,1,10,0:1:0:0:
444,296,80150,2,0,P|428:340|432:392,1,80,10|8,0:1|0:0,0:0:0:0:
512,352,80450,1,10,0:1:0:0:
410,209,80600,2,0,P|346:181|278:193,1,120,12|0,0:0|0:0,0:0:0:0:
256,196,80900,6,0,L|228:353,1,160,14|10,0:1|0:1,0:0:0:0:
132,344,81350,1,10,0:1:0:0:
36,332,81500,2,0,P|18:256|62:192,1,160,10|2,0:0|0:3,0:0:0:0:
152,144,81950,1,0,3:2:0:0:
152,144,82025,1,0,3:2:0:0:
152,144,82100,1,10,0:1:0:0:
128,48,82250,1,8,0:0:0:0:
224,28,82400,1,8,0:1:0:0:
248,124,82550,1,10,0:1:0:0:
220,220,82700,6,0,L|377:247,1,160,8|2,0:0|0:0,0:0:0:0:
480,260,83150,1,8,0:0:0:0:
448,168,83300,1,10,0:1:0:0:
408,80,83450,2,0,P|408:40|384:8,1,80,14|10,0:0|0:0,0:0:0:0:
288,8,83750,1,8,0:1:0:0:
248,124,83900,1,14,0:0:0:0:
120,28,84050,5,10,0:1:0:0:
120,28,84125,1,0,1:0:0:0:
120,28,84200,2,0,L|218:45,1,80,10|10,0:3|0:1,0:0:0:0:
248,124,84500,1,10,0:0:0:0:
288,244,84650,1,8,0:0:0:0:
372,144,84800,1,10,0:0:0:0:
280,272,84950,5,10,0:1:0:0:
328,24,85250,1,10,0:1:0:0:
420,308,85550,5,8,0:0:0:0:
280,272,85700,1,14,0:1:0:0:
256,192,85775,12,0,89300,0:0:0:0:
